  0
SECTION
  2
HEADER
  9
$ACADVER
  1
AC1015
  9
$ACADMAINTVER
 70
    20
  9
$DWGCODEPAGE
  3
ANSI_932
  9
$INSBASE
 10
0.0
 20
0.0
 30
0.0
  9
$EXTMIN
 10
0.0
 20
-479.4999999999999
 30
0.0
  9
$EXTMAX
 10
1061.0
 20
0.0
 30
0.0
  9
$LIMMIN
 10
0.0
 20
0.0
  9
$LIMMAX
 10
0.0
 20
0.0
  9
$ORTHOMODE
 70
     0
  9
$REGENMODE
 70
     1
  9
$FILLMODE
 70
     1
  9
$QTEXTMODE
 70
     0
  9
$MIRRTEXT
 70
     1
  9
$LTSCALE
 40
1.0
  9
$ATTMODE
 70
     1
  9
$TEXTSIZE
 40
2.5
  9
$TRACEWID
 40
1.0
  9
$TEXTSTYLE
  7
CONVERT
  9
$CLAYER
  8
0
  9
$CELTYPE
  6
BYLAYER
  9
$CECOLOR
 62
   256
  9
$CELTSCALE
 40
1.0
  9
$DISPSILH
 70
     0
  9
$DIMSCALE
 40
1.0
  9
$DIMASZ
 40
3.0
  9
$DIMEXO
 40
1.0
  9
$DIMDLI
 40
7.0
  9
$DIMRND
 40
0.0
  9
$DIMDLE
 40
0.0
  9
$DIMEXE
 40
2.0
  9
$DIMTP
 40
0.0
  9
$DIMTM
 40
0.0
  9
$DIMTXT
 40
2.799999999999999
  9
$DIMCEN
 40
0.0
  9
$DIMTSZ
 40
0.0
  9
$DIMTOL
 70
     0
  9
$DIMLIM
 70
     0
  9
$DIMTIH
 70
     0
  9
$DIMTOH
 70
     0
  9
$DIMSE1
 70
     0
  9
$DIMSE2
 70
     0
  9
$DIMTAD
 70
     1
  9
$DIMZIN
 70
     0
  9
$DIMBLK
  1

  9
$DIMASO
 70
     1
  9
$DIMSHO
 70
     1
  9
$DIMPOST
  1

  9
$DIMAPOST
  1

  9
$DIMALT
 70
     0
  9
$DIMALTD
 70
     4
  9
$DIMALTF
 40
0.0394
  9
$DIMLFAC
 40
1.0
  9
$DIMTOFL
 70
     1
  9
$DIMTVP
 40
0.0
  9
$DIMTIX
 70
     0
  9
$DIMSOXD
 70
     0
  9
$DIMSAH
 70
     1
  9
$DIMBLK1
  1
Open30
  9
$DIMBLK2
  1
Open30
  9
$DIMSTYLE
  2
STANDARD
  9
$DIMCLRD
 70
    44
  9
$DIMCLRE
 70
    44
  9
$DIMCLRT
 70
    44
  9
$DIMTFAC
 40
1.0
  9
$DIMGAP
 40
0.7
  9
$DIMJUST
 70
     0
  9
$DIMSD1
 70
     0
  9
$DIMSD2
 70
     0
  9
$DIMTOLJ
 70
     1
  9
$DIMTZIN
 70
     0
  9
$DIMALTZ
 70
     0
  9
$DIMALTTZ
 70
     0
  9
$DIMUPT
 70
     0
  9
$DIMDEC
 70
     3
  9
$DIMTDEC
 70
     3
  9
$DIMALTU
 70
     8
  9
$DIMALTTD
 70
     4
  9
$DIMTXSTY
  7
STANDARD
  9
$DIMAUNIT
 70
     0
  9
$DIMADEC
 70
     0
  9
$DIMALTRND
 40
0.0
  9
$DIMAZIN
 70
     0
  9
$DIMDSEP
 70
    46
  9
$DIMATFIT
 70
     0
  9
$DIMFRAC
 70
     0
  9
$DIMLDRBLK
  1
Open30
  9
$DIMLUNIT
 70
     2
  9
$DIMLWD
 70
    -2
  9
$DIMLWE
 70
    -2
  9
$DIMTMOVE
 70
     0
  9
$LUNITS
 70
     2
  9
$LUPREC
 70
     4
  9
$SKETCHINC
 40
1.0
  9
$FILLETRAD
 40
10.0
  9
$AUNITS
 70
     0
  9
$AUPREC
 70
     0
  9
$MENU
  1
.
  9
$ELEVATION
 40
0.0
  9
$PELEVATION
 40
0.0
  9
$THICKNESS
 40
0.0
  9
$LIMCHECK
 70
     0
  9
$CHAMFERA
 40
10.0
  9
$CHAMFERB
 40
10.0
  9
$CHAMFERC
 40
20.0
  9
$CHAMFERD
 40
0.0
  9
$SKPOLY
 70
     0
  9
$TDCREATE
 40
2451067.751276933
  9
$TDUCREATE
 40
2451067.376276933
  9
$TDUPDATE
 40
2454174.425752014
  9
$TDUUPDATE
 40
2454174.050752014
  9
$TDINDWG
 40
0.0184991551
  9
$TDUSRTIMER
 40
0.0184991551
  9
$USRTIMER
 70
     1
  9
$ANGBASE
 50
0.0
  9
$ANGDIR
 70
     0
  9
$PDMODE
 70
     1
  9
$PDSIZE
 40
0.0
  9
$PLINEWID
 40
0.0
  9
$SPLFRAME
 70
     0
  9
$SPLINETYPE
 70
     6
  9
$SPLINESEGS
 70
     8
  9
$HANDSEED
  5
82B
  9
$SURFTAB1
 70
     6
  9
$SURFTAB2
 70
     6
  9
$SURFTYPE
 70
     6
  9
$SURFU
 70
     6
  9
$SURFV
 70
     6
  9
$UCSBASE
  2

  9
$UCSNAME
  2

  9
$UCSORG
 10
0.0
 20
0.0
 30
0.0
  9
$UCSXDIR
 10
1.0
 20
0.0
 30
0.0
  9
$UCSYDIR
 10
0.0
 20
1.0
 30
0.0
  9
$UCSORTHOREF
  2

  9
$UCSORTHOVIEW
 70
     0
  9
$UCSORGTOP
 10
0.0
 20
0.0
 30
0.0
  9
$UCSORGBOTTOM
 10
0.0
 20
0.0
 30
0.0
  9
$UCSORGLEFT
 10
0.0
 20
0.0
 30
0.0
  9
$UCSORGRIGHT
 10
0.0
 20
0.0
 30
0.0
  9
$UCSORGFRONT
 10
0.0
 20
0.0
 30
0.0
  9
$UCSORGBACK
 10
0.0
 20
0.0
 30
0.0
  9
$PUCSBASE
  2

  9
$PUCSNAME
  2

  9
$PUCSORG
 10
0.0
 20
0.0
 30
0.0
  9
$PUCSXDIR
 10
1.0
 20
0.0
 30
0.0
  9
$PUCSYDIR
 10
0.0
 20
1.0
 30
0.0
  9
$PUCSORTHOREF
  2

  9
$PUCSORTHOVIEW
 70
     0
  9
$PUCSORGTOP
 10
0.0
 20
0.0
 30
0.0
  9
$PUCSORGBOTTOM
 10
0.0
 20
0.0
 30
0.0
  9
$PUCSORGLEFT
 10
0.0
 20
0.0
 30
0.0
  9
$PUCSORGRIGHT
 10
0.0
 20
0.0
 30
0.0
  9
$PUCSORGFRONT
 10
0.0
 20
0.0
 30
0.0
  9
$PUCSORGBACK
 10
0.0
 20
0.0
 30
0.0
  9
$USERI1
 70
     0
  9
$USERI2
 70
     0
  9
$USERI3
 70
     0
  9
$USERI4
 70
     0
  9
$USERI5
 70
     0
  9
$USERR1
 40
0.0
  9
$USERR2
 40
0.0
  9
$USERR3
 40
0.0
  9
$USERR4
 40
0.0
  9
$USERR5
 40
0.0
  9
$WORLDVIEW
 70
     1
  9
$SHADEDGE
 70
     3
  9
$SHADEDIF
 70
    70
  9
$TILEMODE
 70
     1
  9
$MAXACTVP
 70
    48
  9
$PINSBASE
 10
0.0
 20
0.0
 30
0.0
  9
$PLIMCHECK
 70
     0
  9
$PEXTMIN
 10
1.000000000000000E+20
 20
1.000000000000000E+20
 30
1.000000000000000E+20
  9
$PEXTMAX
 10
-1.000000000000000E+20
 20
-1.000000000000000E+20
 30
-1.000000000000000E+20
  9
$PLIMMIN
 10
0.0
 20
0.0
  9
$PLIMMAX
 10
420.0
 20
297.0
  9
$UNITMODE
 70
     0
  9
$VISRETAIN
 70
     1
  9
$PLINEGEN
 70
     0
  9
$PSLTSCALE
 70
     1
  9
$TREEDEPTH
 70
  3020
  9
$CMLSTYLE
  2
STANDARD
  9
$CMLJUST
 70
     0
  9
$CMLSCALE
 40
20.0
  9
$PROXYGRAPHICS
 70
     1
  9
$MEASUREMENT
 70
     1
  9
$CELWEIGHT
370
    -1
  9
$ENDCAPS
280
     0
  9
$JOINSTYLE
280
     0
  9
$LWDISPLAY
290
     0
  9
$INSUNITS
 70
     0
  9
$HYPERLINKBASE
  1

  9
$STYLESHEET
  1
kuroda-monochrome.ctb
  9
$XEDIT
290
     1
  9
$CEPSNTYPE
380
     0
  9
$PSTYLEMODE
290
     1
  9
$FINGERPRINTGUID
  2
{881B1582-4BC7-11D3-AB9D-00805F8B7187}
  9
$VERSIONGUID
  2
{B2F55BDA-8084-44C4-9381-77DDDC3AA0F3}
  9
$EXTNAMES
290
     1
  9
$PSVPSCALE
 40
0.0
  9
$OLESTARTUP
290
     0
  0
ENDSEC
  0
SECTION
  2
CLASSES
  0
CLASS
  1
ACDBDICTIONARYWDFLT
  2
AcDbDictionaryWithDefault
  3
ObjectDBX Classes
 90
        0
280
     0
281
     0
  0
CLASS
  1
ACDBPLACEHOLDER
  2
AcDbPlaceHolder
  3
ObjectDBX Classes
 90
        0
280
     0
281
     0
  0
CLASS
  1
LAYOUT
  2
AcDbLayout
  3
ObjectDBX Classes
 90
        0
280
     0
281
     0
  0
CLASS
  1
ACME_DOCUMENT
  2
AcMeDbDoc
  3
AcMeServices
 90
        0
280
     0
281
     0
  0
CLASS
  1
AMGSETTINGSOBJ
  2
AmgSettingsObj
  3
"AcadM|Product Description: AutoCAD Mechanical 2000|Company: Autodesk"
 90
        0
280
     0
281
     0
  0
CLASS
  1
AMGOBJPROPCFG
  2
AmgObjPropCfg
  3
"AmgLay|Product Description: AutoCAD Mechanical 2000|Company: Autodesk"
 90
        1
280
     0
281
     0
  0
CLASS
  1
ACMESCOPE
  2
AcMeScope
  3
AcMeServices
 90
        0
280
     0
281
     0
  0
CLASS
  1
ACMECOMMANDHISTORY
  2
AcMeCommandHistory
  3
AcMeServices
 90
        0
280
     0
281
     0
  0
CLASS
  1
ACIMSYSVARMAN
  2
AcImSysVarManager
  3
AcMeServices
 90
        0
280
     0
281
     0
  0
CLASS
  1
ACIMINTSYSVAR
  2
AcImIntSysVar
  3
AcMeServices
 90
        0
280
     0
281
     0
  0
CLASS
  1
ACMEDRAWINGMAN
  2
AcMeDrawingMan
  3
AcMeServices
 90
        0
280
     0
281
     0
  0
CLASS
  1
ACMEVIEW
  2
AcMeView
  3
AcMeServices
 90
        0
280
     0
281
     0
  0
CLASS
  1
ACDBENTITYCACHE
  2
AcMeEntityCache
  3
AcMeServices
 90
        0
280
     0
281
     0
  0
CLASS
  1
GSMANAGER
  2
AcMeGSManager
  3
AcMeServices
 90
        0
280
     0
281
     0
  0
CLASS
  1
AMDTINTERNALREACTOR
  2
AmdtInternalReactor
  3
AcMeServices
 90
        0
280
     0
281
     0
  0
CLASS
  1
ACMESTATEMGR
  2
AcMeStateMgr
  3
AcMeServices
 90
        0
280
     0
281
     0
  0
CLASS
  1
ACGREFMASTER
  2
AcGrefMaster
  3
AcAttribServices
 90
        0
280
     0
281
     0
  0
CLASS
  1
AM_DRAWING_MGR
  2
AcDmDwgMgr
  3
AcMechDwgViewMgmt
 90
        0
280
     0
281
     0
  0
CLASS
  1
AM_DWG_DOCUMENT
  2
AcDmDwgDocument
  3
AcMechDwgViewMgmt
 90
        0
280
     0
281
     0
  0
CLASS
  1
AM_DWG_SHEET
  2
AcDmSheet
  3
AcMechDwgViewMgmt
 90
        0
280
     0
281
     0
  0
CLASS
  1
AM_VIEWDIMPARMAP
  2
AcDmViewDimParMap
  3
AcMechDwgViewMgmt
 90
        0
280
     0
281
     0
  0
CLASS
  1
ACIMREALSYSVAR
  2
AcImRealSysVar
  3
AcMeServices
 90
        0
280
     0
281
     0
  0
CLASS
  1
AM_DWGMGR_NAME
  2
AcDmDwgMgrName
  3
AcMechDwgViewMgmt
 90
        0
280
     0
281
     0
  0
CLASS
  1
ACME_DATABASE
  2
AcMeDbDatabase
  3
AcMeServices
 90
        0
280
     0
281
     0
  0
CLASS
  1
ACRFINSADJUSTERMGR
  2
AcRfInsAdjusterMgr
  3
AcMeServices
 90
        0
280
     0
281
     0
  0
CLASS
  1
ACGREFACADMASTER
  2
AcGrefacadMaster
  3
AcGrefServices
 90
        0
280
     0
281
     0
  0
CLASS
  1
AMDTMENUSTATEMGR
  2
AmdtMenuStateMgr
  3
McadcomServices
 90
        0
280
     0
281
     0
  0
CLASS
  1
AMDTMCOMMENUSTATE
  2
AmdtMcomMenuState
  3
McadcomServices
 90
        0
280
     0
281
     0
  0
CLASS
  1
AMIMASTER
  2
AmiMaster
  3
AmiServices
 90
        0
280
     0
281
     0
  0
CLASS
  1
MAPIAMMOUDLE
  2
MApiAmModule
  3
MApiAmServices
 90
        0
280
     0
281
     0
  0
CLASS
  1
AMDTADMENUSTATE
  2
AmdtAdMenuState
  3
DesignerServices
 90
        0
280
     0
281
     0
  0
CLASS
  1
ADAPPL
  2
AcAdAppl
  3
DesignerServices
 90
        0
280
     0
281
     0
  0
CLASS
  1
DEPMGR
  2
AcAdDepMgr
  3
DesignerServices
 90
        0
280
     0
281
     0
  0
CLASS
  1
PARAMMGR
  2
AcAdParamMgr
  3
DesignerServices
 90
        0
280
     0
281
     0
  0
CLASS
  1
PARAMSCOPE
  2
AcAdParamScope
  3
DesignerServices
 90
        0
280
     0
281
     0
  0
CLASS
  1
NAMEDAPPL
  2
AcAdNamedAppl
  3
DesignerServices
 90
        0
280
     0
281
     0
  0
CLASS
  1
AMDTDMMENUSTATE
  2
AmdtDmMenuState
  3
AcMechDwgViewMgmt
 90
        0
280
     0
281
     0
  0
CLASS
  1
AMDTAMMENUSTATE
  2
AmdtAmMenuState
  3
DesignerAssemblies
 90
        0
280
     0
281
     0
  0
CLASS
  1
ACIMSTRSYSVAR
  2
AcImStrSysVar
  3
AcMeServices
 90
        0
280
     0
281
     0
  0
CLASS
  1
ACAMPROJECT
  2
AcAmProject
  3
DesignerAssemblies
 90
        0
280
     0
281
     0
  0
CLASS
  1
ACAMGRCOMPDEF
  2
AcAmGrCompDef
  3
DesignerAssemblies
 90
        0
280
     0
281
     0
  0
CLASS
  1
ACCMCONTEXT
  2
AcCmContext
  3
DesignerAssemblies
 90
        0
280
     0
281
     0
  0
CLASS
  1
ACAMCOMPDEF
  2
AcAmCompDef
  3
DesignerAssemblies
 90
        0
280
     0
281
     0
  0
CLASS
  1
ACAMCOMPDEFMGR
  2
AcAmCompDefMgr
  3
DesignerAssemblies
 90
        0
280
     0
281
     0
  0
CLASS
  1
AMCONTEXTMGR
  2
AcAmContextMgr
  3
DesignerAssemblies
 90
        0
280
     0
281
     0
  0
CLASS
  1
ACAMCONTEXTMODELER
  2
AcAmContextModeler
  3
DesignerAssemblies
 90
        0
280
     0
281
     0
  0
CLASS
  1
ACMDATADICTIONARY
  2
AcmDataDictionary
  3
"AcmSymBB|Product Description: AutoCAD Mechanical 2004 DX|Company: Autodesk"
 90
        0
280
     0
281
     0
  0
CLASS
  1
CATALOGSTATE
  2
AcAmCatalogState
  3
DesignerAssemblies
 90
        0
280
     0
281
     0
  0
CLASS
  1
ACAMGRCOMPDEFSET
  2
AcAmGrCompDefSet
  3
DesignerAssemblies
 90
        0
280
     0
281
     0
  0
CLASS
  1
AMDTBROWSERDBTAB
  2
AmdtBrowserDbTab
  3
McadcomServices
 90
        0
280
     0
281
     0
  0
CLASS
  1
CBROWSERAPPOBJECT
  2
CBrowserAppObject
  3
McadcomServices
 90
        0
280
     0
281
     0
  0
CLASS
  1
DM_PLACEHOLDER
  2
AcDmSelsetPlaceholder
  3
AcMechDwgViewMgmt
 90
        0
280
     0
281
     0
  0
CLASS
  1
ACMSTANDARDANSI
  2
AcmStandardANSI
  3
"Amdt_StdImp|Product Description: AutoCAD Mechanical 2004 DX|Company: Autodesk"
 90
        0
280
     0
281
     0
  0
CLASS
  1
ACMSURFSTANDARDANSI
  2
AcmSurfTextStdANSI
  3
"Amdt_StdImp|Product Description: AutoCAD Mechanical 2004 DX|Company: Autodesk"
 90
        0
280
     0
281
     0
  0
CLASS
  1
ACMFCFSTANDARDANSI
  2
AcmFCFStdANSI
  3
"Amdt_StdImp|Product Description: AutoCAD Mechanical 2004 DX|Company: Autodesk"
 90
        0
280
     0
281
     0
  0
CLASS
  1
ACMWELDSTANDARDANSI
  2
AcmWeldingStdANSI
  3
"Amdt_StdImp|Product Description: AutoCAD Mechanical 2004 DX|Company: Autodesk"
 90
        0
280
     0
281
     0
  0
CLASS
  1
ACMIDSTANDARDANSI
  2
AcmIdStdANSI
  3
"Amdt_StdImp|Product Description: AutoCAD Mechanical 2004 DX|Company: Autodesk"
 90
        0
280
     0
281
     0
  0
CLASS
  1
ACMDATUMSTANDARDANSI
  2
AcmDatumStdANSI
  3
"Amdt_StdImp|Product Description: AutoCAD Mechanical 2004 DX|Company: Autodesk"
 90
        0
280
     0
281
     0
  0
CLASS
  1
ACMBOMSTANDARDANSI
  2
AcmBOMStdANSI
  3
"Amdt_StdImp|Product Description: AutoCAD Mechanical 2004 DX|Company: Autodesk"
 90
        0
280
     0
281
     0
  0
CLASS
  1
ACMDETAILSTANDARDANSI
  2
AmdtDetailSymStdANSI
  3
"Amdt_StdImp|Product Description: AutoCAD Mechanical 2004 DX|Company: Autodesk"
 90
        0
280
     0
281
     0
  0
CLASS
  1
ACMSECTIONSTANDARDANSI
  2
AmdtSectionSymStdANSI
  3
"Amdt_StdImp|Product Description: AutoCAD Mechanical 2004 DX|Company: Autodesk"
 90
        0
280
     0
281
     0
  0
CLASS
  1
ACMCENTERLINESTANDARDANSI
  2
AmdtCenterLineStdANSI
  3
"Amdt_StdImp|Product Description: AutoCAD Mechanical 2004 DX|Company: Autodesk"
 90
        0
280
     0
281
     0
  0
CLASS
  1
ACAMGLAYSTD
  2
AcAmgLayStd
  3
"AcAmgLayStd|Product Description: AutoCAD Mechanical 2000|Company: Autodesk"
 90
        0
280
     0
281
     0
  0
CLASS
  1
ACAMGDIMSTD
  2
AcAmgDimStd
  3
"AcAmgDimStd|Product Description: AutoCAD Mechanical 2000|Company: Autodesk"
 90
        0
280
     0
281
     0
  0
CLASS
  1
ACAMGTITLESTD
  2
AcAmgTitleStd
  3
"TITLEAPP"
 90
        0
280
     0
281
     0
  0
CLASS
  1
ACMNOTESTANDARDANSI
  2
AmdtNoteStdANSI
  3
"Amdt_StdImp|Product Description: AutoCAD Mechanical 2004 DX|Company: Autodesk"
 90
        0
280
     0
281
     0
  0
CLASS
  1
ACMTHREADLINESTANDARDANSI
  2
AmdtThreadLineStdANSI
  3
"Amdt_StdImp|Product Description: AutoCAD Mechanical 2004 DX|Company: Autodesk"
 90
        0
280
     0
281
     0
  0
CLASS
  1
ACMSTANDARDISO
  2
AcmStandardISO
  3
"Amdt_StdImp|Product Description: AutoCAD Mechanical 2004 DX|Company: Autodesk"
 90
        0
280
     0
281
     0
  0
CLASS
  1
AMDTEDGESTANDARDISO
  2
AmdtEdgeStdISO
  3
"Amdt_StdImp|Product Description: AutoCAD Mechanical 2004 DX|Company: Autodesk"
 90
        0
280
     0
281
     0
  0
CLASS
  1
ACMSURFSTANDARDISO
  2
AcmSurfTextStdISO
  3
"Amdt_StdImp|Product Description: AutoCAD Mechanical 2004 DX|Company: Autodesk"
 90
        0
280
     0
281
     0
  0
CLASS
  1
ACMFCFSTANDARDISO
  2
AcmFCFStdISO
  3
"Amdt_StdImp|Product Description: AutoCAD Mechanical 2004 DX|Company: Autodesk"
 90
        0
280
     0
281
     0
  0
CLASS
  1
ACMWELDSTANDARDISO
  2
AcmWeldingStdISO
  3
"Amdt_StdImp|Product Description: AutoCAD Mechanical 2004 DX|Company: Autodesk"
 90
        0
280
     0
281
     0
  0
CLASS
  1
ACMIDSTANDARDISO
  2
AcmIdStdISO
  3
"Amdt_StdImp|Product Description: AutoCAD Mechanical 2004 DX|Company: Autodesk"
 90
        0
280
     0
281
     0
  0
CLASS
  1
ACMDATUMSTANDARDISO
  2
AcmDatumStdISO
  3
"Amdt_StdImp|Product Description: AutoCAD Mechanical 2004 DX|Company: Autodesk"
 90
        0
280
     0
281
     0
  0
CLASS
  1
ACMBOMSTANDARDISO
  2
AcmBOMStdISO
  3
"Amdt_StdImp|Product Description: AutoCAD Mechanical 2004 DX|Company: Autodesk"
 90
        0
280
     0
281
     0
  0
CLASS
  1
ACMDETAILSTANDARDISO
  2
AmdtDetailSymStdISO
  3
"Amdt_StdImp|Product Description: AutoCAD Mechanical 2004 DX|Company: Autodesk"
 90
        0
280
     0
281
     0
  0
CLASS
  1
ACMSECTIONSTANDARDISO
  2
AmdtSectionSymStdISO
  3
"Amdt_StdImp|Product Description: AutoCAD Mechanical 2004 DX|Company: Autodesk"
 90
        0
280
     0
281
     0
  0
CLASS
  1
ACMCENTERLINESTANDARDISO
  2
AmdtCenterLineStdISO
  3
"Amdt_StdImp|Product Description: AutoCAD Mechanical 2004 DX|Company: Autodesk"
 90
        0
280
     0
281
     0
  0
CLASS
  1
ACMNOTESTANDARDISO
  2
AmdtNoteStdISO
  3
"Amdt_StdImp|Product Description: AutoCAD Mechanical 2004 DX|Company: Autodesk"
 90
        0
280
     0
281
     0
  0
CLASS
  1
ACMTHREADLINESTANDARDISO
  2
AmdtThreadLineStdISO
  3
"Amdt_StdImp|Product Description: AutoCAD Mechanical 2004 DX|Company: Autodesk"
 90
        0
280
     0
281
     0
  0
CLASS
  1
ACMSTANDARDJIS
  2
AcmStandardJIS
  3
"Amdt_StdImp|Product Description: AutoCAD Mechanical 2004 DX|Company: Autodesk"
 90
        0
280
     0
281
     0
  0
CLASS
  1
ACMSURFSTANDARDJIS
  2
AcmSurfTextStdJIS
  3
"Amdt_StdImp|Product Description: AutoCAD Mechanical 2004 DX|Company: Autodesk"
 90
        0
280
     0
281
     0
  0
CLASS
  1
ACMFCFSTANDARDJIS
  2
AcmFCFStdJIS
  3
"Amdt_StdImp|Product Description: AutoCAD Mechanical 2004 DX|Company: Autodesk"
 90
        0
280
     0
281
     0
  0
CLASS
  1
ACMWELDSTANDARDJIS
  2
AcmWeldingStdJIS
  3
"Amdt_StdImp|Product Description: AutoCAD Mechanical 2004 DX|Company: Autodesk"
 90
        0
280
     0
281
     0
  0
CLASS
  1
ACMIDSTANDARDJIS
  2
AcmIdStdJIS
  3
"Amdt_StdImp|Product Description: AutoCAD Mechanical 2004 DX|Company: Autodesk"
 90
        0
280
     0
281
     0
  0
CLASS
  1
ACMDATUMSTANDARDJIS
  2
AcmDatumStdJIS
  3
"Amdt_StdImp|Product Description: AutoCAD Mechanical 2004 DX|Company: Autodesk"
 90
        0
280
     0
281
     0
  0
CLASS
  1
ACMBOMSTANDARDJIS
  2
AcmBOMStdJIS
  3
"Amdt_StdImp|Product Description: AutoCAD Mechanical 2004 DX|Company: Autodesk"
 90
        0
280
     0
281
     0
  0
CLASS
  1
ACMDETAILSTANDARDJIS
  2
AmdtDetailSymStdJIS
  3
"Amdt_StdImp|Product Description: AutoCAD Mechanical 2004 DX|Company: Autodesk"
 90
        0
280
     0
281
     0
  0
CLASS
  1
ACMSECTIONSTANDARDJIS
  2
AmdtSectionSymStdJIS
  3
"Amdt_StdImp|Product Description: AutoCAD Mechanical 2004 DX|Company: Autodesk"
 90
        0
280
     0
281
     0
  0
CLASS
  1
ACMCENTERLINESTANDARDJIS
  2
AmdtCenterLineStdJIS
  3
"Amdt_StdImp|Product Description: AutoCAD Mechanical 2004 DX|Company: Autodesk"
 90
        0
280
     0
281
     0
  0
CLASS
  1
ACMTHREADLINESTANDARDJIS
  2
AmdtThreadLineStdJIS
  3
"Amdt_StdImp|Product Description: AutoCAD Mechanical 2004 DX|Company: Autodesk"
 90
        0
280
     0
281
     0
  0
CLASS
  1
ACMNOTESTANDARDJIS
  2
AmdtNoteStdJIS
  3
"Amdt_StdImp|Product Description: AutoCAD Mechanical 2004 DX|Company: Autodesk"
 90
        0
280
     0
281
     0
  0
CLASS
  1
ACAMGFILTERDAT
  2
AcAmgFilterDat
  3
"AcadM|Product Description: AutoCAD Mechanical 2000|Company: Autodesk"
 90
    32768
280
     0
281
     0
  0
CLASS
  1
LAYER_INDEX
  2
AcDbLayerIndex
  3
ObjectDBX Classes
 90
    32768
280
     0
281
     0
  0
CLASS
  1
IDBUFFER
  2
AcDbIdBuffer
  3
ObjectDBX Classes
 90
    32768
280
     0
281
     0
  0
CLASS
  1
TABLESTYLE
  2
AcDbTableStyle
  3
ObjectDBX Classes
 90
     2047
280
     0
281
     0
  0
CLASS
  1
DICTIONARYVAR
  2
AcDbDictionaryVar
  3
ObjectDBX Classes
 90
        0
280
     0
281
     0
  0
CLASS
  1
ACRFATTGENMGR
  2
AcRfAttGeneralMgr
  3
AcAttribServices
 90
    32768
280
     0
281
     0
  0
CLASS
  1
AMDTEDGESTANDARDISO13715
  2
AmdtEdgeStdISO13715
  3
"Amdt_StdImp|Product Description: AutoCAD Mechanical 2004 DX|Company: Autodesk"
 90
    32768
280
     0
281
     0
  0
CLASS
  1
AMDTNOTETEMPLATEDB
  2
AmdtNoteTemplateDB
  3
AMDT_STDIMP_MODULE_NAME
 90
    32768
280
     0
281
     0
  0
CLASS
  1
ACAMGHOLECHARTSTDISO
  2
AcAmgHoleChartStdISO
  3
ACMSYMBB_MODULE_NAME
 90
    32768
280
     0
281
     0
  0
ENDSEC
  0
SECTION
  2
TABLES
  0
TABLE
  2
VPORT
  5
8
330
0
100
AcDbSymbolTable
 70
     3
  0
VPORT
  5
825
330
8
100
AcDbSymbolTableRecord
100
AcDbViewportTableRecord
  2
*Active
 70
     0
 10
0.0
 20
0.0
 11
1.0
 21
1.0
 12
561.5805567466485
 22
-239.7499988835771
 13
0.0
 23
0.0
 14
10.0
 24
10.0
 15
10.0
 25
10.0
 16
0.0
 26
0.0
 36
1.0
 17
0.0
 27
0.0
 37
0.0
 40
878.3014252279917
 41
1.285904255319148
 42
50.0
 43
0.0
 44
0.0
 50
0.0
 51
0.0
 71
     0
 72
   100
 73
     1
 74
     1
 75
     0
 76
     0
 77
     0
 78
     0
281
     0
 65
     1
110
0.0
120
0.0
130
0.0
111
1.0
121
0.0
131
0.0
112
0.0
122
1.0
132
0.0
 79
     0
146
0.0
  0
ENDTAB
  0
TABLE
  2
LTYPE
  5
5
330
0
100
AcDbSymbolTable
 70
    22
  0
LTYPE
  5
12
330
5
100
AcDbSymbolTableRecord
100
AcDbLinetypeTableRecord
  2
BYBLOCK
 70
     0
  3

 72
    65
 73
     0
 40
0.0
  0
LTYPE
  5
13
330
5
100
AcDbSymbolTableRecord
100
AcDbLinetypeTableRecord
  2
BYLAYER
 70
     0
  3

 72
    65
 73
     0
 40
0.0
  0
LTYPE
  5
14
330
5
100
AcDbSymbolTableRecord
100
AcDbLinetypeTableRecord
  2
CONTINUOUS
 70
     0
  3
Solid line
 72
    65
 73
     0
 40
0.0
  0
LTYPE
  5
22
330
5
100
AcDbSymbolTableRecord
100
AcDbLinetypeTableRecord
  2
CENTER
 70
     0
  3
__ . __
 72
    65
 73
     4
 40
7.0
 49
4.0
 74
     0
 49
-1.0
 74
     0
 49
1.0
 74
     0
 49
-1.0
 74
     0
  0
LTYPE
  5
23
330
5
100
AcDbSymbolTableRecord
100
AcDbLinetypeTableRecord
  2
CENTER2
 70
     0
  3
Center (.5x) ___ _ ___ _ ___ _ ___ _ ___ _ ___
 72
    65
 73
     4
 40
28.575
 49
19.05
 74
     0
 49
-3.174999999999999
 74
     0
 49
3.174999999999999
 74
     0
 49
-3.174999999999999
 74
     0
  0
LTYPE
  5
24
330
5
100
AcDbSymbolTableRecord
100
AcDbLinetypeTableRecord
  2
PHANTOM
 70
     0
  3
Phantom ______  __  __  ______  __  __  ______
 72
    65
 73
     6
 40
63.5
 49
31.75
 74
     0
 49
-6.349999999999999
 74
     0
 49
6.349999999999999
 74
     0
 49
-6.349999999999999
 74
     0
 49
6.349999999999999
 74
     0
 49
-6.349999999999999
 74
     0
  0
LTYPE
  5
25
330
5
100
AcDbSymbolTableRecord
100
AcDbLinetypeTableRecord
  2
PHANTOM2
 70
     0
  3
Phantom (.5x) ___ _ _ ___ _ _ ___ _ _ ___ _ _
 72
    65
 73
     6
 40
31.75
 49
15.875
 74
     0
 49
-3.174999999999999
 74
     0
 49
3.174999999999999
 74
     0
 49
-3.174999999999999
 74
     0
 49
3.174999999999999
 74
     0
 49
-3.174999999999999
 74
     0
  0
LTYPE
  5
26
330
5
100
AcDbSymbolTableRecord
100
AcDbLinetypeTableRecord
  2
DASHED
 70
     0
  3
Dashed __ __ __ __ __ __ __ __ __ __ __ __ __ _
 72
    65
 73
     2
 40
19.05
 49
12.7
 74
     0
 49
-6.349999999999999
 74
     0
  0
LTYPE
  5
27
330
5
100
AcDbSymbolTableRecord
100
AcDbLinetypeTableRecord
  2
DASHED2
 70
     0
  3
Dashed (.5x) _ _ _ _ _ _ _ _ _ _ _ _ _ _ _ _ _
 72
    65
 73
     2
 40
9.524999999999998
 49
6.349999999999999
 74
     0
 49
-3.174999999999999
 74
     0
  0
LTYPE
  5
39D
330
5
100
AcDbSymbolTableRecord
100
AcDbLinetypeTableRecord
  2
AM_ISO02W050
 70
     0
  3
__ __ __ __ __ __ __ __ __ __ __ __ __ __ __
 72
    65
 73
     2
 40
7.5
 49
6.0
 74
     0
 49
-1.5
 74
     0
  0
LTYPE
  5
39E
330
5
100
AcDbSymbolTableRecord
100
AcDbLinetypeTableRecord
  2
AM_ISO08W050
 70
     0
  3
____ . ____ . ____ . ____ . ____ . ____ . ____
 72
    65
 73
     4
 40
18.0
 49
12.0
 74
     0
 49
-1.5
 74
     0
 49
3.0
 74
     0
 49
-1.5
 74
     0
  0
LTYPE
  5
39F
330
5
100
AcDbSymbolTableRecord
100
AcDbLinetypeTableRecord
  2
AM_ISO09W050
 70
     0
  3
_____ . . _____ . . _____ . . ____ .. ____
 72
    65
 73
     6
 40
22.5
 49
12.0
 74
     0
 49
-1.5
 74
     0
 49
3.0
 74
     0
 49
-1.5
 74
     0
 49
3.0
 74
     0
 49
-1.5
 74
     0
  0
LTYPE
  5
3A0
330
5
100
AcDbSymbolTableRecord
100
AcDbLinetypeTableRecord
  2
Amconstr
 70
     0
  3
_______________________
 72
    65
 73
     2
 40
9999.0
 49
9999.0
 74
     0
 49
0.0
 74
     0
  0
LTYPE
  5
3A1
330
5
100
AcDbSymbolTableRecord
100
AcDbLinetypeTableRecord
  2
AM_ISO02W050x2
 70
     0
  3
 _ _ _ _ _ _ _ _ _ _ _ _
 72
    65
 73
     2
 40
3.75
 49
3.0
 74
     0
 49
-0.75
 74
     0
  0
LTYPE
  5
3A2
330
5
100
AcDbSymbolTableRecord
100
AcDbLinetypeTableRecord
  2
AM_ISO08W050x2
 70
     0
  3
__ . __ . __ . __ . __ . __
 72
    65
 73
     4
 40
9.0
 49
6.0
 74
     0
 49
-0.75
 74
     0
 49
1.5
 74
     0
 49
-0.75
 74
     0
  0
LTYPE
  5
3A3
330
5
100
AcDbSymbolTableRecord
100
AcDbLinetypeTableRecord
  2
Amzigzag
 70
     0
  3
/\/-/\/-/\/-/\/-/\/-/\/
 72
    65
 73
     2
 40
11.0001
 49
0.0001
 74
     4
 75
   135
340
21
 46
0.04
 50
0.0
 44
0.0
 45
0.0
 49
-11.0
 74
     0
  0
LTYPE
  5
3BE
330
5
100
AcDbSymbolTableRecord
100
AcDbLinetypeTableRecord
  2
HIDDEN
 70
     0
  3
Hidden __ __ __ __ __ __ __ __ __ __ __ __ __ _
 72
    65
 73
     2
 40
9.524999999999998
 49
6.349999999999999
 74
     0
 49
-3.174999999999999
 74
     0
  0
LTYPE
  5
405
330
5
100
AcDbSymbolTableRecord
100
AcDbLinetypeTableRecord
  2
ACANSTGB
 70
     0
  3
__ . . __ . .
 72
    65
 73
     6
 40
0.35433070866
 49
0.15748031496
 74
     0
 49
-0.03937007874
 74
     0
 49
0.03937007874
 74
     0
 49
-0.03937007874
 74
     0
 49
0.03937007874
 74
     0
 49
-0.03937007874
 74
     0
  0
LTYPE
  5
406
330
5
100
AcDbSymbolTableRecord
100
AcDbLinetypeTableRecord
  2
ACANSTGL
 70
     0
  3
_ _ _ _ _
 72
    65
 73
     2
 40
0.11811023622
 49
0.07874015748
 74
     0
 49
-0.03937007874
 74
     0
  0
LTYPE
  5
422
330
5
100
AcDbSymbolTableRecord
100
AcDbLinetypeTableRecord
  2
ACISOWELD
 70
     0
  3
_ _ _ _ _
 72
    65
 73
     2
 40
2.0
 49
2.0
 74
     0
 49
-1.0
 74
     0
  0
LTYPE
  5
425
330
5
100
AcDbSymbolTableRecord
100
AcDbLinetypeTableRecord
  2
ACISOTGB
 70
     0
  3
__ . . __ . .
 72
    65
 73
     6
 40
9.0
 49
4.0
 74
     0
 49
-1.0
 74
     0
 49
1.0
 74
     0
 49
-1.0
 74
     0
 49
1.0
 74
     0
 49
-1.0
 74
     0
  0
LTYPE
  5
426
330
5
100
AcDbSymbolTableRecord
100
AcDbLinetypeTableRecord
  2
ACISOTGL
 70
     0
  3
_ _ _ _ _
 72
    65
 73
     2
 40
3.0
 49
2.0
 74
     0
 49
-1.0
 74
     0
  0
LTYPE
  5
440
330
5
100
AcDbSymbolTableRecord
100
AcDbLinetypeTableRecord
  2
ACJISTGB
 70
     0
  3
__ . . __ . .
 72
    65
 73
     6
 40
9.0
 49
4.0
 74
     0
 49
-1.0
 74
     0
 49
1.0
 74
     0
 49
-1.0
 74
     0
 49
1.0
 74
     0
 49
-1.0
 74
     0
  0
LTYPE
  5
441
330
5
100
AcDbSymbolTableRecord
100
AcDbLinetypeTableRecord
  2
ACJISTGL
 70
     0
  3
_ _ _ _ _
 72
    65
 73
     2
 40
3.0
 49
2.0
 74
     0
 49
-1.0
 74
     0
  0
ENDTAB
  0
TABLE
  2
LAYER
  5
2
330
0
100
AcDbSymbolTable
 70
     7
  0
LAYER
  5
E
330
2
100
AcDbSymbolTableRecord
100
AcDbLayerTableRecord
  2
0
 70
     0
 62
     7
  6
CONTINUOUS
370
    -3
390
5D
  0
LAYER
  5
74
330
2
100
AcDbSymbolTableRecord
100
AcDbLayerTableRecord
  2
Defpoints
 70
     0
 62
     7
  6
CONTINUOUS
290
     0
370
    -3
390
5D
  0
LAYER
  5
75
330
2
100
AcDbSymbolTableRecord
100
AcDbLayerTableRecord
  2
PV0001_1
 70
     0
 62
     7
  6
CONTINUOUS
370
    -3
390
5D
  0
LAYER
  5
452
330
2
100
AcDbSymbolTableRecord
100
AcDbLayerTableRecord
  2
outline
 70
     0
 62
     4
  6
CONTINUOUS
370
    50
390
5D
  0
LAYER
  5
4A6
330
2
100
AcDbSymbolTableRecord
100
AcDbLayerTableRecord
  2
center
 70
     0
 62
     2
  6
CENTER2
370
    25
390
5D
  0
LAYER
  5
5BB
330
2
100
AcDbSymbolTableRecord
100
AcDbLayerTableRecord
  2
AM_CL
 70
     0
 62
     1
  6
Amconstr
370
    25
390
5D
  0
LAYER
  5
623
330
2
100
AcDbSymbolTableRecord
100
AcDbLayerTableRecord
  2
dimension
 70
     0
 62
     7
  6
CONTINUOUS
370
    25
390
5D
  0
ENDTAB
  0
TABLE
  2
STYLE
  5
3
330
0
100
AcDbSymbolTable
 70
    10
  0
STYLE
  5
F
330
3
100
AcDbSymbolTableRecord
100
AcDbTextStyleTableRecord
  2
STANDARD
 70
     0
 40
0.0
 41
1.0
 50
0.0
 71
     0
 42
2.5
  3
monotxt.shx
  4
extfont.shx
  0
STYLE
  5
21
330
3
100
AcDbSymbolTableRecord
100
AcDbTextStyleTableRecord
  2

 70
     1
 40
0.0
 41
1.0
 50
0.0
 71
     0
 42
2.5
  3
ltypeshp.shx
  4

  0
STYLE
  5
30
330
3
100
AcDbSymbolTableRecord
100
AcDbTextStyleTableRecord
  2
DIM
 70
     0
 40
0.0
 41
1.0
 50
0.0
 71
     0
 42
2.5
  3
monotxt.shx
  4
extfont.shx
  0
STYLE
  5
31
330
3
100
AcDbSymbolTableRecord
100
AcDbTextStyleTableRecord
  2
CONVERT
 70
     0
 40
0.0
 41
1.0
 50
0.0
 71
     0
 42
2.5
  3
monotxt.shx
  4
extfont.shx
  0
STYLE
  5
3FE
330
3
100
AcDbSymbolTableRecord
100
AcDbTextStyleTableRecord
  2
ACANSTS
 70
     0
 40
1.0
 41
1.0
 50
0.0
 71
     0
 42
5.0
  3
romans.shx
  4
extfont.shx
  0
STYLE
  5
401
330
3
100
AcDbSymbolTableRecord
100
AcDbTextStyleTableRecord
  2
ACANSGDT
 70
     0
 40
0.0
 41
1.0
 50
0.0
 71
     0
 42
5.0
  3
amgdtans.shx
  4

  0
STYLE
  5
41C
330
3
100
AcDbSymbolTableRecord
100
AcDbTextStyleTableRecord
  2
ACISOTS
 70
     0
 40
1.0
 41
1.0
 50
0.0
 71
     0
 42
2.5
  3
isocp.shx
  4
extfont.shx
  0
STYLE
  5
420
330
3
100
AcDbSymbolTableRecord
100
AcDbTextStyleTableRecord
  2
ACISOGDT
 70
     0
 40
0.0
 41
1.0
 50
0.0
 71
     0
 42
2.5
  3
amgdt.shx
  4

  0
STYLE
  5
439
330
3
100
AcDbSymbolTableRecord
100
AcDbTextStyleTableRecord
  2
ACJISTS
 70
     0
 40
1.0
 41
1.0
 50
0.0
 71
     0
 42
2.5
  3
isocp.shx
  4
bigfont.shx
  0
STYLE
  5
43C
330
3
100
AcDbSymbolTableRecord
100
AcDbTextStyleTableRecord
  2
ACJISGDT
 70
     0
 40
0.0
 41
1.0
 50
0.0
 71
     0
 42
2.5
  3
amgdt.shx
  4

  0
ENDTAB
  0
TABLE
  2
VIEW
  5
6
330
0
100
AcDbSymbolTable
 70
     0
  0
ENDTAB
  0
TABLE
  2
UCS
  5
7
330
0
100
AcDbSymbolTable
 70
     0
  0
ENDTAB
  0
TABLE
  2
APPID
  5
9
330
0
100
AcDbSymbolTable
 70
    28
  0
APPID
  5
10
330
9
100
AcDbSymbolTableRecord
100
AcDbRegAppTableRecord
  2
ACAD
 70
     0
  0
APPID
  5
381
330
9
100
AcDbSymbolTableRecord
100
AcDbRegAppTableRecord
  2
MCAD_NO_VIS
 70
     0
  0
APPID
  5
382
330
9
100
AcDbSymbolTableRecord
100
AcDbRegAppTableRecord
  2
ACAD_TEMP_GRAPHIC
 70
     0
  0
APPID
  5
383
330
9
100
AcDbSymbolTableRecord
100
AcDbRegAppTableRecord
  2
GENIUS_GENREC_14
 70
     0
  0
APPID
  5
384
330
9
100
AcDbSymbolTableRecord
100
AcDbRegAppTableRecord
  2
GENIUS_GENODEF_13
 70
     0
  0
APPID
  5
385
330
9
100
AcDbSymbolTableRecord
100
AcDbRegAppTableRecord
  2
GENIUS_GENOBJ-N-REC_13
 70
     0
  0
APPID
  5
386
330
9
100
AcDbSymbolTableRecord
100
AcDbRegAppTableRecord
  2
GENIUS_GENOBJ-N-CEN_13
 70
     0
  0
APPID
  5
387
330
9
100
AcDbSymbolTableRecord
100
AcDbRegAppTableRecord
  2
GENIUS_GENDTOL_13
 70
     0
  0
APPID
  5
388
330
9
100
AcDbSymbolTableRecord
100
AcDbRegAppTableRecord
  2
GENIUS_GENDIMSH_14
 70
     0
  0
APPID
  5
389
330
9
100
AcDbSymbolTableRecord
100
AcDbRegAppTableRecord
  2
ACATTRIBSERVICES
 70
     0
  0
APPID
  5
38A
330
9
100
AcDbSymbolTableRecord
100
AcDbRegAppTableRecord
  2
GENIUS_GENFIL_13
 70
     0
  0
APPID
  5
38B
330
9
100
AcDbSymbolTableRecord
100
AcDbRegAppTableRecord
  2
GENIUS_GENOBJ-N-CHA_13
 70
     0
  0
APPID
  5
38C
330
9
100
AcDbSymbolTableRecord
100
AcDbRegAppTableRecord
  2
GENIUS_GENOLIS_13
 70
     0
  0
APPID
  5
38D
330
9
100
AcDbSymbolTableRecord
100
AcDbRegAppTableRecord
  2
GENIUS_GENOENT_13
 70
     0
  0
APPID
  5
38E
330
9
100
AcDbSymbolTableRecord
100
AcDbRegAppTableRecord
  2
GENIUS_GENOREF_13
 70
     0
  0
APPID
  5
38F
330
9
100
AcDbSymbolTableRecord
100
AcDbRegAppTableRecord
  2
GENIUS_GENOBJ-N-CRS_13
 70
     0
  0
APPID
  5
390
330
9
100
AcDbSymbolTableRecord
100
AcDbRegAppTableRecord
  2
GENIUS_GENOBJ-N-TIT_13
 70
     0
  0
APPID
  5
391
330
9
100
AcDbSymbolTableRecord
100
AcDbRegAppTableRecord
  2
GENIUS_GENTITLE_13
 70
     0
  0
APPID
  5
392
330
9
100
AcDbSymbolTableRecord
100
AcDbRegAppTableRecord
  2
GENIUS_GENSCREG_15
 70
     0
  0
APPID
  5
393
330
9
100
AcDbSymbolTableRecord
100
AcDbRegAppTableRecord
  2
GENIUS_GENOBJ-N-SDF_13
 70
     0
  0
APPID
  5
394
330
9
100
AcDbSymbolTableRecord
100
AcDbRegAppTableRecord
  2
GENIUS_GENTRA_14
 70
     0
  0
APPID
  5
395
330
9
100
AcDbSymbolTableRecord
100
AcDbRegAppTableRecord
  2
GENIUS_GENOBJ-N-FIL_13
 70
     0
  0
APPID
  5
396
330
9
100
AcDbSymbolTableRecord
100
AcDbRegAppTableRecord
  2
AD_DRAW
 70
     0
  0
APPID
  5
397
330
9
100
AcDbSymbolTableRecord
100
AcDbRegAppTableRecord
  2
DESIGNERASSEMBLIES
 70
     0
  0
APPID
  5
398
330
9
100
AcDbSymbolTableRecord
100
AcDbRegAppTableRecord
  2
ACADM_DIM_EDIT
 70
     0
  0
APPID
  5
399
330
9
100
AcDbSymbolTableRecord
100
AcDbRegAppTableRecord
  2
AMDT_DM_ADJ
 70
     0
  0
APPID
  5
66E
330
9
100
AcDbSymbolTableRecord
100
AcDbRegAppTableRecord
  2
ACAD_DSTYLE_DIMARC_LENGTH_SYMBOL
 70
     0
  0
APPID
  5
66F
330
9
100
AcDbSymbolTableRecord
100
AcDbRegAppTableRecord
  2
ACAD_DSTYLE_DIMJOGGED_JOGANGLE_SYMBOL
 70
     0
  0
ENDTAB
  0
TABLE
  2
DIMSTYLE
  5
A
330
0
100
AcDbSymbolTable
 70
    28
100
AcDbDimStyleTable
 71
     0
  0
DIMSTYLE
105
1D
102
{ACAD_REACTORS
330
76
102
}
330
A
100
AcDbSymbolTableRecord
100
AcDbDimStyleTableRecord
  2
STANDARD
 70
     0
 41
3.0
 42
1.0
 43
7.0
 44
2.0
 73
     0
 74
     0
 77
     1
140
2.799999999999999
141
0.0
143
0.0394
147
0.7
171
     4
172
     1
173
     1
176
    44
177
    44
178
    44
271
     3
272
     3
273
     8
274
     4
289
     0
340
F
341
32
343
32
344
32
  0
DIMSTYLE
105
40E
330
A
100
AcDbSymbolTableRecord
100
AcDbDimStyleTableRecord
  2
AM_ANSI
 70
     0
  4
mm
 41
0.1
 42
0.05
 43
0.5
 44
0.1
 47
0.1
 48
0.1
 78
     7
 79
     2
140
0.12
141
0.0
146
0.71
147
0.06
176
   256
177
   256
178
     2
274
     4
340
F
371
    -1
372
    -1
1001
ACAD_DSTYLE_DIMARC_LENGTH_SYMBOL
1070
   379
1070
     1
1001
ACAD_DSTYLE_DIMJOGGED_JOGANGLE_SYMBOL
1070
   384
1040
0.7853981633974483
  0
DIMSTYLE
105
40F
330
A
100
AcDbSymbolTableRecord
100
AcDbDimStyleTableRecord
  2
AM_ANSI$3
 70
     0
  4
mm
 41
0.1
 42
0.05
 43
0.5
 44
0.1
 47
0.1
 48
0.1
 78
     7
 79
     2
140
0.12
141
0.0
146
0.71
147
0.06
176
   256
177
   256
178
     2
274
     4
288
     1
289
     0
340
F
371
    -1
372
    -1
1001
ACAD_DSTYLE_DIMARC_LENGTH_SYMBOL
1070
   379
1070
     1
1001
ACAD_DSTYLE_DIMJOGGED_JOGANGLE_SYMBOL
1070
   384
1040
0.7853981633974483
  0
DIMSTYLE
105
410
330
A
100
AcDbSymbolTableRecord
100
AcDbDimStyleTableRecord
  2
AM_ANSI$4
 70
     0
  4
mm
 41
0.1
 42
0.05
 43
0.5
 44
0.1
 47
0.1
 48
0.1
 78
     7
 79
     2
140
0.12
141
0.0
146
0.71
147
0.06
176
   256
177
   256
178
     2
274
     4
288
     1
289
     0
340
F
371
    -1
372
    -1
1001
ACAD_DSTYLE_DIMARC_LENGTH_SYMBOL
1070
   379
1070
     1
1001
ACAD_DSTYLE_DIMJOGGED_JOGANGLE_SYMBOL
1070
   384
1040
0.7853981633974483
  0
DIMSTYLE
105
411
330
A
100
AcDbSymbolTableRecord
100
AcDbDimStyleTableRecord
  2
AM_ANSI$7
 70
     0
  4
mm
 41
0.1
 42
0.05
 43
0.5
 44
0.1
 47
0.1
 48
0.1
 78
     7
 79
     2
140
0.24
141
0.0
146
0.71
147
0.06
176
   256
177
   256
178
     2
274
     4
340
F
371
    -1
372
    -1
1001
ACAD_DSTYLE_DIMARC_LENGTH_SYMBOL
1070
   379
1070
     1
1001
ACAD_DSTYLE_DIMJOGGED_JOGANGLE_SYMBOL
1070
   384
1040
0.7853981633974483
  0
DIMSTYLE
105
412
330
A
100
AcDbSymbolTableRecord
100
AcDbDimStyleTableRecord
  2
AM_ANSI$SF
 70
     0
  4
mm
 41
0.1
 42
0.05
 43
0.5
 44
0.1
 47
0.1
 48
0.1
 75
     1
 76
     1
 78
     7
 79
     2
140
0.12
141
0.0
146
0.71
147
0.06
176
   256
177
   256
178
     2
274
     4
340
F
371
    -1
372
    -1
1001
ACAD_DSTYLE_DIMARC_LENGTH_SYMBOL
1070
   379
1070
     1
1001
ACAD_DSTYLE_DIMJOGGED_JOGANGLE_SYMBOL
1070
   384
1040
0.7853981633974483
  0
DIMSTYLE
105
413
330
A
100
AcDbSymbolTableRecord
100
AcDbDimStyleTableRecord
  2
AM_ANSI$SH
 70
     0
  4
mm
 41
0.1
 42
0.05
 43
0.5
 44
0.1
 47
0.1
 48
0.1
 75
     1
 76
     1
 78
     7
 79
     2
140
0.12
141
0.0
146
0.71
147
0.06
173
     1
176
   256
177
   256
178
     2
274
     4
340
F
343
414
371
    -1
372
    -1
1001
ACAD_DSTYLE_DIMARC_LENGTH_SYMBOL
1070
   379
1070
     1
1001
ACAD_DSTYLE_DIMJOGGED_JOGANGLE_SYMBOL
1070
   384
1040
0.7853981633974483
  0
DIMSTYLE
105
42E
330
A
100
AcDbSymbolTableRecord
100
AcDbDimStyleTableRecord
  2
AM_ISO
 70
     0
  4
"
 41
2.5
 42
1.0
 43
10.0
 44
1.0
 47
0.1
 48
0.1
 73
     0
 74
     0
 77
     1
 78
     8
 79
     2
140
3.5
141
0.0
143
0.0393701
146
0.71
147
1.5
172
     1
176
   256
177
   256
178
     2
271
     2
272
     3
274
     4
283
     0
284
     8
340
F
371
    -1
372
    -1
1001
ACAD_DSTYLE_DIMARC_LENGTH_SYMBOL
1070
   379
1070
     1
1001
ACAD_DSTYLE_DIMJOGGED_JOGANGLE_SYMBOL
1070
   384
1040
0.7853981633974483
  0
DIMSTYLE
105
42F
330
A
100
AcDbSymbolTableRecord
100
AcDbDimStyleTableRecord
  2
AM_ISO$3
 70
     0
  4
"
 41
2.5
 42
1.0
 43
10.0
 44
1.0
 47
0.1
 48
0.1
 73
     0
 77
     1
 78
     8
 79
     2
140
3.5
141
0.0
143
0.0393701
146
0.71
147
1.5
176
   256
177
   256
178
     2
271
     2
272
     3
274
     4
283
     0
284
     8
288
     1
289
     0
340
F
371
    -1
372
    -1
1001
ACAD_DSTYLE_DIMARC_LENGTH_SYMBOL
1070
   379
1070
     1
1001
ACAD_DSTYLE_DIMJOGGED_JOGANGLE_SYMBOL
1070
   384
1040
0.7853981633974483
  0
DIMSTYLE
105
430
330
A
100
AcDbSymbolTableRecord
100
AcDbDimStyleTableRecord
  2
AM_ISO$4
 70
     0
  4
"
 41
2.5
 42
1.0
 43
10.0
 44
1.0
 47
0.1
 48
0.1
 73
     0
 77
     1
 78
     8
 79
     2
140
3.5
141
0.0
143
0.0393701
146
0.71
147
1.5
176
   256
177
   256
178
     2
271
     2
272
     3
274
     4
283
     0
284
     8
288
     1
289
     0
340
F
371
    -1
372
    -1
1001
ACAD_DSTYLE_DIMARC_LENGTH_SYMBOL
1070
   379
1070
     1
1001
ACAD_DSTYLE_DIMJOGGED_JOGANGLE_SYMBOL
1070
   384
1040
0.7853981633974483
  0
DIMSTYLE
105
431
330
A
100
AcDbSymbolTableRecord
100
AcDbDimStyleTableRecord
  2
AM_ISO$6
 70
     0
  4
"
 41
2.5
 42
1.0
 43
10.0
 44
1.0
 47
0.1
 48
0.1
 73
     0
 74
     0
 78
     8
 79
     2
140
3.5
141
0.0
143
0.0393701
146
0.71
147
1.5
172
     1
176
   256
177
   256
178
     2
271
     2
272
     3
274
     4
283
     0
284
     8
340
F
371
    -1
372
    -1
1001
ACAD_DSTYLE_DIMARC_LENGTH_SYMBOL
1070
   379
1070
     1
1001
ACAD_DSTYLE_DIMJOGGED_JOGANGLE_SYMBOL
1070
   384
1040
0.7853981633974483
  0
DIMSTYLE
105
432
330
A
100
AcDbSymbolTableRecord
100
AcDbDimStyleTableRecord
  2
AM_ISO$7
 70
     0
  4
"
 41
2.5
 42
1.0
 43
10.0
 44
1.0
 47
0.1
 48
0.1
 73
     0
 74
     0
 77
     1
 78
     8
 79
     2
140
5.0
141
0.0
143
0.0393701
146
0.71
147
1.5
172
     1
176
   256
177
   256
178
     2
271
     2
272
     3
274
     4
283
     0
284
     8
340
F
371
    -1
372
    -1
1001
ACAD_DSTYLE_DIMARC_LENGTH_SYMBOL
1070
   379
1070
     1
1001
ACAD_DSTYLE_DIMJOGGED_JOGANGLE_SYMBOL
1070
   384
1040
0.7853981633974483
  0
DIMSTYLE
105
433
330
A
100
AcDbSymbolTableRecord
100
AcDbDimStyleTableRecord
  2
AM_ISO$SF
 70
     0
  4
"
 41
2.5
 42
1.0
 43
10.0
 44
1.0
 47
0.1
 48
0.1
 73
     0
 74
     0
 75
     1
 76
     1
 77
     1
 78
     8
 79
     2
140
3.5
141
0.0
143
0.0393701
146
0.71
147
1.5
172
     1
176
   256
177
   256
178
     2
271
     2
272
     3
274
     4
283
     0
284
     8
340
F
371
    -1
372
    -1
1001
ACAD_DSTYLE_DIMARC_LENGTH_SYMBOL
1070
   379
1070
     1
1001
ACAD_DSTYLE_DIMJOGGED_JOGANGLE_SYMBOL
1070
   384
1040
0.7853981633974483
  0
DIMSTYLE
105
434
330
A
100
AcDbSymbolTableRecord
100
AcDbDimStyleTableRecord
  2
AM_ISO$SH
 70
     0
  4
"
 41
2.5
 42
1.0
 43
10.0
 44
1.0
 47
0.1
 48
0.1
 73
     0
 74
     0
 75
     1
 76
     1
 77
     1
 78
     8
 79
     2
140
3.5
141
0.0
143
0.0393701
144
2.0
146
0.71
147
1.5
172
     1
173
     1
176
   256
177
   256
178
     2
271
     2
272
     3
274
     4
283
     0
284
     8
340
F
343
414
371
    -1
372
    -1
1001
ACAD_DSTYLE_DIMARC_LENGTH_SYMBOL
1070
   379
1070
     1
1001
ACAD_DSTYLE_DIMJOGGED_JOGANGLE_SYMBOL
1070
   384
1040
0.7853981633974483
  0
DIMSTYLE
105
44E
330
A
100
AcDbSymbolTableRecord
100
AcDbDimStyleTableRecord
  2
kuroda_sunpo
 70
     0
  4
"
 41
2.5
 42
1.0
 43
8.0
 44
1.0
 47
0.1
 48
0.1
 73
     0
 74
     0
 77
     3
 78
     8
 79
     2
140
3.2
141
0.0
143
0.0393701
146
0.71
147
1.5
172
     1
176
     7
177
     7
178
     7
179
     2
271
     3
272
     3
275
     1
283
     0
340
F
341
A7
342
A7
371
    -1
372
    -1
  0
DIMSTYLE
105
456
330
A
100
AcDbSymbolTableRecord
100
AcDbDimStyleTableRecord
  2
kuroda_sunpo$3
 70
     0
  4
"
 41
2.5
 42
1.0
 43
8.0
 44
1.0
 47
0.1
 48
0.1
 73
     0
 77
     3
 78
     8
 79
     2
140
3.2
141
0.0
143
0.0393701
146
0.71
147
1.5
176
     7
177
     7
178
     7
179
     2
271
     3
272
     3
275
     1
283
     0
288
     1
289
     0
340
F
341
A7
342
A7
371
    -1
372
    -1
  0
DIMSTYLE
105
457
330
A
100
AcDbSymbolTableRecord
100
AcDbDimStyleTableRecord
  2
kuroda_sunpo$4
 70
     0
  4
"
 41
2.5
 42
1.0
 43
8.0
 44
1.0
 47
0.1
 48
0.1
 73
     0
 77
     3
 78
     8
 79
     2
140
3.2
141
0.0
143
0.0393701
146
0.71
147
1.5
176
     7
177
     7
178
     7
179
     2
271
     3
272
     3
275
     1
283
     0
288
     1
289
     0
340
F
341
A7
342
A7
371
    -1
372
    -1
  0
DIMSTYLE
105
458
330
A
100
AcDbSymbolTableRecord
100
AcDbDimStyleTableRecord
  2
kuroda_sunpo$6
 70
     0
  4
"
 41
2.5
 42
1.0
 43
8.0
 44
1.0
 47
0.1
 48
0.1
 73
     0
 74
     0
 78
     8
 79
     2
140
3.2
141
0.0
143
0.0393701
146
0.71
147
1.5
172
     1
176
     7
177
     7
178
     7
179
     2
271
     3
272
     3
275
     1
283
     0
340
F
341
A7
342
A7
371
    -1
372
    -1
  0
DIMSTYLE
105
459
330
A
100
AcDbSymbolTableRecord
100
AcDbDimStyleTableRecord
  2
kuroda_sunpo$SF
 70
     0
  4
"
 41
2.5
 42
1.0
 43
8.0
 44
1.0
 47
0.1
 48
0.1
 73
     0
 74
     0
 75
     1
 76
     1
 77
     3
 78
     8
 79
     2
140
5.0
141
0.0
143
0.0393701
146
0.71
147
1.5
172
     1
176
   256
177
   256
178
     7
179
     2
271
     3
272
     3
275
     1
283
     0
340
F
341
32
342
32
371
    -1
372
    -1
  0
DIMSTYLE
105
460
330
A
100
AcDbSymbolTableRecord
100
AcDbDimStyleTableRecord
  2
kuroda_sunpo$SH
 70
     0
  4
"
 41
2.5
 42
1.0
 43
8.0
 44
1.0
 47
0.1
 48
0.1
 73
     0
 74
     0
 75
     1
 76
     1
 77
     3
 78
     8
 79
     2
140
5.0
141
0.0
143
0.0393701
144
2.0
146
0.71
147
1.5
172
     1
173
     1
176
   256
177
   256
178
     7
179
     2
271
     3
272
     3
275
     1
283
     0
340
F
341
32
342
32
343
414
371
    -1
372
    -1
  0
DIMSTYLE
105
473
330
A
100
AcDbSymbolTableRecord
100
AcDbDimStyleTableRecord
  2
JIS-KURODA
 70
     0
  4
"
 41
2.5
 42
1.0
 43
10.0
 44
1.0
 47
0.1
 48
0.1
 73
     0
 74
     0
 77
     3
 78
     8
 79
     2
140
3.2
141
0.0
143
0.0393701
146
0.71
147
1.5
172
     1
174
     1
176
     7
177
     7
178
     7
271
     2
272
     2
283
     0
284
     8
340
F
341
A7
342
A7
371
    -1
372
    -1
1001
ACAD_DSTYLE_DIMARC_LENGTH_SYMBOL
1070
   379
1070
     1
1001
ACAD_DSTYLE_DIMJOGGED_JOGANGLE_SYMBOL
1070
   384
1040
0.7853981633974483
  0
DIMSTYLE
105
474
330
A
100
AcDbSymbolTableRecord
100
AcDbDimStyleTableRecord
  2
JIS-KURODA$2
 70
     0
  4
"
 41
2.5
 42
1.0
 43
10.0
 44
1.0
 47
0.1
 48
0.1
 73
     0
 74
     0
 77
     3
 78
     8
 79
     2
140
3.2
141
0.0
143
0.0393701
146
0.71
147
1.5
172
     1
174
     1
176
     7
177
     7
178
     7
271
     2
272
     2
283
     0
284
     8
340
F
341
A7
342
A7
371
    -1
372
    -1
1001
ACAD_DSTYLE_DIMARC_LENGTH_SYMBOL
1070
   379
1070
     1
1001
ACAD_DSTYLE_DIMJOGGED_JOGANGLE_SYMBOL
1070
   384
1040
0.7853981633974483
  0
DIMSTYLE
105
475
330
A
100
AcDbSymbolTableRecord
100
AcDbDimStyleTableRecord
  2
JIS-KURODA$3
 70
     0
  4
"
 41
2.5
 42
1.0
 43
10.0
 44
1.0
 47
0.1
 48
0.1
 73
     0
 74
     0
 77
     3
 78
     8
 79
     2
140
3.2
141
0.0
143
0.0393701
146
0.71
147
1.5
172
     1
176
     7
177
     7
178
     7
271
     2
272
     2
283
     0
284
     8
288
     1
289
     2
340
F
341
32
342
A7
371
    -1
372
    -1
1001
ACAD_DSTYLE_DIMARC_LENGTH_SYMBOL
1070
   379
1070
     1
1001
ACAD_DSTYLE_DIMJOGGED_JOGANGLE_SYMBOL
1070
   384
1040
0.7853981633974483
  0
DIMSTYLE
105
476
330
A
100
AcDbSymbolTableRecord
100
AcDbDimStyleTableRecord
  2
JIS-KURODA$4
 70
     0
  4
"
 41
2.5
 42
1.0
 43
10.0
 44
1.0
 47
0.1
 48
0.1
 73
     0
 77
     3
 78
     8
 79
     2
140
3.2
141
0.0
143
0.0393701
146
0.71
147
1.5
173
     1
176
     7
177
     7
178
     7
271
     2
272
     2
279
     1
283
     0
284
     8
288
     1
289
     0
340
F
341
32
343
32
344
A7
371
    -1
372
    -1
1001
ACAD_DSTYLE_DIMARC_LENGTH_SYMBOL
1070
   379
1070
     1
1001
ACAD_DSTYLE_DIMJOGGED_JOGANGLE_SYMBOL
1070
   384
1040
0.7853981633974483
  0
DIMSTYLE
105
477
330
A
100
AcDbSymbolTableRecord
100
AcDbDimStyleTableRecord
  2
JIS-KURODA$6
 70
     0
  4
"
 41
2.5
 42
1.0
 43
10.0
 44
1.0
 47
0.1
 48
0.1
 73
     0
 74
     0
 78
     8
 79
     2
140
3.2
141
0.0
143
0.0393701
146
0.71
147
1.5
172
     1
176
     7
177
     7
178
     7
271
     2
272
     2
279
     1
283
     0
284
     8
340
F
341
32
342
32
371
    -1
372
    -1
1001
ACAD_DSTYLE_DIMARC_LENGTH_SYMBOL
1070
   379
1070
     1
1001
ACAD_DSTYLE_DIMJOGGED_JOGANGLE_SYMBOL
1070
   384
1040
0.7853981633974483
  0
DIMSTYLE
105
478
330
A
100
AcDbSymbolTableRecord
100
AcDbDimStyleTableRecord
  2
JIS-KURODA$7
 70
     0
  4
"
 41
2.5
 42
1.0
 43
10.0
 44
1.0
 47
0.1
 48
0.1
 73
     0
 74
     0
 77
     3
 78
     8
 79
     2
140
4.000000000000003
141
0.0
143
0.0393701
146
0.71
147
1.5
172
     1
176
     7
177
     7
178
     7
271
     2
272
     2
279
     1
283
     0
284
     8
340
F
341
A7
342
32
371
    -1
372
    -1
1001
ACAD_DSTYLE_DIMARC_LENGTH_SYMBOL
1070
   379
1070
     1
1001
ACAD_DSTYLE_DIMJOGGED_JOGANGLE_SYMBOL
1070
   384
1040
0.7853981633974483
  0
DIMSTYLE
105
479
330
A
100
AcDbSymbolTableRecord
100
AcDbDimStyleTableRecord
  2
JIS-KURODA$SF
 70
     0
  4
"
 41
2.5
 42
1.0
 43
10.0
 44
1.0
 47
0.1
 48
0.1
 73
     0
 74
     0
 75
     1
 76
     1
 77
     3
 78
     8
 79
     2
140
3.5
141
0.0
143
0.0393701
146
0.71
147
1.5
172
     1
176
   256
177
   256
178
     7
271
     2
272
     3
274
     4
283
     0
284
     8
340
F
341
32
342
32
343
32
344
32
371
    -1
372
    -1
1001
ACAD_DSTYLE_DIMARC_LENGTH_SYMBOL
1070
   379
1070
     1
1001
ACAD_DSTYLE_DIMJOGGED_JOGANGLE_SYMBOL
1070
   384
1040
0.7853981633974483
  0
DIMSTYLE
105
47A
330
A
100
AcDbSymbolTableRecord
100
AcDbDimStyleTableRecord
  2
JIS-KURODA$SH
 70
     0
  4
"
 41
2.5
 42
1.0
 43
10.0
 44
1.0
 47
0.1
 48
0.1
 73
     0
 74
     0
 75
     1
 76
     1
 77
     3
 78
     8
 79
     2
140
3.5
141
0.0
143
0.0393701
144
2.0
146
0.71
147
1.5
172
     1
173
     1
176
   256
177
   256
178
     7
271
     2
272
     3
274
     4
283
     0
284
     8
340
F
341
32
342
32
343
414
344
32
371
    -1
372
    -1
1001
ACAD_DSTYLE_DIMARC_LENGTH_SYMBOL
1070
   379
1070
     1
1001
ACAD_DSTYLE_DIMJOGGED_JOGANGLE_SYMBOL
1070
   384
1040
0.7853981633974483
  0
ENDTAB
  0
TABLE
  2
BLOCK_RECORD
  5
1
330
0
100
AcDbSymbolTable
 70
     5
  0
BLOCK_RECORD
  5
18
102
{ACAD_XDICTIONARY
360
368
102
}
330
1
100
AcDbSymbolTableRecord
100
AcDbBlockTableRecord
  2
*MODEL_SPACE
340
60
  0
BLOCK_RECORD
  5
15
102
{ACAD_XDICTIONARY
360
366
102
}
330
1
100
AcDbSymbolTableRecord
100
AcDbBlockTableRecord
  2
*PAPER_SPACE
340
61
  0
BLOCK_RECORD
  5
32
330
1
100
AcDbSymbolTableRecord
100
AcDbBlockTableRecord
  2
_Open30
340
0
  0
BLOCK_RECORD
  5
77
330
1
100
AcDbSymbolTableRecord
100
AcDbBlockTableRecord
  2
*D1
340
0
  0
BLOCK_RECORD
  5
A7
330
1
100
AcDbSymbolTableRecord
100
AcDbBlockTableRecord
  2
_Open
340
0
  0
BLOCK_RECORD
  5
414
330
1
100
AcDbSymbolTableRecord
100
AcDbBlockTableRecord
  2
GENAXEH
340
0
  0
ENDTAB
  0
ENDSEC
  0
SECTION
  2
BLOCKS
  0
BLOCK
  5
19
330
18
100
AcDbEntity
  8
0
100
AcDbBlockBegin
  2
*MODEL_SPACE
 70
     0
 10
0.0
 20
0.0
 30
0.0
  3
*MODEL_SPACE
  1

  0
ENDBLK
  5
1A
330
18
100
AcDbEntity
  8
0
100
AcDbBlockEnd
  0
BLOCK
  5
16
330
15
100
AcDbEntity
 67
     1
  8
0
100
AcDbBlockBegin
  2
*PAPER_SPACE
 70
     0
 10
0.0
 20
0.0
 30
0.0
  3
*PAPER_SPACE
  1

  0
ENDBLK
  5
17
330
15
100
AcDbEntity
 67
     1
  8
0
100
AcDbBlockEnd
  0
BLOCK
  5
7E0
330
32
100
AcDbEntity
  8
0
100
AcDbBlockBegin
  2
_Open30
 70
     0
 10
0.0
 20
0.0
 30
0.0
  3
_Open30
  1

  0
LINE
  5
7E1
330
32
100
AcDbEntity
  8
0
 62
     0
370
    -2
100
AcDbLine
 10
-1.0
 20
0.26794919
 30
0.0
 11
0.0
 21
0.0
 31
0.0
  0
LINE
  5
7E2
330
32
100
AcDbEntity
  8
0
 62
     0
370
    -2
100
AcDbLine
 10
0.0
 20
0.0
 30
0.0
 11
-1.0
 21
-0.26794919
 31
0.0
  0
LINE
  5
7E3
330
32
100
AcDbEntity
  8
0
 62
     0
370
    -2
100
AcDbLine
 10
0.0
 20
0.0
 30
0.0
 11
-1.0
 21
0.0
 31
0.0
  0
ENDBLK
  5
7E4
330
32
100
AcDbEntity
  8
0
100
AcDbBlockEnd
  0
BLOCK
  5
81
330
77
100
AcDbEntity
  8
0
100
AcDbBlockBegin
  2
*D1
 70
     1
 10
0.0
 20
0.0
 30
0.0
  3
*D1
  1

  0
LINE
  5
36E
330
77
100
AcDbEntity
  8
PV0001_1
 62
    44
100
AcDbLine
 10
269.0
 20
-149.25
 30
0.0
 11
269.0
 21
-181.01786804199
 31
0.0
  0
LINE
  5
36F
330
77
100
AcDbEntity
  8
PV0001_1
 62
    44
100
AcDbLine
 10
874.0
 20
-149.5
 30
0.0
 11
874.0
 21
-181.01786804199
 31
0.0
  0
LINE
  5
370
330
77
100
AcDbEntity
  8
PV0001_1
 62
    44
100
AcDbLine
 10
272.0
 20
-179.01786804199
 30
0.0
 11
871.0
 21
-179.01786804199
 31
0.0
  0
INSERT
  5
371
330
77
100
AcDbEntity
  8
PV0001_1
 62
    44
100
AcDbBlockReference
  2
_Open
 10
269.0
 20
-179.01786804199
 30
0.0
 41
3.0
 42
3.0
 43
3.0
 50
180.0
  0
INSERT
  5
372
330
77
100
AcDbEntity
  8
PV0001_1
 62
    44
100
AcDbBlockReference
  2
_Open
 10
874.0
 20
-179.01786804199
 30
0.0
 41
3.0
 42
3.0
 43
3.0
  0
MTEXT
  5
373
330
77
100
AcDbEntity
  8
PV0001_1
 62
    44
100
AcDbMText
 10
571.4999999999999
 20
-176.71786804199
 30
0.0
 40
3.2
 41
0.0
 71
     5
 72
     5
  1
\A1;L
 73
     1
 44
1.0
1001
ACAD
1000
MTEXTBEGIN
1070
    73
1070
     1
1070
    44
1040
1.0
1070
    74
1070
     0
1000
MTEXTEND
  0
POINT
  5
374
330
77
100
AcDbEntity
  8
Defpoints
 62
     0
100
AcDbPoint
 10
269.0
 20
-148.25
 30
0.0
  0
POINT
  5
375
330
77
100
AcDbEntity
  8
Defpoints
 62
     0
100
AcDbPoint
 10
874.0
 20
-148.5
 30
0.0
  0
POINT
  5
376
330
77
100
AcDbEntity
  8
Defpoints
 62
     0
100
AcDbPoint
 10
874.0
 20
-179.01786804199
 30
0.0
  0
ENDBLK
  5
82
330
77
100
AcDbEntity
  8
0
100
AcDbBlockEnd
  0
BLOCK
  5
7D5
330
A7
100
AcDbEntity
  8
0
100
AcDbBlockBegin
  2
_Open
 70
     0
 10
0.0
 20
0.0
 30
0.0
  3
_Open
  1

  0
LINE
  5
7D6
330
A7
100
AcDbEntity
  8
outline
 62
     0
370
    -2
100
AcDbLine
 10
-1.0
 20
0.1666666666666666
 30
0.0
 11
0.0
 21
0.0
 31
0.0
  0
LINE
  5
7D8
330
A7
100
AcDbEntity
  8
outline
 62
     0
370
    -2
100
AcDbLine
 10
-1.0
 20
-0.1666666666666666
 30
0.0
 11
0.0
 21
0.0
 31
0.0
  0
LINE
  5
7D9
330
A7
100
AcDbEntity
  8
outline
 62
     0
370
    -2
100
AcDbLine
 10
0.0
 20
0.0
 30
0.0
 11
-1.0
 21
0.0
 31
0.0
  0
ENDBLK
  5
7DA
330
A7
100
AcDbEntity
  8
0
100
AcDbBlockEnd
  0
BLOCK
  5
79A
330
414
100
AcDbEntity
  8
0
100
AcDbBlockBegin
  2
GENAXEH
 70
     0
 10
0.0
 20
0.0
 30
0.0
  3
GENAXEH
  1

  0
LINE
  5
79B
330
414
100
AcDbEntity
  8
0
100
AcDbLine
 10
-1.0
 20
0.0
 30
0.0
 11
1.0
 21
0.0
 31
0.0
  0
ENDBLK
  5
79C
330
414
100
AcDbEntity
  8
0
100
AcDbBlockEnd
  0
ENDSEC
  0
SECTION
  2
ENTITIES
  0
DIMENSION
  5
76
330
18
100
AcDbEntity
  8
PV0001_1
100
AcDbDimension
  2
*D1
 10
874.0
 20
-179.01786804199
 30
0.0
 11
571.4999999999999
 21
-179.01786804199
 31
0.0
 70
   160
  1
L
 71
     5
 42
605.0
  3
STANDARD
100
AcDbAlignedDimension
 13
269.0
 23
-148.25
 33
0.0
 14
874.0
 24
-148.5
 34
0.0
100
AcDbRotatedDimension
1001
ACAD
1000
DSTYLE
1002
{
1070
   284
1070
     8
1070
   140
1040
3.2
1070
   271
1070
     0
1070
    45
1040
0.1
1070
   173
1070
     1
1070
     6
1000
OPEN
1070
     7
1000
OPEN
1002
}
  0
LINE
  5
C8
330
18
100
AcDbEntity
  8
PV0001_1
  6
Continuous
370
    50
100
AcDbLine
 10
1061.0
 20
0.0
 30
0.0
 11
1061.0
 21
-479.4999999999999
 31
0.0
  0
LINE
  5
C9
330
18
100
AcDbEntity
  8
PV0001_1
  6
Continuous
370
    50
100
AcDbLine
 10
0.0
 20
0.0
 30
0.0
 11
1061.0
 21
0.0
 31
0.0
  0
LINE
  5
CA
330
18
100
AcDbEntity
  8
PV0001_1
  6
Continuous
370
    50
100
AcDbLine
 10
0.0
 20
0.0
 30
0.0
 11
0.0
 21
-479.4999999999999
 31
0.0
  0
LINE
  5
CB
330
18
100
AcDbEntity
  8
PV0001_1
  6
Continuous
370
    50
100
AcDbLine
 10
0.0
 20
-12.0
 30
0.0
 11
289.30798339843
 21
-12.0
 31
0.0
  0
LINE
  5
CC
330
18
100
AcDbEntity
  8
PV0001_1
  6
Continuous
 48
0.5
370
    50
100
AcDbLine
 10
39.671600341796
 20
-6.6000061035156
 30
0.0
 11
40.92251586914
 21
-6.6000061035156
 31
0.0
  0
LINE
  5
CD
330
18
100
AcDbEntity
  8
PV0001_1
  6
Continuous
 48
0.5
370
    50
100
AcDbLine
 10
41.800003051757
 20
-8.399993896484399
 30
0.0
 11
43.399993896484
 21
-8.399993896484399
 31
0.0
  0
LINE
  5
CE
330
18
100
AcDbEntity
  8
PV0001_1
  6
Continuous
 48
0.5
370
    50
100
AcDbLine
 10
41.51231765747
 20
-7.5367407798767
 30
0.0
 11
41.800056457519
 21
-8.399958610534699
 31
0.0
  0
LINE
  5
CF
330
18
100
AcDbEntity
  8
PV0001_1
  6
Continuous
 48
0.5
370
    50
100
AcDbLine
 10
38.48781967163
 20
-6.336773395538299
 30
0.0
 11
39.154487609863
 21
-4.3367743492126
 31
0.0
  0
LINE
  5
D0
330
18
100
AcDbEntity
  8
PV0001_1
  6
Continuous
 48
0.5
370
    50
100
AcDbLine
 10
41.399997711181
 20
-3.600002288818399
 30
0.0
 11
43.400001525878
 21
-8.400013923644999
 31
0.0
  0
LINE
  5
D1
330
18
100
AcDbEntity
  8
PV0001_1
  6
Continuous
 48
0.5
370
    50
100
AcDbLine
 10
38.199981689453
 20
-3.599996805191
 30
0.0
 11
36.199989318847
 21
-8.3999795913696
 31
0.0
  0
LINE
  5
D2
330
18
100
AcDbEntity
  8
PV0001_1
  6
Continuous
 48
0.5
370
    50
100
AcDbLine
 10
40.445644378662
 20
-4.3367295265198
 30
0.0
 11
41.112312316894
 21
-6.3367290496826
 31
0.0
  0
LINE
  5
D3
330
18
100
AcDbEntity
  8
PV0001_1
  6
Continuous
 48
0.5
370
    50
100
AcDbLine
 10
37.800079345703
 20
-8.400003433227499
 30
0.0
 11
38.087825775146
 21
-7.536756038665799
 31
0.0
  0
LINE
  5
D4
330
18
100
AcDbEntity
  8
PV0001_1
  6
Continuous
 48
0.5
370
    50
100
AcDbLine
 10
38.677490234375
 20
-6.6000061035156
 30
0.0
 11
39.671600341796
 21
-6.6000061035156
 31
0.0
  0
LINE
  5
D5
330
18
100
AcDbEntity
  8
PV0001_1
  6
Continuous
 48
0.5
370
    50
100
AcDbLine
 10
38.27749633789
 20
-7.399993896484399
 30
0.0
 11
41.322509765625
 21
-7.399993896484399
 31
0.0
  0
LINE
  5
D6
330
18
100
AcDbEntity
  8
PV0001_1
  6
Continuous
 48
0.5
370
    50
100
AcDbLine
 10
38.199996948242
 20
-3.6000061035156
 30
0.0
 11
41.399993896484
 21
-3.6000061035156
 31
0.0
  0
LINE
  5
D7
330
18
100
AcDbEntity
  8
PV0001_1
  6
Continuous
 48
0.5
370
    50
100
AcDbLine
 10
39.344146728515
 20
-4.200012207031299
 30
0.0
 11
40.25585937499999
 21
-4.200012207031299
 31
0.0
  0
LINE
  5
D8
330
18
100
AcDbEntity
  8
PV0001_1
  6
Continuous
 48
0.5
370
    50
100
AcDbLine
 10
36.199996948242
 20
-8.399993896484399
 30
0.0
 11
37.800003051757
 21
-8.399993896484399
 31
0.0
  0
LINE
  5
D9
330
18
100
AcDbEntity
  8
PV0001_1
  6
Continuous
 48
0.5
370
    50
100
AcDbLine
 10
31.600006103515
 20
-7.6000061035156
 30
0.0
 11
33.80000305175701
 21
-7.6000061035156
 31
0.0
  0
LINE
  5
DA
330
18
100
AcDbEntity
  8
PV0001_1
  6
Continuous
 48
0.5
370
    50
100
AcDbLine
 10
34.600006103515
 20
-5.0
 30
0.0
 11
34.600006103515
 21
-6.799987792968799
 31
0.0
  0
LINE
  5
DB
330
18
100
AcDbEntity
  8
PV0001_1
  6
Continuous
 48
0.5
370
    50
100
AcDbLine
 10
31.399993896484
 20
-4.399993896484399
 30
0.0
 11
31.399993896484
 21
-7.399993896484399
 31
0.0
  0
LINE
  5
DC
330
18
100
AcDbEntity
  8
PV0001_1
  6
Continuous
 48
0.5
370
    50
100
AcDbLine
 10
29.800003051757
 20
-3.5999755859375
 30
0.0
 11
29.800003051757
 21
-8.399993896484399
 31
0.0
  0
LINE
  5
DD
330
18
100
AcDbEntity
  8
PV0001_1
  6
Continuous
 48
0.5
370
    50
100
AcDbLine
 10
36.199996948242
 20
-5.0
 30
0.0
 11
36.199996948242
 21
-7.0
 31
0.0
  0
LINE
  5
DE
330
18
100
AcDbEntity
  8
PV0001_1
  6
Continuous
 48
0.5
370
    50
100
AcDbLine
 10
27.800003051757
 20
-5.0
 30
0.0
 11
27.800003051757
 21
-6.799987792968799
 31
0.0
  0
LINE
  5
DF
330
18
100
AcDbEntity
  8
PV0001_1
  6
Continuous
 48
0.5
370
    50
100
AcDbLine
 10
24.399993896484
 20
-5.0
 30
0.0
 11
24.399993896484
 21
-6.799987792968799
 31
0.0
  0
LINE
  5
E0
330
18
100
AcDbEntity
  8
PV0001_1
  6
Continuous
 48
0.5
370
    50
100
AcDbLine
 10
25.199996948242
 20
-7.6000061035156
 30
0.0
 11
27.0
 21
-7.6000061035156
 31
0.0
  0
LINE
  5
E1
330
18
100
AcDbEntity
  8
PV0001_1
  6
Continuous
 48
0.5
370
    50
100
AcDbLine
 10
29.800003051757
 20
-3.6000061035156
 30
0.0
 11
34.800003051757
 21
-3.6000061035156
 31
0.0
  0
LINE
  5
E2
330
18
100
AcDbEntity
  8
PV0001_1
  6
Continuous
 48
0.5
370
    50
100
AcDbLine
 10
31.600006103515
 20
-4.200012207031299
 30
0.0
 11
33.80000305175701
 21
-4.200012207031299
 31
0.0
  0
LINE
  5
E3
330
18
100
AcDbEntity
  8
PV0001_1
  6
Continuous
 48
0.5
370
    50
100
AcDbLine
 10
29.793655395507
 20
-8.399993896484399
 30
0.0
 11
34.800003051757
 21
-8.399993896484399
 31
0.0
  0
LINE
  5
E4
330
18
100
AcDbEntity
  8
PV0001_1
  6
Continuous
 48
0.5
370
    50
100
AcDbLine
 10
29.399993896484
 20
-5.0
 30
0.0
 11
29.399993896484
 21
-7.0
 31
0.0
  0
LINE
  5
E5
330
18
100
AcDbEntity
  8
PV0001_1
  6
Continuous
 48
0.5
370
    50
100
AcDbLine
 10
22.800003051757
 20
-5.0
 30
0.0
 11
22.800003051757
 21
-7.0
 31
0.0
  0
LINE
  5
E6
330
18
100
AcDbEntity
  8
PV0001_1
  6
Continuous
 48
0.5
370
    50
100
AcDbLine
 10
20.800003051757
 20
-7.399993896484399
 30
0.0
 11
20.800003051757
 21
-8.399993896484399
 31
0.0
  0
LINE
  5
E7
330
18
100
AcDbEntity
  8
PV0001_1
  6
Continuous
 48
0.5
370
    50
100
AcDbLine
 10
24.199996948242
 20
-3.6000061035156
 30
0.0
 11
28.0
 21
-3.6000061035156
 31
0.0
  0
LINE
  5
E8
330
18
100
AcDbEntity
  8
PV0001_1
  6
Continuous
 48
0.5
370
    50
100
AcDbLine
 10
25.199996948242
 20
-4.200012207031299
 30
0.0
 11
27.0
 21
-4.200012207031299
 31
0.0
  0
LINE
  5
E9
330
18
100
AcDbEntity
  8
PV0001_1
  6
Continuous
 48
0.5
370
    50
100
AcDbLine
 10
24.199996948242
 20
-8.399993896484399
 30
0.0
 11
28.0
 21
-8.399993896484399
 31
0.0
  0
LINE
  5
EA
330
18
100
AcDbEntity
  8
PV0001_1
  6
Continuous
 48
0.5
370
    50
100
AcDbLine
 10
17.899993896484
 20
-7.200012207031299
 30
0.0
 11
17.899993896484
 21
-8.399993896484399
 31
0.0
  0
LINE
  5
EB
330
18
100
AcDbEntity
  8
PV0001_1
  6
Continuous
 48
0.5
370
    50
100
AcDbLine
 10
20.800003051757
 20
-8.399993896484399
 30
0.0
 11
22.5
 21
-8.399993896484399
 31
0.0
  0
LINE
  5
EC
330
18
100
AcDbEntity
  8
PV0001_1
  6
Continuous
 48
0.5
370
    50
100
AcDbLine
 10
18.100006103515
 20
-6.1000061035156
 30
0.0
 11
20.199996948242
 21
-6.1000061035156
 31
0.0
  0
LINE
  5
ED
330
18
100
AcDbEntity
  8
PV0001_1
  6
Continuous
 48
0.5
370
    50
100
AcDbLine
 10
18.100006103515
 20
-4.200012207031299
 30
0.0
 11
20.199996948242
 21
-4.200012207031299
 31
0.0
  0
LINE
  5
EE
330
18
100
AcDbEntity
  8
PV0001_1
  6
Continuous
 48
0.5
370
    50
100
AcDbLine
 10
18.300003051757
 20
-6.799987792968799
 30
0.0
 11
20.199996948242
 21
-6.799987792968799
 31
0.0
  0
LINE
  5
EF
330
18
100
AcDbEntity
  8
PV0001_1
  6
Continuous
 48
0.5
370
    50
100
AcDbLine
 10
17.899993896484
 20
-4.399993896484399
 30
0.0
 11
17.899993896484
 21
-5.899993896484399
 31
0.0
  0
LINE
  5
F0
330
18
100
AcDbEntity
  8
PV0001_1
  6
Continuous
 48
0.5
370
    50
100
AcDbLine
 10
20.800003051757
 20
-4.799987792968799
 30
0.0
 11
20.800003051757
 21
-5.5
 31
0.0
  0
LINE
  5
F1
330
18
100
AcDbEntity
  8
PV0001_1
  6
Continuous
 48
0.5
370
    50
100
AcDbLine
 10
16.300003051757
 20
-3.5999755859375
 30
0.0
 11
16.300003051757
 21
-8.399993896484399
 31
0.0
  0
LINE
  5
F2
330
18
100
AcDbEntity
  8
PV0001_1
  6
Continuous
 48
0.5
370
    50
100
AcDbLine
 10
16.300003051757
 20
-8.399993896484399
 30
0.0
 11
17.899993896484
 21
-8.399993896484399
 31
0.0
  0
LINE
  5
F3
330
18
100
AcDbEntity
  8
PV0001_1
  6
Continuous
 48
0.5
370
    50
100
AcDbLine
 10
16.300003051757
 20
-3.6000061035156
 30
0.0
 11
21.0
 21
-3.6000061035156
 31
0.0
  0
LINE
  5
F4
330
18
100
AcDbEntity
  8
PV0001_1
  6
Continuous
 48
0.5
370
    50
100
AcDbLine
 10
14.399993896484
 20
-3.6000061035156
 30
0.0
 11
15.800003051757
 21
-3.6000061035156
 31
0.0
  0
LINE
  5
F5
330
18
100
AcDbEntity
  8
PV0001_1
  6
Continuous
 48
0.5
370
    50
100
AcDbLine
 10
11.600006103515
 20
-7.6000061035156
 30
0.0
 11
13.800003051757
 21
-7.6000061035156
 31
0.0
  0
LINE
  5
F6
330
18
100
AcDbEntity
  8
PV0001_1
  6
Continuous
 48
0.5
370
    50
100
AcDbLine
 10
14.399993896484
 20
-3.5999755859375
 30
0.0
 11
14.399993896484
 21
-7.0
 31
0.0
  0
LINE
  5
F7
330
18
100
AcDbEntity
  8
PV0001_1
  6
Continuous
 48
0.5
370
    50
100
AcDbLine
 10
11.0
 20
-3.6000061035156
 30
0.0
 11
11.0
 21
-7.0
 31
0.0
  0
LINE
  5
F8
330
18
100
AcDbEntity
  8
PV0001_1
  6
Continuous
 48
0.5
370
    50
100
AcDbLine
 10
15.800003051757
 20
-3.5999755859375
 30
0.0
 11
15.800003051757
 21
-7.200012207031299
 31
0.0
  0
LINE
  5
F9
330
18
100
AcDbEntity
  8
PV0001_1
  6
Continuous
 48
0.5
370
    50
100
AcDbLine
 10
4.6000061035156
 20
-6.200012207031299
 30
0.0
 11
4.6000061035156
 21
-8.399993896484399
 31
0.0
  0
LINE
  5
FA
330
18
100
AcDbEntity
  8
PV0001_1
  6
Continuous
 48
0.5
370
    50
100
AcDbLine
 10
7.199996948242199
 20
-3.6000061035156
 30
0.0
 11
9.199996948242199
 21
-3.6000061035156
 31
0.0
  0
LINE
  5
FB
330
18
100
AcDbEntity
  8
PV0001_1
  6
Continuous
 48
0.5
370
    50
100
AcDbLine
 10
7.6000061035156
 20
-8.399993896484399
 30
0.0
 11
9.6000061035156
 21
-8.399993896484399
 31
0.0
  0
LINE
  5
FC
330
18
100
AcDbEntity
  8
PV0001_1
  6
Continuous
 48
0.5
370
    50
100
AcDbLine
 10
7.330967426299999
 20
-5.469069480895999
 30
0.0
 11
9.2000274658203
 21
-3.600009918212899
 31
0.0
  0
LINE
  5
FD
330
18
100
AcDbEntity
  8
PV0001_1
  6
Continuous
 48
0.5
370
    50
100
AcDbLine
 10
5.8600568771362
 20
-5.322781085967999
 30
0.0
 11
7.1999979019165
 21
-3.599999904632599
 31
0.0
  0
LINE
  5
FE
330
18
100
AcDbEntity
  8
PV0001_1
  6
Continuous
 48
0.5
370
    50
100
AcDbLine
 10
7.320542812347399
 20
-5.740584373474099
 30
0.0
 11
9.600020408630399
 21
-8.399974822998
 31
0.0
  0
LINE
  5
FF
330
18
100
AcDbEntity
  8
PV0001_1
  6
Continuous
 48
0.5
370
    50
100
AcDbLine
 10
5.8599553108215
 20
-6.080024242401099
 30
0.0
 11
7.5999608039856
 21
-8.4000310897827
 31
0.0
  0
LINE
  5
100
330
18
100
AcDbEntity
  8
PV0001_1
  6
Continuous
 48
0.5
370
    50
100
AcDbLine
 10
4.8000030517578
 20
-5.399993896484399
 30
0.0
 11
5.7021789550781
 21
-5.399993896484399
 31
0.0
  0
LINE
  5
101
330
18
100
AcDbEntity
  8
PV0001_1
  6
Continuous
 48
0.5
370
    50
100
AcDbLine
 10
4.8000030517578
 20
-6.0
 30
0.0
 11
5.699996948242199
 21
-6.0
 31
0.0
  0
LINE
  5
102
330
18
100
AcDbEntity
  8
PV0001_1
  6
Continuous
 48
0.5
370
    50
100
AcDbLine
 10
9.6000061035156
 20
-3.6000061035156
 30
0.0
 11
11.0
 21
-3.6000061035156
 31
0.0
  0
LINE
  5
103
330
18
100
AcDbEntity
  8
PV0001_1
  6
Continuous
 48
0.5
370
    50
100
AcDbLine
 10
10.800003051757
 20
-8.399993896484399
 30
0.0
 11
14.600006103515
 21
-8.399993896484399
 31
0.0
  0
LINE
  5
104
330
18
100
AcDbEntity
  8
PV0001_1
  6
Continuous
 48
0.5
370
    50
100
AcDbLine
 10
9.6000061035156
 20
-3.6000061035156
 30
0.0
 11
9.6000061035156
 21
-7.200012207031299
 31
0.0
  0
LINE
  5
105
330
18
100
AcDbEntity
  8
PV0001_1
  6
Continuous
 48
0.5
370
    50
100
AcDbLine
 10
4.6000061035156
 20
-3.6000061035156
 30
0.0
 11
4.6000061035156
 21
-5.200012207031299
 31
0.0
  0
LINE
  5
106
330
18
100
AcDbEntity
  8
PV0001_1
  6
Continuous
 48
0.5
370
    50
100
AcDbLine
 10
3.0
 20
-3.6000061035156
 30
0.0
 11
4.6000061035156
 21
-3.6000061035156
 31
0.0
  0
LINE
  5
107
330
18
100
AcDbEntity
  8
PV0001_1
  6
Continuous
 48
0.5
370
    50
100
AcDbLine
 10
3.0
 20
-3.6000061035156
 30
0.0
 11
3.0
 21
-8.399993896484399
 31
0.0
  0
LINE
  5
108
330
18
100
AcDbEntity
  8
PV0001_1
  6
Continuous
 48
0.5
370
    50
100
AcDbLine
 10
3.0
 20
-8.399993896484399
 30
0.0
 11
4.6000061035156
 21
-8.399993896484399
 31
0.0
  0
LINE
  5
109
330
18
100
AcDbEntity
  8
PV0001_1
  6
Continuous
 48
0.5
370
    50
100
AcDbLine
 10
108.39999389648
 20
0.0
 30
0.0
 11
108.39999389648
 21
-12.0
 31
0.0
  0
LINE
  5
10A
330
18
100
AcDbEntity
  8
PV0001_1
  6
Continuous
 48
0.5
370
    50
100
AcDbLine
 10
46.399993896484
 20
0.0
 30
0.0
 11
46.399993896484
 21
-12.0
 31
0.0
  0
LINE
  5
10B
330
18
100
AcDbEntity
  8
PV0001_1
  6
Continuous
 48
0.5
370
   100
100
AcDbLine
 10
281.71597290039
 20
-3.2999877929688
 30
0.0
 11
281.71597290039
 21
-8.700012207031299
 31
0.0
  0
LINE
  5
10C
330
18
100
AcDbEntity
  8
PV0001_1
  6
Continuous
 48
0.5
370
   100
100
AcDbLine
 10
275.23599243164
 20
-7.620370864868199
 30
0.0
 11
281.71597290039
 21
-8.700367927551299
 31
0.0
  0
LINE
  5
10D
330
18
100
AcDbEntity
  8
PV0001_1
  6
Continuous
 48
0.5
370
   100
100
AcDbLine
 10
275.23596191406
 20
-4.3800048828125
 30
0.0
 11
275.23596191406
 21
-7.620056152343799
 31
0.0
  0
LINE
  5
10E
330
18
100
AcDbEntity
  8
PV0001_1
  6
Continuous
 48
0.5
370
   100
100
AcDbLine
 10
275.23602294921
 20
-4.3803462982178
 30
0.0
 11
281.71603393554
 21
-3.3003439903259
 31
0.0
  0
LINE
  5
10F
330
18
100
AcDbEntity
  8
PV0001_1
  6
CENTER2
 48
0.5
370
    25
100
AcDbLine
 10
274.3935546875
 20
-6.0
 30
0.0
 11
282.82943725585
 21
-6.0
 31
0.0
  0
LINE
  5
110
330
18
100
AcDbEntity
  8
PV0001_1
  6
CENTER2
 48
0.5
370
    25
100
AcDbLine
 10
266.30798339843
 20
-2.05517578125
 30
0.0
 11
266.30798339843
 21
-9.732879638671899
 31
0.0
  0
LINE
  5
111
330
18
100
AcDbEntity
  8
PV0001_1
  6
CENTER2
 48
0.5
370
    25
100
AcDbLine
 10
262.46533203125
 20
-6.0
 30
0.0
 11
270.05261230468
 21
-6.0
 31
0.0
  0
LINE
  5
112
330
18
100
AcDbEntity
  8
PV0001_1
  6
Continuous
 48
0.5
370
    50
100
AcDbLine
 10
289.30798339843
 20
0.0
 30
0.0
 11
289.30798339843
 21
-12.0
 31
0.0
  0
LINE
  5
113
330
18
100
AcDbEntity
  8
PV0001_1
  6
Continuous
 48
0.5
370
    50
100
AcDbLine
 10
259.30798339843
 20
0.0
 30
0.0
 11
259.30798339843
 21
-12.0
 31
0.0
  0
LINE
  5
114
330
18
100
AcDbEntity
  8
PV0001_1
  6
Continuous
 48
0.5
370
    50
100
AcDbLine
 10
232.39999389648
 20
0.0
 30
0.0
 11
232.39999389648
 21
-12.0
 31
0.0
  0
LINE
  5
115
330
18
100
AcDbEntity
  8
PV0001_1
  6
Continuous
370
    50
100
AcDbLine
 10
108.39999389648
 20
-24.0
 30
0.0
 11
259.30798339843
 21
-24.0
 31
0.0
  0
LINE
  5
116
330
18
100
AcDbEntity
  8
PV0001_1
  6
Continuous
 48
0.5
370
    50
100
AcDbLine
 10
232.39999389648
 20
-12.0
 30
0.0
 11
232.39999389648
 21
-24.0
 31
0.0
  0
LINE
  5
117
330
18
100
AcDbEntity
  8
PV0001_1
  6
Continuous
 48
0.5
370
    50
100
AcDbLine
 10
108.39999389648
 20
-12.0
 30
0.0
 11
108.39999389648
 21
-24.0
 31
0.0
  0
LINE
  5
118
330
18
100
AcDbEntity
  8
PV0001_1
  6
Continuous
 48
0.5
370
    50
100
AcDbLine
 10
259.30798339843
 20
-12.0
 30
0.0
 11
259.30798339843
 21
-24.0
 31
0.0
  0
LINE
  5
119
330
18
100
AcDbEntity
  8
PV0001_1
  6
Continuous
370
    50
100
AcDbLine
 10
0.0
 20
-479.4999999999999
 30
0.0
 11
1061.0
 21
-479.4999999999999
 31
0.0
  0
LINE
  5
11A
330
18
100
AcDbEntity
  8
PV0001_1
  6
Continuous
370
    50
100
AcDbLine
 10
108.39999389648
 20
-36.0
 30
0.0
 11
259.30798339843
 21
-36.0
 31
0.0
  0
LINE
  5
11B
330
18
100
AcDbEntity
  8
PV0001_1
  6
Continuous
 48
0.5
370
    50
100
AcDbLine
 10
232.39999389648
 20
-24.0
 30
0.0
 11
232.39999389648
 21
-36.0
 31
0.0
  0
LINE
  5
11C
330
18
100
AcDbEntity
  8
PV0001_1
  6
Continuous
 48
0.5
370
    50
100
AcDbLine
 10
108.39999389648
 20
-24.0
 30
0.0
 11
108.39999389648
 21
-36.0
 31
0.0
  0
LINE
  5
11D
330
18
100
AcDbEntity
  8
PV0001_1
  6
Continuous
 48
0.5
370
    50
100
AcDbLine
 10
259.30798339843
 20
-24.0
 30
0.0
 11
259.30798339843
 21
-36.0
 31
0.0
  0
LINE
  5
11E
330
18
100
AcDbEntity
  8
PV0001_1
  6
Continuous
370
    50
100
AcDbLine
 10
334.0
 20
-278.5
 30
0.0
 11
334.0
 21
-198.5
 31
0.0
  0
LINE
  5
11F
330
18
100
AcDbEntity
  8
PV0001_1
  6
Continuous
370
    50
100
AcDbLine
 10
309.0
 20
-278.5
 30
0.0
 11
309.0
 21
-198.5
 31
0.0
  0
LINE
  5
120
330
18
100
AcDbEntity
  8
PV0001_1
  6
Continuous
 48
0.5
370
    50
100
AcDbLine
 10
334.0
 20
-278.5
 30
0.0
 11
309.0
 21
-278.5
 31
0.0
  0
LINE
  5
121
330
18
100
AcDbEntity
  8
PV0001_1
  6
Continuous
 48
0.5
370
    50
100
AcDbLine
 10
334.0
 20
-198.5
 30
0.0
 11
309.0
 21
-198.5
 31
0.0
  0
LINE
  5
122
330
18
100
AcDbEntity
  8
PV0001_1
  6
Continuous
 48
0.5
370
    50
100
AcDbLine
 10
334.0
 20
-218.0
 30
0.0
 11
309.0
 21
-218.0
 31
0.0
  0
LINE
  5
123
330
18
100
AcDbEntity
  8
PV0001_1
  6
Continuous
 48
0.5
370
    50
100
AcDbLine
 10
334.0
 20
-259.0
 30
0.0
 11
309.0
 21
-259.0
 31
0.0
  0
LINE
  5
124
330
18
100
AcDbEntity
  8
PV0001_1
  6
CENTER2
 48
0.5
370
    25
100
AcDbLine
 10
310.5
 20
-268.5
 30
0.0
 11
332.5
 21
-268.5
 31
0.0
  0
LINE
  5
125
330
18
100
AcDbEntity
  8
PV0001_1
  6
CENTER2
 48
0.5
370
    25
100
AcDbLine
 10
321.5
 20
-279.49996948242
 30
0.0
 11
321.5
 21
-257.5
 31
0.0
  0
LINE
  5
126
330
18
100
AcDbEntity
  8
PV0001_1
  6
CENTER2
 48
0.5
370
    25
100
AcDbLine
 10
310.5
 20
-208.5
 30
0.0
 11
332.5
 21
-208.5
 31
0.0
  0
LINE
  5
127
330
18
100
AcDbEntity
  8
PV0001_1
  6
CENTER2
 48
0.5
370
    25
100
AcDbLine
 10
321.5
 20
-219.49996948242
 30
0.0
 11
321.5
 21
-197.5
 31
0.0
  0
LINE
  5
128
330
18
100
AcDbEntity
  8
PV0001_1
  6
Continuous
370
    50
100
AcDbLine
 10
303.0
 20
-256.99996948242
 30
0.0
 11
303.0
 21
-220.0
 31
0.0
  0
LINE
  5
129
330
18
100
AcDbEntity
  8
PV0001_1
  6
Continuous
 48
0.5
370
    50
100
AcDbLine
 10
309.0
 20
-257.0
 30
0.0
 11
303.0
 21
-257.0
 31
0.0
  0
LINE
  5
12A
330
18
100
AcDbEntity
  8
PV0001_1
  6
Continuous
 48
0.5
370
    50
100
AcDbLine
 10
309.0
 20
-220.00001525878
 30
0.0
 11
303.0
 21
-220.00001525878
 31
0.0
  0
LINE
  5
12B
330
18
100
AcDbEntity
  8
PV0001_1
  6
Continuous
 48
0.5
370
    50
100
AcDbLine
 10
291.0
 20
-249.49996948242
 30
0.0
 11
291.0
 21
-227.5
 31
0.0
  0
LINE
  5
12C
330
18
100
AcDbEntity
  8
PV0001_1
  6
Continuous
 48
0.5
370
    50
100
AcDbLine
 10
300.00003051757
 20
-249.49998474121
 30
0.0
 11
291.0
 21
-249.49998474121
 31
0.0
  0
LINE
  5
12D
330
18
100
AcDbEntity
  8
PV0001_1
  6
Continuous
 48
0.5
370
    50
100
AcDbLine
 10
300.00003051757
 20
-227.50001525878
 30
0.0
 11
291.0
 21
-227.50001525878
 31
0.0
  0
LINE
  5
12E
330
18
100
AcDbEntity
  8
PV0001_1
  6
Continuous
 48
0.5
370
    50
100
AcDbLine
 10
301.0
 20
-248.99998474121
 30
0.0
 11
301.0
 21
-228.0
 31
0.0
  0
LINE
  5
12F
330
18
100
AcDbEntity
  8
PV0001_1
  6
Continuous
 48
0.5
370
    50
100
AcDbLine
 10
300.00003051757
 20
-249.49996948242
 30
0.0
 11
300.00003051757
 21
-227.5
 31
0.0
  0
LINE
  5
130
330
18
100
AcDbEntity
  8
PV0001_1
  6
Continuous
 48
0.5
370
    50
100
AcDbLine
 10
301.0
 20
-249.0
 30
0.0
 11
300.00003051757
 21
-249.0
 31
0.0
  0
LINE
  5
131
330
18
100
AcDbEntity
  8
PV0001_1
  6
Continuous
 48
0.5
370
    50
100
AcDbLine
 10
301.0
 20
-228.0
 30
0.0
 11
300.00003051757
 21
-228.0
 31
0.0
  0
LINE
  5
132
330
18
100
AcDbEntity
  8
PV0001_1
  6
Continuous
 48
0.5
370
    50
100
AcDbLine
 10
303.0
 20
-228.5
 30
0.0
 11
301.0
 21
-228.5
 31
0.0
  0
LINE
  5
133
330
18
100
AcDbEntity
  8
PV0001_1
  6
Continuous
 48
0.5
370
    50
100
AcDbLine
 10
303.0
 20
-248.5
 30
0.0
 11
301.0
 21
-248.5
 31
0.0
  0
LINE
  5
134
330
18
100
AcDbEntity
  8
PV0001_1
  6
Continuous
370
    50
100
AcDbLine
 10
222.49998474121
 20
-259.0
 30
0.0
 11
222.49998474121
 21
-218.0
 31
0.0
  0
LINE
  5
135
330
18
100
AcDbEntity
  8
PV0001_1
  6
Continuous
370
    50
100
AcDbLine
 10
172.49998474121
 20
-278.5
 30
0.0
 11
172.49998474121
 21
-198.5
 31
0.0
  0
LINE
  5
136
330
18
100
AcDbEntity
  8
PV0001_1
  6
Continuous
 48
0.5
370
    50
100
AcDbLine
 10
212.49998474121
 20
-218.0
 30
0.0
 11
212.49998474121
 21
-198.5
 31
0.0
  0
LINE
  5
137
330
18
100
AcDbEntity
  8
PV0001_1
  6
Continuous
 48
0.5
370
    50
100
AcDbLine
 10
222.49998474121
 20
-218.0
 30
0.0
 11
212.49998474121
 21
-218.0
 31
0.0
  0
LINE
  5
138
330
18
100
AcDbEntity
  8
PV0001_1
  6
Continuous
 48
0.5
370
    50
100
AcDbLine
 10
222.49998474121
 20
-259.0
 30
0.0
 11
212.49998474121
 21
-259.0
 31
0.0
  0
LINE
  5
139
330
18
100
AcDbEntity
  8
PV0001_1
  6
Continuous
370
    50
100
AcDbLine
 10
212.49998474121
 20
-198.5
 30
0.0
 11
172.49998474121
 21
-198.5
 31
0.0
  0
LINE
  5
13A
330
18
100
AcDbEntity
  8
PV0001_1
  6
Continuous
370
    50
100
AcDbLine
 10
212.49998474121
 20
-278.5
 30
0.0
 11
172.49998474121
 21
-278.5
 31
0.0
  0
LINE
  5
13B
330
18
100
AcDbEntity
  8
PV0001_1
  6
Continuous
 48
0.5
370
    50
100
AcDbLine
 10
212.49998474121
 20
-278.5
 30
0.0
 11
212.49998474121
 21
-259.0
 31
0.0
  0
LINE
  5
13C
330
18
100
AcDbEntity
  8
PV0001_1
  6
CENTER2
370
    25
100
AcDbLine
 10
214.34074401855
 20
-268.5
 30
0.0
 11
171.02449035644
 21
-268.5
 31
0.0
  0
LINE
  5
13D
330
18
100
AcDbEntity
  8
PV0001_1
  6
DASHED2
 48
0.5
370
    50
100
AcDbLine
 10
212.49998474121
 20
-277.0
 30
0.0
 11
197.49998474121
 21
-277.0
 31
0.0
  0
LINE
  5
13E
330
18
100
AcDbEntity
  8
PV0001_1
  6
DASHED2
 48
0.5
370
    50
100
AcDbLine
 10
212.49998474121
 20
-260.0
 30
0.0
 11
197.49998474121
 21
-260.0
 31
0.0
  0
LINE
  5
13F
330
18
100
AcDbEntity
  8
PV0001_1
  6
DASHED2
 48
0.5
370
    50
100
AcDbLine
 10
197.49998474121
 20
-274.0
 30
0.0
 11
172.49998474121
 21
-274.0
 31
0.0
  0
LINE
  5
140
330
18
100
AcDbEntity
  8
PV0001_1
  6
DASHED2
 48
0.5
370
    50
100
AcDbLine
 10
197.49998474121
 20
-263.0
 30
0.0
 11
172.49998474121
 21
-263.0
 31
0.0
  0
LINE
  5
141
330
18
100
AcDbEntity
  8
PV0001_1
  6
DASHED2
 48
0.5
370
    50
100
AcDbLine
 10
197.49998474121
 20
-276.99996948242
 30
0.0
 11
197.49998474121
 21
-260.0
 31
0.0
  0
LINE
  5
142
330
18
100
AcDbEntity
  8
PV0001_1
  6
DASHED2
 48
0.5
370
    50
100
AcDbLine
 10
212.49998474121
 20
-216.99998474121
 30
0.0
 11
197.49998474121
 21
-216.99998474121
 31
0.0
  0
LINE
  5
143
330
18
100
AcDbEntity
  8
PV0001_1
  6
DASHED2
 48
0.5
370
    50
100
AcDbLine
 10
197.49998474121
 20
-200.0
 30
0.0
 11
197.49998474121
 21
-216.99996948242
 31
0.0
  0
LINE
  5
144
330
18
100
AcDbEntity
  8
PV0001_1
  6
DASHED2
 48
0.5
370
    50
100
AcDbLine
 10
197.49998474121
 20
-214.0
 30
0.0
 11
172.49998474121
 21
-214.0
 31
0.0
  0
LINE
  5
145
330
18
100
AcDbEntity
  8
PV0001_1
  6
CENTER2
370
    25
100
AcDbLine
 10
213.9308013916
 20
-208.5
 30
0.0
 11
170.88784790039
 21
-208.5
 31
0.0
  0
LINE
  5
146
330
18
100
AcDbEntity
  8
PV0001_1
  6
DASHED2
 48
0.5
370
    50
100
AcDbLine
 10
197.49998474121
 20
-203.0
 30
0.0
 11
172.49998474121
 21
-203.0
 31
0.0
  0
LINE
  5
147
330
18
100
AcDbEntity
  8
PV0001_1
  6
DASHED2
 48
0.5
370
    50
100
AcDbLine
 10
212.49998474121
 20
-200.00001525878
 30
0.0
 11
197.49998474121
 21
-200.00001525878
 31
0.0
  0
LINE
  5
148
330
18
100
AcDbEntity
  8
PV0001_1
  6
Continuous
370
    50
100
AcDbLine
 10
218.56237792968
 20
-257.0
 30
0.0
 11
186.43759155273
 21
-257.0
 31
0.0
  0
LINE
  5
149
330
18
100
AcDbEntity
  8
PV0001_1
  6
Continuous
370
    50
100
AcDbLine
 10
218.56237792968
 20
-220.00001525878
 30
0.0
 11
186.43759155273
 21
-220.00001525878
 31
0.0
  0
LINE
  5
14A
330
18
100
AcDbEntity
  8
PV0001_1
  6
Continuous
370
    50
100
AcDbLine
 10
184.0
 20
-254.56237792968
 30
0.0
 11
184.0
 21
-222.43759155273
 31
0.0
  0
LINE
  5
14B
330
18
100
AcDbEntity
  8
PV0001_1
  6
Continuous
370
    50
100
AcDbLine
 10
220.99996948242
 20
-254.56237792968
 30
0.0
 11
220.99996948242
 21
-222.43759155273
 31
0.0
  0
LINE
  5
14C
330
18
100
AcDbEntity
  8
PV0001_1
  6
CENTER2
370
    25
100
AcDbLine
 10
202.49998474121
 20
-281.5
 30
0.0
 11
202.49998474121
 21
-195.5
 31
0.0
  0
LINE
  5
14D
330
18
100
AcDbEntity
  8
PV0001_1
  6
CENTER2
370
    25
100
AcDbLine
 10
224.99899291992
 20
-238.5
 30
0.0
 11
169.52139282226
 21
-238.5
 31
0.0
  0
LINE
  5
14E
330
18
100
AcDbEntity
  8
PV0001_1
  6
CENTER2
 48
0.5
370
    25
100
AcDbLine
 10
193.07986450195
 20
-247.92012023925
 30
0.0
 11
184.33589172363
 21
-256.66409301757
 31
0.0
  0
LINE
  5
14F
330
18
100
AcDbEntity
  8
PV0001_1
  6
Continuous
 48
0.5
370
    50
100
AcDbLine
 10
213.49996948242
 20
-244.43714904785
 30
0.0
 11
213.49996948242
 21
-232.56283569335
 31
0.0
  0
LINE
  5
150
330
18
100
AcDbEntity
  8
PV0001_1
  6
Continuous
 48
0.5
370
    50
100
AcDbLine
 10
191.5
 20
-244.43714904785
 30
0.0
 11
191.5
 21
-232.56283569335
 31
0.0
  0
LINE
  5
151
330
18
100
AcDbEntity
  8
PV0001_1
  6
Continuous
 48
0.5
370
    50
100
AcDbLine
 10
208.43713378906
 20
-249.49998474121
 30
0.0
 11
196.56283569335
 21
-249.49998474121
 31
0.0
  0
LINE
  5
152
330
18
100
AcDbEntity
  8
PV0001_1
  6
Continuous
 48
0.5
370
    50
100
AcDbLine
 10
208.43713378906
 20
-227.50001525878
 30
0.0
 11
196.56283569335
 21
-227.50001525878
 31
0.0
  0
LINE
  5
153
330
18
100
AcDbEntity
  8
PV0001_1
  6
CENTER2
 48
0.5
370
    25
100
AcDbLine
 10
211.92010498046
 20
-247.92015075683
 30
0.0
 11
220.66410827636
 21
-256.66415405273
 31
0.0
  0
LINE
  5
154
330
18
100
AcDbEntity
  8
PV0001_1
  6
CENTER2
 48
0.5
370
    25
100
AcDbLine
 10
193.07986450195
 20
-229.07989501953
 30
0.0
 11
184.33586120605
 21
-220.33590698242
 31
0.0
  0
LINE
  5
155
330
18
100
AcDbEntity
  8
PV0001_1
  6
CENTER2
 48
0.5
370
    25
100
AcDbLine
 10
211.92010498046
 20
-229.07986450195
 30
0.0
 11
220.66409301757
 21
-220.33589172363
 31
0.0
  0
LINE
  5
156
330
18
100
AcDbEntity
  8
PV0001_1
  6
DASHED2
 48
0.5
370
    50
100
AcDbLine
 10
862.0
 20
-246.0
 30
0.0
 11
871.0
 21
-246.0
 31
0.0
  0
LINE
  5
157
330
18
100
AcDbEntity
  8
PV0001_1
  6
DASHED2
 48
0.5
370
    50
100
AcDbLine
 10
862.0
 20
-231.0
 30
0.0
 11
871.0
 21
-231.0
 31
0.0
  0
LINE
  5
158
330
18
100
AcDbEntity
  8
PV0001_1
  6
CENTER2
370
    25
100
AcDbLine
 10
963.4562377929599
 20
-268.5
 30
0.0
 11
1008.4479370117
 21
-268.5
 31
0.0
  0
LINE
  5
159
330
18
100
AcDbEntity
  8
PV0001_1
  6
Continuous
370
    50
100
AcDbLine
 10
966.0
 20
-198.5
 30
0.0
 11
1006.0
 21
-198.5
 31
0.0
  0
LINE
  5
15A
330
18
100
AcDbEntity
  8
PV0001_1
  6
Continuous
370
    50
100
AcDbLine
 10
966.0
 20
-278.5
 30
0.0
 11
1006.0
 21
-278.5
 31
0.0
  0
LINE
  5
15B
330
18
100
AcDbEntity
  8
PV0001_1
  6
CENTER2
370
    25
100
AcDbLine
 10
976.0
 20
-194.68540954589
 30
0.0
 11
976.0
 21
-282.11868286132
 31
0.0
  0
LINE
  5
15C
330
18
100
AcDbEntity
  8
PV0001_1
  6
CENTER2
370
    25
100
AcDbLine
 10
953.2968139648399
 20
-238.5
 30
0.0
 11
1008.6552734375
 21
-238.5
 31
0.0
  0
LINE
  5
15D
330
18
100
AcDbEntity
  8
PV0001_1
  6
CENTER2
370
    25
100
AcDbLine
 10
964.0782470703099
 20
-208.5
 30
0.0
 11
1008.0332641601
 21
-208.5
 31
0.0
  0
LINE
  5
15E
330
18
100
AcDbEntity
  8
PV0001_1
  6
Continuous
370
    50
100
AcDbLine
 10
1006.0
 20
-198.5
 30
0.0
 11
1006.0
 21
-278.5
 31
0.0
  0
LINE
  5
15F
330
18
100
AcDbEntity
  8
PV0001_1
  6
Continuous
370
    50
100
AcDbLine
 10
956.0
 20
-218.0
 30
0.0
 11
956.0
 21
-259.0
 31
0.0
  0
LINE
  5
160
330
18
100
AcDbEntity
  8
PV0001_1
  6
Continuous
 48
0.5
370
    50
100
AcDbLine
 10
956.0
 20
-259.0
 30
0.0
 11
966.0
 21
-259.0
 31
0.0
  0
LINE
  5
161
330
18
100
AcDbEntity
  8
PV0001_1
  6
Continuous
 48
0.5
370
    50
100
AcDbLine
 10
956.0
 20
-218.0
 30
0.0
 11
966.0
 21
-218.0
 31
0.0
  0
LINE
  5
162
330
18
100
AcDbEntity
  8
PV0001_1
  6
Continuous
 48
0.5
370
    50
100
AcDbLine
 10
966.0
 20
-198.5
 30
0.0
 11
966.0
 21
-218.0
 31
0.0
  0
LINE
  5
163
330
18
100
AcDbEntity
  8
PV0001_1
  6
Continuous
 48
0.5
370
    50
100
AcDbLine
 10
966.0
 20
-259.0
 30
0.0
 11
966.0
 21
-278.5
 31
0.0
  0
LINE
  5
164
330
18
100
AcDbEntity
  8
PV0001_1
  6
DASHED2
 48
0.5
370
    50
100
AcDbLine
 10
981.0
 20
-203.0
 30
0.0
 11
1006.0
 21
-203.0
 31
0.0
  0
LINE
  5
165
330
18
100
AcDbEntity
  8
PV0001_1
  6
DASHED2
 48
0.5
370
    50
100
AcDbLine
 10
981.0
 20
-214.0
 30
0.0
 11
1006.0
 21
-214.0
 31
0.0
  0
LINE
  5
166
330
18
100
AcDbEntity
  8
PV0001_1
  6
DASHED2
 48
0.5
370
    50
100
AcDbLine
 10
981.0
 20
-274.0
 30
0.0
 11
1006.0
 21
-274.0
 31
0.0
  0
LINE
  5
167
330
18
100
AcDbEntity
  8
PV0001_1
  6
DASHED2
 48
0.5
370
    50
100
AcDbLine
 10
981.0
 20
-263.0
 30
0.0
 11
1006.0
 21
-263.0
 31
0.0
  0
LINE
  5
168
330
18
100
AcDbEntity
  8
PV0001_1
  6
DASHED2
 48
0.5
370
    50
100
AcDbLine
 10
966.0
 20
-277.00003051757
 30
0.0
 11
981.0
 21
-277.00003051757
 31
0.0
  0
LINE
  5
169
330
18
100
AcDbEntity
  8
PV0001_1
  6
DASHED2
 48
0.5
370
    50
100
AcDbLine
 10
966.0
 20
-260.0
 30
0.0
 11
981.0
 21
-260.0
 31
0.0
  0
LINE
  5
16A
330
18
100
AcDbEntity
  8
PV0001_1
  6
DASHED2
 48
0.5
370
    50
100
AcDbLine
 10
966.0
 20
-217.00003051757
 30
0.0
 11
981.0
 21
-217.00003051757
 31
0.0
  0
LINE
  5
16B
330
18
100
AcDbEntity
  8
PV0001_1
  6
DASHED2
 48
0.5
370
    50
100
AcDbLine
 10
966.0
 20
-200.00001525878
 30
0.0
 11
981.0
 21
-200.00001525878
 31
0.0
  0
LINE
  5
16C
330
18
100
AcDbEntity
  8
PV0001_1
  6
DASHED2
 48
0.5
370
    50
100
AcDbLine
 10
981.0
 20
-200.0
 30
0.0
 11
981.0
 21
-216.99996948242
 31
0.0
  0
LINE
  5
16D
330
18
100
AcDbEntity
  8
PV0001_1
  6
DASHED2
 48
0.5
370
    50
100
AcDbLine
 10
981.0
 20
-260.0
 30
0.0
 11
981.0
 21
-277.0
 31
0.0
  0
LINE
  5
16E
330
18
100
AcDbEntity
  8
PV0001_1
  6
DASHED2
 48
0.5
370
    50
100
AcDbLine
 10
871.0
 20
-222.50001525878
 30
0.0
 11
862.0
 21
-222.50001525878
 31
0.0
  0
LINE
  5
16F
330
18
100
AcDbEntity
  8
PV0001_1
  6
DASHED2
 48
0.5
370
    50
100
AcDbLine
 10
871.0
 20
-254.49998474121
 30
0.0
 11
862.0
 21
-254.49998474121
 31
0.0
  0
LINE
  5
170
330
18
100
AcDbEntity
  8
PV0001_1
  6
DASHED2
 48
0.5
370
    50
100
AcDbLine
 10
872.0
 20
-231.35000610351
 30
0.0
 11
871.0
 21
-231.35000610351
 31
0.0
  0
LINE
  5
171
330
18
100
AcDbEntity
  8
PV0001_1
  6
DASHED2
 48
0.5
370
    50
100
AcDbLine
 10
872.0
 20
-245.64999389648
 30
0.0
 11
871.0
 21
-245.64999389648
 31
0.0
  0
LINE
  5
172
330
18
100
AcDbEntity
  8
PV0001_1
  6
DASHED2
 48
0.5
370
    50
100
AcDbLine
 10
872.0
 20
-226.99998474121
 30
0.0
 11
871.0
 21
-226.99998474121
 31
0.0
  0
LINE
  5
173
330
18
100
AcDbEntity
  8
PV0001_1
  6
DASHED2
 48
0.5
370
    50
100
AcDbLine
 10
872.0
 20
-250.00001525878
 30
0.0
 11
871.0
 21
-250.00001525878
 31
0.0
  0
LINE
  5
174
330
18
100
AcDbEntity
  8
PV0001_1
  6
DASHED2
370
    50
100
AcDbLine
 10
871.0
 20
-254.49998474121
 30
0.0
 11
871.0
 21
-222.50001525878
 31
0.0
  0
LINE
  5
175
330
18
100
AcDbEntity
  8
PV0001_1
  6
DASHED2
370
    50
100
AcDbLine
 10
862.0
 20
-254.49998474121
 30
0.0
 11
862.0
 21
-222.50001525878
 31
0.0
  0
LINE
  5
176
330
18
100
AcDbEntity
  8
PV0001_1
  6
DASHED2
 48
0.5
370
    50
100
AcDbLine
 10
872.0
 20
-250.00001525878
 30
0.0
 11
872.0
 21
-226.99996948242
 31
0.0
  0
LINE
  5
177
330
18
100
AcDbEntity
  8
PV0001_1
  6
Continuous
370
    50
100
AcDbLine
 10
856.4999999999999
 20
-198.5
 30
0.0
 11
856.4999999999999
 21
-278.5
 31
0.0
  0
LINE
  5
178
330
18
100
AcDbEntity
  8
PV0001_1
  6
Continuous
370
    50
100
AcDbLine
 10
876.5
 20
-198.5
 30
0.0
 11
876.5
 21
-278.5
 31
0.0
  0
LINE
  5
179
330
18
100
AcDbEntity
  8
PV0001_1
  6
Continuous
 48
0.5
370
    50
100
AcDbLine
 10
856.4999999999999
 20
-198.5
 30
0.0
 11
876.5
 21
-198.5
 31
0.0
  0
LINE
  5
17A
330
18
100
AcDbEntity
  8
PV0001_1
  6
Continuous
 48
0.5
370
    50
100
AcDbLine
 10
856.4999999999999
 20
-278.5
 30
0.0
 11
876.5
 21
-278.5
 31
0.0
  0
LINE
  5
17B
330
18
100
AcDbEntity
  8
PV0001_1
  6
Continuous
 48
0.5
370
    50
100
AcDbLine
 10
856.4999999999999
 20
-218.0
 30
0.0
 11
876.5
 21
-218.0
 31
0.0
  0
LINE
  5
17C
330
18
100
AcDbEntity
  8
PV0001_1
  6
Continuous
 48
0.5
370
    50
100
AcDbLine
 10
856.4999999999999
 20
-259.0
 30
0.0
 11
876.5
 21
-259.0
 31
0.0
  0
LINE
  5
17D
330
18
100
AcDbEntity
  8
PV0001_1
  6
CENTER2
 48
0.5
370
    25
100
AcDbLine
 10
877.0
 20
-208.5
 30
0.0
 11
856.0
 21
-208.5
 31
0.0
  0
LINE
  5
17E
330
18
100
AcDbEntity
  8
PV0001_1
  6
CENTER2
 48
0.5
370
    25
100
AcDbLine
 10
866.5
 20
-198.0
 30
0.0
 11
866.5
 21
-218.99998474121
 31
0.0
  0
LINE
  5
17F
330
18
100
AcDbEntity
  8
PV0001_1
  6
CENTER2
 48
0.5
370
    25
100
AcDbLine
 10
877.0
 20
-268.5
 30
0.0
 11
856.0
 21
-268.5
 31
0.0
  0
LINE
  5
180
330
18
100
AcDbEntity
  8
PV0001_1
  6
CENTER2
 48
0.5
370
    25
100
AcDbLine
 10
866.5
 20
-258.0
 30
0.0
 11
866.5
 21
-279.0
 31
0.0
  0
LINE
  5
181
330
18
100
AcDbEntity
  8
PV0001_1
  6
DASHED2
 48
0.5
370
    50
100
AcDbLine
 10
871.0
 20
-411.0
 30
0.0
 11
862.0
 21
-411.0
 31
0.0
  0
LINE
  5
182
330
18
100
AcDbEntity
  8
PV0001_1
  6
DASHED2
 48
0.5
370
    50
100
AcDbLine
 10
871.0
 20
-426.0
 30
0.0
 11
862.0
 21
-426.0
 31
0.0
  0
LINE
  5
183
330
18
100
AcDbEntity
  8
PV0001_1
  6
CENTER2
370
    25
100
AcDbLine
 10
204.49998474121
 20
-309.04348754882
 30
0.0
 11
204.49998474121
 21
-367.03482055664
 31
0.0
  0
LINE
  5
184
330
18
100
AcDbEntity
  8
PV0001_1
  6
Continuous
370
    50
100
AcDbLine
 10
186.71656799316
 20
-364.5
 30
0.0
 11
222.28340148925
 21
-364.5
 31
0.0
  0
LINE
  5
185
330
18
100
AcDbEntity
  8
PV0001_1
  6
Continuous
370
    50
100
AcDbLine
 10
186.71656799316
 20
-312.5
 30
0.0
 11
222.28340148925
 21
-312.5
 31
0.0
  0
LINE
  5
186
330
18
100
AcDbEntity
  8
PV0001_1
  6
Continuous
370
    50
100
AcDbLine
 10
230.49998474121
 20
-320.71658325195
 30
0.0
 11
230.49998474121
 21
-356.28341674804
 31
0.0
  0
LINE
  5
187
330
18
100
AcDbEntity
  8
PV0001_1
  6
Continuous
370
    50
100
AcDbLine
 10
178.49998474121
 20
-320.71658325195
 30
0.0
 11
178.49998474121
 21
-356.28341674804
 31
0.0
  0
LINE
  5
188
330
18
100
AcDbEntity
  8
PV0001_1
  6
Continuous
 48
0.5
370
    50
100
AcDbLine
 10
198.56282043457
 20
-327.5
 30
0.0
 11
210.43714904785
 21
-327.5
 31
0.0
  0
LINE
  5
189
330
18
100
AcDbEntity
  8
PV0001_1
  6
Continuous
 48
0.5
370
    50
100
AcDbLine
 10
198.56282043457
 20
-349.5
 30
0.0
 11
210.43714904785
 21
-349.5
 31
0.0
  0
LINE
  5
18A
330
18
100
AcDbEntity
  8
PV0001_1
  6
Continuous
 48
0.5
370
    50
100
AcDbLine
 10
193.49998474121
 20
-332.56283569335
 30
0.0
 11
193.49998474121
 21
-344.43716430664
 31
0.0
  0
LINE
  5
18B
330
18
100
AcDbEntity
  8
PV0001_1
  6
Continuous
 48
0.5
370
    50
100
AcDbLine
 10
215.49998474121
 20
-332.56283569335
 30
0.0
 11
215.49998474121
 21
-344.43716430664
 31
0.0
  0
LINE
  5
18C
330
18
100
AcDbEntity
  8
PV0001_1
  6
CENTER2
370
    25
100
AcDbLine
 10
180.66508483886
 20
-362.33486938476
 30
0.0
 11
228.62460327148
 21
-314.37536621093
 31
0.0
  0
LINE
  5
18D
330
18
100
AcDbEntity
  8
PV0001_1
  6
CENTER2
 48
0.5
370
    25
100
AcDbLine
 10
195.0087890625
 20
-364.57687377929
 30
0.0
 11
198.70735168457
 21
-354.41513061523
 31
0.0
  0
LINE
  5
18E
330
18
100
AcDbEntity
  8
PV0001_1
  6
CENTER2
 48
0.5
370
    25
100
AcDbLine
 10
176.79981994628
 20
-328.41799926757
 30
0.0
 11
189.73645019531
 21
-333.1265258789
 31
0.0
  0
LINE
  5
18F
330
18
100
AcDbEntity
  8
PV0001_1
  6
CENTER2
 48
0.5
370
    25
100
AcDbLine
 10
220.44294738769
 20
-344.30279541015
 30
0.0
 11
231.84922790527
 21
-348.45434570312
 31
0.0
  0
LINE
  5
190
330
18
100
AcDbEntity
  8
PV0001_1
  6
CENTER2
370
    25
100
AcDbLine
 10
181.58168029785
 20
-315.58163452148
 30
0.0
 11
228.54202270507
 21
-362.5419921875
 31
0.0
  0
LINE
  5
191
330
18
100
AcDbEntity
  8
PV0001_1
  6
CENTER2
 48
0.5
370
    25
100
AcDbLine
 10
210.19345092773
 20
-322.85733032226
 30
0.0
 11
214.24565124511
 21
-311.72399902343
 31
0.0
  0
LINE
  5
192
330
18
100
AcDbEntity
  8
PV0001_1
  6
CENTER2
370
    25
100
AcDbLine
 10
177.10623168945
 20
-338.5
 30
0.0
 11
233.8728942871
 21
-338.5
 31
0.0
  0
LINE
  5
193
330
18
100
AcDbEntity
  8
PV0001_1
  6
DASHED2
 48
0.5
370
    50
100
AcDbLine
 10
309.0
 20
-351.42767333984
 30
0.0
 11
303.0
 21
-351.42767333984
 31
0.0
  0
LINE
  5
194
330
18
100
AcDbEntity
  8
PV0001_1
  6
Continuous
370
    50
100
AcDbLine
 10
309.0
 20
-312.5
 30
0.0
 11
309.0
 21
-364.5
 31
0.0
  0
LINE
  5
195
330
18
100
AcDbEntity
  8
PV0001_1
  6
Continuous
370
    50
100
AcDbLine
 10
335.0
 20
-318.5
 30
0.0
 11
335.0
 21
-358.5
 31
0.0
  0
LINE
  5
196
330
18
100
AcDbEntity
  8
PV0001_1
  6
CENTER2
 48
0.5
370
    25
100
AcDbLine
 10
320.73583984375
 20
-356.17767333984
 30
0.0
 11
300.68115234375
 21
-356.17767333984
 31
0.0
  0
LINE
  5
197
330
18
100
AcDbEntity
  8
PV0001_1
  6
Continuous
370
    50
100
AcDbLine
 10
318.0
 20
-312.5
 30
0.0
 11
318.0
 21
-364.5
 31
0.0
  0
LINE
  5
198
330
18
100
AcDbEntity
  8
PV0001_1
  6
Continuous
 48
0.5
370
    50
100
AcDbLine
 10
335.0
 20
-358.5
 30
0.0
 11
318.0
 21
-358.5
 31
0.0
  0
LINE
  5
199
330
18
100
AcDbEntity
  8
PV0001_1
  6
Continuous
 48
0.5
370
    50
100
AcDbLine
 10
335.0
 20
-318.5
 30
0.0
 11
318.0
 21
-318.5
 31
0.0
  0
LINE
  5
19A
330
18
100
AcDbEntity
  8
PV0001_1
  6
Continuous
 48
0.5
370
    50
100
AcDbLine
 10
318.0
 20
-364.5
 30
0.0
 11
303.0
 21
-364.5
 31
0.0
  0
LINE
  5
19B
330
18
100
AcDbEntity
  8
PV0001_1
  6
Continuous
 48
0.5
370
    50
100
AcDbLine
 10
318.0
 20
-312.5
 30
0.0
 11
303.0
 21
-312.5
 31
0.0
  0
LINE
  5
19C
330
18
100
AcDbEntity
  8
PV0001_1
  6
Continuous
 48
0.5
370
    50
100
AcDbLine
 10
291.0
 20
-327.5
 30
0.0
 11
291.0
 21
-349.5
 31
0.0
  0
LINE
  5
19D
330
18
100
AcDbEntity
  8
PV0001_1
  6
Continuous
 48
0.5
370
    50
100
AcDbLine
 10
301.0
 20
-328.0
 30
0.0
 11
301.0
 21
-349.0
 31
0.0
  0
LINE
  5
19E
330
18
100
AcDbEntity
  8
PV0001_1
  6
Continuous
 48
0.5
370
    50
100
AcDbLine
 10
300.0
 20
-327.5
 30
0.0
 11
291.0
 21
-327.5
 31
0.0
  0
LINE
  5
19F
330
18
100
AcDbEntity
  8
PV0001_1
  6
Continuous
 48
0.5
370
    50
100
AcDbLine
 10
300.0
 20
-349.5
 30
0.0
 11
291.0
 21
-349.5
 31
0.0
  0
LINE
  5
1A0
330
18
100
AcDbEntity
  8
PV0001_1
  6
Continuous
 48
0.5
370
    50
100
AcDbLine
 10
301.0
 20
-349.0
 30
0.0
 11
300.0
 21
-349.0
 31
0.0
  0
LINE
  5
1A1
330
18
100
AcDbEntity
  8
PV0001_1
  6
Continuous
 48
0.5
370
    50
100
AcDbLine
 10
301.0
 20
-328.0
 30
0.0
 11
300.0
 21
-328.0
 31
0.0
  0
LINE
  5
1A2
330
18
100
AcDbEntity
  8
PV0001_1
  6
Continuous
 48
0.5
370
    50
100
AcDbLine
 10
300.0
 20
-327.5
 30
0.0
 11
300.0
 21
-349.5
 31
0.0
  0
LINE
  5
1A3
330
18
100
AcDbEntity
  8
PV0001_1
  6
Continuous
 48
0.5
370
    50
100
AcDbLine
 10
303.0
 20
-348.5
 30
0.0
 11
301.0
 21
-348.5
 31
0.0
  0
LINE
  5
1A4
330
18
100
AcDbEntity
  8
PV0001_1
  6
Continuous
 48
0.5
370
    50
100
AcDbLine
 10
303.0
 20
-328.5
 30
0.0
 11
301.0
 21
-328.5
 31
0.0
  0
LINE
  5
1A5
330
18
100
AcDbEntity
  8
PV0001_1
  6
DASHED2
 48
0.5
370
    50
100
AcDbLine
 10
309.0
 20
-360.92767333984
 30
0.0
 11
303.0
 21
-360.92767333984
 31
0.0
  0
LINE
  5
1A6
330
18
100
AcDbEntity
  8
PV0001_1
  6
DASHED2
 48
0.5
370
    50
100
AcDbLine
 10
318.0
 20
-353.42767333984
 30
0.0
 11
309.0
 21
-353.42767333984
 31
0.0
  0
LINE
  5
1A7
330
18
100
AcDbEntity
  8
PV0001_1
  6
DASHED2
 48
0.5
370
    50
100
AcDbLine
 10
318.0
 20
-358.92767333984
 30
0.0
 11
309.0
 21
-358.92767333984
 31
0.0
  0
LINE
  5
1A8
330
18
100
AcDbEntity
  8
PV0001_1
  6
Continuous
370
    50
100
AcDbLine
 10
303.0
 20
-312.5
 30
0.0
 11
303.0
 21
-364.5
 31
0.0
  0
LINE
  5
1A9
330
18
100
AcDbEntity
  8
PV0001_1
  6
Continuous
370
    50
100
AcDbLine
 10
862.0
 20
-402.5
 30
0.0
 11
862.0
 21
-434.4999999999999
 31
0.0
  0
LINE
  5
1AA
330
18
100
AcDbEntity
  8
PV0001_1
  6
Continuous
370
    50
100
AcDbLine
 10
871.0
 20
-402.5
 30
0.0
 11
871.0
 21
-434.4999999999999
 31
0.0
  0
LINE
  5
1AB
330
18
100
AcDbEntity
  8
PV0001_1
  6
Continuous
 48
0.5
370
    50
100
AcDbLine
 10
871.0
 20
-434.4999999999999
 30
0.0
 11
862.0
 21
-434.4999999999999
 31
0.0
  0
LINE
  5
1AC
330
18
100
AcDbEntity
  8
PV0001_1
  6
Continuous
 48
0.5
370
    50
100
AcDbLine
 10
871.0
 20
-402.5
 30
0.0
 11
862.0
 21
-402.5
 31
0.0
  0
LINE
  5
1AD
330
18
100
AcDbEntity
  8
PV0001_1
  6
Continuous
 48
0.5
370
    50
100
AcDbLine
 10
872.0
 20
-425.6499938964799
 30
0.0
 11
871.0
 21
-425.6499938964799
 31
0.0
  0
LINE
  5
1AE
330
18
100
AcDbEntity
  8
PV0001_1
  6
Continuous
 48
0.5
370
    50
100
AcDbLine
 10
872.0
 20
-411.3500061035099
 30
0.0
 11
871.0
 21
-411.3500061035099
 31
0.0
  0
LINE
  5
1AF
330
18
100
AcDbEntity
  8
PV0001_1
  6
Continuous
 48
0.5
370
    50
100
AcDbLine
 10
872.0
 20
-430.0
 30
0.0
 11
871.0
 21
-430.0
 31
0.0
  0
LINE
  5
1B0
330
18
100
AcDbEntity
  8
PV0001_1
  6
Continuous
 48
0.5
370
    50
100
AcDbLine
 10
872.0
 20
-407.0
 30
0.0
 11
871.0
 21
-407.0
 31
0.0
  0
LINE
  5
1B1
330
18
100
AcDbEntity
  8
PV0001_1
  6
Continuous
 48
0.5
370
    50
100
AcDbLine
 10
872.0
 20
-407.0
 30
0.0
 11
872.0
 21
-430.0
 31
0.0
  0
LINE
  5
1B2
330
18
100
AcDbEntity
  8
PV0001_1
  6
DASHED2
 48
0.5
370
    50
100
AcDbLine
 10
331.0
 20
-405.57232666015
 30
0.0
 11
337.0
 21
-405.57232666015
 31
0.0
  0
LINE
  5
1B3
330
18
100
AcDbEntity
  8
PV0001_1
  6
Continuous
370
    50
100
AcDbLine
 10
331.0
 20
-444.5
 30
0.0
 11
331.0
 21
-392.5
 31
0.0
  0
LINE
  5
1B4
330
18
100
AcDbEntity
  8
PV0001_1
  6
Continuous
370
    50
100
AcDbLine
 10
305.0
 20
-438.4999999999999
 30
0.0
 11
305.0
 21
-398.5
 31
0.0
  0
LINE
  5
1B5
330
18
100
AcDbEntity
  8
PV0001_1
  6
CENTER2
 48
0.5
370
    25
100
AcDbLine
 10
319.26416015625
 20
-400.82232666015
 30
0.0
 11
339.31884765625
 21
-400.82232666015
 31
0.0
  0
LINE
  5
1B6
330
18
100
AcDbEntity
  8
PV0001_1
  6
Continuous
370
    50
100
AcDbLine
 10
322.0
 20
-444.5
 30
0.0
 11
322.0
 21
-392.5
 31
0.0
  0
LINE
  5
1B7
330
18
100
AcDbEntity
  8
PV0001_1
  6
Continuous
 48
0.5
370
    50
100
AcDbLine
 10
305.0
 20
-398.5
 30
0.0
 11
322.0
 21
-398.5
 31
0.0
  0
LINE
  5
1B8
330
18
100
AcDbEntity
  8
PV0001_1
  6
Continuous
 48
0.5
370
    50
100
AcDbLine
 10
305.0
 20
-438.4999999999999
 30
0.0
 11
322.0
 21
-438.4999999999999
 31
0.0
  0
LINE
  5
1B9
330
18
100
AcDbEntity
  8
PV0001_1
  6
Continuous
 48
0.5
370
    50
100
AcDbLine
 10
322.0
 20
-392.5
 30
0.0
 11
337.0
 21
-392.5
 31
0.0
  0
LINE
  5
1BA
330
18
100
AcDbEntity
  8
PV0001_1
  6
Continuous
 48
0.5
370
    50
100
AcDbLine
 10
322.0
 20
-444.5
 30
0.0
 11
337.0
 21
-444.5
 31
0.0
  0
LINE
  5
1BB
330
18
100
AcDbEntity
  8
PV0001_1
  6
Continuous
 48
0.5
370
    50
100
AcDbLine
 10
291.0
 20
-407.5
 30
0.0
 11
291.0
 21
-429.4999999999999
 31
0.0
  0
LINE
  5
1BC
330
18
100
AcDbEntity
  8
PV0001_1
  6
Continuous
 48
0.5
370
    50
100
AcDbLine
 10
301.0
 20
-408.0
 30
0.0
 11
301.0
 21
-429.0
 31
0.0
  0
LINE
  5
1BD
330
18
100
AcDbEntity
  8
PV0001_1
  6
Continuous
 48
0.5
370
    50
100
AcDbLine
 10
300.0
 20
-407.5
 30
0.0
 11
291.0
 21
-407.5
 31
0.0
  0
LINE
  5
1BE
330
18
100
AcDbEntity
  8
PV0001_1
  6
Continuous
 48
0.5
370
    50
100
AcDbLine
 10
300.0
 20
-429.4999999999999
 30
0.0
 11
291.0
 21
-429.4999999999999
 31
0.0
  0
LINE
  5
1BF
330
18
100
AcDbEntity
  8
PV0001_1
  6
Continuous
 48
0.5
370
    50
100
AcDbLine
 10
301.0
 20
-429.0
 30
0.0
 11
300.0
 21
-429.0
 31
0.0
  0
LINE
  5
1C0
330
18
100
AcDbEntity
  8
PV0001_1
  6
Continuous
 48
0.5
370
    50
100
AcDbLine
 10
301.0
 20
-408.0
 30
0.0
 11
300.0
 21
-408.0
 31
0.0
  0
LINE
  5
1C1
330
18
100
AcDbEntity
  8
PV0001_1
  6
Continuous
 48
0.5
370
    50
100
AcDbLine
 10
300.0
 20
-407.5
 30
0.0
 11
300.0
 21
-429.4999999999999
 31
0.0
  0
LINE
  5
1C2
330
18
100
AcDbEntity
  8
PV0001_1
  6
Continuous
 48
0.5
370
    50
100
AcDbLine
 10
305.0
 20
-428.5
 30
0.0
 11
301.0
 21
-428.5
 31
0.0
  0
LINE
  5
1C3
330
18
100
AcDbEntity
  8
PV0001_1
  6
Continuous
 48
0.5
370
    50
100
AcDbLine
 10
305.0
 20
-408.4999999999999
 30
0.0
 11
301.0
 21
-408.4999999999999
 31
0.0
  0
LINE
  5
1C4
330
18
100
AcDbEntity
  8
PV0001_1
  6
DASHED2
 48
0.5
370
    50
100
AcDbLine
 10
331.0
 20
-396.07232666015
 30
0.0
 11
337.0
 21
-396.07232666015
 31
0.0
  0
LINE
  5
1C5
330
18
100
AcDbEntity
  8
PV0001_1
  6
DASHED2
 48
0.5
370
    50
100
AcDbLine
 10
322.0
 20
-403.5723266601499
 30
0.0
 11
331.0
 21
-403.5723266601499
 31
0.0
  0
LINE
  5
1C6
330
18
100
AcDbEntity
  8
PV0001_1
  6
DASHED2
 48
0.5
370
    50
100
AcDbLine
 10
322.0
 20
-398.07232666015
 30
0.0
 11
331.0
 21
-398.07232666015
 31
0.0
  0
LINE
  5
1C7
330
18
100
AcDbEntity
  8
PV0001_1
  6
Continuous
370
    50
100
AcDbLine
 10
337.0
 20
-444.5
 30
0.0
 11
337.0
 21
-392.5
 31
0.0
  0
LINE
  5
1C8
330
18
100
AcDbEntity
  8
PV0001_1
  6
Continuous
 48
0.5
370
    25
100
AcDbLine
 10
304.0
 20
-81.63399505615201
 30
0.0
 11
305.09811401367
 21
-81.0
 31
0.0
  0
LINE
  5
1C9
330
18
100
AcDbEntity
  8
PV0001_1
  6
Continuous
 48
0.5
370
    50
100
AcDbLine
 10
872.1500244140599
 20
-81.0
 30
0.0
 11
872.1500244140599
 21
-96.0
 31
0.0
  0
LINE
  5
1CA
330
18
100
AcDbEntity
  8
PV0001_1
  6
CENTER2
370
    25
100
AcDbLine
 10
784.44262695312
 20
-88.49999999999999
 30
0.0
 11
881.09344482421
 21
-88.49999999999999
 31
0.0
  0
LINE
  5
1CB
330
18
100
AcDbEntity
  8
PV0001_1
  6
CENTER2
 48
0.5
370
    25
100
AcDbLine
 10
341.5
 20
-75.598678588867
 30
0.0
 11
341.5
 21
-101.59375762939
 31
0.0
  0
LINE
  5
1CC
330
18
100
AcDbEntity
  8
PV0001_1
  6
Continuous
370
    25
100
AcDbLine
 10
794.0
 20
-79.75
 30
0.0
 11
862.0
 21
-79.75
 31
0.0
  0
LINE
  5
1CD
330
18
100
AcDbEntity
  8
PV0001_1
  6
Continuous
370
    50
100
AcDbLine
 10
794.0
 20
-78.5
 30
0.0
 11
862.0
 21
-78.5
 31
0.0
  0
LINE
  5
1CE
330
18
100
AcDbEntity
  8
PV0001_1
  6
Continuous
370
    25
100
AcDbLine
 10
794.0
 20
-97.25000000000001
 30
0.0
 11
862.0
 21
-97.25000000000001
 31
0.0
  0
LINE
  5
1CF
330
18
100
AcDbEntity
  8
PV0001_1
  6
Continuous
370
    50
100
AcDbLine
 10
794.0
 20
-98.50000000000001
 30
0.0
 11
862.0
 21
-98.50000000000001
 31
0.0
  0
LINE
  5
1D0
330
18
100
AcDbEntity
  8
PV0001_1
  6
Continuous
 48
0.5
370
    50
100
AcDbLine
 10
344.0
 20
-79.75
 30
0.0
 11
349.0
 21
-79.75
 31
0.0
  0
LINE
  5
1D1
330
18
100
AcDbEntity
  8
PV0001_1
  6
Continuous
 48
0.5
370
    50
100
AcDbLine
 10
344.0
 20
-97.25000000000001
 30
0.0
 11
349.0
 21
-97.25000000000001
 31
0.0
  0
LINE
  5
1D2
330
18
100
AcDbEntity
  8
PV0001_1
  6
Continuous
370
    50
100
AcDbLine
 10
349.0
 20
-78.5
 30
0.0
 11
389.0
 21
-78.5
 31
0.0
  0
LINE
  5
1D3
330
18
100
AcDbEntity
  8
PV0001_1
  6
Continuous
370
    50
100
AcDbLine
 10
349.0
 20
-98.50000000000001
 30
0.0
 11
389.0
 21
-98.50000000000001
 31
0.0
  0
LINE
  5
1D4
330
18
100
AcDbEntity
  8
PV0001_1
  6
Continuous
 48
0.5
370
    50
100
AcDbLine
 10
872.1500244140599
 20
-96.0
 30
0.0
 11
874.0
 21
-96.0
 31
0.0
  0
LINE
  5
1D5
330
18
100
AcDbEntity
  8
PV0001_1
  6
Continuous
 48
0.5
370
    50
100
AcDbLine
 10
871.0
 20
-81.349998474121
 30
0.0
 11
872.1500244140599
 21
-81.349998474121
 31
0.0
  0
LINE
  5
1D6
330
18
100
AcDbEntity
  8
PV0001_1
  6
Continuous
 48
0.5
370
    50
100
AcDbLine
 10
871.0
 20
-95.65000152587799
 30
0.0
 11
872.1500244140599
 21
-95.65000152587799
 31
0.0
  0
LINE
  5
1D7
330
18
100
AcDbEntity
  8
PV0001_1
  6
Continuous
 48
0.5
370
    50
100
AcDbLine
 10
872.1500244140599
 20
-81.0
 30
0.0
 11
874.0
 21
-81.0
 31
0.0
  0
LINE
  5
1D8
330
18
100
AcDbEntity
  8
PV0001_1
  6
Continuous
 48
0.5
370
    50
100
AcDbLine
 10
344.0
 20
-83.23217010498
 30
0.0
 11
339.0
 21
-83.23217010498
 31
0.0
  0
LINE
  5
1D9
330
18
100
AcDbEntity
  8
PV0001_1
  6
Continuous
 48
0.5
370
    50
100
AcDbLine
 10
344.0
 20
-93.76782989501901
 30
0.0
 11
339.0
 21
-93.76782989501901
 31
0.0
  0
LINE
  5
1DA
330
18
100
AcDbEntity
  8
PV0001_1
  6
Continuous
 48
0.5
370
    25
100
AcDbLine
 10
339.0
 20
-83.23217010498
 30
0.0
 11
344.0
 21
-93.76782989501901
 31
0.0
  0
LINE
  5
1DB
330
18
100
AcDbEntity
  8
PV0001_1
  6
Continuous
 48
0.5
370
    25
100
AcDbLine
 10
339.0
 20
-93.76782989501901
 30
0.0
 11
344.0
 21
-83.23217010498
 31
0.0
  0
LINE
  5
1DC
330
18
100
AcDbEntity
  8
PV0001_1
  6
CENTER2
370
    25
100
AcDbLine
 10
260.92529296875
 20
-88.49999999999999
 30
0.0
 11
395.02508544921
 21
-88.49999999999999
 31
0.0
  0
LINE
  5
1DD
330
18
100
AcDbEntity
  8
PV0001_1
  6
Continuous
 48
0.5
370
    25
100
AcDbLine
 10
304.0
 20
-95.36599731445299
 30
0.0
 11
305.09811401367
 21
-96.0
 31
0.0
  0
LINE
  5
1DE
330
18
100
AcDbEntity
  8
PV0001_1
  6
Continuous
 48
0.5
370
    50
100
AcDbLine
 10
339.0
 20
-83.23217010498
 30
0.0
 11
339.0
 21
-93.76782989501901
 31
0.0
  0
LINE
  5
1DF
330
18
100
AcDbEntity
  8
PV0001_1
  6
Continuous
 48
0.5
370
    50
100
AcDbLine
 10
874.0
 20
-81.0
 30
0.0
 11
874.0
 21
-96.0
 31
0.0
  0
LINE
  5
1E0
330
18
100
AcDbEntity
  8
PV0001_1
  6
Continuous
 48
0.5
370
    50
100
AcDbLine
 10
862.0
 20
-78.5
 30
0.0
 11
862.0
 21
-98.50000000000001
 31
0.0
  0
LINE
  5
1E1
330
18
100
AcDbEntity
  8
PV0001_1
  6
Continuous
 48
0.5
370
    50
100
AcDbLine
 10
862.2999877929599
 20
-81.0
 30
0.0
 11
871.0
 21
-81.0
 31
0.0
  0
LINE
  5
1E2
330
18
100
AcDbEntity
  8
PV0001_1
  6
Continuous
 48
0.5
370
    50
100
AcDbLine
 10
349.0
 20
-78.5
 30
0.0
 11
349.0
 21
-98.50000000000001
 31
0.0
  0
LINE
  5
1E3
330
18
100
AcDbEntity
  8
PV0001_1
  6
Continuous
 48
0.5
370
    50
100
AcDbLine
 10
862.2999877929599
 20
-96.0
 30
0.0
 11
871.0
 21
-96.0
 31
0.0
  0
LINE
  5
1E4
330
18
100
AcDbEntity
  8
PV0001_1
  6
Continuous
 48
0.5
370
    50
100
AcDbLine
 10
329.0
 20
-78.5
 30
0.0
 11
344.0
 21
-78.5
 31
0.0
  0
LINE
  5
1E5
330
18
100
AcDbEntity
  8
PV0001_1
  6
Continuous
 48
0.5
370
    25
100
AcDbLine
 10
289.0
 20
-81.634002685546
 30
0.0
 11
304.0
 21
-81.634002685546
 31
0.0
  0
LINE
  5
1E6
330
18
100
AcDbEntity
  8
PV0001_1
  6
Continuous
 48
0.5
370
    50
100
AcDbLine
 10
304.0
 20
-81.0
 30
0.0
 11
304.0
 21
-96.0
 31
0.0
  0
LINE
  5
1E7
330
18
100
AcDbEntity
  8
PV0001_1
  6
Continuous
 48
0.5
370
    25
100
AcDbLine
 10
289.0
 20
-95.36599731445299
 30
0.0
 11
304.0
 21
-95.36599731445299
 31
0.0
  0
LINE
  5
1E8
330
18
100
AcDbEntity
  8
PV0001_1
  6
Continuous
 48
0.5
370
    50
100
AcDbLine
 10
329.0
 20
-98.50000000000001
 30
0.0
 11
344.0
 21
-98.50000000000001
 31
0.0
  0
LINE
  5
1E9
330
18
100
AcDbEntity
  8
PV0001_1
  6
Continuous
370
    50
100
AcDbLine
 10
289.0
 20
-81.0
 30
0.0
 11
328.70001220703
 21
-81.0
 31
0.0
  0
LINE
  5
1EA
330
18
100
AcDbEntity
  8
PV0001_1
  6
Continuous
 48
0.5
370
    50
100
AcDbLine
 10
269.0
 20
-94.50000000000001
 30
0.0
 11
289.0
 21
-94.50000000000001
 31
0.0
  0
LINE
  5
1EB
330
18
100
AcDbEntity
  8
PV0001_1
  6
Continuous
370
    50
100
AcDbLine
 10
289.0
 20
-96.0
 30
0.0
 11
328.70001220703
 21
-96.0
 31
0.0
  0
LINE
  5
1EC
330
18
100
AcDbEntity
  8
PV0001_1
  6
Continuous
 48
0.5
370
    50
100
AcDbLine
 10
871.0
 20
-81.0
 30
0.0
 11
871.0
 21
-96.0
 31
0.0
  0
LINE
  5
1ED
330
18
100
AcDbEntity
  8
PV0001_1
  6
Continuous
 48
0.5
370
    50
100
AcDbLine
 10
269.0
 20
-82.5
 30
0.0
 11
269.0
 21
-94.50000000000001
 31
0.0
  0
LINE
  5
1EE
330
18
100
AcDbEntity
  8
PV0001_1
  6
Continuous
 48
0.5
370
    50
100
AcDbLine
 10
289.0
 20
-81.0
 30
0.0
 11
289.0
 21
-96.0
 31
0.0
  0
LINE
  5
1EF
330
18
100
AcDbEntity
  8
PV0001_1
  6
Continuous
 48
0.5
370
    50
100
AcDbLine
 10
344.0
 20
-78.5
 30
0.0
 11
344.0
 21
-98.50000000000001
 31
0.0
  0
LINE
  5
1F0
330
18
100
AcDbEntity
  8
PV0001_1
  6
Continuous
 48
0.5
370
    50
100
AcDbLine
 10
329.0
 20
-78.5
 30
0.0
 11
329.0
 21
-98.50000000000001
 31
0.0
  0
LINE
  5
1F1
330
18
100
AcDbEntity
  8
PV0001_1
  6
Continuous
 48
0.5
370
    50
100
AcDbLine
 10
269.0
 20
-82.5
 30
0.0
 11
289.0
 21
-82.5
 31
0.0
  0
LINE
  5
1F2
330
18
100
AcDbEntity
  8
PV0001_1
  6
Continuous
370
    25
100
AcDbLine
 10
349.0
 20
-79.75
 30
0.0
 11
389.0
 21
-79.75
 31
0.0
  0
LINE
  5
1F3
330
18
100
AcDbEntity
  8
PV0001_1
  6
Continuous
370
    25
100
AcDbLine
 10
349.0
 20
-97.25000000000001
 30
0.0
 11
389.0
 21
-97.25000000000001
 31
0.0
  0
LINE
  5
1F4
330
18
100
AcDbEntity
  8
PV0001_1
  6
CENTER2
370
    25
100
AcDbLine
 10
175.36051940917
 20
-138.5
 30
0.0
 11
233.41627502441
 21
-138.5
 31
0.0
  0
LINE
  5
1F5
330
18
100
AcDbEntity
  8
PV0001_1
  6
CENTER2
370
    25
100
AcDbLine
 10
204.49998474121
 20
-106.25715637207
 30
0.0
 11
204.49998474121
 21
-170.69755554199
 31
0.0
  0
LINE
  5
1F6
330
18
100
AcDbEntity
  8
PV0001_1
  6
Continuous
370
    50
100
AcDbLine
 10
184.49998474121
 20
-111.00454711914
 30
0.0
 11
184.49998474121
 21
-165.99545288085
 31
0.0
  0
LINE
  5
1F7
330
18
100
AcDbEntity
  8
PV0001_1
  6
Continuous
370
    50
100
AcDbLine
 10
224.49998474121
 20
-111.00454711914
 30
0.0
 11
224.49998474121
 21
-165.99545288085
 31
0.0
  0
LINE
  5
1F8
330
18
100
AcDbEntity
  8
PV0001_1
  6
Continuous
370
    50
100
AcDbLine
 10
188.49998474121
 20
-108.5
 30
0.0
 11
220.49998474121
 21
-108.5
 31
0.0
  0
LINE
  5
1F9
330
18
100
AcDbEntity
  8
PV0001_1
  6
Continuous
370
    50
100
AcDbLine
 10
188.49998474121
 20
-168.5
 30
0.0
 11
220.49998474121
 21
-168.5
 31
0.0
  0
LINE
  5
1FA
330
18
100
AcDbEntity
  8
PV0001_1
  6
CENTER2
 48
0.5
370
    25
100
AcDbLine
 10
212.74996948242
 20
-124.21058654785
 30
0.0
 11
222.74996948242
 21
-106.89008331298
 31
0.0
  0
LINE
  5
1FB
330
18
100
AcDbEntity
  8
PV0001_1
  6
CENTER2
 48
0.5
370
    25
100
AcDbLine
 10
186.24996948242
 20
-170.1099243164
 30
0.0
 11
196.24996948242
 21
-152.78941345214
 31
0.0
  0
LINE
  5
1FC
330
18
100
AcDbEntity
  8
PV0001_1
  6
CENTER2
 48
0.5
370
    25
100
AcDbLine
 10
212.74996948242
 20
-152.78941345214
 30
0.0
 11
222.74996948242
 21
-170.10990905761
 31
0.0
  0
LINE
  5
1FD
330
18
100
AcDbEntity
  8
PV0001_1
  6
CENTER2
 48
0.5
370
    25
100
AcDbLine
 10
186.24996948242
 20
-106.89008331298
 30
0.0
 11
196.24996948242
 21
-124.21058654785
 31
0.0
  0
LINE
  5
1FE
330
18
100
AcDbEntity
  8
PV0001_1
  6
Continuous
370
    50
100
AcDbLine
 10
377.0
 20
-108.5
 30
0.0
 11
377.0
 21
-168.5
 31
0.0
  0
LINE
  5
1FF
330
18
100
AcDbEntity
  8
PV0001_1
  6
Continuous
370
    50
100
AcDbLine
 10
365.0
 20
-108.5
 30
0.0
 11
365.0
 21
-168.5
 31
0.0
  0
LINE
  5
200
330
18
100
AcDbEntity
  8
PV0001_1
  6
Continuous
370
    50
100
AcDbLine
 10
413.0
 20
-118.5
 30
0.0
 11
413.0
 21
-158.5
 31
0.0
  0
LINE
  5
201
330
18
100
AcDbEntity
  8
PV0001_1
  6
Continuous
 48
0.5
370
    50
100
AcDbLine
 10
349.0
 20
-128.5
 30
0.0
 11
349.0
 21
-148.5
 31
0.0
  0
LINE
  5
202
330
18
100
AcDbEntity
  8
PV0001_1
  6
Continuous
 48
0.5
370
    50
100
AcDbLine
 10
344.0
 20
-128.5
 30
0.0
 11
344.0
 21
-148.5
 31
0.0
  0
LINE
  5
203
330
18
100
AcDbEntity
  8
PV0001_1
  6
Continuous
 48
0.5
370
    50
100
AcDbLine
 10
269.0
 20
-128.75
 30
0.0
 11
269.0
 21
-148.25
 31
0.0
  0
LINE
  5
204
330
18
100
AcDbEntity
  8
PV0001_1
  6
Continuous
370
    50
100
AcDbLine
 10
294.0
 20
-148.5
 30
0.0
 11
344.0
 21
-148.5
 31
0.0
  0
LINE
  5
205
330
18
100
AcDbEntity
  8
PV0001_1
  6
Continuous
370
    50
100
AcDbLine
 10
294.0
 20
-128.5
 30
0.0
 11
344.0
 21
-128.5
 31
0.0
  0
LINE
  5
206
330
18
100
AcDbEntity
  8
PV0001_1
  6
Continuous
370
    50
100
AcDbLine
 10
377.0
 20
-118.5
 30
0.0
 11
413.0
 21
-118.5
 31
0.0
  0
LINE
  5
207
330
18
100
AcDbEntity
  8
PV0001_1
  6
Continuous
370
    50
100
AcDbLine
 10
377.0
 20
-158.5
 30
0.0
 11
413.0
 21
-158.5
 31
0.0
  0
LINE
  5
208
330
18
100
AcDbEntity
  8
PV0001_1
  6
Continuous
 48
0.5
370
    50
100
AcDbLine
 10
365.0
 20
-168.5
 30
0.0
 11
377.0
 21
-168.5
 31
0.0
  0
LINE
  5
209
330
18
100
AcDbEntity
  8
PV0001_1
  6
Continuous
 48
0.5
370
    50
100
AcDbLine
 10
365.0
 20
-108.5
 30
0.0
 11
377.0
 21
-108.5
 31
0.0
  0
LINE
  5
20A
330
18
100
AcDbEntity
  8
PV0001_1
  6
Continuous
370
    50
100
AcDbLine
 10
413.0
 20
-128.5
 30
0.0
 11
874.0
 21
-128.5
 31
0.0
  0
LINE
  5
20B
330
18
100
AcDbEntity
  8
PV0001_1
  6
Continuous
370
    50
100
AcDbLine
 10
413.0
 20
-148.5
 30
0.0
 11
874.0
 21
-148.5
 31
0.0
  0
LINE
  5
20C
330
18
100
AcDbEntity
  8
PV0001_1
  6
Continuous
 48
0.5
370
    50
100
AcDbLine
 10
349.0
 20
-128.5
 30
0.0
 11
365.0
 21
-128.5
 31
0.0
  0
LINE
  5
20D
330
18
100
AcDbEntity
  8
PV0001_1
  6
Continuous
 48
0.5
370
    50
100
AcDbLine
 10
349.0
 20
-148.5
 30
0.0
 11
365.0
 21
-148.5
 31
0.0
  0
LINE
  5
20E
330
18
100
AcDbEntity
  8
PV0001_1
  6
CENTER2
370
    25
100
AcDbLine
 10
268.3547668457
 20
-138.5
 30
0.0
 11
876.0447998046799
 21
-138.5
 31
0.0
  0
LINE
  5
20F
330
18
100
AcDbEntity
  8
PV0001_1
  6
Continuous
 48
0.5
370
    50
100
AcDbLine
 10
874.0
 20
-128.5
 30
0.0
 11
874.0
 21
-148.5
 31
0.0
  0
LINE
  5
210
330
18
100
AcDbEntity
  8
PV0001_1
  6
Continuous
 48
0.5
370
    50
100
AcDbLine
 10
377.0
 20
-125.38550567626
 30
0.0
 11
404.0
 21
-125.38550567626
 31
0.0
  0
LINE
  5
211
330
18
100
AcDbEntity
  8
PV0001_1
  6
Continuous
 48
0.5
370
    50
100
AcDbLine
 10
377.0
 20
-151.61450195312
 30
0.0
 11
404.0
 21
-151.61450195312
 31
0.0
  0
LINE
  5
212
330
18
100
AcDbEntity
  8
PV0001_1
  6
Continuous
 48
0.5
370
    50
100
AcDbLine
 10
404.0
 20
-125.38550567626
 30
0.0
 11
404.0
 21
-151.61450195312
 31
0.0
  0
LINE
  5
213
330
18
100
AcDbEntity
  8
PV0001_1
  6
PHANTOM2
370
    25
100
AcDbLine
 10
381.3689880371
 20
-153.54954528808
 30
0.0
 11
399.43112182617
 21
-123.77996063232
 31
0.0
  0
LINE
  5
214
330
18
100
AcDbEntity
  8
PV0001_1
  6
Continuous
 48
0.5
370
    50
100
AcDbLine
 10
344.0
 20
-147.25
 30
0.0
 11
349.0
 21
-147.25
 31
0.0
  0
LINE
  5
215
330
18
100
AcDbEntity
  8
PV0001_1
  6
Continuous
 48
0.5
370
    50
100
AcDbLine
 10
344.0
 20
-129.75
 30
0.0
 11
349.0
 21
-129.75
 31
0.0
  0
LINE
  5
216
330
18
100
AcDbEntity
  8
PV0001_1
  6
Continuous
 48
0.5
370
    50
100
AcDbLine
 10
294.0
 20
-128.5
 30
0.0
 11
294.0
 21
-148.5
 31
0.0
  0
LINE
  5
217
330
18
100
AcDbEntity
  8
PV0001_1
  6
Continuous
 48
0.5
370
    50
100
AcDbLine
 10
269.0
 20
-148.25
 30
0.0
 11
294.0
 21
-148.25
 31
0.0
  0
LINE
  5
218
330
18
100
AcDbEntity
  8
PV0001_1
  6
Continuous
 48
0.5
370
    50
100
AcDbLine
 10
269.0
 20
-128.75
 30
0.0
 11
294.0
 21
-128.75
 31
0.0
  0
LINE
  5
219
330
18
100
AcDbEntity
  8
PV0001_1
  6
CENTER2
 48
0.5
370
    25
100
AcDbLine
 10
341.5
 20
-26.5
 30
0.0
 11
341.5
 21
-50.5
 31
0.0
  0
LINE
  5
21A
330
18
100
AcDbEntity
  8
PV0001_1
  6
CENTER2
 48
0.5
370
    25
100
AcDbLine
 10
353.5
 20
-38.5
 30
0.0
 11
329.5
 21
-38.5
 31
0.0
  0
LINE
  5
21B
330
18
100
AcDbEntity
  8
PV0001_1
  6
Continuous
 48
0.5
370
    50
100
AcDbLine
 10
350.0
 20
-33.23217391967701
 30
0.0
 11
350.0
 21
-43.767826080322
 31
0.0
  0
LINE
  5
21C
330
18
100
AcDbEntity
  8
PV0001_1
  6
Continuous
 48
0.5
370
    50
100
AcDbLine
 10
333.0
 20
-33.23217391967701
 30
0.0
 11
333.0
 21
-43.767826080322
 31
0.0
  0
LINE
  5
21D
330
18
100
AcDbEntity
  8
PV0001_1
  6
Continuous
370
    25
100
AcDbLine
 10
413.0
 20
-129.75
 30
0.0
 11
874.0
 21
-129.75
 31
0.0
  0
LINE
  5
21E
330
18
100
AcDbEntity
  8
PV0001_1
  6
Continuous
370
    25
100
AcDbLine
 10
413.0
 20
-147.25
 30
0.0
 11
874.0
 21
-147.25
 31
0.0
  0
LINE
  5
21F
330
18
100
AcDbEntity
  8
PV0001_1
  6
Continuous
 48
0.5
370
    25
100
AcDbLine
 10
349.0
 20
-129.75
 30
0.0
 11
365.0
 21
-129.75
 31
0.0
  0
LINE
  5
220
330
18
100
AcDbEntity
  8
PV0001_1
  6
Continuous
 48
0.5
370
    25
100
AcDbLine
 10
349.0
 20
-147.25
 30
0.0
 11
365.0
 21
-147.25
 31
0.0
  0
LINE
  5
221
330
18
100
AcDbEntity
  8
PV0001_1
  6
PHANTOM2
 48
0.5
370
    25
100
AcDbLine
 10
871.0
 20
-231.0
 30
0.0
 11
871.0
 21
-246.0
 31
0.0
  0
LINE
  5
222
330
18
100
AcDbEntity
  8
PV0001_1
  6
PHANTOM2
 48
0.5
370
    25
100
AcDbLine
 10
329.0
 20
-228.5
 30
0.0
 11
344.0
 21
-228.5
 31
0.0
  0
LINE
  5
223
330
18
100
AcDbEntity
  8
PV0001_1
  6
PHANTOM2
 48
0.5
370
    25
100
AcDbLine
 10
862.0
 20
-246.0
 30
0.0
 11
871.0
 21
-246.0
 31
0.0
  0
LINE
  5
224
330
18
100
AcDbEntity
  8
PV0001_1
  6
PHANTOM2
 48
0.5
370
    25
100
AcDbLine
 10
349.0
 20
-228.5
 30
0.0
 11
349.0
 21
-248.5
 31
0.0
  0
LINE
  5
225
330
18
100
AcDbEntity
  8
PV0001_1
  6
PHANTOM2
 48
0.5
370
    25
100
AcDbLine
 10
871.0
 20
-231.35000610351
 30
0.0
 11
872.1500244140599
 21
-231.35000610351
 31
0.0
  0
LINE
  5
226
330
18
100
AcDbEntity
  8
PV0001_1
  6
PHANTOM2
 48
0.5
370
    25
100
AcDbLine
 10
862.0
 20
-231.0
 30
0.0
 11
871.0
 21
-231.0
 31
0.0
  0
LINE
  5
227
330
18
100
AcDbEntity
  8
PV0001_1
  6
PHANTOM2
370
    25
100
AcDbLine
 10
349.0
 20
-247.25
 30
0.0
 11
389.0
 21
-247.25
 31
0.0
  0
LINE
  5
228
330
18
100
AcDbEntity
  8
PV0001_1
  6
PHANTOM2
370
    25
100
AcDbLine
 10
349.0
 20
-229.75
 30
0.0
 11
389.0
 21
-229.75
 31
0.0
  0
LINE
  5
229
330
18
100
AcDbEntity
  8
PV0001_1
  6
PHANTOM2
 48
0.5
370
    25
100
AcDbLine
 10
874.0
 20
-231.0
 30
0.0
 11
874.0
 21
-246.0
 31
0.0
  0
LINE
  5
22A
330
18
100
AcDbEntity
  8
PV0001_1
  6
PHANTOM2
 48
0.5
370
    25
100
AcDbLine
 10
304.0
 20
-231.63398742675
 30
0.0
 11
305.09811401367
 21
-231.0
 31
0.0
  0
LINE
  5
22B
330
18
100
AcDbEntity
  8
PV0001_1
  6
PHANTOM2
 48
0.5
370
    25
100
AcDbLine
 10
872.1500244140599
 20
-231.0
 30
0.0
 11
872.1500244140599
 21
-246.0
 31
0.0
  0
LINE
  5
22C
330
18
100
AcDbEntity
  8
PV0001_1
  6
PHANTOM2
370
    25
100
AcDbLine
 10
794.0
 20
-228.5
 30
0.0
 11
862.0
 21
-228.5
 31
0.0
  0
LINE
  5
22D
330
18
100
AcDbEntity
  8
PV0001_1
  6
PHANTOM2
 48
0.5
370
    25
100
AcDbLine
 10
872.1500244140599
 20
-231.0
 30
0.0
 11
874.0
 21
-231.0
 31
0.0
  0
LINE
  5
22E
330
18
100
AcDbEntity
  8
PV0001_1
  6
PHANTOM2
370
    25
100
AcDbLine
 10
349.0
 20
-228.5
 30
0.0
 11
389.0
 21
-228.5
 31
0.0
  0
LINE
  5
22F
330
18
100
AcDbEntity
  8
PV0001_1
  6
PHANTOM2
 48
0.5
370
    25
100
AcDbLine
 10
304.0
 20
-245.36599731445
 30
0.0
 11
305.09811401367
 21
-246.0
 31
0.0
  0
LINE
  5
230
330
18
100
AcDbEntity
  8
PV0001_1
  6
PHANTOM2
 48
0.5
370
    25
100
AcDbLine
 10
871.0
 20
-245.64999389648
 30
0.0
 11
872.1500244140599
 21
-245.64999389648
 31
0.0
  0
LINE
  5
231
330
18
100
AcDbEntity
  8
PV0001_1
  6
PHANTOM2
370
    25
100
AcDbLine
 10
349.0
 20
-248.5
 30
0.0
 11
389.0
 21
-248.5
 31
0.0
  0
LINE
  5
232
330
18
100
AcDbEntity
  8
PV0001_1
  6
PHANTOM2
370
    25
100
AcDbLine
 10
289.0
 20
-246.0
 30
0.0
 11
329.0
 21
-246.0
 31
0.0
  0
LINE
  5
233
330
18
100
AcDbEntity
  8
PV0001_1
  6
PHANTOM2
370
    25
100
AcDbLine
 10
794.0
 20
-247.25
 30
0.0
 11
862.0
 21
-247.25
 31
0.0
  0
LINE
  5
234
330
18
100
AcDbEntity
  8
PV0001_1
  6
PHANTOM2
 48
0.5
370
    25
100
AcDbLine
 10
344.0
 20
-247.25
 30
0.0
 11
349.0
 21
-247.25
 31
0.0
  0
LINE
  5
235
330
18
100
AcDbEntity
  8
PV0001_1
  6
PHANTOM2
 48
0.5
370
    25
100
AcDbLine
 10
872.1500244140599
 20
-246.0
 30
0.0
 11
874.0
 21
-246.0
 31
0.0
  0
LINE
  5
236
330
18
100
AcDbEntity
  8
PV0001_1
  6
PHANTOM2
 48
0.5
370
    25
100
AcDbLine
 10
269.0
 20
-232.5
 30
0.0
 11
289.0
 21
-232.5
 31
0.0
  0
LINE
  5
237
330
18
100
AcDbEntity
  8
PV0001_1
  6
PHANTOM2
 48
0.5
370
    25
100
AcDbLine
 10
329.0
 20
-228.5
 30
0.0
 11
329.0
 21
-248.5
 31
0.0
  0
LINE
  5
238
330
18
100
AcDbEntity
  8
PV0001_1
  6
PHANTOM2
 48
0.5
370
    25
100
AcDbLine
 10
269.0
 20
-244.5
 30
0.0
 11
289.0
 21
-244.5
 31
0.0
  0
LINE
  5
239
330
18
100
AcDbEntity
  8
PV0001_1
  6
PHANTOM2
 48
0.5
370
    25
100
AcDbLine
 10
862.0
 20
-228.5
 30
0.0
 11
862.0
 21
-248.5
 31
0.0
  0
LINE
  5
23A
330
18
100
AcDbEntity
  8
PV0001_1
  6
PHANTOM2
 48
0.5
370
    25
100
AcDbLine
 10
344.0
 20
-228.5
 30
0.0
 11
344.0
 21
-248.5
 31
0.0
  0
LINE
  5
23B
330
18
100
AcDbEntity
  8
PV0001_1
  6
CENTER2
370
    25
100
AcDbLine
 10
260.92529296875
 20
-238.5
 30
0.0
 11
395.02508544921
 21
-238.5
 31
0.0
  0
LINE
  5
23C
330
18
100
AcDbEntity
  8
PV0001_1
  6
CENTER2
370
    25
100
AcDbLine
 10
784.44262695312
 20
-238.5
 30
0.0
 11
881.09344482421
 21
-238.5
 31
0.0
  0
LINE
  5
23D
330
18
100
AcDbEntity
  8
PV0001_1
  6
PHANTOM2
 48
0.5
370
    25
100
AcDbLine
 10
344.0
 20
-229.75
 30
0.0
 11
349.0
 21
-229.75
 31
0.0
  0
LINE
  5
23E
330
18
100
AcDbEntity
  8
PV0001_1
  6
PHANTOM2
370
    25
100
AcDbLine
 10
794.0
 20
-248.5
 30
0.0
 11
862.0
 21
-248.5
 31
0.0
  0
LINE
  5
23F
330
18
100
AcDbEntity
  8
PV0001_1
  6
PHANTOM2
370
    25
100
AcDbLine
 10
289.0
 20
-231.0
 30
0.0
 11
329.0
 21
-231.0
 31
0.0
  0
LINE
  5
240
330
18
100
AcDbEntity
  8
PV0001_1
  6
PHANTOM2
 48
0.5
370
    25
100
AcDbLine
 10
329.0
 20
-248.5
 30
0.0
 11
344.0
 21
-248.5
 31
0.0
  0
LINE
  5
241
330
18
100
AcDbEntity
  8
PV0001_1
  6
PHANTOM2
 48
0.5
370
    25
100
AcDbLine
 10
289.0
 20
-245.36599731445
 30
0.0
 11
304.0
 21
-245.36599731445
 31
0.0
  0
LINE
  5
242
330
18
100
AcDbEntity
  8
PV0001_1
  6
PHANTOM2
 48
0.5
370
    25
100
AcDbLine
 10
304.0
 20
-231.0
 30
0.0
 11
304.0
 21
-246.0
 31
0.0
  0
LINE
  5
243
330
18
100
AcDbEntity
  8
PV0001_1
  6
PHANTOM2
 48
0.5
370
    25
100
AcDbLine
 10
289.0
 20
-231.0
 30
0.0
 11
289.0
 21
-246.0
 31
0.0
  0
LINE
  5
244
330
18
100
AcDbEntity
  8
PV0001_1
  6
PHANTOM2
 48
0.5
370
    25
100
AcDbLine
 10
289.0
 20
-231.63400268554
 30
0.0
 11
304.0
 21
-231.63400268554
 31
0.0
  0
LINE
  5
245
330
18
100
AcDbEntity
  8
PV0001_1
  6
PHANTOM2
 48
0.5
370
    25
100
AcDbLine
 10
269.0
 20
-232.5
 30
0.0
 11
269.0
 21
-244.5
 31
0.0
  0
LINE
  5
246
330
18
100
AcDbEntity
  8
PV0001_1
  6
PHANTOM2
370
    25
100
AcDbLine
 10
794.0
 20
-229.75
 30
0.0
 11
862.0
 21
-229.75
 31
0.0
  0
LINE
  5
247
330
18
100
AcDbEntity
  8
PV0001_1
  6
PHANTOM2
 48
0.5
370
    25
100
AcDbLine
 10
871.0
 20
-411.0
 30
0.0
 11
871.0
 21
-426.0
 31
0.0
  0
LINE
  5
248
330
18
100
AcDbEntity
  8
PV0001_1
  6
PHANTOM2
 48
0.5
370
    25
100
AcDbLine
 10
329.0
 20
-328.5
 30
0.0
 11
344.0
 21
-328.5
 31
0.0
  0
LINE
  5
249
330
18
100
AcDbEntity
  8
PV0001_1
  6
PHANTOM2
 48
0.5
370
    25
100
AcDbLine
 10
862.0
 20
-426.0
 30
0.0
 11
871.0
 21
-426.0
 31
0.0
  0
LINE
  5
24A
330
18
100
AcDbEntity
  8
PV0001_1
  6
PHANTOM2
 48
0.5
370
    25
100
AcDbLine
 10
349.0
 20
-328.5
 30
0.0
 11
349.0
 21
-348.5
 31
0.0
  0
LINE
  5
24B
330
18
100
AcDbEntity
  8
PV0001_1
  6
PHANTOM2
 48
0.5
370
    25
100
AcDbLine
 10
871.0
 20
-411.3500061035099
 30
0.0
 11
872.1500244140599
 21
-411.3500061035099
 31
0.0
  0
LINE
  5
24C
330
18
100
AcDbEntity
  8
PV0001_1
  6
PHANTOM2
 48
0.5
370
    25
100
AcDbLine
 10
862.0
 20
-411.0
 30
0.0
 11
871.0
 21
-411.0
 31
0.0
  0
LINE
  5
24D
330
18
100
AcDbEntity
  8
PV0001_1
  6
PHANTOM2
370
    25
100
AcDbLine
 10
349.0
 20
-347.25
 30
0.0
 11
389.0
 21
-347.25
 31
0.0
  0
LINE
  5
24E
330
18
100
AcDbEntity
  8
PV0001_1
  6
PHANTOM2
370
    25
100
AcDbLine
 10
349.0
 20
-329.75
 30
0.0
 11
389.0
 21
-329.75
 31
0.0
  0
LINE
  5
24F
330
18
100
AcDbEntity
  8
PV0001_1
  6
PHANTOM2
 48
0.5
370
    25
100
AcDbLine
 10
874.0
 20
-411.0
 30
0.0
 11
874.0
 21
-426.0
 31
0.0
  0
LINE
  5
250
330
18
100
AcDbEntity
  8
PV0001_1
  6
PHANTOM2
 48
0.5
370
    25
100
AcDbLine
 10
304.0
 20
-331.63400268554
 30
0.0
 11
305.09811401367
 21
-331.0
 31
0.0
  0
LINE
  5
251
330
18
100
AcDbEntity
  8
PV0001_1
  6
PHANTOM2
 48
0.5
370
    25
100
AcDbLine
 10
872.1500244140599
 20
-411.0
 30
0.0
 11
872.1500244140599
 21
-426.0
 31
0.0
  0
LINE
  5
252
330
18
100
AcDbEntity
  8
PV0001_1
  6
PHANTOM2
370
    25
100
AcDbLine
 10
794.0
 20
-408.4999999999999
 30
0.0
 11
862.0
 21
-408.4999999999999
 31
0.0
  0
LINE
  5
253
330
18
100
AcDbEntity
  8
PV0001_1
  6
PHANTOM2
 48
0.5
370
    25
100
AcDbLine
 10
872.1500244140599
 20
-411.0
 30
0.0
 11
874.0
 21
-411.0
 31
0.0
  0
LINE
  5
254
330
18
100
AcDbEntity
  8
PV0001_1
  6
PHANTOM2
370
    25
100
AcDbLine
 10
349.0
 20
-328.5
 30
0.0
 11
389.0
 21
-328.5
 31
0.0
  0
LINE
  5
255
330
18
100
AcDbEntity
  8
PV0001_1
  6
PHANTOM2
 48
0.5
370
    25
100
AcDbLine
 10
304.0
 20
-345.36599731445
 30
0.0
 11
305.09811401367
 21
-346.0
 31
0.0
  0
LINE
  5
256
330
18
100
AcDbEntity
  8
PV0001_1
  6
PHANTOM2
 48
0.5
370
    25
100
AcDbLine
 10
871.0
 20
-425.6499938964799
 30
0.0
 11
872.1500244140599
 21
-425.6499938964799
 31
0.0
  0
LINE
  5
257
330
18
100
AcDbEntity
  8
PV0001_1
  6
PHANTOM2
370
    25
100
AcDbLine
 10
349.0
 20
-348.5
 30
0.0
 11
389.0
 21
-348.5
 31
0.0
  0
LINE
  5
258
330
18
100
AcDbEntity
  8
PV0001_1
  6
PHANTOM2
370
    25
100
AcDbLine
 10
289.0
 20
-346.0
 30
0.0
 11
329.0
 21
-346.0
 31
0.0
  0
LINE
  5
259
330
18
100
AcDbEntity
  8
PV0001_1
  6
PHANTOM2
370
    25
100
AcDbLine
 10
794.0
 20
-427.2499999999999
 30
0.0
 11
862.0
 21
-427.2499999999999
 31
0.0
  0
LINE
  5
25A
330
18
100
AcDbEntity
  8
PV0001_1
  6
PHANTOM2
 48
0.5
370
    25
100
AcDbLine
 10
344.0
 20
-347.25
 30
0.0
 11
349.0
 21
-347.25
 31
0.0
  0
LINE
  5
25B
330
18
100
AcDbEntity
  8
PV0001_1
  6
PHANTOM2
 48
0.5
370
    25
100
AcDbLine
 10
872.1500244140599
 20
-426.0
 30
0.0
 11
874.0
 21
-426.0
 31
0.0
  0
LINE
  5
25C
330
18
100
AcDbEntity
  8
PV0001_1
  6
PHANTOM2
 48
0.5
370
    25
100
AcDbLine
 10
269.0
 20
-332.5
 30
0.0
 11
289.0
 21
-332.5
 31
0.0
  0
LINE
  5
25D
330
18
100
AcDbEntity
  8
PV0001_1
  6
PHANTOM2
 48
0.5
370
    25
100
AcDbLine
 10
329.0
 20
-328.5
 30
0.0
 11
329.0
 21
-348.5
 31
0.0
  0
LINE
  5
25E
330
18
100
AcDbEntity
  8
PV0001_1
  6
PHANTOM2
 48
0.5
370
    25
100
AcDbLine
 10
269.0
 20
-344.5
 30
0.0
 11
289.0
 21
-344.5
 31
0.0
  0
LINE
  5
25F
330
18
100
AcDbEntity
  8
PV0001_1
  6
PHANTOM2
 48
0.5
370
    25
100
AcDbLine
 10
862.0
 20
-408.4999999999999
 30
0.0
 11
862.0
 21
-428.5
 31
0.0
  0
LINE
  5
260
330
18
100
AcDbEntity
  8
PV0001_1
  6
PHANTOM2
 48
0.5
370
    25
100
AcDbLine
 10
344.0
 20
-328.5
 30
0.0
 11
344.0
 21
-348.5
 31
0.0
  0
LINE
  5
261
330
18
100
AcDbEntity
  8
PV0001_1
  6
CENTER2
370
    25
100
AcDbLine
 10
260.92529296875
 20
-338.5
 30
0.0
 11
395.02508544921
 21
-338.5
 31
0.0
  0
LINE
  5
262
330
18
100
AcDbEntity
  8
PV0001_1
  6
CENTER2
370
    25
100
AcDbLine
 10
784.44262695312
 20
-418.5
 30
0.0
 11
881.09344482421
 21
-418.5
 31
0.0
  0
LINE
  5
263
330
18
100
AcDbEntity
  8
PV0001_1
  6
PHANTOM2
 48
0.5
370
    25
100
AcDbLine
 10
344.0
 20
-329.75
 30
0.0
 11
349.0
 21
-329.75
 31
0.0
  0
LINE
  5
264
330
18
100
AcDbEntity
  8
PV0001_1
  6
PHANTOM2
370
    25
100
AcDbLine
 10
794.0
 20
-428.5
 30
0.0
 11
862.0
 21
-428.5
 31
0.0
  0
LINE
  5
265
330
18
100
AcDbEntity
  8
PV0001_1
  6
PHANTOM2
370
    25
100
AcDbLine
 10
289.0
 20
-331.0
 30
0.0
 11
329.0
 21
-331.0
 31
0.0
  0
LINE
  5
266
330
18
100
AcDbEntity
  8
PV0001_1
  6
PHANTOM2
 48
0.5
370
    25
100
AcDbLine
 10
329.0
 20
-348.5
 30
0.0
 11
344.0
 21
-348.5
 31
0.0
  0
LINE
  5
267
330
18
100
AcDbEntity
  8
PV0001_1
  6
PHANTOM2
 48
0.5
370
    25
100
AcDbLine
 10
289.0
 20
-345.36599731445
 30
0.0
 11
304.0
 21
-345.36599731445
 31
0.0
  0
LINE
  5
268
330
18
100
AcDbEntity
  8
PV0001_1
  6
PHANTOM2
 48
0.5
370
    25
100
AcDbLine
 10
304.0
 20
-331.0
 30
0.0
 11
304.0
 21
-346.0
 31
0.0
  0
LINE
  5
269
330
18
100
AcDbEntity
  8
PV0001_1
  6
PHANTOM2
 48
0.5
370
    25
100
AcDbLine
 10
289.0
 20
-331.0
 30
0.0
 11
289.0
 21
-346.0
 31
0.0
  0
LINE
  5
26A
330
18
100
AcDbEntity
  8
PV0001_1
  6
PHANTOM2
 48
0.5
370
    25
100
AcDbLine
 10
289.0
 20
-331.63400268554
 30
0.0
 11
304.0
 21
-331.63400268554
 31
0.0
  0
LINE
  5
26B
330
18
100
AcDbEntity
  8
PV0001_1
  6
PHANTOM2
 48
0.5
370
    25
100
AcDbLine
 10
269.0
 20
-332.5
 30
0.0
 11
269.0
 21
-344.5
 31
0.0
  0
LINE
  5
26C
330
18
100
AcDbEntity
  8
PV0001_1
  6
PHANTOM2
370
    25
100
AcDbLine
 10
794.0
 20
-409.75
 30
0.0
 11
862.0
 21
-409.75
 31
0.0
  0
LINE
  5
26D
330
18
100
AcDbEntity
  8
PV0001_1
  6
PHANTOM2
 48
0.5
370
    25
100
AcDbLine
 10
329.0
 20
-408.4999999999999
 30
0.0
 11
344.0
 21
-408.4999999999999
 31
0.0
  0
LINE
  5
26E
330
18
100
AcDbEntity
  8
PV0001_1
  6
PHANTOM2
 48
0.5
370
    25
100
AcDbLine
 10
349.0
 20
-408.4999999999999
 30
0.0
 11
349.0
 21
-428.5
 31
0.0
  0
LINE
  5
26F
330
18
100
AcDbEntity
  8
PV0001_1
  6
PHANTOM2
370
    25
100
AcDbLine
 10
349.0
 20
-427.2499999999999
 30
0.0
 11
389.0
 21
-427.2499999999999
 31
0.0
  0
LINE
  5
270
330
18
100
AcDbEntity
  8
PV0001_1
  6
PHANTOM2
370
    25
100
AcDbLine
 10
349.0
 20
-409.75
 30
0.0
 11
389.0
 21
-409.75
 31
0.0
  0
LINE
  5
271
330
18
100
AcDbEntity
  8
PV0001_1
  6
PHANTOM2
 48
0.5
370
    25
100
AcDbLine
 10
304.0
 20
-411.6340026855399
 30
0.0
 11
305.09811401367
 21
-411.0
 31
0.0
  0
LINE
  5
272
330
18
100
AcDbEntity
  8
PV0001_1
  6
PHANTOM2
370
    25
100
AcDbLine
 10
349.0
 20
-408.4999999999999
 30
0.0
 11
389.0
 21
-408.4999999999999
 31
0.0
  0
LINE
  5
273
330
18
100
AcDbEntity
  8
PV0001_1
  6
PHANTOM2
 48
0.5
370
    25
100
AcDbLine
 10
304.0
 20
-425.3659973144499
 30
0.0
 11
305.09811401367
 21
-426.0
 31
0.0
  0
LINE
  5
274
330
18
100
AcDbEntity
  8
PV0001_1
  6
PHANTOM2
370
    25
100
AcDbLine
 10
349.0
 20
-428.5
 30
0.0
 11
389.0
 21
-428.5
 31
0.0
  0
LINE
  5
275
330
18
100
AcDbEntity
  8
PV0001_1
  6
PHANTOM2
370
    25
100
AcDbLine
 10
289.0
 20
-426.0
 30
0.0
 11
329.0
 21
-426.0
 31
0.0
  0
LINE
  5
276
330
18
100
AcDbEntity
  8
PV0001_1
  6
PHANTOM2
 48
0.5
370
    25
100
AcDbLine
 10
344.0
 20
-427.2499999999999
 30
0.0
 11
349.0
 21
-427.2499999999999
 31
0.0
  0
LINE
  5
277
330
18
100
AcDbEntity
  8
PV0001_1
  6
PHANTOM2
 48
0.5
370
    25
100
AcDbLine
 10
269.0
 20
-412.5
 30
0.0
 11
289.0
 21
-412.5
 31
0.0
  0
LINE
  5
278
330
18
100
AcDbEntity
  8
PV0001_1
  6
PHANTOM2
 48
0.5
370
    25
100
AcDbLine
 10
329.0
 20
-408.4999999999999
 30
0.0
 11
329.0
 21
-428.5
 31
0.0
  0
LINE
  5
279
330
18
100
AcDbEntity
  8
PV0001_1
  6
PHANTOM2
 48
0.5
370
    25
100
AcDbLine
 10
269.0
 20
-424.5
 30
0.0
 11
289.0
 21
-424.5
 31
0.0
  0
LINE
  5
27A
330
18
100
AcDbEntity
  8
PV0001_1
  6
PHANTOM2
 48
0.5
370
    25
100
AcDbLine
 10
344.0
 20
-408.4999999999999
 30
0.0
 11
344.0
 21
-428.5
 31
0.0
  0
LINE
  5
27B
330
18
100
AcDbEntity
  8
PV0001_1
  6
CENTER2
370
    25
100
AcDbLine
 10
260.92529296875
 20
-418.5
 30
0.0
 11
395.02508544921
 21
-418.5
 31
0.0
  0
LINE
  5
27C
330
18
100
AcDbEntity
  8
PV0001_1
  6
PHANTOM2
 48
0.5
370
    25
100
AcDbLine
 10
344.0
 20
-409.75
 30
0.0
 11
349.0
 21
-409.75
 31
0.0
  0
LINE
  5
27D
330
18
100
AcDbEntity
  8
PV0001_1
  6
PHANTOM2
370
    25
100
AcDbLine
 10
289.0
 20
-411.0
 30
0.0
 11
329.0
 21
-411.0
 31
0.0
  0
LINE
  5
27E
330
18
100
AcDbEntity
  8
PV0001_1
  6
PHANTOM2
 48
0.5
370
    25
100
AcDbLine
 10
329.0
 20
-428.5
 30
0.0
 11
344.0
 21
-428.5
 31
0.0
  0
LINE
  5
27F
330
18
100
AcDbEntity
  8
PV0001_1
  6
PHANTOM2
 48
0.5
370
    25
100
AcDbLine
 10
289.0
 20
-425.3659973144499
 30
0.0
 11
304.0
 21
-425.3659973144499
 31
0.0
  0
LINE
  5
280
330
18
100
AcDbEntity
  8
PV0001_1
  6
PHANTOM2
 48
0.5
370
    25
100
AcDbLine
 10
304.0
 20
-411.0
 30
0.0
 11
304.0
 21
-426.0
 31
0.0
  0
LINE
  5
281
330
18
100
AcDbEntity
  8
PV0001_1
  6
PHANTOM2
 48
0.5
370
    25
100
AcDbLine
 10
289.0
 20
-411.0
 30
0.0
 11
289.0
 21
-426.0
 31
0.0
  0
LINE
  5
282
330
18
100
AcDbEntity
  8
PV0001_1
  6
PHANTOM2
 48
0.5
370
    25
100
AcDbLine
 10
289.0
 20
-411.6340026855399
 30
0.0
 11
304.0
 21
-411.6340026855399
 31
0.0
  0
LINE
  5
283
330
18
100
AcDbEntity
  8
PV0001_1
  6
PHANTOM2
 48
0.5
370
    25
100
AcDbLine
 10
269.0
 20
-412.5
 30
0.0
 11
269.0
 21
-424.5
 31
0.0
  0
ARC
  5
284
330
18
100
AcDbEntity
  8
PV0001_1
  6
Continuous
 48
0.5
370
    50
100
AcDbCircle
 10
39.344146728515
 20
-4.399993896484399
 30
0.0
 40
0.2000000029802
100
AcDbArc
 50
89.99998201390964
 51
161.5651331937947
  0
ARC
  5
285
330
18
100
AcDbEntity
  8
PV0001_1
  6
Continuous
 48
0.5
370
    50
100
AcDbCircle
 10
40.92251586914
 20
-6.399993896484399
 30
0.0
 40
0.2000000029802
100
AcDbArc
 50
270.0000179860904
 51
18.4348803528989
  0
ARC
  5
286
330
18
100
AcDbEntity
  8
PV0001_1
  6
Continuous
 48
0.5
370
    50
100
AcDbCircle
 10
38.677490234375
 20
-6.399993896484399
 30
0.0
 40
0.2000000029802
100
AcDbArc
 50
161.5650375711494
 51
270.000000683247
  0
ARC
  5
287
330
18
100
AcDbEntity
  8
PV0001_1
  6
Continuous
 48
0.5
370
    50
100
AcDbCircle
 10
34.800003051757
 20
-5.0
 30
0.0
 40
1.399999976158099
100
AcDbArc
 50
0.0
 51
89.99998201390964
  0
ARC
  5
288
330
18
100
AcDbEntity
  8
PV0001_1
  6
Continuous
 48
0.5
370
    50
100
AcDbCircle
 10
34.800003051757
 20
-7.0
 30
0.0
 40
1.399999976158099
100
AcDbArc
 50
270.0000179860904
 51
0.0
  0
ARC
  5
289
330
18
100
AcDbEntity
  8
PV0001_1
  6
Continuous
 48
0.5
370
    50
100
AcDbCircle
 10
33.80000305175701
 20
-5.0
 30
0.0
 40
0.8000000119209
100
AcDbArc
 50
0.0
 51
89.99998201390964
  0
ARC
  5
28A
330
18
100
AcDbEntity
  8
PV0001_1
  6
Continuous
 48
0.5
370
    50
100
AcDbCircle
 10
33.80000305175701
 20
-6.799987792968799
 30
0.0
 40
0.8000000119209
100
AcDbArc
 50
270.0000179860904
 51
0.0
  0
ARC
  5
28B
330
18
100
AcDbEntity
  8
PV0001_1
  6
Continuous
 48
0.5
370
    50
100
AcDbCircle
 10
31.600006103515
 20
-7.399993896484399
 30
0.0
 40
0.2000000029802
100
AcDbArc
 50
179.9999776881987
 51
270.0000280040004
  0
ARC
  5
28C
330
18
100
AcDbEntity
  8
PV0001_1
  6
Continuous
 48
0.5
370
    50
100
AcDbCircle
 10
31.600006103515
 20
-4.399993896484399
 30
0.0
 40
0.2000000029802
100
AcDbArc
 50
89.99998201390964
 51
179.9999640278192
  0
ARC
  5
28D
330
18
100
AcDbEntity
  8
PV0001_1
  6
Continuous
 48
0.5
370
    50
100
AcDbCircle
 10
27.0
 20
-5.0
 30
0.0
 40
0.8000000119209
100
AcDbArc
 50
0.0
 51
89.99998201390964
  0
ARC
  5
28E
330
18
100
AcDbEntity
  8
PV0001_1
  6
Continuous
 48
0.5
370
    50
100
AcDbCircle
 10
27.0
 20
-6.799987792968799
 30
0.0
 40
0.8000000119209
100
AcDbArc
 50
270.0000179860904
 51
0.0
  0
ARC
  5
28F
330
18
100
AcDbEntity
  8
PV0001_1
  6
Continuous
 48
0.5
370
    50
100
AcDbCircle
 10
25.199996948242
 20
-6.799987792968799
 30
0.0
 40
0.8000000119209
100
AcDbArc
 50
179.9999776881987
 51
270.0000280040004
  0
ARC
  5
290
330
18
100
AcDbEntity
  8
PV0001_1
  6
Continuous
 48
0.5
370
    50
100
AcDbCircle
 10
25.199996948242
 20
-5.0
 30
0.0
 40
0.8000000119209
100
AcDbArc
 50
89.99998201390964
 51
179.9999640278192
  0
ARC
  5
291
330
18
100
AcDbEntity
  8
PV0001_1
  6
Continuous
 48
0.5
370
    50
100
AcDbCircle
 10
24.199996948242
 20
-5.0
 30
0.0
 40
1.399999976158099
100
AcDbArc
 50
89.99998201390964
 51
179.9999640278192
  0
ARC
  5
292
330
18
100
AcDbEntity
  8
PV0001_1
  6
Continuous
 48
0.5
370
    50
100
AcDbCircle
 10
28.0
 20
-5.0
 30
0.0
 40
1.399999976158099
100
AcDbArc
 50
0.0
 51
89.99998201390964
  0
ARC
  5
293
330
18
100
AcDbEntity
  8
PV0001_1
  6
Continuous
 48
0.5
370
    50
100
AcDbCircle
 10
28.0
 20
-7.0
 30
0.0
 40
1.399999976158099
100
AcDbArc
 50
270.0000179860904
 51
0.0
  0
ARC
  5
294
330
18
100
AcDbEntity
  8
PV0001_1
  6
Continuous
 48
0.5
370
    50
100
AcDbCircle
 10
24.199996948242
 20
-7.0
 30
0.0
 40
1.399999976158099
100
AcDbArc
 50
179.9999776881987
 51
270.0000280040004
  0
ARC
  5
295
330
18
100
AcDbEntity
  8
PV0001_1
  6
Continuous
 48
0.5
370
    50
100
AcDbCircle
 10
20.199996948242
 20
-4.799987792968799
 30
0.0
 40
0.6000000238419
100
AcDbArc
 50
0.0
 51
89.99998201390964
  0
ARC
  5
296
330
18
100
AcDbEntity
  8
PV0001_1
  6
Continuous
 48
0.5
370
    50
100
AcDbCircle
 10
20.199996948242
 20
-5.5
 30
0.0
 40
0.6000000238419
100
AcDbArc
 50
270.0000179860904
 51
0.0
  0
ARC
  5
297
330
18
100
AcDbEntity
  8
PV0001_1
  6
Continuous
 48
0.5
370
    50
100
AcDbCircle
 10
18.100006103515
 20
-5.899993896484399
 30
0.0
 40
0.2000000029802
100
AcDbArc
 50
179.9999776881987
 51
270.0000280040004
  0
ARC
  5
298
330
18
100
AcDbEntity
  8
PV0001_1
  6
Continuous
 48
0.5
370
    50
100
AcDbCircle
 10
18.100006103515
 20
-4.399993896484399
 30
0.0
 40
0.2000000029802
100
AcDbArc
 50
89.99998201390964
 51
179.9999640278192
  0
ARC
  5
299
330
18
100
AcDbEntity
  8
PV0001_1
  6
Continuous
 48
0.5
370
    50
100
AcDbCircle
 10
21.779830932617
 20
-6.610595703125
 30
0.0
 40
0.2000000029802
100
AcDbArc
 50
117.3049472966005
 51
234.4267362404176
  0
ARC
  5
29A
330
18
100
AcDbEntity
  8
PV0001_1
  6
Continuous
 48
0.5
370
    50
100
AcDbCircle
 10
20.199996948242
 20
-7.399993896484399
 30
0.0
 40
0.6000000238419
100
AcDbArc
 50
0.0
 51
89.99998201390964
  0
ARC
  5
29B
330
18
100
AcDbEntity
  8
PV0001_1
  6
Continuous
 48
0.5
370
    50
100
AcDbCircle
 10
18.300003051757
 20
-7.200012207031299
 30
0.0
 40
0.4000000059605
100
AcDbArc
 50
89.99998201390964
 51
179.9999640278192
  0
ARC
  5
29C
330
18
100
AcDbEntity
  8
PV0001_1
  6
Continuous
 48
0.5
370
    50
100
AcDbCircle
 10
21.0
 20
-5.0999755859375
 30
0.0
 40
1.5
100
AcDbArc
 50
297.304990098971
 51
0.0
  0
ARC
  5
29D
330
18
100
AcDbEntity
  8
PV0001_1
  6
Continuous
 48
0.5
370
    50
100
AcDbCircle
 10
21.0
 20
-5.0999755859375
 30
0.0
 40
1.5
100
AcDbArc
 50
0.0
 51
89.99998201390964
  0
ARC
  5
29E
330
18
100
AcDbEntity
  8
PV0001_1
  6
Continuous
 48
0.5
370
    50
100
AcDbCircle
 10
20.5
 20
-8.399993896484399
 30
0.0
 40
2.0
100
AcDbArc
 50
0.0
 51
54.42673123145972
  0
ARC
  5
29F
330
18
100
AcDbEntity
  8
PV0001_1
  6
Continuous
 48
0.5
370
    50
100
AcDbCircle
 10
11.600006103515
 20
-7.0
 30
0.0
 40
0.6000000238419
100
AcDbArc
 50
179.9999776881987
 51
270.0000280040004
  0
ARC
  5
2A0
330
18
100
AcDbEntity
  8
PV0001_1
  6
Continuous
 48
0.5
370
    50
100
AcDbCircle
 10
13.800003051757
 20
-7.0
 30
0.0
 40
0.6000000238419
100
AcDbArc
 50
270.0000179860904
 51
0.0
  0
ARC
  5
2A1
330
18
100
AcDbEntity
  8
PV0001_1
  6
Continuous
 48
0.5
370
    50
100
AcDbCircle
 10
14.600006103515
 20
-7.200012207031299
 30
0.0
 40
1.2000000476837
100
AcDbArc
 50
270.0000179860904
 51
0.0
  0
ARC
  5
2A2
330
18
100
AcDbEntity
  8
PV0001_1
  6
Continuous
 48
0.5
370
    50
100
AcDbCircle
 10
10.800003051757
 20
-7.200012207031299
 30
0.0
 40
1.2000000476837
100
AcDbArc
 50
179.9999776881987
 51
270.0000280040004
  0
ARC
  5
2A3
330
18
100
AcDbEntity
  8
PV0001_1
  6
Continuous
 48
0.5
370
    50
100
AcDbCircle
 10
4.8000030517578
 20
-6.200012207031299
 30
0.0
 40
0.2000000029802
100
AcDbArc
 50
89.99998201390964
 51
179.9999640278192
  0
ARC
  5
2A4
330
18
100
AcDbEntity
  8
PV0001_1
  6
Continuous
 48
0.5
370
    50
100
AcDbCircle
 10
4.8000030517578
 20
-5.200012207031299
 30
0.0
 40
0.2000000029802
100
AcDbArc
 50
179.9999776881987
 51
270.0000280040004
  0
ARC
  5
2A5
330
18
100
AcDbEntity
  8
PV0001_1
  6
Continuous
 48
0.5
370
    50
100
AcDbCircle
 10
5.699996948242199
 20
-6.200012207031299
 30
0.0
 40
0.2000000029802
100
AcDbArc
 50
36.86990755486351
 51
89.99998201390964
  0
ARC
  5
2A6
330
18
100
AcDbEntity
  8
PV0001_1
  6
Continuous
 48
0.5
370
    50
100
AcDbCircle
 10
5.7021789550781
 20
-5.200012207031299
 30
0.0
 40
0.2000000029802
100
AcDbArc
 50
270.0000179860904
 51
322.1249959578259
  0
ARC
  5
2A7
330
18
100
AcDbEntity
  8
PV0001_1
  6
Continuous
 48
0.5
370
    50
100
AcDbCircle
 10
7.472381591796899
 20
-5.6104736328125
 30
0.0
 40
0.2000000029802
100
AcDbArc
 50
135.0000549831359
 51
220.6012585677736
  0
CIRCLE
  5
2A8
330
18
100
AcDbEntity
  8
PV0001_1
  6
Continuous
 48
0.5
370
   100
100
AcDbCircle
 10
266.30798339843
 20
-6.000061035156299
 30
0.0
 40
2.700000047683699
  0
ARC
  5
2A9
330
18
100
AcDbEntity
  8
PV0001_1
  6
Continuous
 48
0.5
370
    50
100
AcDbCircle
 10
40.25585937499999
 20
-4.399993896484399
 30
0.0
 40
0.2000000029802
100
AcDbArc
 50
18.43505281517194
 51
89.99998201390964
  0
ARC
  5
2AA
330
18
100
AcDbEntity
  8
PV0001_1
  6
Continuous
 48
0.5
370
    50
100
AcDbCircle
 10
38.27749633789
 20
-7.5999755859375
 30
0.0
 40
0.2000000029802
100
AcDbArc
 50
89.99998201390964
 51
161.5650102503904
  0
ARC
  5
2AB
330
18
100
AcDbEntity
  8
PV0001_1
  6
Continuous
 48
0.5
370
    50
100
AcDbCircle
 10
41.322509765625
 20
-7.5999755859375
 30
0.0
 40
0.2000000029802
100
AcDbArc
 50
18.4348803528989
 51
89.99998201390964
  0
CIRCLE
  5
2AC
330
18
100
AcDbEntity
  8
PV0001_1
  6
Continuous
 48
0.5
370
   100
100
AcDbCircle
 10
266.30798339843
 20
-6.000061035156299
 30
0.0
 40
1.6200001239777
  0
CIRCLE
  5
2AD
330
18
100
AcDbEntity
  8
PV0001_1
  6
Continuous
370
    50
100
AcDbCircle
 10
321.50003051757
 20
-268.5
 30
0.0
 40
8.5
  0
CIRCLE
  5
2AE
330
18
100
AcDbEntity
  8
PV0001_1
  6
Continuous
370
    50
100
AcDbCircle
 10
321.5
 20
-208.5
 30
0.0
 40
8.5
  0
CIRCLE
  5
2AF
330
18
100
AcDbEntity
  8
PV0001_1
  6
Continuous
370
    50
100
AcDbCircle
 10
321.50003051757
 20
-268.5
 30
0.0
 40
5.5
  0
CIRCLE
  5
2B0
330
18
100
AcDbEntity
  8
PV0001_1
  6
Continuous
370
    50
100
AcDbCircle
 10
321.5
 20
-208.5
 30
0.0
 40
5.5
  0
CIRCLE
  5
2B1
330
18
100
AcDbEntity
  8
PV0001_1
  6
CENTER2
370
    25
100
AcDbCircle
 10
202.49998474121
 20
-238.5
 30
0.0
 40
19.5
  0
ARC
  5
2B2
330
18
100
AcDbEntity
  8
PV0001_1
  6
Continuous
 48
0.5
370
    50
100
AcDbCircle
 10
202.49998474121
 20
-238.5
 30
0.0
 40
24.5
100
AcDbArc
 50
220.9657074439738
 51
229.0342782123997
  0
ARC
  5
2B3
330
18
100
AcDbEntity
  8
PV0001_1
  6
Continuous
 48
0.5
370
    50
100
AcDbCircle
 10
202.49998474121
 20
-238.5
 30
0.0
 40
24.5
100
AcDbArc
 50
130.9657081272208
 51
139.0342788956466
  0
ARC
  5
2B4
330
18
100
AcDbEntity
  8
PV0001_1
  6
Continuous
 48
0.5
370
    50
100
AcDbCircle
 10
202.49998474121
 20
-238.5
 30
0.0
 40
24.5
100
AcDbArc
 50
40.96568854727033
 51
49.03427297607572
  0
ARC
  5
2B5
330
18
100
AcDbEntity
  8
PV0001_1
  6
Continuous
 48
0.5
370
    50
100
AcDbCircle
 10
202.49998474121
 20
-238.5
 30
0.0
 40
24.5
100
AcDbArc
 50
310.965730439022
 51
319.0343012074479
  0
CIRCLE
  5
2B6
330
18
100
AcDbEntity
  8
PV0001_1
  6
Continuous
370
    50
100
AcDbCircle
 10
202.49998474121
 20
-238.5
 30
0.0
 40
14.5
  0
CIRCLE
  5
2B7
330
18
100
AcDbEntity
  8
PV0001_1
  6
Continuous
 48
0.5
370
    50
100
AcDbCircle
 10
188.71142578125
 20
-252.28857421875
 30
0.0
 40
4.0
  0
ARC
  5
2B8
330
18
100
AcDbEntity
  8
PV0001_1
  6
Continuous
 48
0.5
370
    50
100
AcDbCircle
 10
202.49998474121
 20
-238.5
 30
0.0
 40
12.5
100
AcDbArc
 50
208.3576290286173
 51
241.6423566277619
  0
ARC
  5
2B9
330
18
100
AcDbEntity
  8
PV0001_1
  6
Continuous
 48
0.5
370
    50
100
AcDbCircle
 10
202.49998474121
 20
-238.5
 30
0.0
 40
12.5
100
AcDbArc
 50
298.3576520236598
 51
331.6423796228044
  0
ARC
  5
2BA
330
18
100
AcDbEntity
  8
PV0001_1
  6
Continuous
 48
0.5
370
    50
100
AcDbCircle
 10
202.49998474121
 20
-238.5
 30
0.0
 40
12.5
100
AcDbArc
 50
28.3575964715343
 51
61.64234114615042
  0
ARC
  5
2BB
330
18
100
AcDbEntity
  8
PV0001_1
  6
Continuous
 48
0.5
370
    50
100
AcDbCircle
 10
202.49998474121
 20
-238.5
 30
0.0
 40
12.5
100
AcDbArc
 50
118.3576297118586
 51
151.6423573110031
  0
CIRCLE
  5
2BC
330
18
100
AcDbEntity
  8
PV0001_1
  6
Continuous
 48
0.5
370
    50
100
AcDbCircle
 10
216.28858947753
 20
-252.28857421875
 30
0.0
 40
4.0
  0
CIRCLE
  5
2BD
330
18
100
AcDbEntity
  8
PV0001_1
  6
Continuous
 48
0.5
370
    50
100
AcDbCircle
 10
188.71138000488
 20
-224.71142578125
 30
0.0
 40
4.0
  0
CIRCLE
  5
2BE
330
18
100
AcDbEntity
  8
PV0001_1
  6
Continuous
 48
0.5
370
    50
100
AcDbCircle
 10
216.28854370117
 20
-224.71142578125
 30
0.0
 40
4.0
  0
CIRCLE
  5
2BF
330
18
100
AcDbEntity
  8
PV0001_1
  6
Continuous
 48
0.5
370
    50
100
AcDbCircle
 10
188.71138000488
 20
-224.71142578125
 30
0.0
 40
3.5
  0
CIRCLE
  5
2C0
330
18
100
AcDbEntity
  8
PV0001_1
  6
Continuous
 48
0.5
370
    50
100
AcDbCircle
 10
188.71142578125
 20
-252.28857421875
 30
0.0
 40
3.5
  0
CIRCLE
  5
2C1
330
18
100
AcDbEntity
  8
PV0001_1
  6
Continuous
 48
0.5
370
    50
100
AcDbCircle
 10
216.28854370117
 20
-224.71142578125
 30
0.0
 40
3.5
  0
CIRCLE
  5
2C2
330
18
100
AcDbEntity
  8
PV0001_1
  6
Continuous
 48
0.5
370
    50
100
AcDbCircle
 10
216.28858947753
 20
-252.28857421875
 30
0.0
 40
3.5
  0
CIRCLE
  5
2C3
330
18
100
AcDbEntity
  8
PV0001_1
  6
Continuous
370
    50
100
AcDbCircle
 10
976.0
 20
-238.5
 30
0.0
 40
16.0
  0
CIRCLE
  5
2C4
330
18
100
AcDbEntity
  8
PV0001_1
  6
Continuous
370
    50
100
AcDbCircle
 10
866.5
 20
-208.5
 30
0.0
 40
5.5
  0
CIRCLE
  5
2C5
330
18
100
AcDbEntity
  8
PV0001_1
  6
Continuous
370
    50
100
AcDbCircle
 10
866.5
 20
-268.5
 30
0.0
 40
5.5
  0
CIRCLE
  5
2C6
330
18
100
AcDbEntity
  8
PV0001_1
  6
Continuous
370
    50
100
AcDbCircle
 10
866.5
 20
-268.5
 30
0.0
 40
8.5
  0
CIRCLE
  5
2C7
330
18
100
AcDbEntity
  8
PV0001_1
  6
Continuous
370
    50
100
AcDbCircle
 10
866.5
 20
-208.5
 30
0.0
 40
8.5
  0
CIRCLE
  5
2C8
330
18
100
AcDbEntity
  8
PV0001_1
  6
Continuous
 48
0.5
370
    50
100
AcDbCircle
 10
183.35690307617
 20
-330.80456542968
 30
0.0
 40
4.0
  0
CIRCLE
  5
2C9
330
18
100
AcDbEntity
  8
PV0001_1
  6
Continuous
 48
0.5
370
    50
100
AcDbCircle
 10
212.19543457031
 20
-317.35693359375
 30
0.0
 40
4.0
  0
CIRCLE
  5
2CA
330
18
100
AcDbEntity
  8
PV0001_1
  6
Continuous
 48
0.5
370
    50
100
AcDbCircle
 10
183.35690307617
 20
-330.80456542968
 30
0.0
 40
3.5
  0
CIRCLE
  5
2CB
330
18
100
AcDbEntity
  8
PV0001_1
  6
Continuous
 48
0.5
370
    50
100
AcDbCircle
 10
225.64306640625
 20
-346.19543457031
 30
0.0
 40
3.5
  0
CIRCLE
  5
2CC
330
18
100
AcDbEntity
  8
PV0001_1
  6
Continuous
 48
0.5
370
    50
100
AcDbCircle
 10
196.80451965332
 20
-359.64306640625
 30
0.0
 40
3.5
  0
CIRCLE
  5
2CD
330
18
100
AcDbEntity
  8
PV0001_1
  6
Continuous
 48
0.5
370
    50
100
AcDbCircle
 10
196.80451965332
 20
-359.64306640625
 30
0.0
 40
4.0
  0
CIRCLE
  5
2CE
330
18
100
AcDbEntity
  8
PV0001_1
  6
Continuous
 48
0.5
370
    50
100
AcDbCircle
 10
225.64306640625
 20
-346.19543457031
 30
0.0
 40
4.0
  0
ARC
  5
2CF
330
18
100
AcDbEntity
  8
PV0001_1
  6
Continuous
 48
0.5
370
    50
100
AcDbCircle
 10
204.49998474121
 20
-338.5
 30
0.0
 40
31.5
100
AcDbArc
 50
34.37125360174443
 51
55.62874890273451
  0
ARC
  5
2D0
330
18
100
AcDbEntity
  8
PV0001_1
  6
Continuous
 48
0.5
370
    50
100
AcDbCircle
 10
204.49998474121
 20
-338.5
 30
0.0
 40
31.5
100
AcDbArc
 50
124.3712697665971
 51
145.6287582374032
  0
ARC
  5
2D1
330
18
100
AcDbEntity
  8
PV0001_1
  6
Continuous
 48
0.5
370
    50
100
AcDbCircle
 10
204.49998474121
 20
-338.5
 30
0.0
 40
31.5
100
AcDbArc
 50
214.3712417625968
 51
235.6287302334028
  0
ARC
  5
2D2
330
18
100
AcDbEntity
  8
PV0001_1
  6
Continuous
 48
0.5
370
    50
100
AcDbCircle
 10
204.49998474121
 20
-338.5
 30
0.0
 40
31.5
100
AcDbArc
 50
304.3712510972655
 51
325.6287463982555
  0
ARC
  5
2D3
330
18
100
AcDbEntity
  8
PV0001_1
  6
Continuous
 48
0.5
370
    50
100
AcDbCircle
 10
204.49998474121
 20
-338.5
 30
0.0
 40
12.5
100
AcDbArc
 50
28.35763574512117
 51
61.64238895747307
  0
ARC
  5
2D4
330
18
100
AcDbEntity
  8
PV0001_1
  6
Continuous
 48
0.5
370
    50
100
AcDbCircle
 10
204.49998474121
 20
-338.5
 30
0.0
 40
12.5
100
AcDbArc
 50
118.3576297118586
 51
151.6423846317622
  0
ARC
  5
2D5
330
18
100
AcDbEntity
  8
PV0001_1
  6
Continuous
 48
0.5
370
    50
100
AcDbCircle
 10
204.49998474121
 20
-338.5
 30
0.0
 40
12.5
100
AcDbArc
 50
208.3576153682378
 51
241.6423702881414
  0
ARC
  5
2D6
330
18
100
AcDbEntity
  8
PV0001_1
  6
Continuous
 48
0.5
370
    50
100
AcDbCircle
 10
204.49998474121
 20
-338.5
 30
0.0
 40
12.5
100
AcDbArc
 50
298.3576110425269
 51
331.6423642548788
  0
CIRCLE
  5
2D7
330
18
100
AcDbEntity
  8
PV0001_1
  6
CENTER2
370
    25
100
AcDbCircle
 10
204.49998474121
 20
-338.5
 30
0.0
 40
25.0
  0
CIRCLE
  5
2D8
330
18
100
AcDbEntity
  8
PV0001_1
  6
Continuous
 48
0.5
370
    50
100
AcDbCircle
 10
222.17765808105
 20
-320.82232666015
 30
0.0
 40
4.75
  0
CIRCLE
  5
2D9
330
18
100
AcDbEntity
  8
PV0001_1
  6
Continuous
 48
0.5
370
    50
100
AcDbCircle
 10
186.82231140136
 20
-320.82232666015
 30
0.0
 40
4.75
  0
CIRCLE
  5
2DA
330
18
100
AcDbEntity
  8
PV0001_1
  6
Continuous
 48
0.5
370
    50
100
AcDbCircle
 10
186.82231140136
 20
-356.17767333984
 30
0.0
 40
4.75
  0
CIRCLE
  5
2DB
330
18
100
AcDbEntity
  8
PV0001_1
  6
Continuous
 48
0.5
370
    50
100
AcDbCircle
 10
222.17765808105
 20
-356.17767333984
 30
0.0
 40
4.75
  0
CIRCLE
  5
2DC
330
18
100
AcDbEntity
  8
PV0001_1
  6
Continuous
 48
0.5
370
    50
100
AcDbCircle
 10
222.17765808105
 20
-320.82232666015
 30
0.0
 40
2.75
  0
CIRCLE
  5
2DD
330
18
100
AcDbEntity
  8
PV0001_1
  6
Continuous
 48
0.5
370
    50
100
AcDbCircle
 10
186.82231140136
 20
-320.82232666015
 30
0.0
 40
2.75
  0
CIRCLE
  5
2DE
330
18
100
AcDbEntity
  8
PV0001_1
  6
Continuous
 48
0.5
370
    50
100
AcDbCircle
 10
186.82231140136
 20
-356.17767333984
 30
0.0
 40
2.75
  0
CIRCLE
  5
2DF
330
18
100
AcDbEntity
  8
PV0001_1
  6
Continuous
 48
0.5
370
    50
100
AcDbCircle
 10
222.17765808105
 20
-356.17767333984
 30
0.0
 40
2.75
  0
CIRCLE
  5
2E0
330
18
100
AcDbEntity
  8
PV0001_1
  6
CENTER2
370
    25
100
AcDbCircle
 10
204.49998474121
 20
-338.5
 30
0.0
 40
22.5
  0
CIRCLE
  5
2E1
330
18
100
AcDbEntity
  8
PV0001_1
  6
Continuous
 48
0.5
370
    50
100
AcDbCircle
 10
212.19543457031
 20
-317.35693359375
 30
0.0
 40
3.5
  0
CIRCLE
  5
2E2
330
18
100
AcDbEntity
  8
PV0001_1
  6
Continuous
370
    50
100
AcDbCircle
 10
204.49998474121
 20
-338.5
 30
0.0
 40
14.5
  0
CIRCLE
  5
2E3
330
18
100
AcDbEntity
  8
PV0001_1
  6
CENTER2
370
    25
100
AcDbCircle
 10
204.49998474121
 20
-138.5
 30
0.0
 40
26.5
  0
CIRCLE
  5
2E4
330
18
100
AcDbEntity
  8
PV0001_1
  6
Continuous
370
    50
100
AcDbCircle
 10
204.49998474121
 20
-138.5
 30
0.0
 40
10.0
  0
CIRCLE
  5
2E5
330
18
100
AcDbEntity
  8
PV0001_1
  6
Continuous
 48
0.5
370
    50
100
AcDbCircle
 10
217.74998474121
 20
-115.55032348632
 30
0.0
 40
3.2999999523163
  0
CIRCLE
  5
2E6
330
18
100
AcDbEntity
  8
PV0001_1
  6
Continuous
 48
0.5
370
    50
100
AcDbCircle
 10
191.24998474121
 20
-115.55032348632
 30
0.0
 40
3.2999999523163
  0
CIRCLE
  5
2E7
330
18
100
AcDbEntity
  8
PV0001_1
  6
Continuous
 48
0.5
370
    50
100
AcDbCircle
 10
191.24998474121
 20
-161.44967651367
 30
0.0
 40
3.2999999523163
  0
CIRCLE
  5
2E8
330
18
100
AcDbEntity
  8
PV0001_1
  6
Continuous
 48
0.5
370
    50
100
AcDbCircle
 10
217.74998474121
 20
-161.44967651367
 30
0.0
 40
3.2999999523163
  0
CIRCLE
  5
2E9
330
18
100
AcDbEntity
  8
PV0001_1
  6
Continuous
370
    50
100
AcDbCircle
 10
217.74998474121
 20
-115.55032348632
 30
0.0
 40
5.5
  0
CIRCLE
  5
2EA
330
18
100
AcDbEntity
  8
PV0001_1
  6
Continuous
370
    50
100
AcDbCircle
 10
191.24998474121
 20
-115.55032348632
 30
0.0
 40
5.5
  0
CIRCLE
  5
2EB
330
18
100
AcDbEntity
  8
PV0001_1
  6
Continuous
370
    50
100
AcDbCircle
 10
191.24998474121
 20
-161.44967651367
 30
0.0
 40
5.5
  0
CIRCLE
  5
2EC
330
18
100
AcDbEntity
  8
PV0001_1
  6
Continuous
370
    50
100
AcDbCircle
 10
217.74998474121
 20
-161.44967651367
 30
0.0
 40
5.5
  0
ARC
  5
2ED
330
18
100
AcDbEntity
  8
PV0001_1
  6
Continuous
 48
0.5
370
    50
100
AcDbCircle
 10
204.49998474121
 20
-138.5
 30
0.0
 40
34.0
100
AcDbArc
 50
53.96812159473622
 51
61.92751520437541
  0
ARC
  5
2EE
330
18
100
AcDbEntity
  8
PV0001_1
  6
Continuous
 48
0.5
370
    50
100
AcDbCircle
 10
204.49998474121
 20
-138.5
 30
0.0
 40
34.0
100
AcDbArc
 50
118.0724966347722
 51
126.0318936595034
  0
ARC
  5
2EF
330
18
100
AcDbEntity
  8
PV0001_1
  6
Continuous
 48
0.5
370
    50
100
AcDbCircle
 10
204.49998474121
 20
-138.5
 30
0.0
 40
34.0
100
AcDbArc
 50
233.9681063404966
 51
241.9275033652278
  0
ARC
  5
2F0
330
18
100
AcDbEntity
  8
PV0001_1
  6
Continuous
 48
0.5
370
    50
100
AcDbCircle
 10
204.49998474121
 20
-138.5
 30
0.0
 40
34.0
100
AcDbArc
 50
298.0724847956246
 51
306.0318784052638
  0
ARC
  5
2F1
330
18
100
AcDbEntity
  8
PV0001_1
  6
Continuous
 48
0.5
370
    50
100
AcDbCircle
 10
341.5
 20
-38.5
 30
0.0
 40
10.0
100
AcDbArc
 50
31.78833218973645
 51
148.2116625739339
  0
ARC
  5
2F2
330
18
100
AcDbEntity
  8
PV0001_1
  6
Continuous
 48
0.5
370
    50
100
AcDbCircle
 10
341.5
 20
-38.5
 30
0.0
 40
10.0
100
AcDbArc
 50
211.7883374260661
 51
328.2116678102635
  0
ARC
  5
2F3
330
18
100
AcDbEntity
  8
PV0001_1
  6
Continuous
 48
0.5
370
    50
100
AcDbCircle
 10
328.70001220703
 20
-96.300003051757
 30
0.0
 40
0.3000000119209
100
AcDbArc
 50
0.0
 51
90.00000250447893
  0
ARC
  5
2F4
330
18
100
AcDbEntity
  8
PV0001_1
  6
Continuous
 48
0.5
370
    50
100
AcDbCircle
 10
328.70001220703
 20
-80.699996948242
 30
0.0
 40
0.3000000119209
100
AcDbArc
 50
269.9999974955211
 51
0.0
  0
ARC
  5
2F5
330
18
100
AcDbEntity
  8
PV0001_1
  6
Continuous
 48
0.5
370
    50
100
AcDbCircle
 10
862.2999877929599
 20
-96.300003051757
 30
0.0
 40
0.3000000119209
100
AcDbArc
 50
90.00000250447893
 51
180.0000050089578
  0
ARC
  5
2F6
330
18
100
AcDbEntity
  8
PV0001_1
  6
Continuous
 48
0.5
370
    50
100
AcDbCircle
 10
862.2999877929599
 20
-80.699996948242
 30
0.0
 40
0.3000000119209
100
AcDbArc
 50
179.9999913485783
 51
270.000000683247
  0
MTEXT
  5
2F7
330
18
100
AcDbEntity
  8
PV0001_1
 62
     7
370
    25
100
AcDbMText
 10
119.5427439212755
 20
-7.5
 30
0.0
 40
4.799999999999999
 41
0.0
 71
     4
 72
     5
  1
\T1.40;\W0.61;GG2005DS-BALR-0605A
 73
     1
 44
1.0
1001
ACAD
1000
MTEXTBEGIN
1070
    73
1070
     1
1070
    44
1040
1.0
1070
    74
1070
     0
1000
MTEXTEND
  0
MTEXT
  5
2F8
330
18
100
AcDbEntity
  8
PV0001_1
 62
     7
370
    25
100
AcDbMText
 10
111.8284938931421
 20
-2.0
 30
0.0
 40
3.2
 41
0.0
 71
     4
 72
     5
  1
\T1.40;\W0.61;MODEL
 73
     1
 44
1.0
1001
ACAD
1000
MTEXTBEGIN
1070
    73
1070
     1
1070
    44
1040
1.0
1070
    74
1070
     0
1000
MTEXTEND
  0
MTEXT
  5
2F9
330
18
100
AcDbEntity
  8
PV0001_1
 62
     7
370
    25
100
AcDbMText
 10
65.54274392127952
 20
-7.5
 30
0.0
 40
4.799999999999999
 41
0.0
 71
     4
 72
     5
  1
\T1.40;\W0.61;GG2005DS
 73
     1
 44
1.0
1001
ACAD
1000
MTEXTBEGIN
1070
    73
1070
     1
1070
    44
1040
1.0
1070
    74
1070
     0
1000
MTEXTEND
  0
MTEXT
  5
2FA
330
18
100
AcDbEntity
  8
PV0001_1
 62
     7
370
    25
100
AcDbMText
 10
49.82849389314615
 20
-2.0
 30
0.0
 40
3.2
 41
0.0
 71
     4
 72
     5
  1
\T1.40;\W0.61;FILE\U+3000NAME
 73
     1
 44
1.0
1001
ACAD
1000
MTEXTBEGIN
1070
    73
1070
     1
1070
    44
1040
1.0
1070
    74
1070
     0
1000
MTEXTEND
  0
MTEXT
  5
2FB
330
18
100
AcDbEntity
  8
PV0001_1
 62
     7
370
    25
100
AcDbMText
 10
235.8284938931421
 20
-2.0
 30
0.0
 40
3.2
 41
0.0
 71
     4
 72
     5
  1
\T1.40;\W0.61;L
 73
     1
 44
1.0
1001
ACAD
1000
MTEXTBEGIN
1070
    73
1070
     1
1070
    44
1040
1.0
1070
    74
1070
     0
1000
MTEXTEND
  0
MTEXT
  5
2FC
330
18
100
AcDbEntity
  8
PV0001_1
 62
     7
370
    25
100
AcDbMText
 10
243.5427439212755
 20
-7.5
 30
0.0
 40
4.799999999999999
 41
0.0
 71
     4
 72
     5
  1
\T1.40;\W0.61;605
 73
     1
 44
1.0
1001
ACAD
1000
MTEXTBEGIN
1070
    73
1070
     1
1070
    44
1040
1.0
1070
    74
1070
     0
1000
MTEXTEND
  0
MTEXT
  5
2FD
330
18
100
AcDbEntity
  8
PV0001_1
 62
     7
370
    25
100
AcDbMText
 10
119.5427439212755
 20
-19.5
 30
0.0
 40
4.799999999999999
 41
0.0
 71
     4
 72
     5
  1
\T1.40;\W0.61;GG2005DS-BALR-1005A
 73
     1
 44
1.0
1001
ACAD
1000
MTEXTBEGIN
1070
    73
1070
     1
1070
    44
1040
1.0
1070
    74
1070
     0
1000
MTEXTEND
  0
MTEXT
  5
2FE
330
18
100
AcDbEntity
  8
PV0001_1
 62
     7
370
    25
100
AcDbMText
 10
111.8284938931421
 20
-14.0
 30
0.0
 40
3.2
 41
0.0
 71
     4
 72
     5
  1
\T1.40;\W0.61;MODEL
 73
     1
 44
1.0
1001
ACAD
1000
MTEXTBEGIN
1070
    73
1070
     1
1070
    44
1040
1.0
1070
    74
1070
     0
1000
MTEXTEND
  0
MTEXT
  5
2FF
330
18
100
AcDbEntity
  8
PV0001_1
 62
     7
370
    25
100
AcDbMText
 10
235.8284938931421
 20
-14.0
 30
0.0
 40
3.2
 41
0.0
 71
     4
 72
     5
  1
\T1.40;\W0.61;L
 73
     1
 44
1.0
1001
ACAD
1000
MTEXTBEGIN
1070
    73
1070
     1
1070
    44
1040
1.0
1070
    74
1070
     0
1000
MTEXTEND
  0
MTEXT
  5
300
330
18
100
AcDbEntity
  8
PV0001_1
 62
     7
370
    25
100
AcDbMText
 10
239.0891306400255
 20
-18.370243072509
 30
0.0
 40
4.799999999999999
 41
0.0
 71
     4
 72
     5
  1
\T1.40;\W0.61;1005
 73
     1
 44
1.0
1001
ACAD
1000
MTEXTBEGIN
1070
    73
1070
     1
1070
    44
1040
1.0
1070
    74
1070
     0
1000
MTEXTEND
  0
MTEXT
  5
301
330
18
100
AcDbEntity
  8
PV0001_1
 62
     7
370
    25
100
AcDbMText
 10
119.5427439212755
 20
-31.5
 30
0.0
 40
4.799999999999999
 41
0.0
 71
     4
 72
     5
  1
\T1.40;\W0.61;GG2005DS-BALR-1505A
 73
     1
 44
1.0
1001
ACAD
1000
MTEXTBEGIN
1070
    73
1070
     1
1070
    44
1040
1.0
1070
    74
1070
     0
1000
MTEXTEND
  0
MTEXT
  5
302
330
18
100
AcDbEntity
  8
PV0001_1
 62
     7
370
    25
100
AcDbMText
 10
111.8284938931421
 20
-26.0
 30
0.0
 40
3.2
 41
0.0
 71
     4
 72
     5
  1
\T1.40;\W0.61;MODEL
 73
     1
 44
1.0
1001
ACAD
1000
MTEXTBEGIN
1070
    73
1070
     1
1070
    44
1040
1.0
1070
    74
1070
     0
1000
MTEXTEND
  0
MTEXT
  5
303
330
18
100
AcDbEntity
  8
PV0001_1
 62
     7
370
    25
100
AcDbMText
 10
235.8284938931421
 20
-26.0
 30
0.0
 40
3.2
 41
0.0
 71
     4
 72
     5
  1
\T1.40;\W0.61;L
 73
     1
 44
1.0
1001
ACAD
1000
MTEXTBEGIN
1070
    73
1070
     1
1070
    44
1040
1.0
1070
    74
1070
     0
1000
MTEXTEND
  0
MTEXT
  5
304
330
18
100
AcDbEntity
  8
PV0001_1
 62
     7
370
    25
100
AcDbMText
 10
239.7344858646355
 20
-31.271429061889
 30
0.0
 40
4.799999999999999
 41
0.0
 71
     4
 72
     5
  1
\T1.40;\W0.61;1505
 73
     1
 44
1.0
1001
ACAD
1000
MTEXTBEGIN
1070
    73
1070
     1
1070
    44
1040
1.0
1070
    74
1070
     0
1000
MTEXTEND
  0
MTEXT
  5
305
330
18
100
AcDbEntity
  8
PV0001_1
 62
     7
370
    25
100
AcDbMText
 10
310.8631618618921
 20
-284.26684570312
 30
0.0
 40
3.2
 41
0.0
 71
     4
 72
     5
  1
\T1.40;\W0.61;BUK-15F
 73
     1
 44
1.0
1001
ACAD
1000
MTEXTBEGIN
1070
    73
1070
     1
1070
    44
1040
1.0
1070
    74
1070
     0
1000
MTEXTEND
  0
MTEXT
  5
306
330
18
100
AcDbEntity
  8
PV0001_1
 62
     7
370
    25
100
AcDbMText
 10
857.2737148404121
 20
-284.26684570312
 30
0.0
 40
3.2
 41
0.0
 71
     4
 72
     5
  1
\T1.40;\W0.61;BUK-15S
 73
     1
 44
1.0
1001
ACAD
1000
MTEXTBEGIN
1070
    73
1070
     1
1070
    44
1040
1.0
1070
    74
1070
     0
1000
MTEXTEND
  0
MTEXT
  5
307
330
18
100
AcDbEntity
  8
PV0001_1
 62
     7
370
    25
100
AcDbMText
 10
302.5626857876722
 20
-369.21383666992
 30
0.0
 40
3.2
 41
0.0
 71
     4
 72
     5
  1
\T1.40;\W0.61;BUM-15
 73
     1
 44
1.0
1001
ACAD
1000
MTEXTBEGIN
1070
    73
1070
     1
1070
    44
1040
1.0
1070
    74
1070
     0
1000
MTEXTEND
  0
MTEXT
  5
308
330
18
100
AcDbEntity
  8
PV0001_1
 62
     7
370
    25
100
AcDbMText
 10
860.6354091763421
 20
-438.67477416992
 30
0.0
 40
3.2
 41
0.0
 71
     4
 72
     5
  1
\T1.40;\W0.61;6002ZZ
 73
     1
 44
1.0
1001
ACAD
1000
MTEXTBEGIN
1070
    73
1070
     1
1070
    44
1040
1.0
1070
    74
1070
     0
1000
MTEXTEND
  0
MTEXT
  5
309
330
18
100
AcDbEntity
  8
PV0001_1
 62
     7
370
    25
100
AcDbMText
 10
320.9307582974421
 20
-448.70849609375
 30
0.0
 40
3.2
 41
0.0
 71
     4
 72
     5
  1
\T1.40;\W0.61;BUM-15
 73
     1
 44
1.0
1001
ACAD
1000
MTEXTBEGIN
1070
    73
1070
     1
1070
    44
1040
1.0
1070
    74
1070
     0
1000
MTEXTEND
  0
MTEXT
  5
49B
330
18
100
AcDbEntity
  8
PV0001_1
 62
     7
370
    25
100
AcDbMText
 10
239.7344858646355
 20
-43.27142906188899
 30
0.0
 40
4.799999999999999
 41
0.0
 71
     4
 72
     5
  1
\T1.4;\W0.61;1805
 73
     1
 44
1.0
1001
ACAD
1000
MTEXTBEGIN
1070
    73
1070
     1
1070
    44
1040
1.0
1070
    74
1070
     0
1000
MTEXTEND
  0
MTEXT
  5
49C
330
18
100
AcDbEntity
  8
PV0001_1
 62
     7
370
    25
100
AcDbMText
 10
235.8284938931421
 20
-38.0
 30
0.0
 40
3.2
 41
0.0
 71
     4
 72
     5
  1
\T1.40;\W0.61;L
 73
     1
 44
1.0
1001
ACAD
1000
MTEXTBEGIN
1070
    73
1070
     1
1070
    44
1040
1.0
1070
    74
1070
     0
1000
MTEXTEND
  0
MTEXT
  5
49D
330
18
100
AcDbEntity
  8
PV0001_1
 62
     7
370
    25
100
AcDbMText
 10
111.8284938931421
 20
-38.0
 30
0.0
 40
3.2
 41
0.0
 71
     4
 72
     5
  1
\T1.40;\W0.61;MODEL
 73
     1
 44
1.0
1001
ACAD
1000
MTEXTBEGIN
1070
    73
1070
     1
1070
    44
1040
1.0
1070
    74
1070
     0
1000
MTEXTEND
  0
MTEXT
  5
49E
330
18
100
AcDbEntity
  8
PV0001_1
 62
     7
370
    25
100
AcDbMText
 10
119.5427439212755
 20
-43.5
 30
0.0
 40
4.799999999999999
 41
0.0
 71
     4
 72
     5
  1
\T1.4;\W0.61;GG2005DS-BALR-1805A
 73
     1
 44
1.0
1001
ACAD
1000
MTEXTBEGIN
1070
    73
1070
     1
1070
    44
1040
1.0
1070
    74
1070
     0
1000
MTEXTEND
  0
LINE
  5
49F
330
18
100
AcDbEntity
  8
PV0001_1
  6
Continuous
 48
0.5
370
    50
100
AcDbLine
 10
259.30798339843
 20
-36.0
 30
0.0
 11
259.30798339843
 21
-48.0
 31
0.0
  0
LINE
  5
4A0
330
18
100
AcDbEntity
  8
PV0001_1
  6
Continuous
 48
0.5
370
    50
100
AcDbLine
 10
108.39999389648
 20
-36.0
 30
0.0
 11
108.39999389648
 21
-48.0
 31
0.0
  0
LINE
  5
4A1
330
18
100
AcDbEntity
  8
PV0001_1
  6
Continuous
 48
0.5
370
    50
100
AcDbLine
 10
232.39999389648
 20
-36.0
 30
0.0
 11
232.39999389648
 21
-48.0
 31
0.0
  0
LINE
  5
4A2
330
18
100
AcDbEntity
  8
PV0001_1
  6
Continuous
370
    50
100
AcDbLine
 10
108.39999389648
 20
-48.0
 30
0.0
 11
259.30798339843
 21
-48.0
 31
0.0
  0
LINE
  5
4B6
330
18
100
AcDbEntity
  8
outline
  6
DASHED2
 62
     0
 48
0.3
100
AcDbLine
 10
206.0999847387111
 20
-157.5790627284045
 30
0.0
 11
206.0999847367534
 21
-149.0291200957115
 31
0.0
  0
LINE
  5
4B7
330
18
100
AcDbEntity
  8
outline
  6
DASHED2
 62
     0
 48
0.3
100
AcDbLine
 10
202.8999847387113
 20
-157.5790627291351
 30
0.0
 11
202.8999847367536
 21
-149.0291200962082
 31
0.0
  0
LINE
  5
4B8
330
18
100
AcDbEntity
  8
outline
  6
DASHED2
 62
     0
 48
0.3
100
AcDbLine
 10
202.499984740296
 20
-164.5000000004102
 30
0.0
 11
202.4999847411163
 21
-168.5000000004102
 31
0.0
  0
LINE
  5
4B9
330
18
100
AcDbEntity
  8
outline
  6
DASHED2
 62
     0
 48
0.3
100
AcDbLine
 10
206.4999847403896
 20
-164.4999999995898
 30
0.0
 11
202.499984740296
 21
-164.5000000004102
 31
0.0
  0
LINE
  5
4BA
330
18
100
AcDbEntity
  8
outline
  6
DASHED2
 62
     0
 48
0.3
100
AcDbLine
 10
206.49998474121
 20
-168.4999999995898
 30
0.0
 11
206.4999847403896
 21
-164.4999999995898
 31
0.0
  0
LINE
  5
4BB
330
18
100
AcDbEntity
  8
outline
  6
DASHED2
 62
     0
 48
0.3
100
AcDbLine
 10
206.0999847412117
 20
-168.4999999996718
 30
0.0
 11
206.0999847395908
 21
-161.4209372708622
 31
0.0
  0
LINE
  5
4BC
330
18
100
AcDbEntity
  8
outline
  6
DASHED2
 62
     0
 48
0.3
100
AcDbLine
 10
202.8999847412119
 20
-168.5000000003281
 30
0.0
 11
202.8999847395912
 21
-161.420937271597
 31
0.0
  0
LINE
  5
4BD
330
18
100
AcDbEntity
  8
center
 62
     0
 48
0.2
100
AcDbLine
 10
200.527742010343
 20
-159.5000000008144
 30
0.0
 11
208.544348541034
 21
-159.4999999991702
 31
0.0
  0
CIRCLE
  5
4BE
330
18
100
AcDbEntity
  8
outline
 62
     0
 48
0.3
100
AcDbCircle
 10
204.4999847391498
 20
-159.4999999999997
 30
0.0
 40
2.5
  0
CIRCLE
  5
4BF
330
18
100
AcDbEntity
  8
outline
 62
     0
 48
0.3
100
AcDbCircle
 10
204.4999847391498
 20
-159.5000000005789
 30
0.0
 40
3.0
  0
LINE
  5
4D3
330
18
100
AcDbEntity
  8
outline
  6
DASHED2
 62
     0
 48
0.3
100
AcDbLine
 10
371.9
 20
-157.0
 30
0.0
 11
371.9
 21
-149.15
 31
0.0
  0
LINE
  5
4D4
330
18
100
AcDbEntity
  8
outline
  6
DASHED2
 62
     0
 48
0.3
100
AcDbLine
 10
371.0
 20
-156.5
 30
0.0
 11
365.0
 21
-156.5
 31
0.0
  0
LINE
  5
4D5
330
18
100
AcDbEntity
  8
outline
  6
DASHED2
 62
     0
 48
0.3
100
AcDbLine
 10
371.0
 20
-162.5
 30
0.0
 11
371.0
 21
-156.5
 31
0.0
  0
LINE
  5
4D6
330
18
100
AcDbEntity
  8
outline
  6
DASHED2
 62
     0
 48
0.3
100
AcDbLine
 10
365.0
 20
-162.5
 30
0.0
 11
371.0
 21
-162.5
 31
0.0
  0
LINE
  5
4D7
330
18
100
AcDbEntity
  8
outline
  6
DASHED2
 62
     0
 48
0.3
100
AcDbLine
 10
365.0
 20
-162.0
 30
0.0
 11
371.9
 21
-162.0
 31
0.0
  0
LINE
  5
4D8
330
18
100
AcDbEntity
  8
outline
  6
DASHED2
 62
     0
 48
0.3
100
AcDbLine
 10
365.0
 20
-157.0
 30
0.0
 11
371.9
 21
-157.0
 31
0.0
  0
LINE
  5
4D9
330
18
100
AcDbEntity
  8
center
 62
     0
 48
0.3
100
AcDbLine
 10
364.1284579736621
 20
-159.5
 30
0.0
 11
375.9890105599652
 21
-159.5
 31
0.0
  0
LINE
  5
4DA
330
18
100
AcDbEntity
  8
outline
  6
DASHED2
 62
     0
 48
0.3
100
AcDbLine
 10
375.5
 20
-164.5
 30
0.0
 11
375.5
 21
-168.5
 31
0.0
  0
LINE
  5
4DB
330
18
100
AcDbEntity
  8
outline
  6
DASHED2
 62
     0
 48
0.3
100
AcDbLine
 10
371.5
 20
-164.5
 30
0.0
 11
375.5
 21
-164.5
 31
0.0
  0
LINE
  5
4DC
330
18
100
AcDbEntity
  8
outline
  6
DASHED2
 62
     0
 48
0.3
100
AcDbLine
 10
371.5
 20
-168.5
 30
0.0
 11
371.5
 21
-164.5
 31
0.0
  0
LINE
  5
4DD
330
18
100
AcDbEntity
  8
outline
  6
DASHED2
 62
     0
 48
0.3
100
AcDbLine
 10
375.1
 20
-168.5
 30
0.0
 11
375.1
 21
-149.15
 31
0.0
  0
LINE
  5
4DE
330
18
100
AcDbEntity
  8
outline
  6
DASHED2
 62
     0
 48
0.3
100
AcDbLine
 10
371.9
 20
-168.5
 30
0.0
 11
371.9
 21
-162.0
 31
0.0
  0
LINE
  5
4DF
330
18
100
AcDbEntity
  8
center
 62
     0
 48
0.5
100
AcDbLine
 10
373.5
 20
-148.3893929592972
 30
0.0
 11
373.5
 21
-169.1883268898295
 31
0.0
  0
LINE
  5
52E
330
18
100
AcDbEntity
  8
PV0001_1
  6
CENTER2
370
    25
100
AcDbLine
 10
784.4426269531201
 20
-338.5000000000001
 30
0.0
 11
881.09344482421
 21
-338.5000000000001
 31
0.0
  0
MTEXT
  5
560
330
18
100
AcDbEntity
  8
PV0001_1
 62
     7
370
    25
100
AcDbMText
 10
864.8643788050341
 20
-376.9910343634399
 30
0.0
 40
3.2
 41
0.0
 71
     4
 72
     5
  1
\T1.4;\W0.61;BUM-15S
 73
     1
 44
1.0
1001
ACAD
1000
MTEXTBEGIN
1070
    73
1070
     1
1070
    44
1040
1.0
1070
    74
1070
     0
1000
MTEXTEND
  0
LINE
  5
561
330
18
100
AcDbEntity
  8
0
370
    -2
100
AcDbLine
 10
878.5000000000001
 20
-322.5
 30
0.0
 11
862.5000000000001
 21
-322.5
 31
0.0
  0
CIRCLE
  5
562
330
18
100
AcDbEntity
  8
0
370
    -2
100
AcDbCircle
 10
989.5983451586502
 20
-338.5000000000001
 30
0.0
 40
16.5
  0
LINE
  5
563
330
18
100
AcDbEntity
  8
0
100
AcDbLine
 10
862.5000000000001
 20
-322.5
 30
0.0
 11
862.0
 21
-322.0000000000001
 31
0.0
  0
LINE
  5
564
330
18
100
AcDbEntity
  8
0
100
AcDbLine
 10
862.5000000000001
 20
-354.5000000000001
 30
0.0
 11
862.5000000000001
 21
-322.5
 31
0.0
  0
LINE
  5
565
330
18
100
AcDbEntity
  8
0
100
AcDbLine
 10
862.0
 20
-355.0000000000001
 30
0.0
 11
862.5000000000001
 21
-354.5000000000001
 31
0.0
  0
LINE
  5
566
330
18
100
AcDbEntity
  8
0
100
AcDbLine
 10
878.5000000000001
 20
-322.5
 30
0.0
 11
879.0
 21
-322.0000000000001
 31
0.0
  0
LINE
  5
567
330
18
100
AcDbEntity
  8
0
100
AcDbLine
 10
878.5000000000001
 20
-354.5000000000001
 30
0.0
 11
878.5000000000001
 21
-322.5
 31
0.0
  0
LINE
  5
568
330
18
100
AcDbEntity
  8
0
100
AcDbLine
 10
879.0
 20
-355.0000000000001
 30
0.0
 11
878.5000000000001
 21
-354.5000000000001
 31
0.0
  0
LINE
  5
569
330
18
100
AcDbEntity
  8
0
370
    -2
100
AcDbLine
 10
869.9999999999999
 20
-370.0000000000001
 30
0.0
 11
879.0
 21
-370.0000000000001
 31
0.0
  0
LINE
  5
56A
330
18
100
AcDbEntity
  8
0
370
    -2
100
AcDbLine
 10
878.5000000000001
 20
-354.5000000000001
 30
0.0
 11
862.5000000000001
 21
-354.5000000000001
 31
0.0
  0
LINE
  5
56B
330
18
100
AcDbEntity
  8
0
370
    -2
100
AcDbLine
 10
870.0000000000001
 20
-358.5000000000001
 30
0.0
 11
862.0
 21
-358.5000000000001
 31
0.0
  0
CIRCLE
  5
56D
330
18
100
AcDbEntity
  8
0
370
    -2
100
AcDbCircle
 10
971.9206756289864
 20
-356.1776695296638
 30
0.0
 40
2.75
  0
CIRCLE
  5
56E
330
18
100
AcDbEntity
  8
0
370
    -2
100
AcDbCircle
 10
971.9206766491991
 20
-356.1776705498765
 30
0.0
 40
4.75
  0
LINE
  5
56F
330
18
100
AcDbEntity
  8
0
370
    -2
100
AcDbLine
 10
869.9999999999999
 20
-318.5
 30
0.0
 11
869.9999999999999
 21
-312.5
 31
0.0
  0
LINE
  5
570
330
18
100
AcDbEntity
  8
0
370
    -2
100
AcDbLine
 10
879.0
 20
-312.5
 30
0.0
 11
869.9999999999999
 21
-312.5
 31
0.0
  0
LINE
  5
571
330
18
100
AcDbEntity
  8
0
370
    -2
100
AcDbLine
 10
869.9999999999999
 20
-318.5
 30
0.0
 11
862.0
 21
-318.5
 31
0.0
  0
ARC
  5
572
330
18
100
AcDbEntity
  8
0
370
    -2
100
AcDbCircle
 10
989.5983451586502
 20
-338.5000000000001
 30
0.0
 40
31.5
100
AcDbArc
 50
124.3712560240872
 51
145.6287439759218
  0
LINE
  5
573
330
18
100
AcDbEntity
  8
0
370
    -2
100
AcDbLine
 10
963.5983451586502
 20
-356.2834192437788
 30
0.0
 11
963.5983451586502
 21
-320.7165807562213
 31
0.0
  0
CIRCLE
  5
574
330
18
100
AcDbEntity
  8
0
370
    -2
100
AcDbCircle
 10
971.9206756289864
 20
-320.8223304703363
 30
0.0
 40
4.75
  0
CIRCLE
  5
575
330
18
100
AcDbEntity
  8
0
370
    -2
100
AcDbCircle
 10
971.9206746087737
 20
-320.8223294501236
 30
0.0
 40
2.75
  0
LINE
  5
576
330
18
100
AcDbEntity
  8
0
370
    -2
100
AcDbLine
 10
862.0
 20
-318.5
 30
0.0
 11
862.0
 21
-358.5000000000001
 31
0.0
  0
LINE
  5
577
330
18
100
AcDbEntity
  8
0
370
    -2
100
AcDbLine
 10
879.0
 20
-370.0000000000001
 30
0.0
 11
879.0
 21
-312.5
 31
0.0
  0
ARC
  5
578
330
18
100
AcDbEntity
  8
0
370
    -2
100
AcDbCircle
 10
989.5983451586502
 20
-338.5000000000001
 30
0.0
 40
31.5
100
AcDbArc
 50
214.3712560240782
 51
235.6287439759128
  0
LINE
  5
579
330
18
100
AcDbEntity
  8
0
370
    -2
100
AcDbLine
 10
870.0000000000001
 20
-358.5000000000001
 30
0.0
 11
869.9999999999999
 21
-370.0000000000001
 31
0.0
  0
CIRCLE
  5
57A
330
18
100
AcDbEntity
  8
0
370
    -2
100
AcDbCircle
 10
1007.276013668101
 20
-356.177668509451
 30
0.0
 40
2.75
  0
CIRCLE
  5
57B
330
18
100
AcDbEntity
  8
0
370
    -2
100
AcDbCircle
 10
1007.276014688314
 20
-356.1776695296637
 30
0.0
 40
4.75
  0
ARC
  5
57C
330
18
100
AcDbEntity
  8
0
370
    -2
100
AcDbCircle
 10
989.5983451586502
 20
-338.5000000000001
 30
0.0
 40
31.5
100
AcDbArc
 50
34.37125602407815
 51
55.62874397591279
  0
LINE
  5
57D
330
18
100
AcDbEntity
  8
0
370
    -2
100
AcDbLine
 10
1015.59834515865
 20
-356.2834192437788
 30
0.0
 11
1015.59834515865
 21
-320.7165807562213
 31
0.0
  0
CIRCLE
  5
57E
330
18
100
AcDbEntity
  8
0
370
    -2
100
AcDbCircle
 10
1007.276014688314
 20
-320.8223304703364
 30
0.0
 40
4.75
  0
CIRCLE
  5
57F
330
18
100
AcDbEntity
  8
0
370
    -2
100
AcDbCircle
 10
1007.276013668101
 20
-320.8223294501237
 30
0.0
 40
2.75
  0
LINE
  5
580
330
18
100
AcDbEntity
  8
0
  6
AM_ISO08W050
370
    -2
100
AcDbLine
 10
989.5983451586502
 20
-373.0
 30
0.0
 11
989.5983451586502
 21
-304.0
 31
0.0
  0
ARC
  5
581
330
18
100
AcDbEntity
  8
0
370
    -2
100
AcDbCircle
 10
989.5983451586502
 20
-338.5000000000001
 30
0.0
 40
31.5
100
AcDbArc
 50
304.3712560240872
 51
325.6287439759219
  0
CIRCLE
  5
582
330
18
100
AcDbEntity
  8
0
370
    -2
100
AcDbCircle
 10
989.5983451586502
 20
-338.5000000000001
 30
0.0
 40
16.0
  0
CIRCLE
  5
583
330
18
100
AcDbEntity
  8
0
  6
AM_ISO08W050
370
    -2
100
AcDbCircle
 10
989.5983451586502
 20
-338.5000000000001
 30
0.0
 40
25.0
  0
LINE
  5
584
330
18
100
AcDbEntity
  8
0
  6
AM_ISO08W050
370
    -2
100
AcDbLine
 10
1013.993529109586
 20
-314.1048160490642
 30
0.0
 11
965.2031612077143
 21
-362.895183950936
 31
0.0
  0
LINE
  5
585
330
18
100
AcDbEntity
  8
0
  6
AM_ISO08W050
370
    -2
100
AcDbLine
 10
1013.993529109586
 20
-362.8951839509359
 30
0.0
 11
965.2031612077143
 21
-314.1048160490641
 31
0.0
  0
CIRCLE
  5
586
330
18
100
AcDbEntity
  8
0
  6
DASHED2
370
    -2
100
AcDbCircle
 10
989.5983451586502
 20
-338.5000000000001
 30
0.0
 40
20.0
  0
LINE
  5
587
330
18
100
AcDbEntity
  8
0
  6
AM_ISO08W050
370
    -2
100
AcDbLine
 10
1024.09834515865
 20
-338.5000000000001
 30
0.0
 11
955.0983451586501
 21
-338.5000000000001
 31
0.0
  0
LINE
  5
588
330
18
100
AcDbEntity
  8
0
370
    -2
100
AcDbLine
 10
1007.381764402429
 20
-312.5
 30
0.0
 11
971.8149259148715
 21
-312.5
 31
0.0
  0
LINE
  5
589
330
18
100
AcDbEntity
  8
0
370
    -2
100
AcDbLine
 10
971.8149259148715
 20
-364.5
 30
0.0
 11
1007.381764402429
 21
-364.5
 31
0.0
  0
LINE
  5
5E0
330
18
100
AcDbEntity
  8
PV0001_1
  6
PHANTOM2
370
    25
100
AcDbLine
 10
794.0
 20
-329.7500000000001
 30
0.0
 11
862.0
 21
-329.7500000000001
 31
0.0
  0
LINE
  5
5E1
330
18
100
AcDbEntity
  8
PV0001_1
  6
PHANTOM2
370
    25
100
AcDbLine
 10
794.0
 20
-348.5000000000001
 30
0.0
 11
862.0
 21
-348.5000000000001
 31
0.0
  0
LINE
  5
5E2
330
18
100
AcDbEntity
  8
PV0001_1
  6
PHANTOM2
 48
0.5
370
    25
100
AcDbLine
 10
862.0
 20
-328.5000000000001
 30
0.0
 11
862.0
 21
-348.5000000000001
 31
0.0
  0
LINE
  5
5E3
330
18
100
AcDbEntity
  8
PV0001_1
  6
PHANTOM2
 48
0.5
370
    25
100
AcDbLine
 10
872.1500244140599
 20
-346.0000000000001
 30
0.0
 11
874.0
 21
-346.0000000000001
 31
0.0
  0
LINE
  5
5E4
330
18
100
AcDbEntity
  8
PV0001_1
  6
PHANTOM2
370
    25
100
AcDbLine
 10
794.0
 20
-347.2500000000001
 30
0.0
 11
862.0
 21
-347.2500000000001
 31
0.0
  0
LINE
  5
5E5
330
18
100
AcDbEntity
  8
PV0001_1
  6
PHANTOM2
 48
0.5
370
    25
100
AcDbLine
 10
871.0
 20
-345.6499938964801
 30
0.0
 11
872.1500244140599
 21
-345.6499938964801
 31
0.0
  0
LINE
  5
5E6
330
18
100
AcDbEntity
  8
PV0001_1
  6
PHANTOM2
 48
0.5
370
    25
100
AcDbLine
 10
872.1500244140599
 20
-331.0000000000001
 30
0.0
 11
874.0
 21
-331.0000000000001
 31
0.0
  0
LINE
  5
5E7
330
18
100
AcDbEntity
  8
PV0001_1
  6
PHANTOM2
370
    25
100
AcDbLine
 10
794.0
 20
-328.5000000000001
 30
0.0
 11
862.0
 21
-328.5000000000001
 31
0.0
  0
LINE
  5
5E8
330
18
100
AcDbEntity
  8
PV0001_1
  6
PHANTOM2
 48
0.5
370
    25
100
AcDbLine
 10
872.1500244140599
 20
-331.0000000000001
 30
0.0
 11
872.1500244140599
 21
-346.0000000000001
 31
0.0
  0
LINE
  5
5E9
330
18
100
AcDbEntity
  8
PV0001_1
  6
PHANTOM2
 48
0.5
370
    25
100
AcDbLine
 10
874.0
 20
-331.0000000000001
 30
0.0
 11
874.0
 21
-346.0000000000001
 31
0.0
  0
LINE
  5
5EA
330
18
100
AcDbEntity
  8
PV0001_1
  6
PHANTOM2
 48
0.5
370
    25
100
AcDbLine
 10
862.0
 20
-331.0000000000001
 30
0.0
 11
871.0
 21
-331.0000000000001
 31
0.0
  0
LINE
  5
5EB
330
18
100
AcDbEntity
  8
PV0001_1
  6
PHANTOM2
 48
0.5
370
    25
100
AcDbLine
 10
871.0
 20
-331.3500061035101
 30
0.0
 11
872.1500244140599
 21
-331.3500061035101
 31
0.0
  0
LINE
  5
5EC
330
18
100
AcDbEntity
  8
PV0001_1
  6
PHANTOM2
 48
0.5
370
    25
100
AcDbLine
 10
862.0
 20
-346.0000000000001
 30
0.0
 11
871.0
 21
-346.0000000000001
 31
0.0
  0
LINE
  5
5ED
330
18
100
AcDbEntity
  8
PV0001_1
  6
PHANTOM2
 48
0.5
370
    25
100
AcDbLine
 10
871.0
 20
-331.0000000000001
 30
0.0
 11
871.0
 21
-346.0000000000001
 31
0.0
  0
LINE
  5
5EE
330
18
100
AcDbEntity
  8
PV0001_1
  6
DASHED2
 48
0.5
370
    50
100
AcDbLine
 10
872.0
 20
-350.0000152587801
 30
0.0
 11
872.0
 21
-326.9999694824201
 31
0.0
  0
LINE
  5
5EF
330
18
100
AcDbEntity
  8
PV0001_1
  6
DASHED2
370
    50
100
AcDbLine
 10
862.0
 20
-354.4999847412102
 30
0.0
 11
862.0
 21
-322.5000152587801
 31
0.0
  0
LINE
  5
5F0
330
18
100
AcDbEntity
  8
PV0001_1
  6
DASHED2
370
    50
100
AcDbLine
 10
871.0
 20
-354.4999847412102
 30
0.0
 11
871.0
 21
-322.5000152587801
 31
0.0
  0
LINE
  5
5F1
330
18
100
AcDbEntity
  8
PV0001_1
  6
DASHED2
 48
0.5
370
    50
100
AcDbLine
 10
872.0
 20
-350.0000152587801
 30
0.0
 11
871.0
 21
-350.0000152587801
 31
0.0
  0
LINE
  5
5F2
330
18
100
AcDbEntity
  8
PV0001_1
  6
DASHED2
 48
0.5
370
    50
100
AcDbLine
 10
872.0
 20
-326.9999847412102
 30
0.0
 11
871.0
 21
-326.9999847412102
 31
0.0
  0
LINE
  5
5F3
330
18
100
AcDbEntity
  8
PV0001_1
  6
DASHED2
 48
0.5
370
    50
100
AcDbLine
 10
872.0
 20
-345.6499938964801
 30
0.0
 11
871.0
 21
-345.6499938964801
 31
0.0
  0
LINE
  5
5F4
330
18
100
AcDbEntity
  8
PV0001_1
  6
DASHED2
 48
0.5
370
    50
100
AcDbLine
 10
872.0
 20
-331.3500061035101
 30
0.0
 11
871.0
 21
-331.3500061035101
 31
0.0
  0
LINE
  5
5F5
330
18
100
AcDbEntity
  8
PV0001_1
  6
DASHED2
 48
0.5
370
    50
100
AcDbLine
 10
871.0
 20
-354.4999847412102
 30
0.0
 11
862.0
 21
-354.4999847412102
 31
0.0
  0
LINE
  5
5F6
330
18
100
AcDbEntity
  8
PV0001_1
  6
DASHED2
 48
0.5
370
    50
100
AcDbLine
 10
871.0
 20
-322.5000152587801
 30
0.0
 11
862.0
 21
-322.5000152587801
 31
0.0
  0
LINE
  5
5F7
330
18
100
AcDbEntity
  8
PV0001_1
  6
DASHED2
 48
0.5
370
    50
100
AcDbLine
 10
862.0
 20
-331.0000000000001
 30
0.0
 11
871.0
 21
-331.0000000000001
 31
0.0
  0
LINE
  5
5F8
330
18
100
AcDbEntity
  8
PV0001_1
  6
DASHED2
 48
0.5
370
    50
100
AcDbLine
 10
862.0
 20
-346.0000000000001
 30
0.0
 11
871.0
 21
-346.0000000000001
 31
0.0
  0
ENDSEC
  0
SECTION
  2
OBJECTS
  0
DICTIONARY
  5
C
330
0
100
AcDbDictionary
281
     1
  3
ACAD_COLOR
350
379
  3
ACAD_GROUP
350
D
  3
ACAD_LAYOUT
350
5E
  3
ACAD_MATERIAL
350
378
  3
ACAD_MLINESTYLE
350
1B
  3
ACAD_PLOTSETTINGS
350
5F
  3
ACAD_PLOTSTYLENAME
350
5C
  3
ACAD_TABLESTYLE
350
654
  3
ACDBHEADERROUNDTRIPXREC
350
826
  3
AcDbVariableDictionary
350
6B0
  3
AcmDictionary
350
3F2
  3
AMG
350
37F
  3
AMGSNAPSETTINGS
350
480
  3
SAKAE_DICT
350
32E
  0
DICTIONARY
  5
368
330
18
100
AcDbDictionary
280
     1
281
     1
  3
ACAD_LAYOUTSELFREF
360
369
  0
DICTIONARY
  5
366
330
15
100
AcDbDictionary
280
     1
281
     1
  3
ACAD_LAYOUTSELFREF
360
367
  0
DICTIONARY
  5
379
102
{ACAD_REACTORS
330
C
102
}
330
C
100
AcDbDictionary
281
     1
  0
DICTIONARY
  5
D
102
{ACAD_REACTORS
330
C
102
}
330
C
100
AcDbDictionary
281
     1
  0
DICTIONARY
  5
5E
102
{ACAD_REACTORS
330
C
102
}
330
C
100
AcDbDictionary
281
     1
  3
Model
350
60
  3
ﾚｲｱｳﾄ1
350
61
  0
DICTIONARY
  5
378
102
{ACAD_REACTORS
330
C
102
}
330
C
100
AcDbDictionary
281
     1
  0
DICTIONARY
  5
1B
102
{ACAD_REACTORS
330
C
102
}
330
C
100
AcDbDictionary
281
     1
  3
STANDARD
350
1C
  0
DICTIONARY
  5
5F
102
{ACAD_REACTORS
330
C
102
}
330
C
100
AcDbDictionary
281
     1
  0
ACDBDICTIONARYWDFLT
  5
5C
102
{ACAD_REACTORS
330
C
102
}
330
C
100
AcDbDictionary
281
     1
  3
Normal
350
5D
100
AcDbDictionaryWithDefault
340
5D
1001
ACAD
1000
TREAT_AS_HARD
1070
     0
  0
DICTIONARY
  5
654
102
{ACAD_REACTORS
330
C
102
}
330
C
100
AcDbDictionary
281
     1
  3
Standard
350
655
  0
DICTIONARY
  5
826
102
{ACAD_REACTORS
330
C
102
}
330
C
100
AcDbDictionary
281
     1
  0
DICTIONARY
  5
6B0
102
{ACAD_REACTORS
330
C
102
}
330
C
100
AcDbDictionary
281
     1
  3
CTABLESTYLE
350
6B1
  3
DIMASSOC
350
6B2
  3
PROJECTNAME
350
6B3
  0
DICTIONARY
  5
3F2
102
{ACAD_REACTORS
330
C
102
}
330
C
100
AcDbDictionary
281
     1
  3
AcmStdDictionary
350
3FC
  3
AMDTSECTSYM_ARROWCOLOR
350
66D
  0
DICTIONARY
  5
37F
102
{ACAD_REACTORS
330
C
102
}
330
C
100
AcDbDictionary
281
     1
  0
DICTIONARY
  5
480
102
{ACAD_REACTORS
330
C
102
}
330
C
100
AcDbDictionary
281
     1
  0
DICTIONARY
  5
32E
102
{ACAD_REACTORS
330
C
102
}
330
C
100
AcDbDictionary
281
     1
  3
XREC1
350
32F
  0
XRECORD
  5
369
102
{ACAD_REACTORS
330
368
102
}
330
368
100
AcDbXrecord
280
     1
340
18
  0
XRECORD
  5
367
102
{ACAD_REACTORS
330
366
102
}
330
366
100
AcDbXrecord
280
     1
340
15
  0
LAYOUT
  5
60
102
{ACAD_XDICTIONARY
360
827
102
}
102
{ACAD_REACTORS
330
5E
102
}
330
5E
100
AcDbPlotSettings
  1

  2
none_device
  4
ANSI_A_(8.50_x_11.00_Inches)
  6

 40
6.349999904632568
 41
19.04999923706055
 42
6.350006103515625
 43
19.04998779296875
 44
215.8999938964844
 45
279.3999938964844
 46
0.0
 47
0.0
 48
0.0
 49
0.0
140
0.0
141
0.0
142
1.0
143
1.0
 70
 11936
 72
     0
 73
     1
 74
     0
  7

 75
     0
147
1.0
148
1.166901962778297
149
-544.7787025703799
100
AcDbLayout
  1
Model
 70
     1
 71
     0
 10
0.0
 20
0.0
 11
12.0
 21
9.0
 12
0.0
 22
0.0
 32
0.0
 14
0.0
 24
0.0
 34
0.0
 15
0.0
 25
0.0
 35
0.0
146
0.0
 13
0.0
 23
0.0
 33
0.0
 16
1.0
 26
0.0
 36
0.0
 17
0.0
 27
1.0
 37
0.0
 76
     0
330
18
  0
LAYOUT
  5
61
102
{ACAD_XDICTIONARY
360
829
102
}
102
{ACAD_REACTORS
330
5E
102
}
330
5E
100
AcDbPlotSettings
  1

  2
\\BLUEWAVE2\EPSON LP-9200SX
  4

  6

 40
0.0
 41
0.0
 42
0.0
 43
0.0
 44
0.0
 45
0.0
 46
0.0
 47
0.0
 48
0.0
 49
0.0
140
0.0
141
0.0
142
1.0
143
1.0
 70
   688
 72
     0
 73
     0
 74
     5
  7
kuroda-monochrome.ctb
 75
    16
147
1.0
148
0.0
149
0.0
100
AcDbLayout
  1
ﾚｲｱｳﾄ1
 70
     1
 71
     1
 10
0.0
 20
0.0
 11
420.0
 21
297.0
 12
0.0
 22
0.0
 32
0.0
 14
1.000000000000000E+20
 24
1.000000000000000E+20
 34
1.000000000000000E+20
 15
-1.000000000000000E+20
 25
-1.000000000000000E+20
 35
-1.000000000000000E+20
146
0.0
 13
0.0
 23
0.0
 33
0.0
 16
1.0
 26
0.0
 36
0.0
 17
0.0
 27
1.0
 37
0.0
 76
     0
330
15
  0
MLINESTYLE
  5
1C
102
{ACAD_REACTORS
330
1B
102
}
330
1B
100
AcDbMlineStyle
  2
STANDARD
 70
     0
  3

 62
   256
 51
90.0
 52
90.0
 71
     2
 49
0.5
 62
   256
  6
BYLAYER
 49
-0.5
 62
   256
  6
BYLAYER
  0
ACDBPLACEHOLDER
  5
5D
102
{ACAD_REACTORS
330
5C
102
}
330
5C
  0
TABLESTYLE
  5
655
102
{ACAD_REACTORS
330
654
102
}
330
654
100
AcDbTableStyle
  3
Standard
 70
     0
 71
     0
 40
1.5
 41
1.5
280
     0
281
     0
  7
STANDARD
140
4.5
170
     2
 62
     0
 63
     7
283
     0
274
    -2
284
     1
 64
     0
275
    -2
285
     1
 65
     0
276
    -2
286
     1
 66
     0
277
    -2
287
     1
 67
     0
278
    -2
288
     1
 68
     0
279
    -2
289
     1
 69
     0
  7
STANDARD
140
6.0
170
     5
 62
     0
 63
     7
283
     0
274
    -2
284
     1
 64
     0
275
    -2
285
     1
 65
     0
276
    -2
286
     1
 66
     0
277
    -2
287
     1
 67
     0
278
    -2
288
     1
 68
     0
279
    -2
289
     1
 69
     0
  7
STANDARD
140
4.5
170
     5
 62
     0
 63
     7
283
     0
274
    -2
284
     1
 64
     0
275
    -2
285
     1
 65
     0
276
    -2
286
     1
 66
     0
277
    -2
287
     1
 67
     0
278
    -2
288
     1
 68
     0
279
    -2
289
     1
 69
     0
  0
DICTIONARYVAR
  5
6B1
102
{ACAD_REACTORS
330
6B0
102
}
330
6B0
100
DictionaryVariables
280
     0
  1
STANDARD
  0
DICTIONARYVAR
  5
6B2
102
{ACAD_REACTORS
330
6B0
102
}
330
6B0
100
DictionaryVariables
280
     0
  1
1
  0
DICTIONARYVAR
  5
6B3
102
{ACAD_REACTORS
330
6B0
102
}
330
6B0
100
DictionaryVariables
280
     0
  1

  0
DICTIONARY
  5
3FC
102
{ACAD_REACTORS
330
3F2
102
}
330
3F2
100
AcDbDictionary
281
     1
  0
XRECORD
  5
66D
102
{ACAD_REACTORS
330
3F2
102
}
330
3F2
100
AcDbXrecord
280
     1
 90
-1023410169
  0
XRECORD
  5
32F
102
{ACAD_REACTORS
330
32E
102
}
330
32E
100
AcDbXrecord
280
     1
  1
PV
 40
1.0
 50
0.0
 51
0.0
 52
0.0
 53
0.0
  0
DICTIONARY
  5
827
330
60
100
AcDbDictionary
280
     1
281
     1
  3
ACAD_XREC_ROUNDTRIP
360
828
  0
DICTIONARY
  5
829
330
61
100
AcDbDictionary
280
     1
281
     1
  3
ACAD_XREC_ROUNDTRIP
360
82A
  0
XRECORD
  5
828
102
{ACAD_REACTORS
330
827
102
}
330
827
100
AcDbXrecord
280
     1
102
SHADEPLOT
 70
     0
102
SHADEPLOTRESLEVEL
 70
     2
102
SHADEPLOTCUSTOMDPI
 70
   300
  0
XRECORD
  5
82A
102
{ACAD_REACTORS
330
829
102
}
330
829
100
AcDbXrecord
280
     1
102
SHADEPLOT
 70
     0
102
SHADEPLOTRESLEVEL
 70
     2
102
SHADEPLOTCUSTOMDPI
 70
   300
  0
ENDSEC
  0
EOF
