  0
SECTION
  2
HEADER
  9
$ACADVER
  1
AC1015
  9
$ACADMAINTVER
 70
    20
  9
$DWGCODEPAGE
  3
ANSI_932
  9
$INSBASE
 10
0.0
 20
0.0
 30
0.0
  9
$EXTMIN
 10
0.0
 20
-909.0
 30
0.0
  9
$EXTMAX
 10
1044.0
 20
50.0
 30
0.0
  9
$LIMMIN
 10
0.0
 20
0.0
  9
$LIMMAX
 10
0.0
 20
0.0
  9
$ORTHOMODE
 70
     0
  9
$REGENMODE
 70
     1
  9
$FILLMODE
 70
     1
  9
$QTEXTMODE
 70
     0
  9
$MIRRTEXT
 70
     1
  9
$LTSCALE
 40
1.0
  9
$ATTMODE
 70
     1
  9
$TEXTSIZE
 40
2.5
  9
$TRACEWID
 40
1.0
  9
$TEXTSTYLE
  7
CONVERT
  9
$CLAYER
  8
0
  9
$CELTYPE
  6
BYLAYER
  9
$CECOLOR
 62
   256
  9
$CELTSCALE
 40
1.0
  9
$DISPSILH
 70
     0
  9
$DIMSCALE
 40
1.0
  9
$DIMASZ
 40
3.0
  9
$DIMEXO
 40
1.0
  9
$DIMDLI
 40
7.0
  9
$DIMRND
 40
0.0
  9
$DIMDLE
 40
0.0
  9
$DIMEXE
 40
2.0
  9
$DIMTP
 40
0.0
  9
$DIMTM
 40
0.0
  9
$DIMTXT
 40
2.799999999999999
  9
$DIMCEN
 40
0.0
  9
$DIMTSZ
 40
0.0
  9
$DIMTOL
 70
     0
  9
$DIMLIM
 70
     0
  9
$DIMTIH
 70
     0
  9
$DIMTOH
 70
     0
  9
$DIMSE1
 70
     0
  9
$DIMSE2
 70
     0
  9
$DIMTAD
 70
     1
  9
$DIMZIN
 70
     0
  9
$DIMBLK
  1

  9
$DIMASO
 70
     1
  9
$DIMSHO
 70
     1
  9
$DIMPOST
  1

  9
$DIMAPOST
  1

  9
$DIMALT
 70
     0
  9
$DIMALTD
 70
     4
  9
$DIMALTF
 40
0.0394
  9
$DIMLFAC
 40
1.0
  9
$DIMTOFL
 70
     1
  9
$DIMTVP
 40
0.0
  9
$DIMTIX
 70
     0
  9
$DIMSOXD
 70
     0
  9
$DIMSAH
 70
     1
  9
$DIMBLK1
  1
Open30
  9
$DIMBLK2
  1
Open30
  9
$DIMSTYLE
  2
STANDARD
  9
$DIMCLRD
 70
    44
  9
$DIMCLRE
 70
    44
  9
$DIMCLRT
 70
    44
  9
$DIMTFAC
 40
1.0
  9
$DIMGAP
 40
0.7
  9
$DIMJUST
 70
     0
  9
$DIMSD1
 70
     0
  9
$DIMSD2
 70
     0
  9
$DIMTOLJ
 70
     1
  9
$DIMTZIN
 70
     0
  9
$DIMALTZ
 70
     0
  9
$DIMALTTZ
 70
     0
  9
$DIMUPT
 70
     0
  9
$DIMDEC
 70
     3
  9
$DIMTDEC
 70
     3
  9
$DIMALTU
 70
     8
  9
$DIMALTTD
 70
     4
  9
$DIMTXSTY
  7
STANDARD
  9
$DIMAUNIT
 70
     0
  9
$DIMADEC
 70
     0
  9
$DIMALTRND
 40
0.0
  9
$DIMAZIN
 70
     0
  9
$DIMDSEP
 70
    46
  9
$DIMATFIT
 70
     0
  9
$DIMFRAC
 70
     0
  9
$DIMLDRBLK
  1
Open30
  9
$DIMLUNIT
 70
     2
  9
$DIMLWD
 70
    -2
  9
$DIMLWE
 70
    -2
  9
$DIMTMOVE
 70
     0
  9
$LUNITS
 70
     2
  9
$LUPREC
 70
     4
  9
$SKETCHINC
 40
1.0
  9
$FILLETRAD
 40
10.0
  9
$AUNITS
 70
     0
  9
$AUPREC
 70
     0
  9
$MENU
  1
.
  9
$ELEVATION
 40
0.0
  9
$PELEVATION
 40
0.0
  9
$THICKNESS
 40
0.0
  9
$LIMCHECK
 70
     0
  9
$CHAMFERA
 40
10.0
  9
$CHAMFERB
 40
10.0
  9
$CHAMFERC
 40
20.0
  9
$CHAMFERD
 40
0.0
  9
$SKPOLY
 70
     0
  9
$TDCREATE
 40
2451067.751276933
  9
$TDUCREATE
 40
2451067.376276933
  9
$TDUPDATE
 40
2454174.427330312
  9
$TDUUPDATE
 40
2454174.052330313
  9
$TDINDWG
 40
0.0335248843
  9
$TDUSRTIMER
 40
0.0335248843
  9
$USRTIMER
 70
     1
  9
$ANGBASE
 50
0.0
  9
$ANGDIR
 70
     0
  9
$PDMODE
 70
     1
  9
$PDSIZE
 40
0.0
  9
$PLINEWID
 40
0.0
  9
$SPLFRAME
 70
     0
  9
$SPLINETYPE
 70
     6
  9
$SPLINESEGS
 70
     8
  9
$HANDSEED
  5
F8D
  9
$SURFTAB1
 70
     6
  9
$SURFTAB2
 70
     6
  9
$SURFTYPE
 70
     6
  9
$SURFU
 70
     6
  9
$SURFV
 70
     6
  9
$UCSBASE
  2

  9
$UCSNAME
  2

  9
$UCSORG
 10
0.0
 20
0.0
 30
0.0
  9
$UCSXDIR
 10
1.0
 20
0.0
 30
0.0
  9
$UCSYDIR
 10
0.0
 20
1.0
 30
0.0
  9
$UCSORTHOREF
  2

  9
$UCSORTHOVIEW
 70
     0
  9
$UCSORGTOP
 10
0.0
 20
0.0
 30
0.0
  9
$UCSORGBOTTOM
 10
0.0
 20
0.0
 30
0.0
  9
$UCSORGLEFT
 10
0.0
 20
0.0
 30
0.0
  9
$UCSORGRIGHT
 10
0.0
 20
0.0
 30
0.0
  9
$UCSORGFRONT
 10
0.0
 20
0.0
 30
0.0
  9
$UCSORGBACK
 10
0.0
 20
0.0
 30
0.0
  9
$PUCSBASE
  2

  9
$PUCSNAME
  2

  9
$PUCSORG
 10
0.0
 20
0.0
 30
0.0
  9
$PUCSXDIR
 10
1.0
 20
0.0
 30
0.0
  9
$PUCSYDIR
 10
0.0
 20
1.0
 30
0.0
  9
$PUCSORTHOREF
  2

  9
$PUCSORTHOVIEW
 70
     0
  9
$PUCSORGTOP
 10
0.0
 20
0.0
 30
0.0
  9
$PUCSORGBOTTOM
 10
0.0
 20
0.0
 30
0.0
  9
$PUCSORGLEFT
 10
0.0
 20
0.0
 30
0.0
  9
$PUCSORGRIGHT
 10
0.0
 20
0.0
 30
0.0
  9
$PUCSORGFRONT
 10
0.0
 20
0.0
 30
0.0
  9
$PUCSORGBACK
 10
0.0
 20
0.0
 30
0.0
  9
$USERI1
 70
     0
  9
$USERI2
 70
     0
  9
$USERI3
 70
     0
  9
$USERI4
 70
     0
  9
$USERI5
 70
     0
  9
$USERR1
 40
0.0
  9
$USERR2
 40
0.0
  9
$USERR3
 40
0.0
  9
$USERR4
 40
0.0
  9
$USERR5
 40
0.0
  9
$WORLDVIEW
 70
     1
  9
$SHADEDGE
 70
     3
  9
$SHADEDIF
 70
    70
  9
$TILEMODE
 70
     1
  9
$MAXACTVP
 70
    48
  9
$PINSBASE
 10
0.0
 20
0.0
 30
0.0
  9
$PLIMCHECK
 70
     0
  9
$PEXTMIN
 10
1.000000000000000E+20
 20
1.000000000000000E+20
 30
1.000000000000000E+20
  9
$PEXTMAX
 10
-1.000000000000000E+20
 20
-1.000000000000000E+20
 30
-1.000000000000000E+20
  9
$PLIMMIN
 10
0.0
 20
0.0
  9
$PLIMMAX
 10
420.0
 20
297.0
  9
$UNITMODE
 70
     0
  9
$VISRETAIN
 70
     1
  9
$PLINEGEN
 70
     0
  9
$PSLTSCALE
 70
     1
  9
$TREEDEPTH
 70
  3020
  9
$CMLSTYLE
  2
STANDARD
  9
$CMLJUST
 70
     0
  9
$CMLSCALE
 40
20.0
  9
$PROXYGRAPHICS
 70
     1
  9
$MEASUREMENT
 70
     1
  9
$CELWEIGHT
370
    -1
  9
$ENDCAPS
280
     0
  9
$JOINSTYLE
280
     0
  9
$LWDISPLAY
290
     0
  9
$INSUNITS
 70
     0
  9
$HYPERLINKBASE
  1

  9
$STYLESHEET
  1

  9
$XEDIT
290
     1
  9
$CEPSNTYPE
380
     0
  9
$PSTYLEMODE
290
     1
  9
$FINGERPRINTGUID
  2
{881B1582-4BC7-11D3-AB9D-00805F8B7187}
  9
$VERSIONGUID
  2
{92A46722-A432-45BD-9F68-99556DBCB366}
  9
$EXTNAMES
290
     1
  9
$PSVPSCALE
 40
0.0
  9
$OLESTARTUP
290
     0
  0
ENDSEC
  0
SECTION
  2
CLASSES
  0
CLASS
  1
ACDBDICTIONARYWDFLT
  2
AcDbDictionaryWithDefault
  3
ObjectDBX Classes
 90
        0
280
     0
281
     0
  0
CLASS
  1
ACDBPLACEHOLDER
  2
AcDbPlaceHolder
  3
ObjectDBX Classes
 90
        0
280
     0
281
     0
  0
CLASS
  1
LAYOUT
  2
AcDbLayout
  3
ObjectDBX Classes
 90
        0
280
     0
281
     0
  0
CLASS
  1
ACME_DOCUMENT
  2
AcMeDbDoc
  3
AcMeServices
 90
        0
280
     0
281
     0
  0
CLASS
  1
AMGSETTINGSOBJ
  2
AmgSettingsObj
  3
"AcadM|Product Description: AutoCAD Mechanical 2000|Company: Autodesk"
 90
        0
280
     0
281
     0
  0
CLASS
  1
AMGOBJPROPCFG
  2
AmgObjPropCfg
  3
"AmgLay|Product Description: AutoCAD Mechanical 2000|Company: Autodesk"
 90
        1
280
     0
281
     0
  0
CLASS
  1
ACMESCOPE
  2
AcMeScope
  3
AcMeServices
 90
        0
280
     0
281
     0
  0
CLASS
  1
ACMECOMMANDHISTORY
  2
AcMeCommandHistory
  3
AcMeServices
 90
        0
280
     0
281
     0
  0
CLASS
  1
ACIMSYSVARMAN
  2
AcImSysVarManager
  3
AcMeServices
 90
        0
280
     0
281
     0
  0
CLASS
  1
ACIMINTSYSVAR
  2
AcImIntSysVar
  3
AcMeServices
 90
        0
280
     0
281
     0
  0
CLASS
  1
ACMEDRAWINGMAN
  2
AcMeDrawingMan
  3
AcMeServices
 90
        0
280
     0
281
     0
  0
CLASS
  1
ACMEVIEW
  2
AcMeView
  3
AcMeServices
 90
        0
280
     0
281
     0
  0
CLASS
  1
ACDBENTITYCACHE
  2
AcMeEntityCache
  3
AcMeServices
 90
        0
280
     0
281
     0
  0
CLASS
  1
GSMANAGER
  2
AcMeGSManager
  3
AcMeServices
 90
        0
280
     0
281
     0
  0
CLASS
  1
AMDTINTERNALREACTOR
  2
AmdtInternalReactor
  3
AcMeServices
 90
        0
280
     0
281
     0
  0
CLASS
  1
ACMESTATEMGR
  2
AcMeStateMgr
  3
AcMeServices
 90
        0
280
     0
281
     0
  0
CLASS
  1
ACGREFMASTER
  2
AcGrefMaster
  3
AcAttribServices
 90
        0
280
     0
281
     0
  0
CLASS
  1
AM_DRAWING_MGR
  2
AcDmDwgMgr
  3
AcMechDwgViewMgmt
 90
        0
280
     0
281
     0
  0
CLASS
  1
AM_DWG_DOCUMENT
  2
AcDmDwgDocument
  3
AcMechDwgViewMgmt
 90
        0
280
     0
281
     0
  0
CLASS
  1
AM_DWG_SHEET
  2
AcDmSheet
  3
AcMechDwgViewMgmt
 90
        0
280
     0
281
     0
  0
CLASS
  1
AM_VIEWDIMPARMAP
  2
AcDmViewDimParMap
  3
AcMechDwgViewMgmt
 90
        0
280
     0
281
     0
  0
CLASS
  1
ACIMREALSYSVAR
  2
AcImRealSysVar
  3
AcMeServices
 90
        0
280
     0
281
     0
  0
CLASS
  1
AM_DWGMGR_NAME
  2
AcDmDwgMgrName
  3
AcMechDwgViewMgmt
 90
        0
280
     0
281
     0
  0
CLASS
  1
ACME_DATABASE
  2
AcMeDbDatabase
  3
AcMeServices
 90
        0
280
     0
281
     0
  0
CLASS
  1
ACRFINSADJUSTERMGR
  2
AcRfInsAdjusterMgr
  3
AcMeServices
 90
        0
280
     0
281
     0
  0
CLASS
  1
ACGREFACADMASTER
  2
AcGrefacadMaster
  3
AcGrefServices
 90
        0
280
     0
281
     0
  0
CLASS
  1
AMDTMENUSTATEMGR
  2
AmdtMenuStateMgr
  3
McadcomServices
 90
        0
280
     0
281
     0
  0
CLASS
  1
AMDTMCOMMENUSTATE
  2
AmdtMcomMenuState
  3
McadcomServices
 90
        0
280
     0
281
     0
  0
CLASS
  1
AMIMASTER
  2
AmiMaster
  3
AmiServices
 90
        0
280
     0
281
     0
  0
CLASS
  1
MAPIAMMOUDLE
  2
MApiAmModule
  3
MApiAmServices
 90
        0
280
     0
281
     0
  0
CLASS
  1
AMDTADMENUSTATE
  2
AmdtAdMenuState
  3
DesignerServices
 90
        0
280
     0
281
     0
  0
CLASS
  1
ADAPPL
  2
AcAdAppl
  3
DesignerServices
 90
        0
280
     0
281
     0
  0
CLASS
  1
DEPMGR
  2
AcAdDepMgr
  3
DesignerServices
 90
        0
280
     0
281
     0
  0
CLASS
  1
PARAMMGR
  2
AcAdParamMgr
  3
DesignerServices
 90
        0
280
     0
281
     0
  0
CLASS
  1
PARAMSCOPE
  2
AcAdParamScope
  3
DesignerServices
 90
        0
280
     0
281
     0
  0
CLASS
  1
NAMEDAPPL
  2
AcAdNamedAppl
  3
DesignerServices
 90
        0
280
     0
281
     0
  0
CLASS
  1
AMDTDMMENUSTATE
  2
AmdtDmMenuState
  3
AcMechDwgViewMgmt
 90
        0
280
     0
281
     0
  0
CLASS
  1
AMDTAMMENUSTATE
  2
AmdtAmMenuState
  3
DesignerAssemblies
 90
        0
280
     0
281
     0
  0
CLASS
  1
ACIMSTRSYSVAR
  2
AcImStrSysVar
  3
AcMeServices
 90
        0
280
     0
281
     0
  0
CLASS
  1
ACAMPROJECT
  2
AcAmProject
  3
DesignerAssemblies
 90
        0
280
     0
281
     0
  0
CLASS
  1
ACAMGRCOMPDEF
  2
AcAmGrCompDef
  3
DesignerAssemblies
 90
        0
280
     0
281
     0
  0
CLASS
  1
ACCMCONTEXT
  2
AcCmContext
  3
DesignerAssemblies
 90
        0
280
     0
281
     0
  0
CLASS
  1
ACAMCOMPDEF
  2
AcAmCompDef
  3
DesignerAssemblies
 90
        0
280
     0
281
     0
  0
CLASS
  1
ACAMCOMPDEFMGR
  2
AcAmCompDefMgr
  3
DesignerAssemblies
 90
        0
280
     0
281
     0
  0
CLASS
  1
AMCONTEXTMGR
  2
AcAmContextMgr
  3
DesignerAssemblies
 90
        0
280
     0
281
     0
  0
CLASS
  1
ACAMCONTEXTMODELER
  2
AcAmContextModeler
  3
DesignerAssemblies
 90
        0
280
     0
281
     0
  0
CLASS
  1
ACMDATADICTIONARY
  2
AcmDataDictionary
  3
"AcmSymBB|Product Description: AutoCAD Mechanical 2004 DX|Company: Autodesk"
 90
        0
280
     0
281
     0
  0
CLASS
  1
CATALOGSTATE
  2
AcAmCatalogState
  3
DesignerAssemblies
 90
        0
280
     0
281
     0
  0
CLASS
  1
ACAMGRCOMPDEFSET
  2
AcAmGrCompDefSet
  3
DesignerAssemblies
 90
        0
280
     0
281
     0
  0
CLASS
  1
AMDTBROWSERDBTAB
  2
AmdtBrowserDbTab
  3
McadcomServices
 90
        0
280
     0
281
     0
  0
CLASS
  1
CBROWSERAPPOBJECT
  2
CBrowserAppObject
  3
McadcomServices
 90
        0
280
     0
281
     0
  0
CLASS
  1
DM_PLACEHOLDER
  2
AcDmSelsetPlaceholder
  3
AcMechDwgViewMgmt
 90
        0
280
     0
281
     0
  0
CLASS
  1
ACMSTANDARDANSI
  2
AcmStandardANSI
  3
"Amdt_StdImp|Product Description: AutoCAD Mechanical 2004 DX|Company: Autodesk"
 90
        0
280
     0
281
     0
  0
CLASS
  1
ACMSURFSTANDARDANSI
  2
AcmSurfTextStdANSI
  3
"Amdt_StdImp|Product Description: AutoCAD Mechanical 2004 DX|Company: Autodesk"
 90
        0
280
     0
281
     0
  0
CLASS
  1
ACMFCFSTANDARDANSI
  2
AcmFCFStdANSI
  3
"Amdt_StdImp|Product Description: AutoCAD Mechanical 2004 DX|Company: Autodesk"
 90
        0
280
     0
281
     0
  0
CLASS
  1
ACMWELDSTANDARDANSI
  2
AcmWeldingStdANSI
  3
"Amdt_StdImp|Product Description: AutoCAD Mechanical 2004 DX|Company: Autodesk"
 90
        0
280
     0
281
     0
  0
CLASS
  1
ACMIDSTANDARDANSI
  2
AcmIdStdANSI
  3
"Amdt_StdImp|Product Description: AutoCAD Mechanical 2004 DX|Company: Autodesk"
 90
        0
280
     0
281
     0
  0
CLASS
  1
ACMDATUMSTANDARDANSI
  2
AcmDatumStdANSI
  3
"Amdt_StdImp|Product Description: AutoCAD Mechanical 2004 DX|Company: Autodesk"
 90
        0
280
     0
281
     0
  0
CLASS
  1
ACMBOMSTANDARDANSI
  2
AcmBOMStdANSI
  3
"Amdt_StdImp|Product Description: AutoCAD Mechanical 2004 DX|Company: Autodesk"
 90
        0
280
     0
281
     0
  0
CLASS
  1
ACMDETAILSTANDARDANSI
  2
AmdtDetailSymStdANSI
  3
"Amdt_StdImp|Product Description: AutoCAD Mechanical 2004 DX|Company: Autodesk"
 90
        0
280
     0
281
     0
  0
CLASS
  1
ACMSECTIONSTANDARDANSI
  2
AmdtSectionSymStdANSI
  3
"Amdt_StdImp|Product Description: AutoCAD Mechanical 2004 DX|Company: Autodesk"
 90
        0
280
     0
281
     0
  0
CLASS
  1
ACMCENTERLINESTANDARDANSI
  2
AmdtCenterLineStdANSI
  3
"Amdt_StdImp|Product Description: AutoCAD Mechanical 2004 DX|Company: Autodesk"
 90
        0
280
     0
281
     0
  0
CLASS
  1
ACAMGLAYSTD
  2
AcAmgLayStd
  3
"AcAmgLayStd|Product Description: AutoCAD Mechanical 2000|Company: Autodesk"
 90
        0
280
     0
281
     0
  0
CLASS
  1
ACAMGDIMSTD
  2
AcAmgDimStd
  3
"AcAmgDimStd|Product Description: AutoCAD Mechanical 2000|Company: Autodesk"
 90
        0
280
     0
281
     0
  0
CLASS
  1
ACAMGTITLESTD
  2
AcAmgTitleStd
  3
"TITLEAPP"
 90
        0
280
     0
281
     0
  0
CLASS
  1
ACMNOTESTANDARDANSI
  2
AmdtNoteStdANSI
  3
"Amdt_StdImp|Product Description: AutoCAD Mechanical 2004 DX|Company: Autodesk"
 90
        0
280
     0
281
     0
  0
CLASS
  1
ACMTHREADLINESTANDARDANSI
  2
AmdtThreadLineStdANSI
  3
"Amdt_StdImp|Product Description: AutoCAD Mechanical 2004 DX|Company: Autodesk"
 90
        0
280
     0
281
     0
  0
CLASS
  1
ACMSTANDARDISO
  2
AcmStandardISO
  3
"Amdt_StdImp|Product Description: AutoCAD Mechanical 2004 DX|Company: Autodesk"
 90
        0
280
     0
281
     0
  0
CLASS
  1
AMDTEDGESTANDARDISO
  2
AmdtEdgeStdISO
  3
"Amdt_StdImp|Product Description: AutoCAD Mechanical 2004 DX|Company: Autodesk"
 90
        0
280
     0
281
     0
  0
CLASS
  1
ACMSURFSTANDARDISO
  2
AcmSurfTextStdISO
  3
"Amdt_StdImp|Product Description: AutoCAD Mechanical 2004 DX|Company: Autodesk"
 90
        0
280
     0
281
     0
  0
CLASS
  1
ACMFCFSTANDARDISO
  2
AcmFCFStdISO
  3
"Amdt_StdImp|Product Description: AutoCAD Mechanical 2004 DX|Company: Autodesk"
 90
        0
280
     0
281
     0
  0
CLASS
  1
ACMWELDSTANDARDISO
  2
AcmWeldingStdISO
  3
"Amdt_StdImp|Product Description: AutoCAD Mechanical 2004 DX|Company: Autodesk"
 90
        0
280
     0
281
     0
  0
CLASS
  1
ACMIDSTANDARDISO
  2
AcmIdStdISO
  3
"Amdt_StdImp|Product Description: AutoCAD Mechanical 2004 DX|Company: Autodesk"
 90
        0
280
     0
281
     0
  0
CLASS
  1
ACMDATUMSTANDARDISO
  2
AcmDatumStdISO
  3
"Amdt_StdImp|Product Description: AutoCAD Mechanical 2004 DX|Company: Autodesk"
 90
        0
280
     0
281
     0
  0
CLASS
  1
ACMBOMSTANDARDISO
  2
AcmBOMStdISO
  3
"Amdt_StdImp|Product Description: AutoCAD Mechanical 2004 DX|Company: Autodesk"
 90
        0
280
     0
281
     0
  0
CLASS
  1
ACMDETAILSTANDARDISO
  2
AmdtDetailSymStdISO
  3
"Amdt_StdImp|Product Description: AutoCAD Mechanical 2004 DX|Company: Autodesk"
 90
        0
280
     0
281
     0
  0
CLASS
  1
ACMSECTIONSTANDARDISO
  2
AmdtSectionSymStdISO
  3
"Amdt_StdImp|Product Description: AutoCAD Mechanical 2004 DX|Company: Autodesk"
 90
        0
280
     0
281
     0
  0
CLASS
  1
ACMCENTERLINESTANDARDISO
  2
AmdtCenterLineStdISO
  3
"Amdt_StdImp|Product Description: AutoCAD Mechanical 2004 DX|Company: Autodesk"
 90
        0
280
     0
281
     0
  0
CLASS
  1
ACMNOTESTANDARDISO
  2
AmdtNoteStdISO
  3
"Amdt_StdImp|Product Description: AutoCAD Mechanical 2004 DX|Company: Autodesk"
 90
        0
280
     0
281
     0
  0
CLASS
  1
ACMTHREADLINESTANDARDISO
  2
AmdtThreadLineStdISO
  3
"Amdt_StdImp|Product Description: AutoCAD Mechanical 2004 DX|Company: Autodesk"
 90
        0
280
     0
281
     0
  0
CLASS
  1
ACMSTANDARDJIS
  2
AcmStandardJIS
  3
"Amdt_StdImp|Product Description: AutoCAD Mechanical 2004 DX|Company: Autodesk"
 90
        0
280
     0
281
     0
  0
CLASS
  1
ACMSURFSTANDARDJIS
  2
AcmSurfTextStdJIS
  3
"Amdt_StdImp|Product Description: AutoCAD Mechanical 2004 DX|Company: Autodesk"
 90
        0
280
     0
281
     0
  0
CLASS
  1
ACMFCFSTANDARDJIS
  2
AcmFCFStdJIS
  3
"Amdt_StdImp|Product Description: AutoCAD Mechanical 2004 DX|Company: Autodesk"
 90
        0
280
     0
281
     0
  0
CLASS
  1
ACMWELDSTANDARDJIS
  2
AcmWeldingStdJIS
  3
"Amdt_StdImp|Product Description: AutoCAD Mechanical 2004 DX|Company: Autodesk"
 90
        0
280
     0
281
     0
  0
CLASS
  1
ACMIDSTANDARDJIS
  2
AcmIdStdJIS
  3
"Amdt_StdImp|Product Description: AutoCAD Mechanical 2004 DX|Company: Autodesk"
 90
        0
280
     0
281
     0
  0
CLASS
  1
ACMDATUMSTANDARDJIS
  2
AcmDatumStdJIS
  3
"Amdt_StdImp|Product Description: AutoCAD Mechanical 2004 DX|Company: Autodesk"
 90
        0
280
     0
281
     0
  0
CLASS
  1
ACMBOMSTANDARDJIS
  2
AcmBOMStdJIS
  3
"Amdt_StdImp|Product Description: AutoCAD Mechanical 2004 DX|Company: Autodesk"
 90
        0
280
     0
281
     0
  0
CLASS
  1
ACMDETAILSTANDARDJIS
  2
AmdtDetailSymStdJIS
  3
"Amdt_StdImp|Product Description: AutoCAD Mechanical 2004 DX|Company: Autodesk"
 90
        0
280
     0
281
     0
  0
CLASS
  1
ACMSECTIONSTANDARDJIS
  2
AmdtSectionSymStdJIS
  3
"Amdt_StdImp|Product Description: AutoCAD Mechanical 2004 DX|Company: Autodesk"
 90
        0
280
     0
281
     0
  0
CLASS
  1
ACMCENTERLINESTANDARDJIS
  2
AmdtCenterLineStdJIS
  3
"Amdt_StdImp|Product Description: AutoCAD Mechanical 2004 DX|Company: Autodesk"
 90
        0
280
     0
281
     0
  0
CLASS
  1
ACMTHREADLINESTANDARDJIS
  2
AmdtThreadLineStdJIS
  3
"Amdt_StdImp|Product Description: AutoCAD Mechanical 2004 DX|Company: Autodesk"
 90
        0
280
     0
281
     0
  0
CLASS
  1
ACMNOTESTANDARDJIS
  2
AmdtNoteStdJIS
  3
"Amdt_StdImp|Product Description: AutoCAD Mechanical 2004 DX|Company: Autodesk"
 90
        0
280
     0
281
     0
  0
CLASS
  1
ACAMGFILTERDAT
  2
AcAmgFilterDat
  3
"AcadM|Product Description: AutoCAD Mechanical 2000|Company: Autodesk"
 90
    32768
280
     0
281
     0
  0
CLASS
  1
LAYER_INDEX
  2
AcDbLayerIndex
  3
ObjectDBX Classes
 90
    32768
280
     0
281
     0
  0
CLASS
  1
IDBUFFER
  2
AcDbIdBuffer
  3
ObjectDBX Classes
 90
    32768
280
     0
281
     0
  0
CLASS
  1
TABLESTYLE
  2
AcDbTableStyle
  3
ObjectDBX Classes
 90
     2047
280
     0
281
     0
  0
CLASS
  1
DICTIONARYVAR
  2
AcDbDictionaryVar
  3
ObjectDBX Classes
 90
        0
280
     0
281
     0
  0
CLASS
  1
ACRFATTGENMGR
  2
AcRfAttGeneralMgr
  3
AcAttribServices
 90
    32768
280
     0
281
     0
  0
CLASS
  1
AMDTEDGESTANDARDISO13715
  2
AmdtEdgeStdISO13715
  3
"Amdt_StdImp|Product Description: AutoCAD Mechanical 2004 DX|Company: Autodesk"
 90
    32768
280
     0
281
     0
  0
CLASS
  1
AMDTNOTETEMPLATEDB
  2
AmdtNoteTemplateDB
  3
AMDT_STDIMP_MODULE_NAME
 90
    32768
280
     0
281
     0
  0
CLASS
  1
ACAMGHOLECHARTSTDISO
  2
AcAmgHoleChartStdISO
  3
ACMSYMBB_MODULE_NAME
 90
    32768
280
     0
281
     0
  0
ENDSEC
  0
SECTION
  2
TABLES
  0
TABLE
  2
VPORT
  5
8
330
0
100
AcDbSymbolTable
 70
     3
  0
VPORT
  5
F87
330
8
100
AcDbSymbolTableRecord
100
AcDbViewportTableRecord
  2
*Active
 70
     0
 10
0.0
 20
0.0
 11
1.0
 21
1.0
 12
556.1787309206092
 22
-429.4999977671541
 13
0.0
 23
0.0
 14
10.0
 24
10.0
 15
10.0
 25
10.0
 16
0.0
 26
0.0
 36
1.0
 17
0.0
 27
0.0
 37
0.0
 40
965.8523357801886
 41
1.285904255319148
 42
50.0
 43
0.0
 44
0.0
 50
0.0
 51
0.0
 71
     0
 72
   100
 73
     1
 74
     1
 75
     0
 76
     0
 77
     0
 78
     0
281
     0
 65
     1
110
0.0
120
0.0
130
0.0
111
1.0
121
0.0
131
0.0
112
0.0
122
1.0
132
0.0
 79
     0
146
0.0
  0
ENDTAB
  0
TABLE
  2
LTYPE
  5
5
330
0
100
AcDbSymbolTable
 70
    23
  0
LTYPE
  5
12
330
5
100
AcDbSymbolTableRecord
100
AcDbLinetypeTableRecord
  2
BYBLOCK
 70
     0
  3

 72
    65
 73
     0
 40
0.0
  0
LTYPE
  5
13
330
5
100
AcDbSymbolTableRecord
100
AcDbLinetypeTableRecord
  2
BYLAYER
 70
     0
  3

 72
    65
 73
     0
 40
0.0
  0
LTYPE
  5
14
330
5
100
AcDbSymbolTableRecord
100
AcDbLinetypeTableRecord
  2
CONTINUOUS
 70
     0
  3
Solid line
 72
    65
 73
     0
 40
0.0
  0
LTYPE
  5
22
330
5
100
AcDbSymbolTableRecord
100
AcDbLinetypeTableRecord
  2
CENTER
 70
     0
  3
__ . __
 72
    65
 73
     4
 40
7.0
 49
4.0
 74
     0
 49
-1.0
 74
     0
 49
1.0
 74
     0
 49
-1.0
 74
     0
  0
LTYPE
  5
23
330
5
100
AcDbSymbolTableRecord
100
AcDbLinetypeTableRecord
  2
CENTER2
 70
     0
  3
Center (.5x) ___ _ ___ _ ___ _ ___ _ ___ _ ___
 72
    65
 73
     4
 40
28.575
 49
19.05
 74
     0
 49
-3.174999999999999
 74
     0
 49
3.174999999999999
 74
     0
 49
-3.174999999999999
 74
     0
  0
LTYPE
  5
24
330
5
100
AcDbSymbolTableRecord
100
AcDbLinetypeTableRecord
  2
PHANTOM
 70
     0
  3
Phantom ______  __  __  ______  __  __  ______
 72
    65
 73
     6
 40
63.5
 49
31.75
 74
     0
 49
-6.349999999999999
 74
     0
 49
6.349999999999999
 74
     0
 49
-6.349999999999999
 74
     0
 49
6.349999999999999
 74
     0
 49
-6.349999999999999
 74
     0
  0
LTYPE
  5
25
330
5
100
AcDbSymbolTableRecord
100
AcDbLinetypeTableRecord
  2
PHANTOM2
 70
     0
  3
Phantom (.5x) ___ _ _ ___ _ _ ___ _ _ ___ _ _
 72
    65
 73
     6
 40
31.75
 49
15.875
 74
     0
 49
-3.174999999999999
 74
     0
 49
3.174999999999999
 74
     0
 49
-3.174999999999999
 74
     0
 49
3.174999999999999
 74
     0
 49
-3.174999999999999
 74
     0
  0
LTYPE
  5
26
330
5
100
AcDbSymbolTableRecord
100
AcDbLinetypeTableRecord
  2
DASHED
 70
     0
  3
Dashed __ __ __ __ __ __ __ __ __ __ __ __ __ _
 72
    65
 73
     2
 40
19.05
 49
12.7
 74
     0
 49
-6.349999999999999
 74
     0
  0
LTYPE
  5
27
330
5
100
AcDbSymbolTableRecord
100
AcDbLinetypeTableRecord
  2
DASHED2
 70
     0
  3
Dashed (.5x) _ _ _ _ _ _ _ _ _ _ _ _ _ _ _ _ _
 72
    65
 73
     2
 40
9.524999999999998
 49
6.349999999999999
 74
     0
 49
-3.174999999999999
 74
     0
  0
LTYPE
  5
386
330
5
100
AcDbSymbolTableRecord
100
AcDbLinetypeTableRecord
  2
AM_ISO02W050
 70
     0
  3
__ __ __ __ __ __ __ __ __ __ __ __ __ __ __
 72
    65
 73
     2
 40
7.5
 49
6.0
 74
     0
 49
-1.5
 74
     0
  0
LTYPE
  5
387
330
5
100
AcDbSymbolTableRecord
100
AcDbLinetypeTableRecord
  2
AM_ISO08W050
 70
     0
  3
____ . ____ . ____ . ____ . ____ . ____ . ____
 72
    65
 73
     4
 40
18.0
 49
12.0
 74
     0
 49
-1.5
 74
     0
 49
3.0
 74
     0
 49
-1.5
 74
     0
  0
LTYPE
  5
388
330
5
100
AcDbSymbolTableRecord
100
AcDbLinetypeTableRecord
  2
AM_ISO09W050
 70
     0
  3
_____ . . _____ . . _____ . . ____ .. ____
 72
    65
 73
     6
 40
22.5
 49
12.0
 74
     0
 49
-1.5
 74
     0
 49
3.0
 74
     0
 49
-1.5
 74
     0
 49
3.0
 74
     0
 49
-1.5
 74
     0
  0
LTYPE
  5
389
330
5
100
AcDbSymbolTableRecord
100
AcDbLinetypeTableRecord
  2
Amconstr
 70
     0
  3
_______________________
 72
    65
 73
     2
 40
9999.0
 49
9999.0
 74
     0
 49
0.0
 74
     0
  0
LTYPE
  5
38A
330
5
100
AcDbSymbolTableRecord
100
AcDbLinetypeTableRecord
  2
AM_ISO02W050x2
 70
     0
  3
 _ _ _ _ _ _ _ _ _ _ _ _
 72
    65
 73
     2
 40
3.75
 49
3.0
 74
     0
 49
-0.75
 74
     0
  0
LTYPE
  5
38B
330
5
100
AcDbSymbolTableRecord
100
AcDbLinetypeTableRecord
  2
AM_ISO08W050x2
 70
     0
  3
__ . __ . __ . __ . __ . __
 72
    65
 73
     4
 40
9.0
 49
6.0
 74
     0
 49
-0.75
 74
     0
 49
1.5
 74
     0
 49
-0.75
 74
     0
  0
LTYPE
  5
38C
330
5
100
AcDbSymbolTableRecord
100
AcDbLinetypeTableRecord
  2
Amzigzag
 70
     0
  3
/\/-/\/-/\/-/\/-/\/-/\/
 72
    65
 73
     2
 40
11.0001
 49
0.0001
 74
     4
 75
   135
340
21
 46
0.04
 50
0.0
 44
0.0
 45
0.0
 49
-11.0
 74
     0
  0
LTYPE
  5
3A7
330
5
100
AcDbSymbolTableRecord
100
AcDbLinetypeTableRecord
  2
HIDDEN
 70
     0
  3
Hidden __ __ __ __ __ __ __ __ __ __ __ __ __ _
 72
    65
 73
     2
 40
9.524999999999998
 49
6.349999999999999
 74
     0
 49
-3.174999999999999
 74
     0
  0
LTYPE
  5
3EE
330
5
100
AcDbSymbolTableRecord
100
AcDbLinetypeTableRecord
  2
ACANSTGB
 70
     0
  3
__ . . __ . .
 72
    65
 73
     6
 40
0.35433070866
 49
0.15748031496
 74
     0
 49
-0.03937007874
 74
     0
 49
0.03937007874
 74
     0
 49
-0.03937007874
 74
     0
 49
0.03937007874
 74
     0
 49
-0.03937007874
 74
     0
  0
LTYPE
  5
3EF
330
5
100
AcDbSymbolTableRecord
100
AcDbLinetypeTableRecord
  2
ACANSTGL
 70
     0
  3
_ _ _ _ _
 72
    65
 73
     2
 40
0.11811023622
 49
0.07874015748
 74
     0
 49
-0.03937007874
 74
     0
  0
LTYPE
  5
40B
330
5
100
AcDbSymbolTableRecord
100
AcDbLinetypeTableRecord
  2
ACISOWELD
 70
     0
  3
_ _ _ _ _
 72
    65
 73
     2
 40
2.0
 49
2.0
 74
     0
 49
-1.0
 74
     0
  0
LTYPE
  5
40E
330
5
100
AcDbSymbolTableRecord
100
AcDbLinetypeTableRecord
  2
ACISOTGB
 70
     0
  3
__ . . __ . .
 72
    65
 73
     6
 40
9.0
 49
4.0
 74
     0
 49
-1.0
 74
     0
 49
1.0
 74
     0
 49
-1.0
 74
     0
 49
1.0
 74
     0
 49
-1.0
 74
     0
  0
LTYPE
  5
40F
330
5
100
AcDbSymbolTableRecord
100
AcDbLinetypeTableRecord
  2
ACISOTGL
 70
     0
  3
_ _ _ _ _
 72
    65
 73
     2
 40
3.0
 49
2.0
 74
     0
 49
-1.0
 74
     0
  0
LTYPE
  5
429
330
5
100
AcDbSymbolTableRecord
100
AcDbLinetypeTableRecord
  2
ACJISTGB
 70
     0
  3
__ . . __ . .
 72
    65
 73
     6
 40
9.0
 49
4.0
 74
     0
 49
-1.0
 74
     0
 49
1.0
 74
     0
 49
-1.0
 74
     0
 49
1.0
 74
     0
 49
-1.0
 74
     0
  0
LTYPE
  5
42A
330
5
100
AcDbSymbolTableRecord
100
AcDbLinetypeTableRecord
  2
ACJISTGL
 70
     0
  3
_ _ _ _ _
 72
    65
 73
     2
 40
3.0
 49
2.0
 74
     0
 49
-1.0
 74
     0
  0
LTYPE
  5
486
330
5
100
AcDbSymbolTableRecord
100
AcDbLinetypeTableRecord
  2
kuroda_ittensasen1
 70
     0
  3
long-dash short-dash ____ __ ____ __ ____ _
 72
    65
 73
     4
 40
19.0
 49
13.0
 74
     0
 49
-2.0
 74
     0
 49
2.0
 74
     0
 49
-2.0
 74
     0
  0
ENDTAB
  0
TABLE
  2
LAYER
  5
2
330
0
100
AcDbSymbolTable
 70
     7
  0
LAYER
  5
E
330
2
100
AcDbSymbolTableRecord
100
AcDbLayerTableRecord
  2
0
 70
     0
 62
     7
  6
CONTINUOUS
370
    -3
390
5D
  0
LAYER
  5
74
330
2
100
AcDbSymbolTableRecord
100
AcDbLayerTableRecord
  2
Defpoints
 70
     0
 62
     7
  6
CONTINUOUS
290
     0
370
    -3
390
5D
  0
LAYER
  5
75
330
2
100
AcDbSymbolTableRecord
100
AcDbLayerTableRecord
  2
PV0001_1
 70
     0
 62
     7
  6
CONTINUOUS
370
    -3
390
5D
  0
LAYER
  5
43B
330
2
100
AcDbSymbolTableRecord
100
AcDbLayerTableRecord
  2
outline
 70
     0
 62
     4
  6
CONTINUOUS
370
    50
390
5D
  0
LAYER
  5
487
330
2
100
AcDbSymbolTableRecord
100
AcDbLayerTableRecord
  2
note
 70
     0
 62
     7
  6
CONTINUOUS
370
    25
390
5D
  0
LAYER
  5
913
330
2
100
AcDbSymbolTableRecord
100
AcDbLayerTableRecord
  2
AM_CL
 70
     0
 62
     1
  6
Amconstr
370
    25
390
5D
  0
LAYER
  5
93E
330
2
100
AcDbSymbolTableRecord
100
AcDbLayerTableRecord
  2
dimension
 70
     0
 62
     7
  6
CONTINUOUS
370
    25
390
5D
  0
ENDTAB
  0
TABLE
  2
STYLE
  5
3
330
0
100
AcDbSymbolTable
 70
    10
  0
STYLE
  5
F
330
3
100
AcDbSymbolTableRecord
100
AcDbTextStyleTableRecord
  2
STANDARD
 70
     0
 40
0.0
 41
1.0
 50
0.0
 71
     0
 42
2.5
  3
monotxt.shx
  4
extfont.shx
  0
STYLE
  5
21
330
3
100
AcDbSymbolTableRecord
100
AcDbTextStyleTableRecord
  2

 70
     1
 40
0.0
 41
1.0
 50
0.0
 71
     0
 42
2.5
  3
ltypeshp.shx
  4

  0
STYLE
  5
30
330
3
100
AcDbSymbolTableRecord
100
AcDbTextStyleTableRecord
  2
DIM
 70
     0
 40
0.0
 41
1.0
 50
0.0
 71
     0
 42
2.5
  3
monotxt.shx
  4
extfont.shx
  0
STYLE
  5
31
330
3
100
AcDbSymbolTableRecord
100
AcDbTextStyleTableRecord
  2
CONVERT
 70
     0
 40
0.0
 41
1.0
 50
0.0
 71
     0
 42
2.5
  3
monotxt.shx
  4
extfont.shx
  0
STYLE
  5
3E7
330
3
100
AcDbSymbolTableRecord
100
AcDbTextStyleTableRecord
  2
ACANSTS
 70
     0
 40
1.0
 41
1.0
 50
0.0
 71
     0
 42
5.0
  3
romans.shx
  4
extfont.shx
  0
STYLE
  5
3EA
330
3
100
AcDbSymbolTableRecord
100
AcDbTextStyleTableRecord
  2
ACANSGDT
 70
     0
 40
0.0
 41
1.0
 50
0.0
 71
     0
 42
5.0
  3
amgdtans.shx
  4

  0
STYLE
  5
405
330
3
100
AcDbSymbolTableRecord
100
AcDbTextStyleTableRecord
  2
ACISOTS
 70
     0
 40
1.0
 41
1.0
 50
0.0
 71
     0
 42
2.5
  3
isocp.shx
  4
extfont.shx
  0
STYLE
  5
409
330
3
100
AcDbSymbolTableRecord
100
AcDbTextStyleTableRecord
  2
ACISOGDT
 70
     0
 40
0.0
 41
1.0
 50
0.0
 71
     0
 42
2.5
  3
amgdt.shx
  4

  0
STYLE
  5
422
330
3
100
AcDbSymbolTableRecord
100
AcDbTextStyleTableRecord
  2
ACJISTS
 70
     0
 40
1.0
 41
1.0
 50
0.0
 71
     0
 42
2.5
  3
isocp.shx
  4
bigfont.shx
  0
STYLE
  5
425
330
3
100
AcDbSymbolTableRecord
100
AcDbTextStyleTableRecord
  2
ACJISGDT
 70
     0
 40
0.0
 41
1.0
 50
0.0
 71
     0
 42
2.5
  3
amgdt.shx
  4

  0
ENDTAB
  0
TABLE
  2
VIEW
  5
6
330
0
100
AcDbSymbolTable
 70
     0
  0
ENDTAB
  0
TABLE
  2
UCS
  5
7
330
0
100
AcDbSymbolTable
 70
     0
  0
ENDTAB
  0
TABLE
  2
APPID
  5
9
330
0
100
AcDbSymbolTable
 70
    28
  0
APPID
  5
10
330
9
100
AcDbSymbolTableRecord
100
AcDbRegAppTableRecord
  2
ACAD
 70
     0
  0
APPID
  5
36A
330
9
100
AcDbSymbolTableRecord
100
AcDbRegAppTableRecord
  2
MCAD_NO_VIS
 70
     0
  0
APPID
  5
36B
330
9
100
AcDbSymbolTableRecord
100
AcDbRegAppTableRecord
  2
ACAD_TEMP_GRAPHIC
 70
     0
  0
APPID
  5
36C
330
9
100
AcDbSymbolTableRecord
100
AcDbRegAppTableRecord
  2
GENIUS_GENREC_14
 70
     0
  0
APPID
  5
36D
330
9
100
AcDbSymbolTableRecord
100
AcDbRegAppTableRecord
  2
GENIUS_GENODEF_13
 70
     0
  0
APPID
  5
36E
330
9
100
AcDbSymbolTableRecord
100
AcDbRegAppTableRecord
  2
GENIUS_GENOBJ-N-REC_13
 70
     0
  0
APPID
  5
36F
330
9
100
AcDbSymbolTableRecord
100
AcDbRegAppTableRecord
  2
GENIUS_GENOBJ-N-CEN_13
 70
     0
  0
APPID
  5
370
330
9
100
AcDbSymbolTableRecord
100
AcDbRegAppTableRecord
  2
GENIUS_GENDTOL_13
 70
     0
  0
APPID
  5
371
330
9
100
AcDbSymbolTableRecord
100
AcDbRegAppTableRecord
  2
GENIUS_GENDIMSH_14
 70
     0
  0
APPID
  5
372
330
9
100
AcDbSymbolTableRecord
100
AcDbRegAppTableRecord
  2
ACATTRIBSERVICES
 70
     0
  0
APPID
  5
373
330
9
100
AcDbSymbolTableRecord
100
AcDbRegAppTableRecord
  2
GENIUS_GENFIL_13
 70
     0
  0
APPID
  5
374
330
9
100
AcDbSymbolTableRecord
100
AcDbRegAppTableRecord
  2
GENIUS_GENOBJ-N-CHA_13
 70
     0
  0
APPID
  5
375
330
9
100
AcDbSymbolTableRecord
100
AcDbRegAppTableRecord
  2
GENIUS_GENOLIS_13
 70
     0
  0
APPID
  5
376
330
9
100
AcDbSymbolTableRecord
100
AcDbRegAppTableRecord
  2
GENIUS_GENOENT_13
 70
     0
  0
APPID
  5
377
330
9
100
AcDbSymbolTableRecord
100
AcDbRegAppTableRecord
  2
GENIUS_GENOREF_13
 70
     0
  0
APPID
  5
378
330
9
100
AcDbSymbolTableRecord
100
AcDbRegAppTableRecord
  2
GENIUS_GENOBJ-N-CRS_13
 70
     0
  0
APPID
  5
379
330
9
100
AcDbSymbolTableRecord
100
AcDbRegAppTableRecord
  2
GENIUS_GENOBJ-N-TIT_13
 70
     0
  0
APPID
  5
37A
330
9
100
AcDbSymbolTableRecord
100
AcDbRegAppTableRecord
  2
GENIUS_GENTITLE_13
 70
     0
  0
APPID
  5
37B
330
9
100
AcDbSymbolTableRecord
100
AcDbRegAppTableRecord
  2
GENIUS_GENSCREG_15
 70
     0
  0
APPID
  5
37C
330
9
100
AcDbSymbolTableRecord
100
AcDbRegAppTableRecord
  2
GENIUS_GENOBJ-N-SDF_13
 70
     0
  0
APPID
  5
37D
330
9
100
AcDbSymbolTableRecord
100
AcDbRegAppTableRecord
  2
GENIUS_GENTRA_14
 70
     0
  0
APPID
  5
37E
330
9
100
AcDbSymbolTableRecord
100
AcDbRegAppTableRecord
  2
GENIUS_GENOBJ-N-FIL_13
 70
     0
  0
APPID
  5
37F
330
9
100
AcDbSymbolTableRecord
100
AcDbRegAppTableRecord
  2
AD_DRAW
 70
     0
  0
APPID
  5
380
330
9
100
AcDbSymbolTableRecord
100
AcDbRegAppTableRecord
  2
DESIGNERASSEMBLIES
 70
     0
  0
APPID
  5
381
330
9
100
AcDbSymbolTableRecord
100
AcDbRegAppTableRecord
  2
ACADM_DIM_EDIT
 70
     0
  0
APPID
  5
382
330
9
100
AcDbSymbolTableRecord
100
AcDbRegAppTableRecord
  2
AMDT_DM_ADJ
 70
     0
  0
APPID
  5
DCF
330
9
100
AcDbSymbolTableRecord
100
AcDbRegAppTableRecord
  2
ACAD_DSTYLE_DIMARC_LENGTH_SYMBOL
 70
     0
  0
APPID
  5
DD0
330
9
100
AcDbSymbolTableRecord
100
AcDbRegAppTableRecord
  2
ACAD_DSTYLE_DIMJOGGED_JOGANGLE_SYMBOL
 70
     0
  0
ENDTAB
  0
TABLE
  2
DIMSTYLE
  5
A
330
0
100
AcDbSymbolTable
 70
    28
100
AcDbDimStyleTable
 71
     0
  0
DIMSTYLE
105
1D
102
{ACAD_REACTORS
330
76
330
6E2
102
}
330
A
100
AcDbSymbolTableRecord
100
AcDbDimStyleTableRecord
  2
STANDARD
 70
     0
 41
3.0
 42
1.0
 43
7.0
 44
2.0
 73
     0
 74
     0
 77
     1
140
2.799999999999999
141
0.0
143
0.0394
147
0.7
171
     4
172
     1
173
     1
176
    44
177
    44
178
    44
271
     3
272
     3
273
     8
274
     4
289
     0
340
F
341
32
343
32
344
32
  0
DIMSTYLE
105
3F7
330
A
100
AcDbSymbolTableRecord
100
AcDbDimStyleTableRecord
  2
AM_ANSI
 70
     0
  4
mm
 41
0.1
 42
0.05
 43
0.5
 44
0.1
 47
0.1
 48
0.1
 78
     7
 79
     2
140
0.12
141
0.0
146
0.71
147
0.06
176
   256
177
   256
178
     2
274
     4
340
F
371
    -1
372
    -1
1001
ACAD_DSTYLE_DIMARC_LENGTH_SYMBOL
1070
   379
1070
     1
1001
ACAD_DSTYLE_DIMJOGGED_JOGANGLE_SYMBOL
1070
   384
1040
0.7853981633974483
  0
DIMSTYLE
105
3F8
330
A
100
AcDbSymbolTableRecord
100
AcDbDimStyleTableRecord
  2
AM_ANSI$3
 70
     0
  4
mm
 41
0.1
 42
0.05
 43
0.5
 44
0.1
 47
0.1
 48
0.1
 78
     7
 79
     2
140
0.12
141
0.0
146
0.71
147
0.06
176
   256
177
   256
178
     2
274
     4
288
     1
289
     0
340
F
371
    -1
372
    -1
1001
ACAD_DSTYLE_DIMARC_LENGTH_SYMBOL
1070
   379
1070
     1
1001
ACAD_DSTYLE_DIMJOGGED_JOGANGLE_SYMBOL
1070
   384
1040
0.7853981633974483
  0
DIMSTYLE
105
3F9
330
A
100
AcDbSymbolTableRecord
100
AcDbDimStyleTableRecord
  2
AM_ANSI$4
 70
     0
  4
mm
 41
0.1
 42
0.05
 43
0.5
 44
0.1
 47
0.1
 48
0.1
 78
     7
 79
     2
140
0.12
141
0.0
146
0.71
147
0.06
176
   256
177
   256
178
     2
274
     4
288
     1
289
     0
340
F
371
    -1
372
    -1
1001
ACAD_DSTYLE_DIMARC_LENGTH_SYMBOL
1070
   379
1070
     1
1001
ACAD_DSTYLE_DIMJOGGED_JOGANGLE_SYMBOL
1070
   384
1040
0.7853981633974483
  0
DIMSTYLE
105
3FA
330
A
100
AcDbSymbolTableRecord
100
AcDbDimStyleTableRecord
  2
AM_ANSI$7
 70
     0
  4
mm
 41
0.1
 42
0.05
 43
0.5
 44
0.1
 47
0.1
 48
0.1
 78
     7
 79
     2
140
0.24
141
0.0
146
0.71
147
0.06
176
   256
177
   256
178
     2
274
     4
340
F
371
    -1
372
    -1
1001
ACAD_DSTYLE_DIMARC_LENGTH_SYMBOL
1070
   379
1070
     1
1001
ACAD_DSTYLE_DIMJOGGED_JOGANGLE_SYMBOL
1070
   384
1040
0.7853981633974483
  0
DIMSTYLE
105
3FB
330
A
100
AcDbSymbolTableRecord
100
AcDbDimStyleTableRecord
  2
AM_ANSI$SF
 70
     0
  4
mm
 41
0.1
 42
0.05
 43
0.5
 44
0.1
 47
0.1
 48
0.1
 75
     1
 76
     1
 78
     7
 79
     2
140
0.12
141
0.0
146
0.71
147
0.06
176
   256
177
   256
178
     2
274
     4
340
F
371
    -1
372
    -1
1001
ACAD_DSTYLE_DIMARC_LENGTH_SYMBOL
1070
   379
1070
     1
1001
ACAD_DSTYLE_DIMJOGGED_JOGANGLE_SYMBOL
1070
   384
1040
0.7853981633974483
  0
DIMSTYLE
105
3FC
330
A
100
AcDbSymbolTableRecord
100
AcDbDimStyleTableRecord
  2
AM_ANSI$SH
 70
     0
  4
mm
 41
0.1
 42
0.05
 43
0.5
 44
0.1
 47
0.1
 48
0.1
 75
     1
 76
     1
 78
     7
 79
     2
140
0.12
141
0.0
146
0.71
147
0.06
173
     1
176
   256
177
   256
178
     2
274
     4
340
F
343
3FD
371
    -1
372
    -1
1001
ACAD_DSTYLE_DIMARC_LENGTH_SYMBOL
1070
   379
1070
     1
1001
ACAD_DSTYLE_DIMJOGGED_JOGANGLE_SYMBOL
1070
   384
1040
0.7853981633974483
  0
DIMSTYLE
105
417
330
A
100
AcDbSymbolTableRecord
100
AcDbDimStyleTableRecord
  2
AM_ISO
 70
     0
  4
"
 41
2.5
 42
1.0
 43
10.0
 44
1.0
 47
0.1
 48
0.1
 73
     0
 74
     0
 77
     1
 78
     8
 79
     2
140
3.5
141
0.0
143
0.0393701
146
0.71
147
1.5
172
     1
176
   256
177
   256
178
     2
271
     2
272
     3
274
     4
283
     0
284
     8
340
F
371
    -1
372
    -1
1001
ACAD_DSTYLE_DIMARC_LENGTH_SYMBOL
1070
   379
1070
     1
1001
ACAD_DSTYLE_DIMJOGGED_JOGANGLE_SYMBOL
1070
   384
1040
0.7853981633974483
  0
DIMSTYLE
105
418
330
A
100
AcDbSymbolTableRecord
100
AcDbDimStyleTableRecord
  2
AM_ISO$3
 70
     0
  4
"
 41
2.5
 42
1.0
 43
10.0
 44
1.0
 47
0.1
 48
0.1
 73
     0
 77
     1
 78
     8
 79
     2
140
3.5
141
0.0
143
0.0393701
146
0.71
147
1.5
176
   256
177
   256
178
     2
271
     2
272
     3
274
     4
283
     0
284
     8
288
     1
289
     0
340
F
371
    -1
372
    -1
1001
ACAD_DSTYLE_DIMARC_LENGTH_SYMBOL
1070
   379
1070
     1
1001
ACAD_DSTYLE_DIMJOGGED_JOGANGLE_SYMBOL
1070
   384
1040
0.7853981633974483
  0
DIMSTYLE
105
419
330
A
100
AcDbSymbolTableRecord
100
AcDbDimStyleTableRecord
  2
AM_ISO$4
 70
     0
  4
"
 41
2.5
 42
1.0
 43
10.0
 44
1.0
 47
0.1
 48
0.1
 73
     0
 77
     1
 78
     8
 79
     2
140
3.5
141
0.0
143
0.0393701
146
0.71
147
1.5
176
   256
177
   256
178
     2
271
     2
272
     3
274
     4
283
     0
284
     8
288
     1
289
     0
340
F
371
    -1
372
    -1
1001
ACAD_DSTYLE_DIMARC_LENGTH_SYMBOL
1070
   379
1070
     1
1001
ACAD_DSTYLE_DIMJOGGED_JOGANGLE_SYMBOL
1070
   384
1040
0.7853981633974483
  0
DIMSTYLE
105
41A
330
A
100
AcDbSymbolTableRecord
100
AcDbDimStyleTableRecord
  2
AM_ISO$6
 70
     0
  4
"
 41
2.5
 42
1.0
 43
10.0
 44
1.0
 47
0.1
 48
0.1
 73
     0
 74
     0
 78
     8
 79
     2
140
3.5
141
0.0
143
0.0393701
146
0.71
147
1.5
172
     1
176
   256
177
   256
178
     2
271
     2
272
     3
274
     4
283
     0
284
     8
340
F
371
    -1
372
    -1
1001
ACAD_DSTYLE_DIMARC_LENGTH_SYMBOL
1070
   379
1070
     1
1001
ACAD_DSTYLE_DIMJOGGED_JOGANGLE_SYMBOL
1070
   384
1040
0.7853981633974483
  0
DIMSTYLE
105
41B
330
A
100
AcDbSymbolTableRecord
100
AcDbDimStyleTableRecord
  2
AM_ISO$7
 70
     0
  4
"
 41
2.5
 42
1.0
 43
10.0
 44
1.0
 47
0.1
 48
0.1
 73
     0
 74
     0
 77
     1
 78
     8
 79
     2
140
5.0
141
0.0
143
0.0393701
146
0.71
147
1.5
172
     1
176
   256
177
   256
178
     2
271
     2
272
     3
274
     4
283
     0
284
     8
340
F
371
    -1
372
    -1
1001
ACAD_DSTYLE_DIMARC_LENGTH_SYMBOL
1070
   379
1070
     1
1001
ACAD_DSTYLE_DIMJOGGED_JOGANGLE_SYMBOL
1070
   384
1040
0.7853981633974483
  0
DIMSTYLE
105
41C
330
A
100
AcDbSymbolTableRecord
100
AcDbDimStyleTableRecord
  2
AM_ISO$SF
 70
     0
  4
"
 41
2.5
 42
1.0
 43
10.0
 44
1.0
 47
0.1
 48
0.1
 73
     0
 74
     0
 75
     1
 76
     1
 77
     1
 78
     8
 79
     2
140
3.5
141
0.0
143
0.0393701
146
0.71
147
1.5
172
     1
176
   256
177
   256
178
     2
271
     2
272
     3
274
     4
283
     0
284
     8
340
F
371
    -1
372
    -1
1001
ACAD_DSTYLE_DIMARC_LENGTH_SYMBOL
1070
   379
1070
     1
1001
ACAD_DSTYLE_DIMJOGGED_JOGANGLE_SYMBOL
1070
   384
1040
0.7853981633974483
  0
DIMSTYLE
105
41D
330
A
100
AcDbSymbolTableRecord
100
AcDbDimStyleTableRecord
  2
AM_ISO$SH
 70
     0
  4
"
 41
2.5
 42
1.0
 43
10.0
 44
1.0
 47
0.1
 48
0.1
 73
     0
 74
     0
 75
     1
 76
     1
 77
     1
 78
     8
 79
     2
140
3.5
141
0.0
143
0.0393701
144
2.0
146
0.71
147
1.5
172
     1
173
     1
176
   256
177
   256
178
     2
271
     2
272
     3
274
     4
283
     0
284
     8
340
F
343
3FD
371
    -1
372
    -1
1001
ACAD_DSTYLE_DIMARC_LENGTH_SYMBOL
1070
   379
1070
     1
1001
ACAD_DSTYLE_DIMJOGGED_JOGANGLE_SYMBOL
1070
   384
1040
0.7853981633974483
  0
DIMSTYLE
105
437
330
A
100
AcDbSymbolTableRecord
100
AcDbDimStyleTableRecord
  2
kuroda_sunpo
 70
     0
  4
"
 41
2.5
 42
1.0
 43
8.0
 44
1.0
 47
0.1
 48
0.1
 73
     0
 74
     0
 77
     3
 78
     8
 79
     2
140
3.2
141
0.0
143
0.0393701
146
0.71
147
1.5
172
     1
176
     7
177
     7
178
     7
179
     2
271
     3
272
     3
275
     1
283
     0
340
F
341
A7
342
A7
371
    -1
372
    -1
  0
DIMSTYLE
105
43F
330
A
100
AcDbSymbolTableRecord
100
AcDbDimStyleTableRecord
  2
kuroda_sunpo$3
 70
     0
  4
"
 41
2.5
 42
1.0
 43
8.0
 44
1.0
 47
0.1
 48
0.1
 73
     0
 77
     3
 78
     8
 79
     2
140
3.2
141
0.0
143
0.0393701
146
0.71
147
1.5
176
     7
177
     7
178
     7
179
     2
271
     3
272
     3
275
     1
283
     0
288
     1
289
     0
340
F
341
A7
342
A7
371
    -1
372
    -1
  0
DIMSTYLE
105
440
330
A
100
AcDbSymbolTableRecord
100
AcDbDimStyleTableRecord
  2
kuroda_sunpo$4
 70
     0
  4
"
 41
2.5
 42
1.0
 43
8.0
 44
1.0
 47
0.1
 48
0.1
 73
     0
 77
     3
 78
     8
 79
     2
140
3.2
141
0.0
143
0.0393701
146
0.71
147
1.5
176
     7
177
     7
178
     7
179
     2
271
     3
272
     3
275
     1
283
     0
288
     1
289
     0
340
F
341
A7
342
A7
371
    -1
372
    -1
  0
DIMSTYLE
105
441
330
A
100
AcDbSymbolTableRecord
100
AcDbDimStyleTableRecord
  2
kuroda_sunpo$6
 70
     0
  4
"
 41
2.5
 42
1.0
 43
8.0
 44
1.0
 47
0.1
 48
0.1
 73
     0
 74
     0
 78
     8
 79
     2
140
3.2
141
0.0
143
0.0393701
146
0.71
147
1.5
172
     1
176
     7
177
     7
178
     7
179
     2
271
     3
272
     3
275
     1
283
     0
340
F
341
A7
342
A7
371
    -1
372
    -1
  0
DIMSTYLE
105
442
330
A
100
AcDbSymbolTableRecord
100
AcDbDimStyleTableRecord
  2
kuroda_sunpo$SF
 70
     0
  4
"
 41
2.5
 42
1.0
 43
8.0
 44
1.0
 47
0.1
 48
0.1
 73
     0
 74
     0
 75
     1
 76
     1
 77
     3
 78
     8
 79
     2
140
5.0
141
0.0
143
0.0393701
146
0.71
147
1.5
172
     1
176
   256
177
   256
178
     7
179
     2
271
     3
272
     3
275
     1
283
     0
340
F
341
32
342
32
371
    -1
372
    -1
  0
DIMSTYLE
105
449
330
A
100
AcDbSymbolTableRecord
100
AcDbDimStyleTableRecord
  2
kuroda_sunpo$SH
 70
     0
  4
"
 41
2.5
 42
1.0
 43
8.0
 44
1.0
 47
0.1
 48
0.1
 73
     0
 74
     0
 75
     1
 76
     1
 77
     3
 78
     8
 79
     2
140
5.0
141
0.0
143
0.0393701
144
2.0
146
0.71
147
1.5
172
     1
173
     1
176
   256
177
   256
178
     7
179
     2
271
     3
272
     3
275
     1
283
     0
340
F
341
32
342
32
343
3FD
371
    -1
372
    -1
  0
DIMSTYLE
105
45C
330
A
100
AcDbSymbolTableRecord
100
AcDbDimStyleTableRecord
  2
JIS-KURODA
 70
     0
  4
"
 41
2.5
 42
1.0
 43
10.0
 44
1.0
 47
0.1
 48
0.1
 73
     0
 74
     0
 77
     3
 78
     8
 79
     2
140
3.2
141
0.0
143
0.0393701
146
0.71
147
1.5
172
     1
174
     1
176
     7
177
     7
178
     7
271
     2
272
     2
283
     0
284
     8
340
F
341
A7
342
A7
371
    -1
372
    -1
1001
ACAD_DSTYLE_DIMARC_LENGTH_SYMBOL
1070
   379
1070
     1
1001
ACAD_DSTYLE_DIMJOGGED_JOGANGLE_SYMBOL
1070
   384
1040
0.7853981633974483
  0
DIMSTYLE
105
45D
330
A
100
AcDbSymbolTableRecord
100
AcDbDimStyleTableRecord
  2
JIS-KURODA$2
 70
     0
  4
"
 41
2.5
 42
1.0
 43
10.0
 44
1.0
 47
0.1
 48
0.1
 73
     0
 74
     0
 77
     3
 78
     8
 79
     2
140
3.2
141
0.0
143
0.0393701
146
0.71
147
1.5
172
     1
174
     1
176
     7
177
     7
178
     7
271
     2
272
     2
283
     0
284
     8
340
F
341
A7
342
A7
371
    -1
372
    -1
1001
ACAD_DSTYLE_DIMARC_LENGTH_SYMBOL
1070
   379
1070
     1
1001
ACAD_DSTYLE_DIMJOGGED_JOGANGLE_SYMBOL
1070
   384
1040
0.7853981633974483
  0
DIMSTYLE
105
45E
330
A
100
AcDbSymbolTableRecord
100
AcDbDimStyleTableRecord
  2
JIS-KURODA$3
 70
     0
  4
"
 41
2.5
 42
1.0
 43
10.0
 44
1.0
 47
0.1
 48
0.1
 73
     0
 74
     0
 77
     3
 78
     8
 79
     2
140
3.2
141
0.0
143
0.0393701
146
0.71
147
1.5
172
     1
176
     7
177
     7
178
     7
271
     2
272
     2
283
     0
284
     8
288
     1
289
     2
340
F
341
32
342
A7
371
    -1
372
    -1
1001
ACAD_DSTYLE_DIMARC_LENGTH_SYMBOL
1070
   379
1070
     1
1001
ACAD_DSTYLE_DIMJOGGED_JOGANGLE_SYMBOL
1070
   384
1040
0.7853981633974483
  0
DIMSTYLE
105
45F
330
A
100
AcDbSymbolTableRecord
100
AcDbDimStyleTableRecord
  2
JIS-KURODA$4
 70
     0
  4
"
 41
2.5
 42
1.0
 43
10.0
 44
1.0
 47
0.1
 48
0.1
 73
     0
 77
     3
 78
     8
 79
     2
140
3.2
141
0.0
143
0.0393701
146
0.71
147
1.5
173
     1
176
     7
177
     7
178
     7
271
     2
272
     2
279
     1
283
     0
284
     8
288
     1
289
     0
340
F
341
32
343
32
344
A7
371
    -1
372
    -1
1001
ACAD_DSTYLE_DIMARC_LENGTH_SYMBOL
1070
   379
1070
     1
1001
ACAD_DSTYLE_DIMJOGGED_JOGANGLE_SYMBOL
1070
   384
1040
0.7853981633974483
  0
DIMSTYLE
105
460
330
A
100
AcDbSymbolTableRecord
100
AcDbDimStyleTableRecord
  2
JIS-KURODA$6
 70
     0
  4
"
 41
2.5
 42
1.0
 43
10.0
 44
1.0
 47
0.1
 48
0.1
 73
     0
 74
     0
 78
     8
 79
     2
140
3.2
141
0.0
143
0.0393701
146
0.71
147
1.5
172
     1
176
     7
177
     7
178
     7
271
     2
272
     2
279
     1
283
     0
284
     8
340
F
341
32
342
32
371
    -1
372
    -1
1001
ACAD_DSTYLE_DIMARC_LENGTH_SYMBOL
1070
   379
1070
     1
1001
ACAD_DSTYLE_DIMJOGGED_JOGANGLE_SYMBOL
1070
   384
1040
0.7853981633974483
  0
DIMSTYLE
105
461
330
A
100
AcDbSymbolTableRecord
100
AcDbDimStyleTableRecord
  2
JIS-KURODA$7
 70
     0
  4
"
 41
2.5
 42
1.0
 43
10.0
 44
1.0
 47
0.1
 48
0.1
 73
     0
 74
     0
 77
     3
 78
     8
 79
     2
140
4.000000000000003
141
0.0
143
0.0393701
146
0.71
147
1.5
172
     1
176
     7
177
     7
178
     7
271
     2
272
     2
279
     1
283
     0
284
     8
340
F
341
A7
342
32
371
    -1
372
    -1
1001
ACAD_DSTYLE_DIMARC_LENGTH_SYMBOL
1070
   379
1070
     1
1001
ACAD_DSTYLE_DIMJOGGED_JOGANGLE_SYMBOL
1070
   384
1040
0.7853981633974483
  0
DIMSTYLE
105
462
330
A
100
AcDbSymbolTableRecord
100
AcDbDimStyleTableRecord
  2
JIS-KURODA$SF
 70
     0
  4
"
 41
2.5
 42
1.0
 43
10.0
 44
1.0
 47
0.1
 48
0.1
 73
     0
 74
     0
 75
     1
 76
     1
 77
     3
 78
     8
 79
     2
140
3.5
141
0.0
143
0.0393701
146
0.71
147
1.5
172
     1
176
   256
177
   256
178
     7
271
     2
272
     3
274
     4
283
     0
284
     8
340
F
341
32
342
32
343
32
344
32
371
    -1
372
    -1
1001
ACAD_DSTYLE_DIMARC_LENGTH_SYMBOL
1070
   379
1070
     1
1001
ACAD_DSTYLE_DIMJOGGED_JOGANGLE_SYMBOL
1070
   384
1040
0.7853981633974483
  0
DIMSTYLE
105
463
330
A
100
AcDbSymbolTableRecord
100
AcDbDimStyleTableRecord
  2
JIS-KURODA$SH
 70
     0
  4
"
 41
2.5
 42
1.0
 43
10.0
 44
1.0
 47
0.1
 48
0.1
 73
     0
 74
     0
 75
     1
 76
     1
 77
     3
 78
     8
 79
     2
140
3.5
141
0.0
143
0.0393701
144
2.0
146
0.71
147
1.5
172
     1
173
     1
176
   256
177
   256
178
     7
271
     2
272
     3
274
     4
283
     0
284
     8
340
F
341
32
342
32
343
3FD
344
32
371
    -1
372
    -1
1001
ACAD_DSTYLE_DIMARC_LENGTH_SYMBOL
1070
   379
1070
     1
1001
ACAD_DSTYLE_DIMJOGGED_JOGANGLE_SYMBOL
1070
   384
1040
0.7853981633974483
  0
ENDTAB
  0
TABLE
  2
BLOCK_RECORD
  5
1
330
0
100
AcDbSymbolTable
 70
     6
  0
BLOCK_RECORD
  5
18
102
{ACAD_XDICTIONARY
360
351
102
}
330
1
100
AcDbSymbolTableRecord
100
AcDbBlockTableRecord
  2
*MODEL_SPACE
340
60
  0
BLOCK_RECORD
  5
15
102
{ACAD_XDICTIONARY
360
34F
102
}
330
1
100
AcDbSymbolTableRecord
100
AcDbBlockTableRecord
  2
*PAPER_SPACE
340
61
  0
BLOCK_RECORD
  5
32
330
1
100
AcDbSymbolTableRecord
100
AcDbBlockTableRecord
  2
_Open30
340
0
  0
BLOCK_RECORD
  5
77
330
1
100
AcDbSymbolTableRecord
100
AcDbBlockTableRecord
  2
*D1
340
0
  0
BLOCK_RECORD
  5
A7
330
1
100
AcDbSymbolTableRecord
100
AcDbBlockTableRecord
  2
_Open
340
0
  0
BLOCK_RECORD
  5
3FD
330
1
100
AcDbSymbolTableRecord
100
AcDbBlockTableRecord
  2
GENAXEH
340
0
  0
BLOCK_RECORD
  5
8F0
330
1
100
AcDbSymbolTableRecord
100
AcDbBlockTableRecord
  2
*D4
340
0
  0
ENDTAB
  0
ENDSEC
  0
SECTION
  2
BLOCKS
  0
BLOCK
  5
19
330
18
100
AcDbEntity
  8
0
100
AcDbBlockBegin
  2
*MODEL_SPACE
 70
     0
 10
0.0
 20
0.0
 30
0.0
  3
*MODEL_SPACE
  1

  0
ENDBLK
  5
1A
330
18
100
AcDbEntity
  8
0
100
AcDbBlockEnd
  0
BLOCK
  5
16
330
15
100
AcDbEntity
 67
     1
  8
0
100
AcDbBlockBegin
  2
*PAPER_SPACE
 70
     0
 10
0.0
 20
0.0
 30
0.0
  3
*PAPER_SPACE
  1

  0
ENDBLK
  5
17
330
15
100
AcDbEntity
 67
     1
  8
0
100
AcDbBlockEnd
  0
BLOCK
  5
F42
330
32
100
AcDbEntity
  8
0
100
AcDbBlockBegin
  2
_Open30
 70
     0
 10
0.0
 20
0.0
 30
0.0
  3
_Open30
  1

  0
LINE
  5
F43
330
32
100
AcDbEntity
  8
0
 62
     0
370
    -2
100
AcDbLine
 10
-1.0
 20
0.26794919
 30
0.0
 11
0.0
 21
0.0
 31
0.0
  0
LINE
  5
F44
330
32
100
AcDbEntity
  8
0
 62
     0
370
    -2
100
AcDbLine
 10
0.0
 20
0.0
 30
0.0
 11
-1.0
 21
-0.26794919
 31
0.0
  0
LINE
  5
F45
330
32
100
AcDbEntity
  8
0
 62
     0
370
    -2
100
AcDbLine
 10
0.0
 20
0.0
 30
0.0
 11
-1.0
 21
0.0
 31
0.0
  0
ENDBLK
  5
F46
330
32
100
AcDbEntity
  8
0
100
AcDbBlockEnd
  0
BLOCK
  5
81
330
77
100
AcDbEntity
  8
0
100
AcDbBlockBegin
  2
*D1
 70
     1
 10
0.0
 20
0.0
 30
0.0
  3
*D1
  1

  0
LINE
  5
357
330
77
100
AcDbEntity
  8
PV0001_1
 62
    44
100
AcDbLine
 10
269.0
 20
-99.50000000000001
 30
0.0
 11
269.0
 21
-137.58850097656
 31
0.0
  0
LINE
  5
358
330
77
100
AcDbEntity
  8
PV0001_1
 62
    44
100
AcDbLine
 10
869.0
 20
-99.50000000000001
 30
0.0
 11
869.0
 21
-137.58850097656
 31
0.0
  0
LINE
  5
359
330
77
100
AcDbEntity
  8
PV0001_1
 62
    44
100
AcDbLine
 10
272.0
 20
-135.58850097656
 30
0.0
 11
866.0
 21
-135.58850097656
 31
0.0
  0
INSERT
  5
35A
330
77
100
AcDbEntity
  8
PV0001_1
 62
    44
100
AcDbBlockReference
  2
_Open
 10
269.0
 20
-135.58850097656
 30
0.0
 41
3.0
 42
3.0
 43
3.0
 50
180.0
  0
INSERT
  5
35B
330
77
100
AcDbEntity
  8
PV0001_1
 62
    44
100
AcDbBlockReference
  2
_Open
 10
869.0
 20
-135.58850097656
 30
0.0
 41
3.0
 42
3.0
 43
3.0
  0
MTEXT
  5
35C
330
77
100
AcDbEntity
  8
PV0001_1
 62
    44
100
AcDbMText
 10
569.0
 20
-133.28850097656
 30
0.0
 40
3.2
 41
0.0
 71
     5
 72
     5
  1
\A1;L
 73
     1
 44
1.0
1001
ACAD
1000
MTEXTBEGIN
1070
    73
1070
     1
1070
    44
1040
1.0
1070
    74
1070
     0
1000
MTEXTEND
  0
POINT
  5
35D
330
77
100
AcDbEntity
  8
Defpoints
 62
     0
100
AcDbPoint
 10
269.0
 20
-98.50000000000001
 30
0.0
  0
POINT
  5
35E
330
77
100
AcDbEntity
  8
Defpoints
 62
     0
100
AcDbPoint
 10
869.0
 20
-98.50000000000001
 30
0.0
  0
POINT
  5
35F
330
77
100
AcDbEntity
  8
Defpoints
 62
     0
100
AcDbPoint
 10
869.0
 20
-135.58850097656
 30
0.0
  0
ENDBLK
  5
82
330
77
100
AcDbEntity
  8
0
100
AcDbBlockEnd
  0
BLOCK
  5
F37
330
A7
100
AcDbEntity
  8
0
100
AcDbBlockBegin
  2
_Open
 70
     0
 10
0.0
 20
0.0
 30
0.0
  3
_Open
  1

  0
LINE
  5
F38
330
A7
100
AcDbEntity
  8
outline
 62
     0
370
    -2
100
AcDbLine
 10
-1.0
 20
0.1666666666666666
 30
0.0
 11
0.0
 21
0.0
 31
0.0
  0
LINE
  5
F3A
330
A7
100
AcDbEntity
  8
outline
 62
     0
370
    -2
100
AcDbLine
 10
-1.0
 20
-0.1666666666666666
 30
0.0
 11
0.0
 21
0.0
 31
0.0
  0
LINE
  5
F3B
330
A7
100
AcDbEntity
  8
outline
 62
     0
370
    -2
100
AcDbLine
 10
0.0
 20
0.0
 30
0.0
 11
-1.0
 21
0.0
 31
0.0
  0
ENDBLK
  5
F3C
330
A7
100
AcDbEntity
  8
0
100
AcDbBlockEnd
  0
BLOCK
  5
EFC
330
3FD
100
AcDbEntity
  8
0
100
AcDbBlockBegin
  2
GENAXEH
 70
     0
 10
0.0
 20
0.0
 30
0.0
  3
GENAXEH
  1

  0
LINE
  5
EFD
330
3FD
100
AcDbEntity
  8
0
100
AcDbLine
 10
-1.0
 20
0.0
 30
0.0
 11
1.0
 21
0.0
 31
0.0
  0
ENDBLK
  5
EFE
330
3FD
100
AcDbEntity
  8
0
100
AcDbBlockEnd
  0
BLOCK
  5
8FA
330
8F0
100
AcDbEntity
  8
0
100
AcDbBlockBegin
  2
*D4
 70
     1
 10
0.0
 20
0.0
 30
0.0
  3
*D4
  1

  0
LINE
  5
8FC
330
8F0
100
AcDbEntity
  8
PV0001_1
 62
    44
370
    -2
100
AcDbLine
 10
269.0
 20
-579.0
 30
0.0
 11
269.0
 21
-608.8434066772399
 31
0.0
  0
LINE
  5
8FD
330
8F0
100
AcDbEntity
  8
PV0001_1
 62
    44
370
    -2
100
AcDbLine
 10
869.0
 20
-579.0
 30
0.0
 11
869.0
 21
-608.8434066772399
 31
0.0
  0
LINE
  5
8FE
330
8F0
100
AcDbEntity
  8
PV0001_1
 62
    44
370
    -2
100
AcDbLine
 10
272.0
 20
-606.8434066772399
 30
0.0
 11
866.0
 21
-606.8434066772399
 31
0.0
  0
INSERT
  5
8FF
330
8F0
100
AcDbEntity
  8
PV0001_1
 62
    44
370
    -2
100
AcDbBlockReference
  2
_Open
 10
269.0
 20
-606.8434066772399
 30
0.0
 41
3.0
 42
3.0
 43
3.0
 50
180.0
  0
INSERT
  5
900
330
8F0
100
AcDbEntity
  8
PV0001_1
 62
    44
370
    -2
100
AcDbBlockReference
  2
_Open
 10
869.0
 20
-606.8434066772399
 30
0.0
 41
3.0
 42
3.0
 43
3.0
  0
MTEXT
  5
901
330
8F0
100
AcDbEntity
  8
PV0001_1
 62
    44
100
AcDbMText
 10
569.0
 20
-604.54340667724
 30
0.0
 40
3.2
 41
0.0
 71
     5
 72
     1
  1
\A1;L
 73
     1
 44
1.0
1001
ACAD
1000
MTEXTBEGIN
1070
    73
1070
     1
1070
    44
1040
1.0
1070
    74
1070
     0
1000
MTEXTEND
  0
POINT
  5
902
330
8F0
100
AcDbEntity
  8
Defpoints
 62
     0
100
AcDbPoint
 10
269.0
 20
-578.0
 30
0.0
  0
POINT
  5
903
330
8F0
100
AcDbEntity
  8
Defpoints
 62
     0
100
AcDbPoint
 10
869.0
 20
-578.0
 30
0.0
  0
POINT
  5
904
330
8F0
100
AcDbEntity
  8
Defpoints
 62
     0
100
AcDbPoint
 10
869.0
 20
-606.8434066772399
 30
0.0
  0
ENDBLK
  5
8FB
330
8F0
100
AcDbEntity
  8
0
100
AcDbBlockEnd
  0
ENDSEC
  0
SECTION
  2
ENTITIES
  0
DIMENSION
  5
76
330
18
100
AcDbEntity
  8
PV0001_1
100
AcDbDimension
  2
*D1
 10
869.0
 20
-135.58850097656
 30
0.0
 11
569.0
 21
-135.58850097656
 31
0.0
 70
   160
  1
L
 71
     5
 42
-1.0
  3
STANDARD
100
AcDbAlignedDimension
 13
269.0
 23
-98.50000000000001
 33
0.0
 14
869.0
 24
-98.50000000000001
 34
0.0
100
AcDbRotatedDimension
1001
ACAD
1000
DSTYLE
1002
{
1070
   284
1070
     8
1070
   140
1040
3.2
1070
   271
1070
     0
1070
    45
1040
0.1
1070
   173
1070
     1
1070
     6
1000
OPEN
1070
     7
1000
OPEN
1002
}
  0
LINE
  5
C8
330
18
100
AcDbEntity
  8
PV0001_1
  6
Continuous
370
    50
100
AcDbLine
 10
0.0
 20
-429.4999999999999
 30
0.0
 11
1044.0
 21
-429.4999999999999
 31
0.0
  0
LINE
  5
C9
330
18
100
AcDbEntity
  8
PV0001_1
  6
Continuous
370
    50
100
AcDbLine
 10
0.0
 20
50.0
 30
0.0
 11
1044.0
 21
50.0
 31
0.0
  0
LINE
  5
CA
330
18
100
AcDbEntity
  8
PV0001_1
  6
Continuous
370
    50
100
AcDbLine
 10
0.0
 20
50.0
 30
0.0
 11
0.0
 21
-429.4999999999999
 31
0.0
  0
LINE
  5
CB
330
18
100
AcDbEntity
  8
PV0001_1
  6
Continuous
370
    50
100
AcDbLine
 10
0.0
 20
38.0
 30
0.0
 11
289.30798339843
 21
38.0
 31
0.0
  0
LINE
  5
CC
330
18
100
AcDbEntity
  8
PV0001_1
  6
Continuous
370
    50
100
AcDbLine
 10
1044.0
 20
50.0
 30
0.0
 11
1044.0
 21
-429.4999999999999
 31
0.0
  0
LINE
  5
CD
330
18
100
AcDbEntity
  8
PV0001_1
  6
Continuous
 48
0.5
370
    50
100
AcDbLine
 10
39.671600341796
 20
43.399993896484
 30
0.0
 11
40.92251586914
 21
43.399993896484
 31
0.0
  0
LINE
  5
CE
330
18
100
AcDbEntity
  8
PV0001_1
  6
Continuous
 48
0.5
370
    50
100
AcDbLine
 10
41.800003051757
 20
41.600006103515
 30
0.0
 11
43.399993896484
 21
41.600006103515
 31
0.0
  0
LINE
  5
CF
330
18
100
AcDbEntity
  8
PV0001_1
  6
Continuous
 48
0.5
370
    50
100
AcDbLine
 10
41.51231384277299
 20
42.46326065063399
 30
0.0
 11
41.800052642822
 21
41.600040435791
 31
0.0
  0
LINE
  5
D0
330
18
100
AcDbEntity
  8
PV0001_1
  6
Continuous
 48
0.5
370
    50
100
AcDbLine
 10
38.48781967163
 20
43.66322708129799
 30
0.0
 11
39.154487609863
 21
45.66322708129799
 31
0.0
  0
LINE
  5
D1
330
18
100
AcDbEntity
  8
PV0001_1
  6
Continuous
 48
0.5
370
    50
100
AcDbLine
 10
41.399997711181
 20
46.399997711181
 30
0.0
 11
43.400001525878
 21
41.599987030029
 31
0.0
  0
LINE
  5
D2
330
18
100
AcDbEntity
  8
PV0001_1
  6
Continuous
 48
0.5
370
    50
100
AcDbLine
 10
38.199981689453
 20
46.400005340576
 30
0.0
 11
36.199989318847
 21
41.60002136230399
 31
0.0
  0
LINE
  5
D3
330
18
100
AcDbEntity
  8
PV0001_1
  6
Continuous
 48
0.5
370
    50
100
AcDbLine
 10
40.445644378662
 20
45.663269042968
 30
0.0
 11
41.112308502197
 21
43.663272857666
 31
0.0
  0
LINE
  5
D4
330
18
100
AcDbEntity
  8
PV0001_1
  6
Continuous
 48
0.5
370
    50
100
AcDbLine
 10
37.800079345703
 20
41.59999465942299
 30
0.0
 11
38.087825775146
 21
42.463245391845
 31
0.0
  0
LINE
  5
D5
330
18
100
AcDbEntity
  8
PV0001_1
  6
Continuous
 48
0.5
370
    50
100
AcDbLine
 10
38.677490234375
 20
43.399993896484
 30
0.0
 11
39.671600341796
 21
43.399993896484
 31
0.0
  0
LINE
  5
D6
330
18
100
AcDbEntity
  8
PV0001_1
  6
Continuous
 48
0.5
370
    50
100
AcDbLine
 10
38.27749633789
 20
42.60000610351499
 30
0.0
 11
41.322509765625
 21
42.60000610351499
 31
0.0
  0
LINE
  5
D7
330
18
100
AcDbEntity
  8
PV0001_1
  6
Continuous
 48
0.5
370
    50
100
AcDbLine
 10
38.199996948242
 20
46.399993896484
 30
0.0
 11
41.399993896484
 21
46.399993896484
 31
0.0
  0
LINE
  5
D8
330
18
100
AcDbEntity
  8
PV0001_1
  6
Continuous
 48
0.5
370
    50
100
AcDbLine
 10
39.344146728515
 20
45.799987792968
 30
0.0
 11
40.25585937499999
 21
45.799987792968
 31
0.0
  0
LINE
  5
D9
330
18
100
AcDbEntity
  8
PV0001_1
  6
Continuous
 48
0.5
370
    50
100
AcDbLine
 10
36.199996948242
 20
41.600006103515
 30
0.0
 11
37.800003051757
 21
41.600006103515
 31
0.0
  0
LINE
  5
DA
330
18
100
AcDbEntity
  8
PV0001_1
  6
Continuous
 48
0.5
370
    50
100
AcDbLine
 10
31.600006103515
 20
42.39999389648399
 30
0.0
 11
33.80000305175701
 21
42.39999389648399
 31
0.0
  0
LINE
  5
DB
330
18
100
AcDbEntity
  8
PV0001_1
  6
Continuous
 48
0.5
370
    50
100
AcDbLine
 10
34.600006103515
 20
45.0
 30
0.0
 11
34.600006103515
 21
43.200012207031
 31
0.0
  0
LINE
  5
DC
330
18
100
AcDbEntity
  8
PV0001_1
  6
Continuous
 48
0.5
370
    50
100
AcDbLine
 10
31.399993896484
 20
45.600006103515
 30
0.0
 11
31.399993896484
 21
42.60000610351499
 31
0.0
  0
LINE
  5
DD
330
18
100
AcDbEntity
  8
PV0001_1
  6
Continuous
 48
0.5
370
    50
100
AcDbLine
 10
29.800003051757
 20
46.400024414062
 30
0.0
 11
29.800003051757
 21
41.600006103515
 31
0.0
  0
LINE
  5
DE
330
18
100
AcDbEntity
  8
PV0001_1
  6
Continuous
 48
0.5
370
    50
100
AcDbLine
 10
36.199996948242
 20
45.0
 30
0.0
 11
36.199996948242
 21
43.0
 31
0.0
  0
LINE
  5
DF
330
18
100
AcDbEntity
  8
PV0001_1
  6
Continuous
 48
0.5
370
    50
100
AcDbLine
 10
27.800003051757
 20
45.0
 30
0.0
 11
27.800003051757
 21
43.200012207031
 31
0.0
  0
LINE
  5
E0
330
18
100
AcDbEntity
  8
PV0001_1
  6
Continuous
 48
0.5
370
    50
100
AcDbLine
 10
24.399993896484
 20
45.0
 30
0.0
 11
24.399993896484
 21
43.200012207031
 31
0.0
  0
LINE
  5
E1
330
18
100
AcDbEntity
  8
PV0001_1
  6
Continuous
 48
0.5
370
    50
100
AcDbLine
 10
25.199996948242
 20
42.39999389648399
 30
0.0
 11
27.0
 21
42.39999389648399
 31
0.0
  0
LINE
  5
E2
330
18
100
AcDbEntity
  8
PV0001_1
  6
Continuous
 48
0.5
370
    50
100
AcDbLine
 10
29.800003051757
 20
46.399993896484
 30
0.0
 11
34.800003051757
 21
46.399993896484
 31
0.0
  0
LINE
  5
E3
330
18
100
AcDbEntity
  8
PV0001_1
  6
Continuous
 48
0.5
370
    50
100
AcDbLine
 10
31.600006103515
 20
45.799987792968
 30
0.0
 11
33.80000305175701
 21
45.799987792968
 31
0.0
  0
LINE
  5
E4
330
18
100
AcDbEntity
  8
PV0001_1
  6
Continuous
 48
0.5
370
    50
100
AcDbLine
 10
29.793655395507
 20
41.600006103515
 30
0.0
 11
34.800003051757
 21
41.600006103515
 31
0.0
  0
LINE
  5
E5
330
18
100
AcDbEntity
  8
PV0001_1
  6
Continuous
 48
0.5
370
    50
100
AcDbLine
 10
29.399993896484
 20
45.0
 30
0.0
 11
29.399993896484
 21
43.0
 31
0.0
  0
LINE
  5
E6
330
18
100
AcDbEntity
  8
PV0001_1
  6
Continuous
 48
0.5
370
    50
100
AcDbLine
 10
22.800003051757
 20
45.0
 30
0.0
 11
22.800003051757
 21
43.0
 31
0.0
  0
LINE
  5
E7
330
18
100
AcDbEntity
  8
PV0001_1
  6
Continuous
 48
0.5
370
    50
100
AcDbLine
 10
20.800003051757
 20
42.60000610351499
 30
0.0
 11
20.800003051757
 21
41.600006103515
 31
0.0
  0
LINE
  5
E8
330
18
100
AcDbEntity
  8
PV0001_1
  6
Continuous
 48
0.5
370
    50
100
AcDbLine
 10
24.199996948242
 20
46.399993896484
 30
0.0
 11
28.0
 21
46.399993896484
 31
0.0
  0
LINE
  5
E9
330
18
100
AcDbEntity
  8
PV0001_1
  6
Continuous
 48
0.5
370
    50
100
AcDbLine
 10
25.199996948242
 20
45.799987792968
 30
0.0
 11
27.0
 21
45.799987792968
 31
0.0
  0
LINE
  5
EA
330
18
100
AcDbEntity
  8
PV0001_1
  6
Continuous
 48
0.5
370
    50
100
AcDbLine
 10
24.199996948242
 20
41.600006103515
 30
0.0
 11
28.0
 21
41.600006103515
 31
0.0
  0
LINE
  5
EB
330
18
100
AcDbEntity
  8
PV0001_1
  6
Continuous
 48
0.5
370
    50
100
AcDbLine
 10
17.899993896484
 20
42.79998779296799
 30
0.0
 11
17.899993896484
 21
41.600006103515
 31
0.0
  0
LINE
  5
EC
330
18
100
AcDbEntity
  8
PV0001_1
  6
Continuous
 48
0.5
370
    50
100
AcDbLine
 10
20.800003051757
 20
41.600006103515
 30
0.0
 11
22.5
 21
41.600006103515
 31
0.0
  0
LINE
  5
ED
330
18
100
AcDbEntity
  8
PV0001_1
  6
Continuous
 48
0.5
370
    50
100
AcDbLine
 10
18.100006103515
 20
43.899993896484
 30
0.0
 11
20.199996948242
 21
43.899993896484
 31
0.0
  0
LINE
  5
EE
330
18
100
AcDbEntity
  8
PV0001_1
  6
Continuous
 48
0.5
370
    50
100
AcDbLine
 10
18.100006103515
 20
45.799987792968
 30
0.0
 11
20.199996948242
 21
45.799987792968
 31
0.0
  0
LINE
  5
EF
330
18
100
AcDbEntity
  8
PV0001_1
  6
Continuous
 48
0.5
370
    50
100
AcDbLine
 10
18.300003051757
 20
43.200012207031
 30
0.0
 11
20.199996948242
 21
43.200012207031
 31
0.0
  0
LINE
  5
F0
330
18
100
AcDbEntity
  8
PV0001_1
  6
Continuous
 48
0.5
370
    50
100
AcDbLine
 10
17.899993896484
 20
45.600006103515
 30
0.0
 11
17.899993896484
 21
44.100006103515
 31
0.0
  0
LINE
  5
F1
330
18
100
AcDbEntity
  8
PV0001_1
  6
Continuous
 48
0.5
370
    50
100
AcDbLine
 10
20.800003051757
 20
45.20001220703099
 30
0.0
 11
20.800003051757
 21
44.5
 31
0.0
  0
LINE
  5
F2
330
18
100
AcDbEntity
  8
PV0001_1
  6
Continuous
 48
0.5
370
    50
100
AcDbLine
 10
16.300003051757
 20
46.400024414062
 30
0.0
 11
16.300003051757
 21
41.600006103515
 31
0.0
  0
LINE
  5
F3
330
18
100
AcDbEntity
  8
PV0001_1
  6
Continuous
 48
0.5
370
    50
100
AcDbLine
 10
16.300003051757
 20
41.600006103515
 30
0.0
 11
17.899993896484
 21
41.600006103515
 31
0.0
  0
LINE
  5
F4
330
18
100
AcDbEntity
  8
PV0001_1
  6
Continuous
 48
0.5
370
    50
100
AcDbLine
 10
16.300003051757
 20
46.399993896484
 30
0.0
 11
21.0
 21
46.399993896484
 31
0.0
  0
LINE
  5
F5
330
18
100
AcDbEntity
  8
PV0001_1
  6
Continuous
 48
0.5
370
    50
100
AcDbLine
 10
14.399993896484
 20
46.399993896484
 30
0.0
 11
15.800003051757
 21
46.399993896484
 31
0.0
  0
LINE
  5
F6
330
18
100
AcDbEntity
  8
PV0001_1
  6
Continuous
 48
0.5
370
    50
100
AcDbLine
 10
11.600006103515
 20
42.39999389648399
 30
0.0
 11
13.800003051757
 21
42.39999389648399
 31
0.0
  0
LINE
  5
F7
330
18
100
AcDbEntity
  8
PV0001_1
  6
Continuous
 48
0.5
370
    50
100
AcDbLine
 10
14.399993896484
 20
46.400024414062
 30
0.0
 11
14.399993896484
 21
43.0
 31
0.0
  0
LINE
  5
F8
330
18
100
AcDbEntity
  8
PV0001_1
  6
Continuous
 48
0.5
370
    50
100
AcDbLine
 10
11.0
 20
46.399993896484
 30
0.0
 11
11.0
 21
43.0
 31
0.0
  0
LINE
  5
F9
330
18
100
AcDbEntity
  8
PV0001_1
  6
Continuous
 48
0.5
370
    50
100
AcDbLine
 10
15.800003051757
 20
46.400024414062
 30
0.0
 11
15.800003051757
 21
42.79998779296799
 31
0.0
  0
LINE
  5
FA
330
18
100
AcDbEntity
  8
PV0001_1
  6
Continuous
 48
0.5
370
    50
100
AcDbLine
 10
4.6000061035156
 20
43.799987792968
 30
0.0
 11
4.6000061035156
 21
41.600006103515
 31
0.0
  0
LINE
  5
FB
330
18
100
AcDbEntity
  8
PV0001_1
  6
Continuous
 48
0.5
370
    50
100
AcDbLine
 10
7.199996948242199
 20
46.399993896484
 30
0.0
 11
9.199996948242199
 21
46.399993896484
 31
0.0
  0
LINE
  5
FC
330
18
100
AcDbEntity
  8
PV0001_1
  6
Continuous
 48
0.5
370
    50
100
AcDbLine
 10
7.6000061035156
 20
41.600006103515
 30
0.0
 11
9.6000061035156
 21
41.600006103515
 31
0.0
  0
LINE
  5
FD
330
18
100
AcDbEntity
  8
PV0001_1
  6
Continuous
 48
0.5
370
    50
100
AcDbLine
 10
7.3309688568115
 20
44.530933380127
 30
0.0
 11
9.2000284194946
 21
46.399990081787
 31
0.0
  0
LINE
  5
FE
330
18
100
AcDbEntity
  8
PV0001_1
  6
Continuous
 48
0.5
370
    50
100
AcDbLine
 10
5.8600568771362
 20
44.67721939086899
 30
0.0
 11
7.1999979019165
 21
46.399997711181
 31
0.0
  0
LINE
  5
FF
330
18
100
AcDbEntity
  8
PV0001_1
  6
Continuous
 48
0.5
370
    50
100
AcDbLine
 10
7.320542812347399
 20
44.25941848754799
 30
0.0
 11
9.600020408630399
 21
41.600025177002
 31
0.0
  0
LINE
  5
100
330
18
100
AcDbEntity
  8
PV0001_1
  6
Continuous
 48
0.5
370
    50
100
AcDbLine
 10
5.8599553108215
 20
43.919975280761
 30
0.0
 11
7.5999608039856
 21
41.599967956543
 31
0.0
  0
LINE
  5
101
330
18
100
AcDbEntity
  8
PV0001_1
  6
Continuous
 48
0.5
370
    50
100
AcDbLine
 10
4.8000030517578
 20
44.60000610351499
 30
0.0
 11
5.7021789550781
 21
44.60000610351499
 31
0.0
  0
LINE
  5
102
330
18
100
AcDbEntity
  8
PV0001_1
  6
Continuous
 48
0.5
370
    50
100
AcDbLine
 10
4.8000030517578
 20
44.0
 30
0.0
 11
5.699996948242199
 21
44.0
 31
0.0
  0
LINE
  5
103
330
18
100
AcDbEntity
  8
PV0001_1
  6
Continuous
 48
0.5
370
    50
100
AcDbLine
 10
9.6000061035156
 20
46.399993896484
 30
0.0
 11
11.0
 21
46.399993896484
 31
0.0
  0
LINE
  5
104
330
18
100
AcDbEntity
  8
PV0001_1
  6
Continuous
 48
0.5
370
    50
100
AcDbLine
 10
10.800003051757
 20
41.600006103515
 30
0.0
 11
14.600006103515
 21
41.600006103515
 31
0.0
  0
LINE
  5
105
330
18
100
AcDbEntity
  8
PV0001_1
  6
Continuous
 48
0.5
370
    50
100
AcDbLine
 10
9.6000061035156
 20
46.399993896484
 30
0.0
 11
9.6000061035156
 21
42.79998779296799
 31
0.0
  0
LINE
  5
106
330
18
100
AcDbEntity
  8
PV0001_1
  6
Continuous
 48
0.5
370
    50
100
AcDbLine
 10
4.6000061035156
 20
46.399993896484
 30
0.0
 11
4.6000061035156
 21
44.79998779296799
 31
0.0
  0
LINE
  5
107
330
18
100
AcDbEntity
  8
PV0001_1
  6
Continuous
 48
0.5
370
    50
100
AcDbLine
 10
3.0
 20
46.399993896484
 30
0.0
 11
4.6000061035156
 21
46.399993896484
 31
0.0
  0
LINE
  5
108
330
18
100
AcDbEntity
  8
PV0001_1
  6
Continuous
 48
0.5
370
    50
100
AcDbLine
 10
3.0
 20
46.399993896484
 30
0.0
 11
3.0
 21
41.600006103515
 31
0.0
  0
LINE
  5
109
330
18
100
AcDbEntity
  8
PV0001_1
  6
Continuous
 48
0.5
370
    50
100
AcDbLine
 10
3.0
 20
41.600006103515
 30
0.0
 11
4.6000061035156
 21
41.600006103515
 31
0.0
  0
LINE
  5
10A
330
18
100
AcDbEntity
  8
PV0001_1
  6
Continuous
 48
0.5
370
    50
100
AcDbLine
 10
108.39999389648
 20
50.0
 30
0.0
 11
108.39999389648
 21
38.0
 31
0.0
  0
LINE
  5
10B
330
18
100
AcDbEntity
  8
PV0001_1
  6
Continuous
 48
0.5
370
    50
100
AcDbLine
 10
46.399993896484
 20
50.0
 30
0.0
 11
46.399993896484
 21
38.0
 31
0.0
  0
LINE
  5
10C
330
18
100
AcDbEntity
  8
PV0001_1
  6
Continuous
 48
0.5
370
   100
100
AcDbLine
 10
281.71597290039
 20
46.700012207031
 30
0.0
 11
281.71597290039
 21
41.299987792968
 31
0.0
  0
LINE
  5
10D
330
18
100
AcDbEntity
  8
PV0001_1
  6
Continuous
 48
0.5
370
   100
100
AcDbLine
 10
275.23599243164
 20
42.37962722778299
 30
0.0
 11
281.71600341796
 21
41.29962921142499
 31
0.0
  0
LINE
  5
10E
330
18
100
AcDbEntity
  8
PV0001_1
  6
Continuous
 48
0.5
370
   100
100
AcDbLine
 10
275.23596191406
 20
45.619995117187
 30
0.0
 11
275.23596191406
 21
42.379943847656
 31
0.0
  0
LINE
  5
10F
330
18
100
AcDbEntity
  8
PV0001_1
  6
Continuous
 48
0.5
370
   100
100
AcDbLine
 10
275.23602294921
 20
45.619651794433
 30
0.0
 11
281.71603393554
 21
46.699653625488
 31
0.0
  0
LINE
  5
110
330
18
100
AcDbEntity
  8
PV0001_1
  6
CENTER2
 48
0.5
370
    25
100
AcDbLine
 10
274.3935546875
 20
44.0
 30
0.0
 11
282.82943725585
 21
44.0
 31
0.0
  0
LINE
  5
111
330
18
100
AcDbEntity
  8
PV0001_1
  6
CENTER2
 48
0.5
370
    25
100
AcDbLine
 10
266.30798339843
 20
47.94482421875
 30
0.0
 11
266.30798339843
 21
40.26712036132799
 31
0.0
  0
LINE
  5
112
330
18
100
AcDbEntity
  8
PV0001_1
  6
CENTER2
 48
0.5
370
    25
100
AcDbLine
 10
262.46533203125
 20
44.0
 30
0.0
 11
270.05261230468
 21
44.0
 31
0.0
  0
LINE
  5
113
330
18
100
AcDbEntity
  8
PV0001_1
  6
Continuous
 48
0.5
370
    50
100
AcDbLine
 10
289.30798339843
 20
50.0
 30
0.0
 11
289.30798339843
 21
38.0
 31
0.0
  0
LINE
  5
114
330
18
100
AcDbEntity
  8
PV0001_1
  6
Continuous
 48
0.5
370
    50
100
AcDbLine
 10
259.30798339843
 20
50.0
 30
0.0
 11
259.30798339843
 21
38.0
 31
0.0
  0
LINE
  5
115
330
18
100
AcDbEntity
  8
PV0001_1
  6
Continuous
 48
0.5
370
    50
100
AcDbLine
 10
232.39999389648
 20
50.0
 30
0.0
 11
232.39999389648
 21
38.0
 31
0.0
  0
LINE
  5
116
330
18
100
AcDbEntity
  8
PV0001_1
  6
Continuous
370
    50
100
AcDbLine
 10
108.39999389648
 20
26.0
 30
0.0
 11
259.30798339843
 21
26.0
 31
0.0
  0
LINE
  5
117
330
18
100
AcDbEntity
  8
PV0001_1
  6
Continuous
 48
0.5
370
    50
100
AcDbLine
 10
232.39999389648
 20
38.0
 30
0.0
 11
232.39999389648
 21
26.0
 31
0.0
  0
LINE
  5
118
330
18
100
AcDbEntity
  8
PV0001_1
  6
Continuous
 48
0.5
370
    50
100
AcDbLine
 10
108.39999389648
 20
38.0
 30
0.0
 11
108.39999389648
 21
26.0
 31
0.0
  0
LINE
  5
119
330
18
100
AcDbEntity
  8
PV0001_1
  6
Continuous
 48
0.5
370
    50
100
AcDbLine
 10
259.30798339843
 20
38.0
 30
0.0
 11
259.30798339843
 21
26.0
 31
0.0
  0
LINE
  5
11A
330
18
100
AcDbEntity
  8
PV0001_1
  6
Continuous
370
    50
100
AcDbLine
 10
108.39999389648
 20
14.0
 30
0.0
 11
259.30798339843
 21
14.0
 31
0.0
  0
LINE
  5
11B
330
18
100
AcDbEntity
  8
PV0001_1
  6
Continuous
 48
0.5
370
    50
100
AcDbLine
 10
232.39999389648
 20
26.0
 30
0.0
 11
232.39999389648
 21
14.0
 31
0.0
  0
LINE
  5
11C
330
18
100
AcDbEntity
  8
PV0001_1
  6
Continuous
 48
0.5
370
    50
100
AcDbLine
 10
108.39999389648
 20
26.0
 30
0.0
 11
108.39999389648
 21
14.0
 31
0.0
  0
LINE
  5
11D
330
18
100
AcDbEntity
  8
PV0001_1
  6
Continuous
 48
0.5
370
    50
100
AcDbLine
 10
259.30798339843
 20
26.0
 30
0.0
 11
259.30798339843
 21
14.0
 31
0.0
  0
LINE
  5
11E
330
18
100
AcDbEntity
  8
PV0001_1
  6
CENTER2
370
    25
100
AcDbLine
 10
177.10623168945
 20
-288.5
 30
0.0
 11
233.8728942871
 21
-288.5
 31
0.0
  0
LINE
  5
11F
330
18
100
AcDbEntity
  8
PV0001_1
  6
CENTER2
 48
0.5
370
    25
100
AcDbLine
 10
210.19345092773
 20
-272.85733032226
 30
0.0
 11
214.24565124511
 21
-261.72399902343
 31
0.0
  0
LINE
  5
120
330
18
100
AcDbEntity
  8
PV0001_1
  6
CENTER2
370
    25
100
AcDbLine
 10
181.58166503906
 20
-265.58163452148
 30
0.0
 11
228.54202270507
 21
-312.54196166992
 31
0.0
  0
LINE
  5
121
330
18
100
AcDbEntity
  8
PV0001_1
  6
CENTER2
 48
0.5
370
    25
100
AcDbLine
 10
220.44294738769
 20
-294.30279541015
 30
0.0
 11
231.84922790527
 21
-298.45434570312
 31
0.0
  0
LINE
  5
122
330
18
100
AcDbEntity
  8
PV0001_1
  6
CENTER2
 48
0.5
370
    25
100
AcDbLine
 10
176.7998046875
 20
-278.41796875
 30
0.0
 11
189.73643493652
 21
-283.1265258789
 31
0.0
  0
LINE
  5
123
330
18
100
AcDbEntity
  8
PV0001_1
  6
CENTER2
 48
0.5
370
    25
100
AcDbLine
 10
195.00877380371
 20
-314.57684326171
 30
0.0
 11
198.70733642578
 21
-304.41513061523
 31
0.0
  0
LINE
  5
124
330
18
100
AcDbEntity
  8
PV0001_1
  6
CENTER2
370
    25
100
AcDbLine
 10
180.66508483886
 20
-312.33486938476
 30
0.0
 11
228.62460327148
 21
-264.37533569335
 31
0.0
  0
LINE
  5
125
330
18
100
AcDbEntity
  8
PV0001_1
  6
Continuous
 48
0.5
370
    50
100
AcDbLine
 10
215.49998474121
 20
-282.56283569335
 30
0.0
 11
215.49998474121
 21
-294.43716430664
 31
0.0
  0
LINE
  5
126
330
18
100
AcDbEntity
  8
PV0001_1
  6
Continuous
 48
0.5
370
    50
100
AcDbLine
 10
193.49998474121
 20
-282.56283569335
 30
0.0
 11
193.49998474121
 21
-294.43716430664
 31
0.0
  0
LINE
  5
127
330
18
100
AcDbEntity
  8
PV0001_1
  6
Continuous
 48
0.5
370
    50
100
AcDbLine
 10
198.56282043457
 20
-299.5
 30
0.0
 11
210.43714904785
 21
-299.5
 31
0.0
  0
LINE
  5
128
330
18
100
AcDbEntity
  8
PV0001_1
  6
Continuous
 48
0.5
370
    50
100
AcDbLine
 10
198.56282043457
 20
-277.5
 30
0.0
 11
210.43714904785
 21
-277.5
 31
0.0
  0
LINE
  5
129
330
18
100
AcDbEntity
  8
PV0001_1
  6
Continuous
370
    50
100
AcDbLine
 10
178.49998474121
 20
-270.71658325195
 30
0.0
 11
178.49998474121
 21
-306.28341674804
 31
0.0
  0
LINE
  5
12A
330
18
100
AcDbEntity
  8
PV0001_1
  6
Continuous
370
    50
100
AcDbLine
 10
230.49998474121
 20
-270.71658325195
 30
0.0
 11
230.49998474121
 21
-306.28341674804
 31
0.0
  0
LINE
  5
12B
330
18
100
AcDbEntity
  8
PV0001_1
  6
Continuous
370
    50
100
AcDbLine
 10
186.71656799316
 20
-262.5
 30
0.0
 11
222.28340148925
 21
-262.5
 31
0.0
  0
LINE
  5
12C
330
18
100
AcDbEntity
  8
PV0001_1
  6
Continuous
370
    50
100
AcDbLine
 10
186.71656799316
 20
-314.5
 30
0.0
 11
222.28340148925
 21
-314.5
 31
0.0
  0
LINE
  5
12D
330
18
100
AcDbEntity
  8
PV0001_1
  6
CENTER2
370
    25
100
AcDbLine
 10
204.49998474121
 20
-259.04348754882
 30
0.0
 11
204.49998474121
 21
-317.03482055664
 31
0.0
  0
LINE
  5
12E
330
18
100
AcDbEntity
  8
PV0001_1
  6
DASHED2
 48
0.5
370
    50
100
AcDbLine
 10
976.0
 20
-210.0
 30
0.0
 11
976.0
 21
-227.0
 31
0.0
  0
LINE
  5
12F
330
18
100
AcDbEntity
  8
PV0001_1
  6
DASHED2
 48
0.5
370
    50
100
AcDbLine
 10
976.0
 20
-150.0
 30
0.0
 11
976.0
 21
-166.99996948242
 31
0.0
  0
LINE
  5
130
330
18
100
AcDbEntity
  8
PV0001_1
  6
DASHED2
 48
0.5
370
    50
100
AcDbLine
 10
961.0
 20
-150.00001525878
 30
0.0
 11
976.0
 21
-150.00001525878
 31
0.0
  0
LINE
  5
131
330
18
100
AcDbEntity
  8
PV0001_1
  6
DASHED2
 48
0.5
370
    50
100
AcDbLine
 10
961.0
 20
-167.00003051757
 30
0.0
 11
976.0
 21
-167.00003051757
 31
0.0
  0
LINE
  5
132
330
18
100
AcDbEntity
  8
PV0001_1
  6
DASHED2
 48
0.5
370
    50
100
AcDbLine
 10
961.0
 20
-210.0
 30
0.0
 11
976.0
 21
-210.0
 31
0.0
  0
LINE
  5
133
330
18
100
AcDbEntity
  8
PV0001_1
  6
DASHED2
 48
0.5
370
    50
100
AcDbLine
 10
961.0
 20
-227.00003051757
 30
0.0
 11
976.0
 21
-227.00003051757
 31
0.0
  0
LINE
  5
134
330
18
100
AcDbEntity
  8
PV0001_1
  6
DASHED2
 48
0.5
370
    50
100
AcDbLine
 10
976.0
 20
-213.0
 30
0.0
 11
1001.0
 21
-213.0
 31
0.0
  0
LINE
  5
135
330
18
100
AcDbEntity
  8
PV0001_1
  6
DASHED2
 48
0.5
370
    50
100
AcDbLine
 10
976.0
 20
-224.0
 30
0.0
 11
1001.0
 21
-224.0
 31
0.0
  0
LINE
  5
136
330
18
100
AcDbEntity
  8
PV0001_1
  6
DASHED2
 48
0.5
370
    50
100
AcDbLine
 10
976.0
 20
-164.0
 30
0.0
 11
1001.0
 21
-164.0
 31
0.0
  0
LINE
  5
137
330
18
100
AcDbEntity
  8
PV0001_1
  6
DASHED2
 48
0.5
370
    50
100
AcDbLine
 10
976.0
 20
-153.0
 30
0.0
 11
1001.0
 21
-153.0
 31
0.0
  0
LINE
  5
138
330
18
100
AcDbEntity
  8
PV0001_1
  6
Continuous
 48
0.5
370
    50
100
AcDbLine
 10
961.0
 20
-209.0
 30
0.0
 11
961.0
 21
-228.5
 31
0.0
  0
LINE
  5
139
330
18
100
AcDbEntity
  8
PV0001_1
  6
Continuous
 48
0.5
370
    50
100
AcDbLine
 10
961.0
 20
-148.5
 30
0.0
 11
961.0
 21
-168.0
 31
0.0
  0
LINE
  5
13A
330
18
100
AcDbEntity
  8
PV0001_1
  6
Continuous
 48
0.5
370
    50
100
AcDbLine
 10
951.0
 20
-168.0
 30
0.0
 11
961.0
 21
-168.0
 31
0.0
  0
LINE
  5
13B
330
18
100
AcDbEntity
  8
PV0001_1
  6
Continuous
 48
0.5
370
    50
100
AcDbLine
 10
951.0
 20
-209.0
 30
0.0
 11
961.0
 21
-209.0
 31
0.0
  0
LINE
  5
13C
330
18
100
AcDbEntity
  8
PV0001_1
  6
Continuous
370
    50
100
AcDbLine
 10
951.0
 20
-168.0
 30
0.0
 11
951.0
 21
-209.0
 31
0.0
  0
LINE
  5
13D
330
18
100
AcDbEntity
  8
PV0001_1
  6
Continuous
370
    50
100
AcDbLine
 10
1001.0
 20
-148.5
 30
0.0
 11
1001.0
 21
-228.5
 31
0.0
  0
LINE
  5
13E
330
18
100
AcDbEntity
  8
PV0001_1
  6
CENTER2
370
    25
100
AcDbLine
 10
959.07824707031
 20
-158.5
 30
0.0
 11
1003.0332641601
 21
-158.5
 31
0.0
  0
LINE
  5
13F
330
18
100
AcDbEntity
  8
PV0001_1
  6
CENTER2
370
    25
100
AcDbLine
 10
948.29681396484
 20
-188.5
 30
0.0
 11
1003.6552734375
 21
-188.5
 31
0.0
  0
LINE
  5
140
330
18
100
AcDbEntity
  8
PV0001_1
  6
CENTER2
370
    25
100
AcDbLine
 10
971.0
 20
-144.68540954589
 30
0.0
 11
971.0
 21
-232.11868286132
 31
0.0
  0
LINE
  5
141
330
18
100
AcDbEntity
  8
PV0001_1
  6
Continuous
370
    50
100
AcDbLine
 10
961.0
 20
-228.5
 30
0.0
 11
1001.0
 21
-228.5
 31
0.0
  0
LINE
  5
142
330
18
100
AcDbEntity
  8
PV0001_1
  6
Continuous
370
    50
100
AcDbLine
 10
961.0
 20
-148.5
 30
0.0
 11
1001.0
 21
-148.5
 31
0.0
  0
LINE
  5
143
330
18
100
AcDbEntity
  8
PV0001_1
  6
CENTER2
370
    25
100
AcDbLine
 10
958.45623779296
 20
-218.5
 30
0.0
 11
1003.4479370117
 21
-218.5
 31
0.0
  0
LINE
  5
144
330
18
100
AcDbEntity
  8
PV0001_1
  6
CENTER2
 48
0.5
370
    25
100
AcDbLine
 10
211.92010498046
 20
-179.07986450195
 30
0.0
 11
220.66407775878
 21
-170.33587646484
 31
0.0
  0
LINE
  5
145
330
18
100
AcDbEntity
  8
PV0001_1
  6
CENTER2
 48
0.5
370
    25
100
AcDbLine
 10
193.07984924316
 20
-179.07989501953
 30
0.0
 11
184.33586120605
 21
-170.33590698242
 31
0.0
  0
LINE
  5
146
330
18
100
AcDbEntity
  8
PV0001_1
  6
CENTER2
 48
0.5
370
    25
100
AcDbLine
 10
211.92010498046
 20
-197.92013549804
 30
0.0
 11
220.66409301757
 21
-206.66412353515
 31
0.0
  0
LINE
  5
147
330
18
100
AcDbEntity
  8
PV0001_1
  6
Continuous
 48
0.5
370
    50
100
AcDbLine
 10
208.43713378906
 20
-177.50001525878
 30
0.0
 11
196.56283569335
 21
-177.50001525878
 31
0.0
  0
LINE
  5
148
330
18
100
AcDbEntity
  8
PV0001_1
  6
Continuous
 48
0.5
370
    50
100
AcDbLine
 10
208.43713378906
 20
-199.49998474121
 30
0.0
 11
196.56283569335
 21
-199.49998474121
 31
0.0
  0
LINE
  5
149
330
18
100
AcDbEntity
  8
PV0001_1
  6
Continuous
 48
0.5
370
    50
100
AcDbLine
 10
191.5
 20
-194.43714904785
 30
0.0
 11
191.5
 21
-182.56283569335
 31
0.0
  0
LINE
  5
14A
330
18
100
AcDbEntity
  8
PV0001_1
  6
Continuous
 48
0.5
370
    50
100
AcDbLine
 10
213.49996948242
 20
-194.43714904785
 30
0.0
 11
213.49996948242
 21
-182.56283569335
 31
0.0
  0
LINE
  5
14B
330
18
100
AcDbEntity
  8
PV0001_1
  6
CENTER2
 48
0.5
370
    25
100
AcDbLine
 10
193.07986450195
 20
-197.92010498046
 30
0.0
 11
184.33587646484
 21
-206.66409301757
 31
0.0
  0
LINE
  5
14C
330
18
100
AcDbEntity
  8
PV0001_1
  6
CENTER2
370
    25
100
AcDbLine
 10
224.99899291992
 20
-188.5
 30
0.0
 11
169.52139282226
 21
-188.5
 31
0.0
  0
LINE
  5
14D
330
18
100
AcDbEntity
  8
PV0001_1
  6
CENTER2
370
    25
100
AcDbLine
 10
202.49998474121
 20
-231.5
 30
0.0
 11
202.49998474121
 21
-145.5
 31
0.0
  0
LINE
  5
14E
330
18
100
AcDbEntity
  8
PV0001_1
  6
Continuous
370
    50
100
AcDbLine
 10
220.99996948242
 20
-204.56237792968
 30
0.0
 11
220.99996948242
 21
-172.43759155273
 31
0.0
  0
LINE
  5
14F
330
18
100
AcDbEntity
  8
PV0001_1
  6
Continuous
370
    50
100
AcDbLine
 10
184.0
 20
-204.56237792968
 30
0.0
 11
184.0
 21
-172.43759155273
 31
0.0
  0
LINE
  5
150
330
18
100
AcDbEntity
  8
PV0001_1
  6
Continuous
370
    50
100
AcDbLine
 10
218.56237792968
 20
-170.00001525878
 30
0.0
 11
186.43759155273
 21
-170.00001525878
 31
0.0
  0
LINE
  5
151
330
18
100
AcDbEntity
  8
PV0001_1
  6
Continuous
370
    50
100
AcDbLine
 10
218.56237792968
 20
-207.0
 30
0.0
 11
186.43759155273
 21
-207.0
 31
0.0
  0
LINE
  5
152
330
18
100
AcDbEntity
  8
PV0001_1
  6
DASHED2
 48
0.5
370
    50
100
AcDbLine
 10
212.49998474121
 20
-150.00001525878
 30
0.0
 11
197.49998474121
 21
-150.00001525878
 31
0.0
  0
LINE
  5
153
330
18
100
AcDbEntity
  8
PV0001_1
  6
DASHED2
 48
0.5
370
    50
100
AcDbLine
 10
197.49998474121
 20
-153.0
 30
0.0
 11
172.49998474121
 21
-153.0
 31
0.0
  0
LINE
  5
154
330
18
100
AcDbEntity
  8
PV0001_1
  6
CENTER2
370
    25
100
AcDbLine
 10
213.9308013916
 20
-158.5
 30
0.0
 11
170.88784790039
 21
-158.5
 31
0.0
  0
LINE
  5
155
330
18
100
AcDbEntity
  8
PV0001_1
  6
DASHED2
 48
0.5
370
    50
100
AcDbLine
 10
197.49998474121
 20
-164.0
 30
0.0
 11
172.49998474121
 21
-164.0
 31
0.0
  0
LINE
  5
156
330
18
100
AcDbEntity
  8
PV0001_1
  6
DASHED2
 48
0.5
370
    50
100
AcDbLine
 10
197.49998474121
 20
-150.0
 30
0.0
 11
197.49998474121
 21
-166.99996948242
 31
0.0
  0
LINE
  5
157
330
18
100
AcDbEntity
  8
PV0001_1
  6
DASHED2
 48
0.5
370
    50
100
AcDbLine
 10
212.49998474121
 20
-166.99998474121
 30
0.0
 11
197.49998474121
 21
-166.99998474121
 31
0.0
  0
LINE
  5
158
330
18
100
AcDbEntity
  8
PV0001_1
  6
DASHED2
 48
0.5
370
    50
100
AcDbLine
 10
197.49998474121
 20
-226.99996948242
 30
0.0
 11
197.49998474121
 21
-210.0
 31
0.0
  0
LINE
  5
159
330
18
100
AcDbEntity
  8
PV0001_1
  6
DASHED2
 48
0.5
370
    50
100
AcDbLine
 10
197.49998474121
 20
-213.0
 30
0.0
 11
172.49998474121
 21
-213.0
 31
0.0
  0
LINE
  5
15A
330
18
100
AcDbEntity
  8
PV0001_1
  6
DASHED2
 48
0.5
370
    50
100
AcDbLine
 10
197.49998474121
 20
-224.0
 30
0.0
 11
172.49998474121
 21
-224.0
 31
0.0
  0
LINE
  5
15B
330
18
100
AcDbEntity
  8
PV0001_1
  6
DASHED2
 48
0.5
370
    50
100
AcDbLine
 10
212.49998474121
 20
-210.0
 30
0.0
 11
197.49998474121
 21
-210.0
 31
0.0
  0
LINE
  5
15C
330
18
100
AcDbEntity
  8
PV0001_1
  6
DASHED2
 48
0.5
370
    50
100
AcDbLine
 10
212.49998474121
 20
-227.0
 30
0.0
 11
197.49998474121
 21
-227.0
 31
0.0
  0
LINE
  5
15D
330
18
100
AcDbEntity
  8
PV0001_1
  6
CENTER2
370
    25
100
AcDbLine
 10
214.34074401855
 20
-218.5
 30
0.0
 11
171.02449035644
 21
-218.5
 31
0.0
  0
LINE
  5
15E
330
18
100
AcDbEntity
  8
PV0001_1
  6
Continuous
 48
0.5
370
    50
100
AcDbLine
 10
212.49998474121
 20
-228.5
 30
0.0
 11
212.49998474121
 21
-209.0
 31
0.0
  0
LINE
  5
15F
330
18
100
AcDbEntity
  8
PV0001_1
  6
Continuous
370
    50
100
AcDbLine
 10
212.49998474121
 20
-228.5
 30
0.0
 11
172.49998474121
 21
-228.5
 31
0.0
  0
LINE
  5
160
330
18
100
AcDbEntity
  8
PV0001_1
  6
Continuous
370
    50
100
AcDbLine
 10
212.49998474121
 20
-148.5
 30
0.0
 11
172.49998474121
 21
-148.5
 31
0.0
  0
LINE
  5
161
330
18
100
AcDbEntity
  8
PV0001_1
  6
Continuous
 48
0.5
370
    50
100
AcDbLine
 10
222.49998474121
 20
-209.0
 30
0.0
 11
212.49998474121
 21
-209.0
 31
0.0
  0
LINE
  5
162
330
18
100
AcDbEntity
  8
PV0001_1
  6
Continuous
 48
0.5
370
    50
100
AcDbLine
 10
222.49998474121
 20
-168.0
 30
0.0
 11
212.49998474121
 21
-168.0
 31
0.0
  0
LINE
  5
163
330
18
100
AcDbEntity
  8
PV0001_1
  6
Continuous
 48
0.5
370
    50
100
AcDbLine
 10
212.49998474121
 20
-168.0
 30
0.0
 11
212.49998474121
 21
-148.5
 31
0.0
  0
LINE
  5
164
330
18
100
AcDbEntity
  8
PV0001_1
  6
Continuous
370
    50
100
AcDbLine
 10
172.49998474121
 20
-228.5
 30
0.0
 11
172.49998474121
 21
-148.5
 31
0.0
  0
LINE
  5
165
330
18
100
AcDbEntity
  8
PV0001_1
  6
Continuous
370
    50
100
AcDbLine
 10
222.49998474121
 20
-209.0
 30
0.0
 11
222.49998474121
 21
-168.0
 31
0.0
  0
LINE
  5
166
330
18
100
AcDbEntity
  8
PV0001_1
  6
CENTER2
370
    25
100
AcDbLine
 10
264.3030090332
 20
-88.49999999999999
 30
0.0
 11
873.09094238281
 21
-88.49999999999999
 31
0.0
  0
LINE
  5
167
330
18
100
AcDbEntity
  8
PV0001_1
  6
Continuous
 48
0.5
370
    50
100
AcDbLine
 10
869.0
 20
-78.5
 30
0.0
 11
869.0
 21
-98.50000000000001
 31
0.0
  0
LINE
  5
168
330
18
100
AcDbEntity
  8
PV0001_1
  6
Continuous
 48
0.5
370
    50
100
AcDbLine
 10
269.0
 20
-78.5
 30
0.0
 11
269.0
 21
-98.50000000000001
 31
0.0
  0
LINE
  5
169
330
18
100
AcDbEntity
  8
PV0001_1
  6
Continuous
370
    50
100
AcDbLine
 10
269.0
 20
-98.50000000000001
 30
0.0
 11
449.0
 21
-98.50000000000001
 31
0.0
  0
LINE
  5
16A
330
18
100
AcDbEntity
  8
PV0001_1
  6
Continuous
370
    50
100
AcDbLine
 10
269.0
 20
-78.5
 30
0.0
 11
449.0
 21
-78.5
 31
0.0
  0
LINE
  5
16B
330
18
100
AcDbEntity
  8
PV0001_1
  6
Continuous
370
    25
100
AcDbLine
 10
269.0
 20
-97.25000000000001
 30
0.0
 11
449.0
 21
-97.25000000000001
 31
0.0
  0
LINE
  5
16C
330
18
100
AcDbEntity
  8
PV0001_1
  6
Continuous
370
    25
100
AcDbLine
 10
269.0
 20
-79.75
 30
0.0
 11
449.0
 21
-79.75
 31
0.0
  0
LINE
  5
16D
330
18
100
AcDbEntity
  8
PV0001_1
  6
Continuous
370
    50
100
AcDbLine
 10
506.0
 20
-98.50000000000001
 30
0.0
 11
869.0
 21
-98.50000000000001
 31
0.0
  0
LINE
  5
16E
330
18
100
AcDbEntity
  8
PV0001_1
  6
Continuous
370
    25
100
AcDbLine
 10
506.0
 20
-97.25000000000001
 30
0.0
 11
869.0
 21
-97.25000000000001
 31
0.0
  0
LINE
  5
16F
330
18
100
AcDbEntity
  8
PV0001_1
  6
Continuous
370
    25
100
AcDbLine
 10
506.0
 20
-79.75
 30
0.0
 11
869.0
 21
-79.75
 31
0.0
  0
LINE
  5
170
330
18
100
AcDbEntity
  8
PV0001_1
  6
Continuous
370
    50
100
AcDbLine
 10
506.0
 20
-78.5
 30
0.0
 11
869.0
 21
-78.5
 31
0.0
  0
LINE
  5
171
330
18
100
AcDbEntity
  8
PV0001_1
  6
CENTER2
370
    25
100
AcDbLine
 10
163.25756835937
 20
-88.49999999999999
 30
0.0
 11
241.43937683105
 21
-88.49999999999999
 31
0.0
  0
LINE
  5
172
330
18
100
AcDbEntity
  8
PV0001_1
  6
CENTER2
370
    25
100
AcDbLine
 10
202.49998474121
 20
-42.28787231445299
 30
0.0
 11
202.49998474121
 21
-134.40908813476
 31
0.0
  0
LINE
  5
173
330
18
100
AcDbEntity
  8
PV0001_1
  6
Continuous
370
    50
100
AcDbLine
 10
228.49996948242
 20
-56.798263549804
 30
0.0
 11
228.49996948242
 21
-120.20173645019
 31
0.0
  0
LINE
  5
174
330
18
100
AcDbEntity
  8
PV0001_1
  6
Continuous
370
    50
100
AcDbLine
 10
176.5
 20
-56.798263549804
 30
0.0
 11
176.5
 21
-120.20173645019
 31
0.0
  0
LINE
  5
175
330
18
100
AcDbEntity
  8
PV0001_1
  6
CENTER2
370
    25
100
AcDbLine
 10
179.84327697753
 20
-127.74256896972
 30
0.0
 11
225.21215820312
 21
-49.161376953125
 31
0.0
  0
LINE
  5
176
330
18
100
AcDbEntity
  8
PV0001_1
  6
CENTER2
370
    25
100
AcDbLine
 10
179.91903686523
 20
-49.38865661621
 30
0.0
 11
225.00518798828
 21
-127.48014068603
 31
0.0
  0
LINE
  5
177
330
18
100
AcDbEntity
  8
PV0001_1
  6
DASHED2
 48
0.5
370
    50
100
AcDbLine
 10
199.49996948242
 20
-53.500015258789
 30
0.0
 11
205.49998474121
 21
-53.500015258789
 31
0.0
  0
LINE
  5
178
330
18
100
AcDbEntity
  8
PV0001_1
  6
DASHED2
 48
0.5
370
    50
100
AcDbLine
 10
199.49996948242
 20
-47.609909057617
 30
0.0
 11
199.49996948242
 21
-53.5
 31
0.0
  0
LINE
  5
179
330
18
100
AcDbEntity
  8
PV0001_1
  6
DASHED2
 48
0.5
370
    50
100
AcDbLine
 10
205.49998474121
 20
-47.609909057617
 30
0.0
 11
205.49998474121
 21
-53.5
 31
0.0
  0
LINE
  5
17A
330
18
100
AcDbEntity
  8
PV0001_1
  6
DASHED2
370
    50
100
AcDbLine
 10
204.99998474121
 20
-47.576293945312
 30
0.0
 11
204.99998474121
 21
-77.75192260742099
 31
0.0
  0
LINE
  5
17B
330
18
100
AcDbEntity
  8
PV0001_1
  6
DASHED2
370
    50
100
AcDbLine
 10
199.99998474121
 20
-47.576293945312
 30
0.0
 11
199.99998474121
 21
-77.75192260742099
 31
0.0
  0
LINE
  5
17C
330
18
100
AcDbEntity
  8
PV0001_1
  6
Continuous
370
    50
100
AcDbLine
 10
449.0
 20
-47.5
 30
0.0
 11
449.0
 21
-129.5
 31
0.0
  0
LINE
  5
17D
330
18
100
AcDbEntity
  8
PV0001_1
  6
Continuous
 48
0.5
370
    50
100
AcDbLine
 10
449.0
 20
-129.5
 30
0.0
 11
461.0
 21
-129.5
 31
0.0
  0
LINE
  5
17E
330
18
100
AcDbEntity
  8
PV0001_1
  6
Continuous
 48
0.5
370
    50
100
AcDbLine
 10
449.0
 20
-47.50001525878899
 30
0.0
 11
461.0
 21
-47.50001525878899
 31
0.0
  0
LINE
  5
17F
330
18
100
AcDbEntity
  8
PV0001_1
  6
Continuous
370
    50
100
AcDbLine
 10
461.0
 20
-114.5
 30
0.0
 11
506.0
 21
-114.5
 31
0.0
  0
LINE
  5
180
330
18
100
AcDbEntity
  8
PV0001_1
  6
Continuous
370
    50
100
AcDbLine
 10
461.0
 20
-62.500015258789
 30
0.0
 11
506.0
 21
-62.500015258789
 31
0.0
  0
LINE
  5
181
330
18
100
AcDbEntity
  8
PV0001_1
  6
Continuous
370
    50
100
AcDbLine
 10
461.0
 20
-47.5
 30
0.0
 11
461.0
 21
-129.5
 31
0.0
  0
LINE
  5
182
330
18
100
AcDbEntity
  8
PV0001_1
  6
CENTER2
370
    25
100
AcDbLine
 10
464.3107910156199
 20
-101.10705566406
 30
0.0
 11
494.9996643066399
 21
-75.63542175292901
 31
0.0
  0
LINE
  5
183
330
18
100
AcDbEntity
  8
PV0001_1
  6
CENTER2
370
    25
100
AcDbLine
 10
456.0
 20
-45.25779724121
 30
0.0
 11
456.0
 21
-80.645446777343
 31
0.0
  0
LINE
  5
184
330
18
100
AcDbEntity
  8
PV0001_1
  6
DASHED2
 48
0.5
370
    50
100
AcDbLine
 10
453.0
 20
-53.500015258789
 30
0.0
 11
459.0
 21
-53.500015258789
 31
0.0
  0
LINE
  5
185
330
18
100
AcDbEntity
  8
PV0001_1
  6
DASHED2
 48
0.5
370
    50
100
AcDbLine
 10
453.0
 20
-47.5
 30
0.0
 11
453.0
 21
-53.5
 31
0.0
  0
LINE
  5
186
330
18
100
AcDbEntity
  8
PV0001_1
  6
DASHED2
 48
0.5
370
    50
100
AcDbLine
 10
459.0
 20
-47.5
 30
0.0
 11
459.0
 21
-53.5
 31
0.0
  0
LINE
  5
187
330
18
100
AcDbEntity
  8
PV0001_1
  6
DASHED2
 48
0.5
370
    50
100
AcDbLine
 10
453.5
 20
-47.5
 30
0.0
 11
453.5
 21
-77.46499633788999
 31
0.0
  0
LINE
  5
188
330
18
100
AcDbEntity
  8
PV0001_1
  6
DASHED2
 48
0.5
370
    50
100
AcDbLine
 10
458.4999999999999
 20
-47.5
 30
0.0
 11
458.4999999999999
 21
-77.46499633788999
 31
0.0
  0
LINE
  5
189
330
18
100
AcDbEntity
  8
PV0001_1
  6
Continuous
370
    50
100
AcDbLine
 10
506.0
 20
-62.500015258789
 30
0.0
 11
506.0
 21
-114.5
 31
0.0
  0
LINE
  5
18A
330
18
100
AcDbEntity
  8
PV0001_1
  6
DASHED2
 48
0.5
370
    50
100
AcDbLine
 10
857.0
 20
-196.0
 30
0.0
 11
866.0
 21
-196.0
 31
0.0
  0
LINE
  5
18B
330
18
100
AcDbEntity
  8
PV0001_1
  6
DASHED2
 48
0.5
370
    50
100
AcDbLine
 10
866.0
 20
-361.0000000000001
 30
0.0
 11
857.0
 21
-361.0000000000001
 31
0.0
  0
LINE
  5
18C
330
18
100
AcDbEntity
  8
PV0001_1
  6
DASHED2
 48
0.5
370
    50
100
AcDbLine
 10
866.0
 20
-376.0000000000001
 30
0.0
 11
857.0
 21
-376.0000000000001
 31
0.0
  0
LINE
  5
18D
330
18
100
AcDbEntity
  8
PV0001_1
  6
Continuous
370
    50
100
AcDbLine
 10
337.0
 20
-394.5
 30
0.0
 11
337.0
 21
-342.5
 31
0.0
  0
LINE
  5
18E
330
18
100
AcDbEntity
  8
PV0001_1
  6
DASHED2
 48
0.5
370
    50
100
AcDbLine
 10
322.0
 20
-348.07232666015
 30
0.0
 11
331.0
 21
-348.07232666015
 31
0.0
  0
LINE
  5
18F
330
18
100
AcDbEntity
  8
PV0001_1
  6
DASHED2
 48
0.5
370
    50
100
AcDbLine
 10
322.0
 20
-353.57232666015
 30
0.0
 11
331.0
 21
-353.57232666015
 31
0.0
  0
LINE
  5
190
330
18
100
AcDbEntity
  8
PV0001_1
  6
DASHED2
 48
0.5
370
    50
100
AcDbLine
 10
331.0
 20
-346.07232666015
 30
0.0
 11
337.0
 21
-346.07232666015
 31
0.0
  0
LINE
  5
191
330
18
100
AcDbEntity
  8
PV0001_1
  6
Continuous
 48
0.5
370
    50
100
AcDbLine
 10
305.0
 20
-358.5
 30
0.0
 11
301.0
 21
-358.5
 31
0.0
  0
LINE
  5
192
330
18
100
AcDbEntity
  8
PV0001_1
  6
Continuous
 48
0.5
370
    50
100
AcDbLine
 10
305.0
 20
-378.5
 30
0.0
 11
301.0
 21
-378.5
 31
0.0
  0
LINE
  5
193
330
18
100
AcDbEntity
  8
PV0001_1
  6
Continuous
 48
0.5
370
    50
100
AcDbLine
 10
300.0
 20
-357.5
 30
0.0
 11
300.0
 21
-379.5
 31
0.0
  0
LINE
  5
194
330
18
100
AcDbEntity
  8
PV0001_1
  6
Continuous
 48
0.5
370
    50
100
AcDbLine
 10
301.0
 20
-358.0
 30
0.0
 11
300.0
 21
-358.0
 31
0.0
  0
LINE
  5
195
330
18
100
AcDbEntity
  8
PV0001_1
  6
Continuous
 48
0.5
370
    50
100
AcDbLine
 10
301.0
 20
-379.0
 30
0.0
 11
300.0
 21
-379.0
 31
0.0
  0
LINE
  5
196
330
18
100
AcDbEntity
  8
PV0001_1
  6
Continuous
 48
0.5
370
    50
100
AcDbLine
 10
300.0
 20
-379.5
 30
0.0
 11
291.0
 21
-379.5
 31
0.0
  0
LINE
  5
197
330
18
100
AcDbEntity
  8
PV0001_1
  6
Continuous
 48
0.5
370
    50
100
AcDbLine
 10
300.0
 20
-357.5
 30
0.0
 11
291.0
 21
-357.5
 31
0.0
  0
LINE
  5
198
330
18
100
AcDbEntity
  8
PV0001_1
  6
Continuous
 48
0.5
370
    50
100
AcDbLine
 10
301.0
 20
-358.0
 30
0.0
 11
301.0
 21
-379.0
 31
0.0
  0
LINE
  5
199
330
18
100
AcDbEntity
  8
PV0001_1
  6
Continuous
 48
0.5
370
    50
100
AcDbLine
 10
291.0
 20
-357.5
 30
0.0
 11
291.0
 21
-379.5
 31
0.0
  0
LINE
  5
19A
330
18
100
AcDbEntity
  8
PV0001_1
  6
Continuous
 48
0.5
370
    50
100
AcDbLine
 10
322.0
 20
-394.5
 30
0.0
 11
337.0
 21
-394.5
 31
0.0
  0
LINE
  5
19B
330
18
100
AcDbEntity
  8
PV0001_1
  6
Continuous
 48
0.5
370
    50
100
AcDbLine
 10
322.0
 20
-342.5
 30
0.0
 11
337.0
 21
-342.5
 31
0.0
  0
LINE
  5
19C
330
18
100
AcDbEntity
  8
PV0001_1
  6
Continuous
 48
0.5
370
    50
100
AcDbLine
 10
305.0
 20
-388.5
 30
0.0
 11
322.0
 21
-388.5
 31
0.0
  0
LINE
  5
19D
330
18
100
AcDbEntity
  8
PV0001_1
  6
Continuous
 48
0.5
370
    50
100
AcDbLine
 10
305.0
 20
-348.5
 30
0.0
 11
322.0
 21
-348.5
 31
0.0
  0
LINE
  5
19E
330
18
100
AcDbEntity
  8
PV0001_1
  6
Continuous
370
    50
100
AcDbLine
 10
322.0
 20
-394.5
 30
0.0
 11
322.0
 21
-342.5
 31
0.0
  0
LINE
  5
19F
330
18
100
AcDbEntity
  8
PV0001_1
  6
CENTER2
 48
0.5
370
    25
100
AcDbLine
 10
319.26416015625
 20
-350.82232666015
 30
0.0
 11
339.31884765625
 21
-350.82232666015
 31
0.0
  0
LINE
  5
1A0
330
18
100
AcDbEntity
  8
PV0001_1
  6
Continuous
370
    50
100
AcDbLine
 10
305.0
 20
-388.5
 30
0.0
 11
305.0
 21
-348.5
 31
0.0
  0
LINE
  5
1A1
330
18
100
AcDbEntity
  8
PV0001_1
  6
Continuous
370
    50
100
AcDbLine
 10
331.0
 20
-394.5
 30
0.0
 11
331.0
 21
-342.5
 31
0.0
  0
LINE
  5
1A2
330
18
100
AcDbEntity
  8
PV0001_1
  6
DASHED2
 48
0.5
370
    50
100
AcDbLine
 10
331.0
 20
-355.57232666015
 30
0.0
 11
337.0
 21
-355.57232666015
 31
0.0
  0
LINE
  5
1A3
330
18
100
AcDbEntity
  8
PV0001_1
  6
Continuous
 48
0.5
370
    50
100
AcDbLine
 10
867.0
 20
-357.0000000000001
 30
0.0
 11
867.0
 21
-380.0000000000001
 31
0.0
  0
LINE
  5
1A4
330
18
100
AcDbEntity
  8
PV0001_1
  6
Continuous
 48
0.5
370
    50
100
AcDbLine
 10
867.0
 20
-357.0000000000001
 30
0.0
 11
866.0
 21
-357.0000000000001
 31
0.0
  0
LINE
  5
1A5
330
18
100
AcDbEntity
  8
PV0001_1
  6
Continuous
 48
0.5
370
    50
100
AcDbLine
 10
867.0
 20
-380.0000000000001
 30
0.0
 11
866.0
 21
-380.0000000000001
 31
0.0
  0
LINE
  5
1A6
330
18
100
AcDbEntity
  8
PV0001_1
  6
Continuous
 48
0.5
370
    50
100
AcDbLine
 10
867.0
 20
-361.3500061035101
 30
0.0
 11
866.0
 21
-361.3500061035101
 31
0.0
  0
LINE
  5
1A7
330
18
100
AcDbEntity
  8
PV0001_1
  6
Continuous
 48
0.5
370
    50
100
AcDbLine
 10
867.0
 20
-375.6499938964801
 30
0.0
 11
866.0
 21
-375.6499938964801
 31
0.0
  0
LINE
  5
1A8
330
18
100
AcDbEntity
  8
PV0001_1
  6
Continuous
 48
0.5
370
    50
100
AcDbLine
 10
866.0
 20
-352.5000000000001
 30
0.0
 11
857.0
 21
-352.5000000000001
 31
0.0
  0
LINE
  5
1A9
330
18
100
AcDbEntity
  8
PV0001_1
  6
Continuous
 48
0.5
370
    50
100
AcDbLine
 10
866.0
 20
-384.5
 30
0.0
 11
857.0
 21
-384.5
 31
0.0
  0
LINE
  5
1AA
330
18
100
AcDbEntity
  8
PV0001_1
  6
Continuous
370
    50
100
AcDbLine
 10
866.0
 20
-352.5000000000001
 30
0.0
 11
866.0
 21
-384.5
 31
0.0
  0
LINE
  5
1AB
330
18
100
AcDbEntity
  8
PV0001_1
  6
Continuous
370
    50
100
AcDbLine
 10
857.0
 20
-352.5000000000001
 30
0.0
 11
857.0
 21
-384.5
 31
0.0
  0
LINE
  5
1AC
330
18
100
AcDbEntity
  8
PV0001_1
  6
Continuous
370
    50
100
AcDbLine
 10
303.0
 20
-262.5
 30
0.0
 11
303.0
 21
-314.5
 31
0.0
  0
LINE
  5
1AD
330
18
100
AcDbEntity
  8
PV0001_1
  6
DASHED2
 48
0.5
370
    50
100
AcDbLine
 10
318.0
 20
-308.92767333984
 30
0.0
 11
309.0
 21
-308.92767333984
 31
0.0
  0
LINE
  5
1AE
330
18
100
AcDbEntity
  8
PV0001_1
  6
DASHED2
 48
0.5
370
    50
100
AcDbLine
 10
318.0
 20
-303.42767333984
 30
0.0
 11
309.0
 21
-303.42767333984
 31
0.0
  0
LINE
  5
1AF
330
18
100
AcDbEntity
  8
PV0001_1
  6
DASHED2
 48
0.5
370
    50
100
AcDbLine
 10
309.0
 20
-310.92767333984
 30
0.0
 11
303.0
 21
-310.92767333984
 31
0.0
  0
LINE
  5
1B0
330
18
100
AcDbEntity
  8
PV0001_1
  6
Continuous
 48
0.5
370
    50
100
AcDbLine
 10
303.0
 20
-278.5
 30
0.0
 11
301.0
 21
-278.5
 31
0.0
  0
LINE
  5
1B1
330
18
100
AcDbEntity
  8
PV0001_1
  6
Continuous
 48
0.5
370
    50
100
AcDbLine
 10
303.0
 20
-298.5
 30
0.0
 11
301.0
 21
-298.5
 31
0.0
  0
LINE
  5
1B2
330
18
100
AcDbEntity
  8
PV0001_1
  6
Continuous
 48
0.5
370
    50
100
AcDbLine
 10
300.0
 20
-277.5
 30
0.0
 11
300.0
 21
-299.5
 31
0.0
  0
LINE
  5
1B3
330
18
100
AcDbEntity
  8
PV0001_1
  6
Continuous
 48
0.5
370
    50
100
AcDbLine
 10
301.0
 20
-278.0
 30
0.0
 11
300.0
 21
-278.0
 31
0.0
  0
LINE
  5
1B4
330
18
100
AcDbEntity
  8
PV0001_1
  6
Continuous
 48
0.5
370
    50
100
AcDbLine
 10
301.0
 20
-299.0
 30
0.0
 11
300.0
 21
-299.0
 31
0.0
  0
LINE
  5
1B5
330
18
100
AcDbEntity
  8
PV0001_1
  6
Continuous
 48
0.5
370
    50
100
AcDbLine
 10
300.0
 20
-299.5
 30
0.0
 11
291.0
 21
-299.5
 31
0.0
  0
LINE
  5
1B6
330
18
100
AcDbEntity
  8
PV0001_1
  6
Continuous
 48
0.5
370
    50
100
AcDbLine
 10
300.0
 20
-277.5
 30
0.0
 11
291.0
 21
-277.5
 31
0.0
  0
LINE
  5
1B7
330
18
100
AcDbEntity
  8
PV0001_1
  6
Continuous
 48
0.5
370
    50
100
AcDbLine
 10
301.0
 20
-278.0
 30
0.0
 11
301.0
 21
-299.0
 31
0.0
  0
LINE
  5
1B8
330
18
100
AcDbEntity
  8
PV0001_1
  6
Continuous
 48
0.5
370
    50
100
AcDbLine
 10
291.0
 20
-277.5
 30
0.0
 11
291.0
 21
-299.5
 31
0.0
  0
LINE
  5
1B9
330
18
100
AcDbEntity
  8
PV0001_1
  6
Continuous
 48
0.5
370
    50
100
AcDbLine
 10
318.0
 20
-262.5
 30
0.0
 11
303.0
 21
-262.5
 31
0.0
  0
LINE
  5
1BA
330
18
100
AcDbEntity
  8
PV0001_1
  6
Continuous
 48
0.5
370
    50
100
AcDbLine
 10
318.0
 20
-314.5
 30
0.0
 11
303.0
 21
-314.5
 31
0.0
  0
LINE
  5
1BB
330
18
100
AcDbEntity
  8
PV0001_1
  6
Continuous
 48
0.5
370
    50
100
AcDbLine
 10
335.0
 20
-268.5
 30
0.0
 11
318.0
 21
-268.5
 31
0.0
  0
LINE
  5
1BC
330
18
100
AcDbEntity
  8
PV0001_1
  6
Continuous
 48
0.5
370
    50
100
AcDbLine
 10
335.0
 20
-308.5
 30
0.0
 11
318.0
 21
-308.5
 31
0.0
  0
LINE
  5
1BD
330
18
100
AcDbEntity
  8
PV0001_1
  6
Continuous
370
    50
100
AcDbLine
 10
318.0
 20
-262.5
 30
0.0
 11
318.0
 21
-314.5
 31
0.0
  0
LINE
  5
1BE
330
18
100
AcDbEntity
  8
PV0001_1
  6
CENTER2
 48
0.5
370
    25
100
AcDbLine
 10
320.73583984375
 20
-306.17767333984
 30
0.0
 11
300.68115234375
 21
-306.17767333984
 31
0.0
  0
LINE
  5
1BF
330
18
100
AcDbEntity
  8
PV0001_1
  6
Continuous
370
    50
100
AcDbLine
 10
335.0
 20
-268.5
 30
0.0
 11
335.0
 21
-308.5
 31
0.0
  0
LINE
  5
1C0
330
18
100
AcDbEntity
  8
PV0001_1
  6
Continuous
370
    50
100
AcDbLine
 10
309.0
 20
-262.5
 30
0.0
 11
309.0
 21
-314.5
 31
0.0
  0
LINE
  5
1C1
330
18
100
AcDbEntity
  8
PV0001_1
  6
DASHED2
 48
0.5
370
    50
100
AcDbLine
 10
309.0
 20
-301.42767333984
 30
0.0
 11
303.0
 21
-301.42767333984
 31
0.0
  0
LINE
  5
1C2
330
18
100
AcDbEntity
  8
PV0001_1
  6
Continuous
 48
0.5
370
    50
100
AcDbLine
 10
269.0
 20
-32.5
 30
0.0
 11
269.0
 21
-44.5
 31
0.0
  0
LINE
  5
1C3
330
18
100
AcDbEntity
  8
PV0001_1
  6
CENTER2
 48
0.5
370
    25
100
AcDbLine
 10
861.5
 20
-208.0
 30
0.0
 11
861.5
 21
-229.0
 31
0.0
  0
LINE
  5
1C4
330
18
100
AcDbEntity
  8
PV0001_1
  6
CENTER2
 48
0.5
370
    25
100
AcDbLine
 10
872.0
 20
-218.5
 30
0.0
 11
851.0
 21
-218.5
 31
0.0
  0
LINE
  5
1C5
330
18
100
AcDbEntity
  8
PV0001_1
  6
CENTER2
 48
0.5
370
    25
100
AcDbLine
 10
861.5
 20
-148.0
 30
0.0
 11
861.5
 21
-168.99998474121
 31
0.0
  0
LINE
  5
1C6
330
18
100
AcDbEntity
  8
PV0001_1
  6
CENTER2
 48
0.5
370
    25
100
AcDbLine
 10
872.0
 20
-158.5
 30
0.0
 11
851.0
 21
-158.5
 31
0.0
  0
LINE
  5
1C7
330
18
100
AcDbEntity
  8
PV0001_1
  6
Continuous
 48
0.5
370
    50
100
AcDbLine
 10
851.5
 20
-209.0
 30
0.0
 11
871.4999999999999
 21
-209.0
 31
0.0
  0
LINE
  5
1C8
330
18
100
AcDbEntity
  8
PV0001_1
  6
Continuous
 48
0.5
370
    50
100
AcDbLine
 10
851.5
 20
-168.0
 30
0.0
 11
871.4999999999999
 21
-168.0
 31
0.0
  0
LINE
  5
1C9
330
18
100
AcDbEntity
  8
PV0001_1
  6
Continuous
 48
0.5
370
    50
100
AcDbLine
 10
851.5
 20
-228.5
 30
0.0
 11
871.4999999999999
 21
-228.5
 31
0.0
  0
LINE
  5
1CA
330
18
100
AcDbEntity
  8
PV0001_1
  6
Continuous
 48
0.5
370
    50
100
AcDbLine
 10
851.5
 20
-148.5
 30
0.0
 11
871.4999999999999
 21
-148.5
 31
0.0
  0
LINE
  5
1CB
330
18
100
AcDbEntity
  8
PV0001_1
  6
Continuous
370
    50
100
AcDbLine
 10
871.4999999999999
 20
-148.5
 30
0.0
 11
871.4999999999999
 21
-228.5
 31
0.0
  0
LINE
  5
1CC
330
18
100
AcDbEntity
  8
PV0001_1
  6
Continuous
370
    50
100
AcDbLine
 10
851.5
 20
-148.5
 30
0.0
 11
851.5
 21
-228.5
 31
0.0
  0
LINE
  5
1CD
330
18
100
AcDbEntity
  8
PV0001_1
  6
DASHED2
 48
0.5
370
    50
100
AcDbLine
 10
867.0
 20
-200.00001525878
 30
0.0
 11
867.0
 21
-176.99996948242
 31
0.0
  0
LINE
  5
1CE
330
18
100
AcDbEntity
  8
PV0001_1
  6
DASHED2
370
    50
100
AcDbLine
 10
857.0
 20
-204.49998474121
 30
0.0
 11
857.0
 21
-172.50001525878
 31
0.0
  0
LINE
  5
1CF
330
18
100
AcDbEntity
  8
PV0001_1
  6
DASHED2
370
    50
100
AcDbLine
 10
866.0
 20
-204.49998474121
 30
0.0
 11
866.0
 21
-172.50001525878
 31
0.0
  0
LINE
  5
1D0
330
18
100
AcDbEntity
  8
PV0001_1
  6
DASHED2
 48
0.5
370
    50
100
AcDbLine
 10
867.0
 20
-200.00001525878
 30
0.0
 11
866.0
 21
-200.00001525878
 31
0.0
  0
LINE
  5
1D1
330
18
100
AcDbEntity
  8
PV0001_1
  6
DASHED2
 48
0.5
370
    50
100
AcDbLine
 10
867.0
 20
-176.99998474121
 30
0.0
 11
866.0
 21
-176.99998474121
 31
0.0
  0
LINE
  5
1D2
330
18
100
AcDbEntity
  8
PV0001_1
  6
DASHED2
 48
0.5
370
    50
100
AcDbLine
 10
867.0
 20
-195.64999389648
 30
0.0
 11
866.0
 21
-195.64999389648
 31
0.0
  0
LINE
  5
1D3
330
18
100
AcDbEntity
  8
PV0001_1
  6
DASHED2
 48
0.5
370
    50
100
AcDbLine
 10
867.0
 20
-181.35000610351
 30
0.0
 11
866.0
 21
-181.35000610351
 31
0.0
  0
LINE
  5
1D4
330
18
100
AcDbEntity
  8
PV0001_1
  6
DASHED2
 48
0.5
370
    50
100
AcDbLine
 10
866.0
 20
-204.49998474121
 30
0.0
 11
857.0
 21
-204.49998474121
 31
0.0
  0
LINE
  5
1D5
330
18
100
AcDbEntity
  8
PV0001_1
  6
DASHED2
 48
0.5
370
    50
100
AcDbLine
 10
866.0
 20
-172.50001525878
 30
0.0
 11
857.0
 21
-172.50001525878
 31
0.0
  0
LINE
  5
1D6
330
18
100
AcDbEntity
  8
PV0001_1
  6
DASHED2
 48
0.5
370
    50
100
AcDbLine
 10
857.0
 20
-181.0
 30
0.0
 11
866.0
 21
-181.0
 31
0.0
  0
LINE
  5
1D7
330
18
100
AcDbEntity
  8
PV0001_1
  6
Continuous
370
    50
100
AcDbLine
 10
309.0
 20
-228.5
 30
0.0
 11
309.0
 21
-148.5
 31
0.0
  0
LINE
  5
1D8
330
18
100
AcDbEntity
  8
PV0001_1
  6
Continuous
 48
0.5
370
    50
100
AcDbLine
 10
334.0
 20
-148.5
 30
0.0
 11
309.0
 21
-148.5
 31
0.0
  0
LINE
  5
1D9
330
18
100
AcDbEntity
  8
PV0001_1
  6
Continuous
 48
0.5
370
    50
100
AcDbLine
 10
334.0
 20
-168.0
 30
0.0
 11
309.0
 21
-168.0
 31
0.0
  0
LINE
  5
1DA
330
18
100
AcDbEntity
  8
PV0001_1
  6
Continuous
 48
0.5
370
    50
100
AcDbLine
 10
303.0
 20
-198.5
 30
0.0
 11
301.0
 21
-198.5
 31
0.0
  0
LINE
  5
1DB
330
18
100
AcDbEntity
  8
PV0001_1
  6
Continuous
 48
0.5
370
    50
100
AcDbLine
 10
303.0
 20
-178.5
 30
0.0
 11
301.0
 21
-178.5
 31
0.0
  0
LINE
  5
1DC
330
18
100
AcDbEntity
  8
PV0001_1
  6
Continuous
 48
0.5
370
    50
100
AcDbLine
 10
301.0
 20
-178.0
 30
0.0
 11
300.00003051757
 21
-178.0
 31
0.0
  0
LINE
  5
1DD
330
18
100
AcDbEntity
  8
PV0001_1
  6
Continuous
 48
0.5
370
    50
100
AcDbLine
 10
301.0
 20
-199.0
 30
0.0
 11
300.00003051757
 21
-199.0
 31
0.0
  0
LINE
  5
1DE
330
18
100
AcDbEntity
  8
PV0001_1
  6
Continuous
 48
0.5
370
    50
100
AcDbLine
 10
300.00003051757
 20
-199.49996948242
 30
0.0
 11
300.00003051757
 21
-177.5
 31
0.0
  0
LINE
  5
1DF
330
18
100
AcDbEntity
  8
PV0001_1
  6
Continuous
 48
0.5
370
    50
100
AcDbLine
 10
301.0
 20
-198.99998474121
 30
0.0
 11
301.0
 21
-178.0
 31
0.0
  0
LINE
  5
1E0
330
18
100
AcDbEntity
  8
PV0001_1
  6
Continuous
 48
0.5
370
    50
100
AcDbLine
 10
300.00003051757
 20
-177.50001525878
 30
0.0
 11
291.0
 21
-177.50001525878
 31
0.0
  0
LINE
  5
1E1
330
18
100
AcDbEntity
  8
PV0001_1
  6
Continuous
 48
0.5
370
    50
100
AcDbLine
 10
300.00003051757
 20
-199.49998474121
 30
0.0
 11
291.0
 21
-199.49998474121
 31
0.0
  0
LINE
  5
1E2
330
18
100
AcDbEntity
  8
PV0001_1
  6
Continuous
 48
0.5
370
    50
100
AcDbLine
 10
291.0
 20
-199.49996948242
 30
0.0
 11
291.0
 21
-177.5
 31
0.0
  0
LINE
  5
1E3
330
18
100
AcDbEntity
  8
PV0001_1
  6
Continuous
 48
0.5
370
    50
100
AcDbLine
 10
309.0
 20
-170.00001525878
 30
0.0
 11
303.0
 21
-170.00001525878
 31
0.0
  0
LINE
  5
1E4
330
18
100
AcDbEntity
  8
PV0001_1
  6
Continuous
 48
0.5
370
    50
100
AcDbLine
 10
309.0
 20
-207.0
 30
0.0
 11
303.0
 21
-207.0
 31
0.0
  0
LINE
  5
1E5
330
18
100
AcDbEntity
  8
PV0001_1
  6
Continuous
370
    50
100
AcDbLine
 10
303.0
 20
-206.99996948242
 30
0.0
 11
303.0
 21
-170.0
 31
0.0
  0
LINE
  5
1E6
330
18
100
AcDbEntity
  8
PV0001_1
  6
CENTER2
 48
0.5
370
    25
100
AcDbLine
 10
321.5
 20
-169.49996948242
 30
0.0
 11
321.5
 21
-147.5
 31
0.0
  0
LINE
  5
1E7
330
18
100
AcDbEntity
  8
PV0001_1
  6
CENTER2
 48
0.5
370
    25
100
AcDbLine
 10
310.5
 20
-158.5
 30
0.0
 11
332.5
 21
-158.5
 31
0.0
  0
LINE
  5
1E8
330
18
100
AcDbEntity
  8
PV0001_1
  6
CENTER2
 48
0.5
370
    25
100
AcDbLine
 10
321.5
 20
-229.49996948242
 30
0.0
 11
321.5
 21
-207.5
 31
0.0
  0
LINE
  5
1E9
330
18
100
AcDbEntity
  8
PV0001_1
  6
Continuous
 48
0.5
370
    50
100
AcDbLine
 10
334.0
 20
-209.0
 30
0.0
 11
309.0
 21
-209.0
 31
0.0
  0
LINE
  5
1EA
330
18
100
AcDbEntity
  8
PV0001_1
  6
Continuous
 48
0.5
370
    50
100
AcDbLine
 10
334.0
 20
-228.5
 30
0.0
 11
309.0
 21
-228.5
 31
0.0
  0
LINE
  5
1EB
330
18
100
AcDbEntity
  8
PV0001_1
  6
Continuous
370
    50
100
AcDbLine
 10
334.0
 20
-228.5
 30
0.0
 11
334.0
 21
-148.5
 31
0.0
  0
LINE
  5
1EC
330
18
100
AcDbEntity
  8
PV0001_1
  6
CENTER2
 48
0.5
370
    25
100
AcDbLine
 10
310.5
 20
-218.5
 30
0.0
 11
332.5
 21
-218.5
 31
0.0
  0
LINE
  5
1ED
330
18
100
AcDbEntity
  8
PV0001_1
  6
CENTER2
370
    25
100
AcDbLine
 10
745.7626953125
 20
-38.5
 30
0.0
 11
874.5454101562499
 21
-38.5
 31
0.0
  0
LINE
  5
1EE
330
18
100
AcDbEntity
  8
PV0001_1
  6
CENTER2
370
    25
100
AcDbLine
 10
261.32815551757
 20
-38.5
 30
0.0
 11
387.85501098632
 21
-38.5
 31
0.0
  0
LINE
  5
1EF
330
18
100
AcDbEntity
  8
PV0001_1
  6
Continuous
 48
0.5
370
    50
100
AcDbLine
 10
869.0
 20
-31.0
 30
0.0
 11
869.0
 21
-46.0
 31
0.0
  0
LINE
  5
1F0
330
18
100
AcDbEntity
  8
PV0001_1
  6
DASHED2
 48
0.5
370
    50
100
AcDbLine
 10
329.0
 20
-48.5
 30
0.0
 11
344.0
 21
-48.5
 31
0.0
  0
LINE
  5
1F1
330
18
100
AcDbEntity
  8
PV0001_1
  6
DASHED2
 48
0.5
370
    50
100
AcDbLine
 10
329.0
 20
-28.5
 30
0.0
 11
344.0
 21
-28.5
 31
0.0
  0
LINE
  5
1F2
330
18
100
AcDbEntity
  8
PV0001_1
  6
Continuous
 48
0.5
370
    25
100
AcDbLine
 10
344.0
 20
-29.75
 30
0.0
 11
369.0
 21
-29.75
 31
0.0
  0
LINE
  5
1F3
330
18
100
AcDbEntity
  8
PV0001_1
  6
Continuous
 48
0.5
370
    25
100
AcDbLine
 10
344.0
 20
-47.25
 30
0.0
 11
369.0
 21
-47.25
 31
0.0
  0
LINE
  5
1F4
330
18
100
AcDbEntity
  8
PV0001_1
  6
Continuous
370
    50
100
AcDbLine
 10
769.0
 20
-28.5
 30
0.0
 11
857.0
 21
-28.5
 31
0.0
  0
LINE
  5
1F5
330
18
100
AcDbEntity
  8
PV0001_1
  6
Continuous
370
    25
100
AcDbLine
 10
769.0
 20
-29.75
 30
0.0
 11
857.0
 21
-29.75
 31
0.0
  0
LINE
  5
1F6
330
18
100
AcDbEntity
  8
PV0001_1
  6
Continuous
370
    25
100
AcDbLine
 10
769.0
 20
-47.25
 30
0.0
 11
857.0
 21
-47.25
 31
0.0
  0
LINE
  5
1F7
330
18
100
AcDbEntity
  8
PV0001_1
  6
Continuous
370
    50
100
AcDbLine
 10
769.0
 20
-48.5
 30
0.0
 11
857.0
 21
-48.5
 31
0.0
  0
LINE
  5
1F8
330
18
100
AcDbEntity
  8
PV0001_1
  6
DASHED2
 48
0.5
370
    50
100
AcDbLine
 10
329.0
 20
-28.5
 30
0.0
 11
329.0
 21
-48.5
 31
0.0
  0
LINE
  5
1F9
330
18
100
AcDbEntity
  8
PV0001_1
  6
Continuous
 48
0.5
370
    50
100
AcDbLine
 10
344.0
 20
-28.5
 30
0.0
 11
344.0
 21
-48.5
 31
0.0
  0
LINE
  5
1FA
330
18
100
AcDbEntity
  8
PV0001_1
  6
Continuous
 48
0.5
370
    25
100
AcDbLine
 10
289.0
 20
-45.458499908447
 30
0.0
 11
304.0
 21
-45.458499908447
 31
0.0
  0
LINE
  5
1FB
330
18
100
AcDbEntity
  8
PV0001_1
  6
Continuous
 48
0.5
370
    50
100
AcDbLine
 10
289.0
 20
-31.0
 30
0.0
 11
289.0
 21
-46.0
 31
0.0
  0
LINE
  5
1FC
330
18
100
AcDbEntity
  8
PV0001_1
  6
Continuous
370
    50
100
AcDbLine
 10
289.0
 20
-46.0
 30
0.0
 11
343.70001220703
 21
-46.0
 31
0.0
  0
LINE
  5
1FD
330
18
100
AcDbEntity
  8
PV0001_1
  6
Continuous
 48
0.5
370
    50
100
AcDbLine
 10
344.0
 20
-48.5
 30
0.0
 11
369.0
 21
-48.5
 31
0.0
  0
LINE
  5
1FE
330
18
100
AcDbEntity
  8
PV0001_1
  6
Continuous
 48
0.5
370
    50
100
AcDbLine
 10
344.0
 20
-28.5
 30
0.0
 11
369.0
 21
-28.5
 31
0.0
  0
LINE
  5
1FF
330
18
100
AcDbEntity
  8
PV0001_1
  6
Continuous
 48
0.5
370
    25
100
AcDbLine
 10
289.0
 20
-31.541500091552
 30
0.0
 11
304.0
 21
-31.541500091552
 31
0.0
  0
LINE
  5
200
330
18
100
AcDbEntity
  8
PV0001_1
  6
Continuous
 48
0.5
370
    50
100
AcDbLine
 10
269.0
 20
-32.5
 30
0.0
 11
289.0
 21
-32.5
 31
0.0
  0
LINE
  5
201
330
18
100
AcDbEntity
  8
PV0001_1
  6
Continuous
 48
0.5
370
    50
100
AcDbLine
 10
269.0
 20
-44.5
 30
0.0
 11
289.0
 21
-44.5
 31
0.0
  0
LINE
  5
202
330
18
100
AcDbEntity
  8
PV0001_1
  6
Continuous
370
    50
100
AcDbLine
 10
289.0
 20
-31.0
 30
0.0
 11
343.70001220703
 21
-31.0
 31
0.0
  0
LINE
  5
203
330
18
100
AcDbEntity
  8
PV0001_1
  6
Continuous
 48
0.5
370
    50
100
AcDbLine
 10
304.0
 20
-31.0
 30
0.0
 11
304.0
 21
-46.0
 31
0.0
  0
LINE
  5
204
330
18
100
AcDbEntity
  8
PV0001_1
  6
Continuous
 48
0.5
370
    50
100
AcDbLine
 10
867.1499633789
 20
-31.0
 30
0.0
 11
867.1499633789
 21
-46.0
 31
0.0
  0
LINE
  5
205
330
18
100
AcDbEntity
  8
PV0001_1
  6
Continuous
 48
0.5
370
    25
100
AcDbLine
 10
304.0
 20
-45.458507537841
 30
0.0
 11
304.93792724609
 21
-46.000011444091
 31
0.0
  0
LINE
  5
206
330
18
100
AcDbEntity
  8
PV0001_1
  6
Continuous
 48
0.5
370
    50
100
AcDbLine
 10
857.0
 20
-28.5
 30
0.0
 11
857.0
 21
-48.5
 31
0.0
  0
LINE
  5
207
330
18
100
AcDbEntity
  8
PV0001_1
  6
Continuous
 48
0.5
370
    25
100
AcDbLine
 10
304.0
 20
-31.541490554809
 30
0.0
 11
304.93789672851
 21
-30.999994277954
 31
0.0
  0
LINE
  5
208
330
18
100
AcDbEntity
  8
PV0001_1
  6
Continuous
 48
0.5
370
    50
100
AcDbLine
 10
866.0
 20
-31.0
 30
0.0
 11
866.0
 21
-46.0
 31
0.0
  0
LINE
  5
209
330
18
100
AcDbEntity
  8
PV0001_1
  6
Continuous
 48
0.5
370
    50
100
AcDbLine
 10
866.0
 20
-31.350000381469
 30
0.0
 11
867.1499633789
 21
-31.350000381469
 31
0.0
  0
LINE
  5
20A
330
18
100
AcDbEntity
  8
PV0001_1
  6
Continuous
 48
0.5
370
    50
100
AcDbLine
 10
857.29998779296
 20
-31.0
 30
0.0
 11
866.0
 21
-31.0
 31
0.0
  0
LINE
  5
20B
330
18
100
AcDbEntity
  8
PV0001_1
  6
Continuous
 48
0.5
370
    50
100
AcDbLine
 10
867.1499633789
 20
-46.0
 30
0.0
 11
869.0
 21
-46.0
 31
0.0
  0
LINE
  5
20C
330
18
100
AcDbEntity
  8
PV0001_1
  6
Continuous
 48
0.5
370
    50
100
AcDbLine
 10
867.1499633789
 20
-31.0
 30
0.0
 11
869.0
 21
-31.0
 31
0.0
  0
LINE
  5
20D
330
18
100
AcDbEntity
  8
PV0001_1
  6
Continuous
 48
0.5
370
    50
100
AcDbLine
 10
866.0
 20
-45.65000152587799
 30
0.0
 11
867.1499633789
 21
-45.65000152587799
 31
0.0
  0
LINE
  5
20E
330
18
100
AcDbEntity
  8
PV0001_1
  6
Continuous
 48
0.5
370
    50
100
AcDbLine
 10
857.29998779296
 20
-46.0
 30
0.0
 11
866.0
 21
-46.0
 31
0.0
  0
LINE
  5
20F
330
18
100
AcDbEntity
  8
PV0001_1
  6
CENTER2
370
    25
100
AcDbLine
 10
261.32815551757
 20
-368.5
 30
0.0
 11
387.85501098632
 21
-368.5
 31
0.0
  0
LINE
  5
210
330
18
100
AcDbEntity
  8
PV0001_1
  6
CENTER2
370
    25
100
AcDbLine
 10
261.32815551757
 20
-288.5
 30
0.0
 11
387.85501098632
 21
-288.5
 31
0.0
  0
LINE
  5
211
330
18
100
AcDbEntity
  8
PV0001_1
  6
PHANTOM2
 48
0.5
370
    25
100
AcDbLine
 10
857.29998779296
 20
-376.0000000000001
 30
0.0
 11
866.0
 21
-376.0000000000001
 31
0.0
  0
LINE
  5
212
330
18
100
AcDbEntity
  8
PV0001_1
  6
PHANTOM2
 48
0.5
370
    25
100
AcDbLine
 10
866.0
 20
-375.6499938964801
 30
0.0
 11
867.1500244140601
 21
-375.6499938964801
 31
0.0
  0
LINE
  5
213
330
18
100
AcDbEntity
  8
PV0001_1
  6
PHANTOM2
 48
0.5
370
    25
100
AcDbLine
 10
867.1500244140601
 20
-361.0000000000001
 30
0.0
 11
869.0
 21
-361.0000000000001
 31
0.0
  0
LINE
  5
214
330
18
100
AcDbEntity
  8
PV0001_1
  6
PHANTOM2
 48
0.5
370
    25
100
AcDbLine
 10
867.1500244140601
 20
-376.0000000000001
 30
0.0
 11
869.0
 21
-376.0000000000001
 31
0.0
  0
LINE
  5
215
330
18
100
AcDbEntity
  8
PV0001_1
  6
PHANTOM2
 48
0.5
370
    25
100
AcDbLine
 10
857.29998779296
 20
-361.0000000000001
 30
0.0
 11
866.0
 21
-361.0000000000001
 31
0.0
  0
LINE
  5
216
330
18
100
AcDbEntity
  8
PV0001_1
  6
PHANTOM2
 48
0.5
370
    25
100
AcDbLine
 10
866.0
 20
-361.3500061035101
 30
0.0
 11
867.1500244140601
 21
-361.3500061035101
 31
0.0
  0
LINE
  5
217
330
18
100
AcDbEntity
  8
PV0001_1
  6
PHANTOM2
 48
0.5
370
    25
100
AcDbLine
 10
866.0
 20
-361.0000000000001
 30
0.0
 11
866.0
 21
-376.0000000000001
 31
0.0
  0
LINE
  5
218
330
18
100
AcDbEntity
  8
PV0001_1
  6
PHANTOM2
 48
0.5
370
    25
100
AcDbLine
 10
857.0
 20
-358.5000000000001
 30
0.0
 11
857.0
 21
-378.5000000000001
 31
0.0
  0
LINE
  5
219
330
18
100
AcDbEntity
  8
PV0001_1
  6
PHANTOM2
 48
0.5
370
    25
100
AcDbLine
 10
867.1500244140601
 20
-361.0000000000001
 30
0.0
 11
867.1500244140601
 21
-376.0000000000001
 31
0.0
  0
LINE
  5
21A
330
18
100
AcDbEntity
  8
PV0001_1
  6
PHANTOM2
370
    25
100
AcDbLine
 10
769.0
 20
-378.5000000000001
 30
0.0
 11
857.0
 21
-378.5000000000001
 31
0.0
  0
LINE
  5
21B
330
18
100
AcDbEntity
  8
PV0001_1
  6
PHANTOM2
370
    25
100
AcDbLine
 10
769.0
 20
-377.2500000000001
 30
0.0
 11
857.0
 21
-377.2500000000001
 31
0.0
  0
LINE
  5
21C
330
18
100
AcDbEntity
  8
PV0001_1
  6
PHANTOM2
370
    25
100
AcDbLine
 10
769.0
 20
-359.7500000000001
 30
0.0
 11
857.0
 21
-359.7500000000001
 31
0.0
  0
LINE
  5
21D
330
18
100
AcDbEntity
  8
PV0001_1
  6
PHANTOM2
370
    25
100
AcDbLine
 10
769.0
 20
-358.5000000000001
 30
0.0
 11
857.0
 21
-358.5000000000001
 31
0.0
  0
LINE
  5
21E
330
18
100
AcDbEntity
  8
PV0001_1
  6
PHANTOM2
 48
0.5
370
    25
100
AcDbLine
 10
869.0
 20
-361.0000000000001
 30
0.0
 11
869.0
 21
-376.0000000000001
 31
0.0
  0
LINE
  5
21F
330
18
100
AcDbEntity
  8
PV0001_1
  6
PHANTOM2
 48
0.5
370
    25
100
AcDbLine
 10
304.0
 20
-281.54147338867
 30
0.0
 11
304.93789672851
 21
-281.0
 31
0.0
  0
LINE
  5
220
330
18
100
AcDbEntity
  8
PV0001_1
  6
PHANTOM2
 48
0.5
370
    25
100
AcDbLine
 10
304.0
 20
-295.45849609375
 30
0.0
 11
304.93792724609
 21
-296.0
 31
0.0
  0
LINE
  5
221
330
18
100
AcDbEntity
  8
PV0001_1
  6
PHANTOM2
 48
0.5
370
    25
100
AcDbLine
 10
304.0
 20
-281.0
 30
0.0
 11
304.0
 21
-296.0
 31
0.0
  0
LINE
  5
222
330
18
100
AcDbEntity
  8
PV0001_1
  6
PHANTOM2
370
    25
100
AcDbLine
 10
289.0
 20
-281.0
 30
0.0
 11
343.70001220703
 21
-281.0
 31
0.0
  0
LINE
  5
223
330
18
100
AcDbEntity
  8
PV0001_1
  6
PHANTOM2
 48
0.5
370
    25
100
AcDbLine
 10
269.0
 20
-294.5
 30
0.0
 11
289.0
 21
-294.5
 31
0.0
  0
LINE
  5
224
330
18
100
AcDbEntity
  8
PV0001_1
  6
CENTER2
370
    25
100
AcDbLine
 10
261.32815551757
 20
-188.5
 30
0.0
 11
387.85501098632
 21
-188.5
 31
0.0
  0
LINE
  5
225
330
18
100
AcDbEntity
  8
PV0001_1
  6
PHANTOM2
 48
0.5
370
    25
100
AcDbLine
 10
269.0
 20
-182.5
 30
0.0
 11
269.0
 21
-194.5
 31
0.0
  0
LINE
  5
226
330
18
100
AcDbEntity
  8
PV0001_1
  6
PHANTOM2
 48
0.5
370
    25
100
AcDbLine
 10
329.0
 20
-198.5
 30
0.0
 11
344.0
 21
-198.5
 31
0.0
  0
LINE
  5
227
330
18
100
AcDbEntity
  8
PV0001_1
  6
PHANTOM2
 48
0.5
370
    25
100
AcDbLine
 10
329.0
 20
-178.5
 30
0.0
 11
344.0
 21
-178.5
 31
0.0
  0
LINE
  5
228
330
18
100
AcDbEntity
  8
PV0001_1
  6
PHANTOM2
 48
0.5
370
    25
100
AcDbLine
 10
344.0
 20
-179.75
 30
0.0
 11
369.0
 21
-179.75
 31
0.0
  0
LINE
  5
229
330
18
100
AcDbEntity
  8
PV0001_1
  6
PHANTOM2
 48
0.5
370
    25
100
AcDbLine
 10
344.0
 20
-197.25
 30
0.0
 11
369.0
 21
-197.25
 31
0.0
  0
LINE
  5
22A
330
18
100
AcDbEntity
  8
PV0001_1
  6
PHANTOM2
 48
0.5
370
    25
100
AcDbLine
 10
329.0
 20
-178.5
 30
0.0
 11
329.0
 21
-198.5
 31
0.0
  0
LINE
  5
22B
330
18
100
AcDbEntity
  8
PV0001_1
  6
PHANTOM2
 48
0.5
370
    25
100
AcDbLine
 10
344.0
 20
-178.5
 30
0.0
 11
344.0
 21
-198.5
 31
0.0
  0
LINE
  5
22C
330
18
100
AcDbEntity
  8
PV0001_1
  6
PHANTOM2
 48
0.5
370
    25
100
AcDbLine
 10
289.0
 20
-195.45849609375
 30
0.0
 11
304.0
 21
-195.45849609375
 31
0.0
  0
LINE
  5
22D
330
18
100
AcDbEntity
  8
PV0001_1
  6
PHANTOM2
 48
0.5
370
    25
100
AcDbLine
 10
289.0
 20
-181.0
 30
0.0
 11
289.0
 21
-196.0
 31
0.0
  0
LINE
  5
22E
330
18
100
AcDbEntity
  8
PV0001_1
  6
PHANTOM2
370
    25
100
AcDbLine
 10
289.0
 20
-196.0
 30
0.0
 11
343.70001220703
 21
-196.0
 31
0.0
  0
LINE
  5
22F
330
18
100
AcDbEntity
  8
PV0001_1
  6
PHANTOM2
 48
0.5
370
    25
100
AcDbLine
 10
344.0
 20
-198.5
 30
0.0
 11
369.0
 21
-198.5
 31
0.0
  0
LINE
  5
230
330
18
100
AcDbEntity
  8
PV0001_1
  6
PHANTOM2
 48
0.5
370
    25
100
AcDbLine
 10
344.0
 20
-178.5
 30
0.0
 11
369.0
 21
-178.5
 31
0.0
  0
LINE
  5
231
330
18
100
AcDbEntity
  8
PV0001_1
  6
PHANTOM2
 48
0.5
370
    25
100
AcDbLine
 10
289.0
 20
-181.54150390625
 30
0.0
 11
304.0
 21
-181.54150390625
 31
0.0
  0
LINE
  5
232
330
18
100
AcDbEntity
  8
PV0001_1
  6
PHANTOM2
 48
0.5
370
    25
100
AcDbLine
 10
269.0
 20
-182.5
 30
0.0
 11
289.0
 21
-182.5
 31
0.0
  0
LINE
  5
233
330
18
100
AcDbEntity
  8
PV0001_1
  6
PHANTOM2
 48
0.5
370
    25
100
AcDbLine
 10
269.0
 20
-194.5
 30
0.0
 11
289.0
 21
-194.5
 31
0.0
  0
LINE
  5
234
330
18
100
AcDbEntity
  8
PV0001_1
  6
PHANTOM2
370
    25
100
AcDbLine
 10
289.0
 20
-181.0
 30
0.0
 11
343.70001220703
 21
-181.0
 31
0.0
  0
LINE
  5
235
330
18
100
AcDbEntity
  8
PV0001_1
  6
PHANTOM2
 48
0.5
370
    25
100
AcDbLine
 10
304.0
 20
-181.0
 30
0.0
 11
304.0
 21
-196.0
 31
0.0
  0
LINE
  5
236
330
18
100
AcDbEntity
  8
PV0001_1
  6
PHANTOM2
 48
0.5
370
    25
100
AcDbLine
 10
304.0
 20
-195.45851135253
 30
0.0
 11
304.93792724609
 21
-196.00001525878
 31
0.0
  0
LINE
  5
237
330
18
100
AcDbEntity
  8
PV0001_1
  6
PHANTOM2
 48
0.5
370
    25
100
AcDbLine
 10
304.0
 20
-181.54148864746
 30
0.0
 11
304.93789672851
 21
-181.0
 31
0.0
  0
LINE
  5
238
330
18
100
AcDbEntity
  8
PV0001_1
  6
CENTER2
370
    25
100
AcDbLine
 10
745.7626953125
 20
-188.5
 30
0.0
 11
874.5454711914
 21
-188.5
 31
0.0
  0
LINE
  5
239
330
18
100
AcDbEntity
  8
PV0001_1
  6
PHANTOM2
 48
0.5
370
    25
100
AcDbLine
 10
869.0
 20
-181.0
 30
0.0
 11
869.0
 21
-196.0
 31
0.0
  0
LINE
  5
23A
330
18
100
AcDbEntity
  8
PV0001_1
  6
PHANTOM2
370
    25
100
AcDbLine
 10
769.0
 20
-178.5
 30
0.0
 11
857.0
 21
-178.5
 31
0.0
  0
LINE
  5
23B
330
18
100
AcDbEntity
  8
PV0001_1
  6
PHANTOM2
370
    25
100
AcDbLine
 10
769.0
 20
-179.75
 30
0.0
 11
857.0
 21
-179.75
 31
0.0
  0
LINE
  5
23C
330
18
100
AcDbEntity
  8
PV0001_1
  6
PHANTOM2
370
    25
100
AcDbLine
 10
769.0
 20
-197.25
 30
0.0
 11
857.0
 21
-197.25
 31
0.0
  0
LINE
  5
23D
330
18
100
AcDbEntity
  8
PV0001_1
  6
PHANTOM2
370
    25
100
AcDbLine
 10
769.0
 20
-198.5
 30
0.0
 11
857.0
 21
-198.5
 31
0.0
  0
LINE
  5
23E
330
18
100
AcDbEntity
  8
PV0001_1
  6
PHANTOM2
 48
0.5
370
    25
100
AcDbLine
 10
867.1500244140601
 20
-181.0
 30
0.0
 11
867.1500244140601
 21
-196.0
 31
0.0
  0
LINE
  5
23F
330
18
100
AcDbEntity
  8
PV0001_1
  6
PHANTOM2
 48
0.5
370
    25
100
AcDbLine
 10
857.0
 20
-178.5
 30
0.0
 11
857.0
 21
-198.5
 31
0.0
  0
LINE
  5
240
330
18
100
AcDbEntity
  8
PV0001_1
  6
PHANTOM2
 48
0.5
370
    25
100
AcDbLine
 10
866.0
 20
-181.0
 30
0.0
 11
866.0
 21
-196.0
 31
0.0
  0
LINE
  5
241
330
18
100
AcDbEntity
  8
PV0001_1
  6
PHANTOM2
 48
0.5
370
    25
100
AcDbLine
 10
866.0
 20
-181.35000610351
 30
0.0
 11
867.1500244140601
 21
-181.35000610351
 31
0.0
  0
LINE
  5
242
330
18
100
AcDbEntity
  8
PV0001_1
  6
PHANTOM2
 48
0.5
370
    25
100
AcDbLine
 10
857.29998779296
 20
-181.0
 30
0.0
 11
866.0
 21
-181.0
 31
0.0
  0
LINE
  5
243
330
18
100
AcDbEntity
  8
PV0001_1
  6
PHANTOM2
 48
0.5
370
    25
100
AcDbLine
 10
867.1500244140601
 20
-196.0
 30
0.0
 11
869.0
 21
-196.0
 31
0.0
  0
LINE
  5
244
330
18
100
AcDbEntity
  8
PV0001_1
  6
PHANTOM2
 48
0.5
370
    25
100
AcDbLine
 10
867.1500244140601
 20
-181.0
 30
0.0
 11
869.0
 21
-181.0
 31
0.0
  0
LINE
  5
245
330
18
100
AcDbEntity
  8
PV0001_1
  6
PHANTOM2
 48
0.5
370
    25
100
AcDbLine
 10
866.0
 20
-195.64999389648
 30
0.0
 11
867.1500244140601
 21
-195.64999389648
 31
0.0
  0
LINE
  5
246
330
18
100
AcDbEntity
  8
PV0001_1
  6
PHANTOM2
 48
0.5
370
    25
100
AcDbLine
 10
857.29998779296
 20
-196.0
 30
0.0
 11
866.0
 21
-196.0
 31
0.0
  0
LINE
  5
247
330
18
100
AcDbEntity
  8
PV0001_1
  6
CENTER2
370
    25
100
AcDbLine
 10
745.7626953125
 20
-368.5
 30
0.0
 11
874.5454711914
 21
-368.5
 31
0.0
  0
LINE
  5
248
330
18
100
AcDbEntity
  8
PV0001_1
  6
PHANTOM2
 48
0.5
370
    25
100
AcDbLine
 10
269.0
 20
-282.5
 30
0.0
 11
289.0
 21
-282.5
 31
0.0
  0
LINE
  5
249
330
18
100
AcDbEntity
  8
PV0001_1
  6
PHANTOM2
 48
0.5
370
    25
100
AcDbLine
 10
289.0
 20
-281.54150390625
 30
0.0
 11
304.0
 21
-281.54150390625
 31
0.0
  0
LINE
  5
24A
330
18
100
AcDbEntity
  8
PV0001_1
  6
PHANTOM2
 48
0.5
370
    25
100
AcDbLine
 10
344.0
 20
-278.5
 30
0.0
 11
369.0
 21
-278.5
 31
0.0
  0
LINE
  5
24B
330
18
100
AcDbEntity
  8
PV0001_1
  6
PHANTOM2
 48
0.5
370
    25
100
AcDbLine
 10
344.0
 20
-298.5
 30
0.0
 11
369.0
 21
-298.5
 31
0.0
  0
LINE
  5
24C
330
18
100
AcDbEntity
  8
PV0001_1
  6
PHANTOM2
370
    25
100
AcDbLine
 10
289.0
 20
-296.0
 30
0.0
 11
343.70001220703
 21
-296.0
 31
0.0
  0
LINE
  5
24D
330
18
100
AcDbEntity
  8
PV0001_1
  6
PHANTOM2
 48
0.5
370
    25
100
AcDbLine
 10
289.0
 20
-281.0
 30
0.0
 11
289.0
 21
-296.0
 31
0.0
  0
LINE
  5
24E
330
18
100
AcDbEntity
  8
PV0001_1
  6
PHANTOM2
 48
0.5
370
    25
100
AcDbLine
 10
289.0
 20
-295.45849609375
 30
0.0
 11
304.0
 21
-295.45849609375
 31
0.0
  0
LINE
  5
24F
330
18
100
AcDbEntity
  8
PV0001_1
  6
PHANTOM2
 48
0.5
370
    25
100
AcDbLine
 10
344.0
 20
-278.5
 30
0.0
 11
344.0
 21
-298.5
 31
0.0
  0
LINE
  5
250
330
18
100
AcDbEntity
  8
PV0001_1
  6
PHANTOM2
 48
0.5
370
    25
100
AcDbLine
 10
329.0
 20
-278.5
 30
0.0
 11
329.0
 21
-298.5
 31
0.0
  0
LINE
  5
251
330
18
100
AcDbEntity
  8
PV0001_1
  6
PHANTOM2
 48
0.5
370
    25
100
AcDbLine
 10
344.0
 20
-297.25
 30
0.0
 11
369.0
 21
-297.25
 31
0.0
  0
LINE
  5
252
330
18
100
AcDbEntity
  8
PV0001_1
  6
PHANTOM2
 48
0.5
370
    25
100
AcDbLine
 10
344.0
 20
-279.75
 30
0.0
 11
369.0
 21
-279.75
 31
0.0
  0
LINE
  5
253
330
18
100
AcDbEntity
  8
PV0001_1
  6
PHANTOM2
 48
0.5
370
    25
100
AcDbLine
 10
329.0
 20
-278.5
 30
0.0
 11
344.0
 21
-278.5
 31
0.0
  0
LINE
  5
254
330
18
100
AcDbEntity
  8
PV0001_1
  6
PHANTOM2
 48
0.5
370
    25
100
AcDbLine
 10
329.0
 20
-298.5
 30
0.0
 11
344.0
 21
-298.5
 31
0.0
  0
LINE
  5
255
330
18
100
AcDbEntity
  8
PV0001_1
  6
PHANTOM2
 48
0.5
370
    25
100
AcDbLine
 10
269.0
 20
-282.5
 30
0.0
 11
269.0
 21
-294.5
 31
0.0
  0
LINE
  5
256
330
18
100
AcDbEntity
  8
PV0001_1
  6
PHANTOM2
 48
0.5
370
    25
100
AcDbLine
 10
304.0
 20
-361.54150390625
 30
0.0
 11
304.93789672851
 21
-361.0
 31
0.0
  0
LINE
  5
257
330
18
100
AcDbEntity
  8
PV0001_1
  6
PHANTOM2
 48
0.5
370
    25
100
AcDbLine
 10
304.0
 20
-375.45849609375
 30
0.0
 11
304.93789672851
 21
-376.0
 31
0.0
  0
LINE
  5
258
330
18
100
AcDbEntity
  8
PV0001_1
  6
PHANTOM2
 48
0.5
370
    25
100
AcDbLine
 10
304.0
 20
-361.0
 30
0.0
 11
304.0
 21
-376.0
 31
0.0
  0
LINE
  5
259
330
18
100
AcDbEntity
  8
PV0001_1
  6
PHANTOM2
370
    25
100
AcDbLine
 10
289.0
 20
-361.0
 30
0.0
 11
343.70001220703
 21
-361.0
 31
0.0
  0
LINE
  5
25A
330
18
100
AcDbEntity
  8
PV0001_1
  6
PHANTOM2
 48
0.5
370
    25
100
AcDbLine
 10
269.0
 20
-374.5
 30
0.0
 11
289.0
 21
-374.5
 31
0.0
  0
LINE
  5
25B
330
18
100
AcDbEntity
  8
PV0001_1
  6
PHANTOM2
 48
0.5
370
    25
100
AcDbLine
 10
269.0
 20
-362.5
 30
0.0
 11
289.0
 21
-362.5
 31
0.0
  0
LINE
  5
25C
330
18
100
AcDbEntity
  8
PV0001_1
  6
PHANTOM2
 48
0.5
370
    25
100
AcDbLine
 10
289.0
 20
-361.54150390625
 30
0.0
 11
304.0
 21
-361.54150390625
 31
0.0
  0
LINE
  5
25D
330
18
100
AcDbEntity
  8
PV0001_1
  6
PHANTOM2
 48
0.5
370
    25
100
AcDbLine
 10
344.0
 20
-358.5
 30
0.0
 11
369.0
 21
-358.5
 31
0.0
  0
LINE
  5
25E
330
18
100
AcDbEntity
  8
PV0001_1
  6
PHANTOM2
 48
0.5
370
    25
100
AcDbLine
 10
344.0
 20
-378.5
 30
0.0
 11
369.0
 21
-378.5
 31
0.0
  0
LINE
  5
25F
330
18
100
AcDbEntity
  8
PV0001_1
  6
PHANTOM2
370
    25
100
AcDbLine
 10
289.0
 20
-376.0
 30
0.0
 11
343.70001220703
 21
-376.0
 31
0.0
  0
LINE
  5
260
330
18
100
AcDbEntity
  8
PV0001_1
  6
PHANTOM2
 48
0.5
370
    25
100
AcDbLine
 10
289.0
 20
-361.0
 30
0.0
 11
289.0
 21
-376.0
 31
0.0
  0
LINE
  5
261
330
18
100
AcDbEntity
  8
PV0001_1
  6
PHANTOM2
 48
0.5
370
    25
100
AcDbLine
 10
289.0
 20
-375.45849609375
 30
0.0
 11
304.0
 21
-375.45849609375
 31
0.0
  0
LINE
  5
262
330
18
100
AcDbEntity
  8
PV0001_1
  6
PHANTOM2
 48
0.5
370
    25
100
AcDbLine
 10
344.0
 20
-358.5
 30
0.0
 11
344.0
 21
-378.5
 31
0.0
  0
LINE
  5
263
330
18
100
AcDbEntity
  8
PV0001_1
  6
PHANTOM2
 48
0.5
370
    25
100
AcDbLine
 10
329.0
 20
-358.5
 30
0.0
 11
329.0
 21
-378.5
 31
0.0
  0
LINE
  5
264
330
18
100
AcDbEntity
  8
PV0001_1
  6
PHANTOM2
 48
0.5
370
    25
100
AcDbLine
 10
344.0
 20
-377.25
 30
0.0
 11
369.0
 21
-377.25
 31
0.0
  0
LINE
  5
265
330
18
100
AcDbEntity
  8
PV0001_1
  6
PHANTOM2
 48
0.5
370
    25
100
AcDbLine
 10
344.0
 20
-359.75
 30
0.0
 11
369.0
 21
-359.75
 31
0.0
  0
LINE
  5
266
330
18
100
AcDbEntity
  8
PV0001_1
  6
PHANTOM2
 48
0.5
370
    25
100
AcDbLine
 10
329.0
 20
-358.5
 30
0.0
 11
344.0
 21
-358.5
 31
0.0
  0
LINE
  5
267
330
18
100
AcDbEntity
  8
PV0001_1
  6
PHANTOM2
 48
0.5
370
    25
100
AcDbLine
 10
329.0
 20
-378.5
 30
0.0
 11
344.0
 21
-378.5
 31
0.0
  0
LINE
  5
268
330
18
100
AcDbEntity
  8
PV0001_1
  6
PHANTOM2
 48
0.5
370
    25
100
AcDbLine
 10
269.0
 20
-362.5
 30
0.0
 11
269.0
 21
-374.5
 31
0.0
  0
ARC
  5
269
330
18
100
AcDbEntity
  8
PV0001_1
  6
Continuous
 48
0.5
370
    50
100
AcDbCircle
 10
33.80000305175701
 20
43.200012207031
 30
0.0
 40
0.8000000119209
100
AcDbArc
 50
270.0000179860904
 51
0.0
  0
ARC
  5
26A
330
18
100
AcDbEntity
  8
PV0001_1
  6
Continuous
 48
0.5
370
    50
100
AcDbCircle
 10
33.80000305175701
 20
45.0
 30
0.0
 40
0.8000000119209
100
AcDbArc
 50
0.0
 51
89.99998201390964
  0
ARC
  5
26B
330
18
100
AcDbEntity
  8
PV0001_1
  6
Continuous
 48
0.5
370
    50
100
AcDbCircle
 10
34.800003051757
 20
43.0
 30
0.0
 40
1.399999976158099
100
AcDbArc
 50
270.0000179860904
 51
0.0
  0
ARC
  5
26C
330
18
100
AcDbEntity
  8
PV0001_1
  6
Continuous
 48
0.5
370
    50
100
AcDbCircle
 10
34.800003051757
 20
45.0
 30
0.0
 40
1.399999976158099
100
AcDbArc
 50
0.0
 51
89.99998201390964
  0
ARC
  5
26D
330
18
100
AcDbEntity
  8
PV0001_1
  6
Continuous
 48
0.5
370
    50
100
AcDbCircle
 10
38.677490234375
 20
43.600006103515
 30
0.0
 40
0.2000000029802
100
AcDbArc
 50
161.5650375711494
 51
270.000000683247
  0
ARC
  5
26E
330
18
100
AcDbEntity
  8
PV0001_1
  6
Continuous
 48
0.5
370
    50
100
AcDbCircle
 10
40.92251586914
 20
43.600006103515
 30
0.0
 40
0.2000000029802
100
AcDbArc
 50
270.0000179860904
 51
18.4348803528989
  0
ARC
  5
26F
330
18
100
AcDbEntity
  8
PV0001_1
  6
Continuous
 48
0.5
370
    50
100
AcDbCircle
 10
39.344146728515
 20
45.600006103515
 30
0.0
 40
0.2000000029802
100
AcDbArc
 50
89.99998201390964
 51
161.5651331937947
  0
ARC
  5
270
330
18
100
AcDbEntity
  8
PV0001_1
  6
Continuous
 48
0.5
370
    50
100
AcDbCircle
 10
31.600006103515
 20
42.60000610351499
 30
0.0
 40
0.2000000029802
100
AcDbArc
 50
179.9999776881987
 51
270.0000280040004
  0
ARC
  5
271
330
18
100
AcDbEntity
  8
PV0001_1
  6
Continuous
 48
0.5
370
    50
100
AcDbCircle
 10
31.600006103515
 20
45.600006103515
 30
0.0
 40
0.2000000029802
100
AcDbArc
 50
89.99998201390964
 51
179.9999640278192
  0
ARC
  5
272
330
18
100
AcDbEntity
  8
PV0001_1
  6
Continuous
 48
0.5
370
    50
100
AcDbCircle
 10
27.0
 20
45.0
 30
0.0
 40
0.8000000119209
100
AcDbArc
 50
0.0
 51
89.99998201390964
  0
ARC
  5
273
330
18
100
AcDbEntity
  8
PV0001_1
  6
Continuous
 48
0.5
370
    50
100
AcDbCircle
 10
27.0
 20
43.200012207031
 30
0.0
 40
0.8000000119209
100
AcDbArc
 50
270.0000179860904
 51
0.0
  0
ARC
  5
274
330
18
100
AcDbEntity
  8
PV0001_1
  6
Continuous
 48
0.5
370
    50
100
AcDbCircle
 10
25.199996948242
 20
43.200012207031
 30
0.0
 40
0.8000000119209
100
AcDbArc
 50
179.9999776881987
 51
270.0000280040004
  0
ARC
  5
275
330
18
100
AcDbEntity
  8
PV0001_1
  6
Continuous
 48
0.5
370
    50
100
AcDbCircle
 10
25.199996948242
 20
45.0
 30
0.0
 40
0.8000000119209
100
AcDbArc
 50
89.99998201390964
 51
179.9999640278192
  0
ARC
  5
276
330
18
100
AcDbEntity
  8
PV0001_1
  6
Continuous
 48
0.5
370
    50
100
AcDbCircle
 10
24.199996948242
 20
45.0
 30
0.0
 40
1.399999976158099
100
AcDbArc
 50
89.99998201390964
 51
179.9999640278192
  0
ARC
  5
277
330
18
100
AcDbEntity
  8
PV0001_1
  6
Continuous
 48
0.5
370
    50
100
AcDbCircle
 10
28.0
 20
45.0
 30
0.0
 40
1.399999976158099
100
AcDbArc
 50
0.0
 51
89.99998201390964
  0
ARC
  5
278
330
18
100
AcDbEntity
  8
PV0001_1
  6
Continuous
 48
0.5
370
    50
100
AcDbCircle
 10
28.0
 20
43.0
 30
0.0
 40
1.399999976158099
100
AcDbArc
 50
270.0000179860904
 51
0.0
  0
ARC
  5
279
330
18
100
AcDbEntity
  8
PV0001_1
  6
Continuous
 48
0.5
370
    50
100
AcDbCircle
 10
24.199996948242
 20
43.0
 30
0.0
 40
1.399999976158099
100
AcDbArc
 50
179.9999776881987
 51
270.0000280040004
  0
ARC
  5
27A
330
18
100
AcDbEntity
  8
PV0001_1
  6
Continuous
 48
0.5
370
    50
100
AcDbCircle
 10
20.199996948242
 20
45.20001220703099
 30
0.0
 40
0.6000000238419
100
AcDbArc
 50
0.0
 51
89.99998201390964
  0
ARC
  5
27B
330
18
100
AcDbEntity
  8
PV0001_1
  6
Continuous
 48
0.5
370
    50
100
AcDbCircle
 10
20.199996948242
 20
44.5
 30
0.0
 40
0.6000000238419
100
AcDbArc
 50
270.0000179860904
 51
0.0
  0
ARC
  5
27C
330
18
100
AcDbEntity
  8
PV0001_1
  6
Continuous
 48
0.5
370
    50
100
AcDbCircle
 10
18.100006103515
 20
44.100006103515
 30
0.0
 40
0.2000000029802
100
AcDbArc
 50
179.9999776881987
 51
270.0000280040004
  0
ARC
  5
27D
330
18
100
AcDbEntity
  8
PV0001_1
  6
Continuous
 48
0.5
370
    50
100
AcDbCircle
 10
18.100006103515
 20
45.600006103515
 30
0.0
 40
0.2000000029802
100
AcDbArc
 50
89.99998201390964
 51
179.9999640278192
  0
ARC
  5
27E
330
18
100
AcDbEntity
  8
PV0001_1
  6
Continuous
 48
0.5
370
    50
100
AcDbCircle
 10
21.779830932617
 20
43.38940429687499
 30
0.0
 40
0.2000000029802
100
AcDbArc
 50
117.3049472966005
 51
234.4267362404176
  0
ARC
  5
27F
330
18
100
AcDbEntity
  8
PV0001_1
  6
Continuous
 48
0.5
370
    50
100
AcDbCircle
 10
20.199996948242
 20
42.60000610351499
 30
0.0
 40
0.6000000238419
100
AcDbArc
 50
0.0
 51
89.99998201390964
  0
ARC
  5
280
330
18
100
AcDbEntity
  8
PV0001_1
  6
Continuous
 48
0.5
370
    50
100
AcDbCircle
 10
18.300003051757
 20
42.79998779296799
 30
0.0
 40
0.4000000059605
100
AcDbArc
 50
89.99998201390964
 51
179.9999640278192
  0
ARC
  5
281
330
18
100
AcDbEntity
  8
PV0001_1
  6
Continuous
 48
0.5
370
    50
100
AcDbCircle
 10
21.0
 20
44.900024414062
 30
0.0
 40
1.5
100
AcDbArc
 50
297.304990098971
 51
0.0
  0
ARC
  5
282
330
18
100
AcDbEntity
  8
PV0001_1
  6
Continuous
 48
0.5
370
    50
100
AcDbCircle
 10
21.0
 20
44.900024414062
 30
0.0
 40
1.5
100
AcDbArc
 50
0.0
 51
89.99998201390964
  0
ARC
  5
283
330
18
100
AcDbEntity
  8
PV0001_1
  6
Continuous
 48
0.5
370
    50
100
AcDbCircle
 10
20.5
 20
41.600006103515
 30
0.0
 40
2.0
100
AcDbArc
 50
0.0
 51
54.42673123145972
  0
ARC
  5
284
330
18
100
AcDbEntity
  8
PV0001_1
  6
Continuous
 48
0.5
370
    50
100
AcDbCircle
 10
11.600006103515
 20
43.0
 30
0.0
 40
0.6000000238419
100
AcDbArc
 50
179.9999776881987
 51
270.0000280040004
  0
ARC
  5
285
330
18
100
AcDbEntity
  8
PV0001_1
  6
Continuous
 48
0.5
370
    50
100
AcDbCircle
 10
13.800003051757
 20
43.0
 30
0.0
 40
0.6000000238419
100
AcDbArc
 50
270.0000179860904
 51
0.0
  0
ARC
  5
286
330
18
100
AcDbEntity
  8
PV0001_1
  6
Continuous
 48
0.5
370
    50
100
AcDbCircle
 10
14.600006103515
 20
42.79998779296799
 30
0.0
 40
1.2000000476837
100
AcDbArc
 50
270.0000179860904
 51
0.0
  0
ARC
  5
287
330
18
100
AcDbEntity
  8
PV0001_1
  6
Continuous
 48
0.5
370
    50
100
AcDbCircle
 10
10.800003051757
 20
42.79998779296799
 30
0.0
 40
1.2000000476837
100
AcDbArc
 50
179.9999776881987
 51
270.0000280040004
  0
ARC
  5
288
330
18
100
AcDbEntity
  8
PV0001_1
  6
Continuous
 48
0.5
370
    50
100
AcDbCircle
 10
4.8000030517578
 20
43.799987792968
 30
0.0
 40
0.2000000029802
100
AcDbArc
 50
89.99998201390964
 51
179.9999640278192
  0
ARC
  5
289
330
18
100
AcDbEntity
  8
PV0001_1
  6
Continuous
 48
0.5
370
    50
100
AcDbCircle
 10
4.8000030517578
 20
44.79998779296799
 30
0.0
 40
0.2000000029802
100
AcDbArc
 50
179.9999776881987
 51
270.0000280040004
  0
ARC
  5
28A
330
18
100
AcDbEntity
  8
PV0001_1
  6
Continuous
 48
0.5
370
    50
100
AcDbCircle
 10
5.699996948242199
 20
43.799987792968
 30
0.0
 40
0.2000000029802
100
AcDbArc
 50
36.86990755486351
 51
89.99998201390964
  0
ARC
  5
28B
330
18
100
AcDbEntity
  8
PV0001_1
  6
Continuous
 48
0.5
370
    50
100
AcDbCircle
 10
5.7021789550781
 20
44.79998779296799
 30
0.0
 40
0.2000000029802
100
AcDbArc
 50
270.0000179860904
 51
322.1249959578259
  0
ARC
  5
28C
330
18
100
AcDbEntity
  8
PV0001_1
  6
Continuous
 48
0.5
370
    50
100
AcDbCircle
 10
7.472381591796899
 20
44.389526367187
 30
0.0
 40
0.2000000029802
100
AcDbArc
 50
135.0000549831359
 51
220.6012585677736
  0
CIRCLE
  5
28D
330
18
100
AcDbEntity
  8
PV0001_1
  6
Continuous
 48
0.5
370
   100
100
AcDbCircle
 10
266.30798339843
 20
43.99993896484299
 30
0.0
 40
2.700000047683699
  0
ARC
  5
28E
330
18
100
AcDbEntity
  8
PV0001_1
  6
Continuous
 48
0.5
370
    50
100
AcDbCircle
 10
40.25585937499999
 20
45.600006103515
 30
0.0
 40
0.2000000029802
100
AcDbArc
 50
18.43505281517194
 51
89.99998201390964
  0
ARC
  5
28F
330
18
100
AcDbEntity
  8
PV0001_1
  6
Continuous
 48
0.5
370
    50
100
AcDbCircle
 10
38.27749633789
 20
42.400024414062
 30
0.0
 40
0.2000000029802
100
AcDbArc
 50
89.99998201390964
 51
161.5650102503904
  0
ARC
  5
290
330
18
100
AcDbEntity
  8
PV0001_1
  6
Continuous
 48
0.5
370
    50
100
AcDbCircle
 10
41.322509765625
 20
42.400024414062
 30
0.0
 40
0.2000000029802
100
AcDbArc
 50
18.4348803528989
 51
89.99998201390964
  0
CIRCLE
  5
291
330
18
100
AcDbEntity
  8
PV0001_1
  6
Continuous
 48
0.5
370
   100
100
AcDbCircle
 10
266.30798339843
 20
43.99993896484299
 30
0.0
 40
1.6200001239777
  0
CIRCLE
  5
292
330
18
100
AcDbEntity
  8
PV0001_1
  6
Continuous
370
    50
100
AcDbCircle
 10
204.49998474121
 20
-288.5
 30
0.0
 40
14.5
  0
CIRCLE
  5
293
330
18
100
AcDbEntity
  8
PV0001_1
  6
Continuous
 48
0.5
370
    50
100
AcDbCircle
 10
212.19543457031
 20
-267.35693359375
 30
0.0
 40
3.5
  0
CIRCLE
  5
294
330
18
100
AcDbEntity
  8
PV0001_1
  6
CENTER2
370
    25
100
AcDbCircle
 10
204.49998474121
 20
-288.5
 30
0.0
 40
22.5
  0
CIRCLE
  5
295
330
18
100
AcDbEntity
  8
PV0001_1
  6
Continuous
 48
0.5
370
    50
100
AcDbCircle
 10
222.17765808105
 20
-306.17767333984
 30
0.0
 40
2.75
  0
CIRCLE
  5
296
330
18
100
AcDbEntity
  8
PV0001_1
  6
Continuous
 48
0.5
370
    50
100
AcDbCircle
 10
186.82231140136
 20
-306.17767333984
 30
0.0
 40
2.75
  0
CIRCLE
  5
297
330
18
100
AcDbEntity
  8
PV0001_1
  6
Continuous
 48
0.5
370
    50
100
AcDbCircle
 10
186.82231140136
 20
-270.82232666015
 30
0.0
 40
2.75
  0
CIRCLE
  5
298
330
18
100
AcDbEntity
  8
PV0001_1
  6
Continuous
 48
0.5
370
    50
100
AcDbCircle
 10
222.17765808105
 20
-270.82232666015
 30
0.0
 40
2.75
  0
CIRCLE
  5
299
330
18
100
AcDbEntity
  8
PV0001_1
  6
Continuous
 48
0.5
370
    50
100
AcDbCircle
 10
222.17765808105
 20
-306.17767333984
 30
0.0
 40
4.75
  0
CIRCLE
  5
29A
330
18
100
AcDbEntity
  8
PV0001_1
  6
Continuous
 48
0.5
370
    50
100
AcDbCircle
 10
186.82231140136
 20
-306.17767333984
 30
0.0
 40
4.75
  0
CIRCLE
  5
29B
330
18
100
AcDbEntity
  8
PV0001_1
  6
Continuous
 48
0.5
370
    50
100
AcDbCircle
 10
186.82231140136
 20
-270.82232666015
 30
0.0
 40
4.75
  0
CIRCLE
  5
29C
330
18
100
AcDbEntity
  8
PV0001_1
  6
Continuous
 48
0.5
370
    50
100
AcDbCircle
 10
222.17765808105
 20
-270.82232666015
 30
0.0
 40
4.75
  0
CIRCLE
  5
29D
330
18
100
AcDbEntity
  8
PV0001_1
  6
CENTER2
370
    25
100
AcDbCircle
 10
204.49998474121
 20
-288.5
 30
0.0
 40
25.0
  0
ARC
  5
29E
330
18
100
AcDbEntity
  8
PV0001_1
  6
Continuous
 48
0.5
370
    50
100
AcDbCircle
 10
204.49998474121
 20
-288.5
 30
0.0
 40
12.5
100
AcDbArc
 50
298.3576110425269
 51
331.6423642548788
  0
ARC
  5
29F
330
18
100
AcDbEntity
  8
PV0001_1
  6
Continuous
 48
0.5
370
    50
100
AcDbCircle
 10
204.49998474121
 20
-288.5
 30
0.0
 40
12.5
100
AcDbArc
 50
208.3576153682378
 51
241.6423702881414
  0
ARC
  5
2A0
330
18
100
AcDbEntity
  8
PV0001_1
  6
Continuous
 48
0.5
370
    50
100
AcDbCircle
 10
204.49998474121
 20
-288.5
 30
0.0
 40
12.5
100
AcDbArc
 50
118.3576297118586
 51
151.6423846317622
  0
ARC
  5
2A1
330
18
100
AcDbEntity
  8
PV0001_1
  6
Continuous
 48
0.5
370
    50
100
AcDbCircle
 10
204.49998474121
 20
-288.5
 30
0.0
 40
12.5
100
AcDbArc
 50
28.35763574512117
 51
61.64238895747307
  0
ARC
  5
2A2
330
18
100
AcDbEntity
  8
PV0001_1
  6
Continuous
 48
0.5
370
    50
100
AcDbCircle
 10
204.49998474121
 20
-288.5
 30
0.0
 40
31.5
100
AcDbArc
 50
304.3712510972655
 51
325.6287463982555
  0
ARC
  5
2A3
330
18
100
AcDbEntity
  8
PV0001_1
  6
Continuous
 48
0.5
370
    50
100
AcDbCircle
 10
204.49998474121
 20
-288.5
 30
0.0
 40
31.5
100
AcDbArc
 50
214.3712417625968
 51
235.6287302334028
  0
ARC
  5
2A4
330
18
100
AcDbEntity
  8
PV0001_1
  6
Continuous
 48
0.5
370
    50
100
AcDbCircle
 10
204.49998474121
 20
-288.5
 30
0.0
 40
31.5
100
AcDbArc
 50
124.3712697665971
 51
145.6287582374032
  0
ARC
  5
2A5
330
18
100
AcDbEntity
  8
PV0001_1
  6
Continuous
 48
0.5
370
    50
100
AcDbCircle
 10
204.49998474121
 20
-288.5
 30
0.0
 40
31.5
100
AcDbArc
 50
34.37125360174443
 51
55.62874890273451
  0
CIRCLE
  5
2A6
330
18
100
AcDbEntity
  8
PV0001_1
  6
Continuous
 48
0.5
370
    50
100
AcDbCircle
 10
225.64306640625
 20
-296.19543457031
 30
0.0
 40
4.0
  0
CIRCLE
  5
2A7
330
18
100
AcDbEntity
  8
PV0001_1
  6
Continuous
 48
0.5
370
    50
100
AcDbCircle
 10
196.80451965332
 20
-309.64306640625
 30
0.0
 40
4.0
  0
CIRCLE
  5
2A8
330
18
100
AcDbEntity
  8
PV0001_1
  6
Continuous
 48
0.5
370
    50
100
AcDbCircle
 10
196.80451965332
 20
-309.64306640625
 30
0.0
 40
3.5
  0
CIRCLE
  5
2A9
330
18
100
AcDbEntity
  8
PV0001_1
  6
Continuous
 48
0.5
370
    50
100
AcDbCircle
 10
225.64306640625
 20
-296.19543457031
 30
0.0
 40
3.5
  0
CIRCLE
  5
2AA
330
18
100
AcDbEntity
  8
PV0001_1
  6
Continuous
 48
0.5
370
    50
100
AcDbCircle
 10
183.35690307617
 20
-280.80456542968
 30
0.0
 40
3.5
  0
CIRCLE
  5
2AB
330
18
100
AcDbEntity
  8
PV0001_1
  6
Continuous
 48
0.5
370
    50
100
AcDbCircle
 10
212.19543457031
 20
-267.35693359375
 30
0.0
 40
4.0
  0
CIRCLE
  5
2AC
330
18
100
AcDbEntity
  8
PV0001_1
  6
Continuous
 48
0.5
370
    50
100
AcDbCircle
 10
183.35690307617
 20
-280.80456542968
 30
0.0
 40
4.0
  0
CIRCLE
  5
2AD
330
18
100
AcDbEntity
  8
PV0001_1
  6
Continuous
370
    50
100
AcDbCircle
 10
971.0
 20
-188.5
 30
0.0
 40
16.0
  0
CIRCLE
  5
2AE
330
18
100
AcDbEntity
  8
PV0001_1
  6
Continuous
 48
0.5
370
    50
100
AcDbCircle
 10
216.28858947753
 20
-202.28857421875
 30
0.0
 40
3.5
  0
CIRCLE
  5
2AF
330
18
100
AcDbEntity
  8
PV0001_1
  6
Continuous
 48
0.5
370
    50
100
AcDbCircle
 10
216.28854370117
 20
-174.71142578125
 30
0.0
 40
3.5
  0
CIRCLE
  5
2B0
330
18
100
AcDbEntity
  8
PV0001_1
  6
Continuous
 48
0.5
370
    50
100
AcDbCircle
 10
188.71142578125
 20
-202.28857421875
 30
0.0
 40
3.5
  0
CIRCLE
  5
2B1
330
18
100
AcDbEntity
  8
PV0001_1
  6
Continuous
 48
0.5
370
    50
100
AcDbCircle
 10
188.71138000488
 20
-174.71142578125
 30
0.0
 40
3.5
  0
CIRCLE
  5
2B2
330
18
100
AcDbEntity
  8
PV0001_1
  6
Continuous
 48
0.5
370
    50
100
AcDbCircle
 10
216.28854370117
 20
-174.71142578125
 30
0.0
 40
4.0
  0
CIRCLE
  5
2B3
330
18
100
AcDbEntity
  8
PV0001_1
  6
Continuous
 48
0.5
370
    50
100
AcDbCircle
 10
188.71138000488
 20
-174.71142578125
 30
0.0
 40
4.0
  0
CIRCLE
  5
2B4
330
18
100
AcDbEntity
  8
PV0001_1
  6
Continuous
 48
0.5
370
    50
100
AcDbCircle
 10
216.28858947753
 20
-202.28857421875
 30
0.0
 40
4.0
  0
ARC
  5
2B5
330
18
100
AcDbEntity
  8
PV0001_1
  6
Continuous
 48
0.5
370
    50
100
AcDbCircle
 10
202.49998474121
 20
-188.5
 30
0.0
 40
12.5
100
AcDbArc
 50
118.3576297118586
 51
151.6423573110031
  0
ARC
  5
2B6
330
18
100
AcDbEntity
  8
PV0001_1
  6
Continuous
 48
0.5
370
    50
100
AcDbCircle
 10
202.49998474121
 20
-188.5
 30
0.0
 40
12.5
100
AcDbArc
 50
28.3575964715343
 51
61.64234114615042
  0
ARC
  5
2B7
330
18
100
AcDbEntity
  8
PV0001_1
  6
Continuous
 48
0.5
370
    50
100
AcDbCircle
 10
202.49998474121
 20
-188.5
 30
0.0
 40
12.5
100
AcDbArc
 50
298.3576520236598
 51
331.6423796228044
  0
ARC
  5
2B8
330
18
100
AcDbEntity
  8
PV0001_1
  6
Continuous
 48
0.5
370
    50
100
AcDbCircle
 10
202.49998474121
 20
-188.5
 30
0.0
 40
12.5
100
AcDbArc
 50
208.3576290286173
 51
241.6423566277619
  0
CIRCLE
  5
2B9
330
18
100
AcDbEntity
  8
PV0001_1
  6
Continuous
 48
0.5
370
    50
100
AcDbCircle
 10
188.71142578125
 20
-202.28857421875
 30
0.0
 40
4.0
  0
CIRCLE
  5
2BA
330
18
100
AcDbEntity
  8
PV0001_1
  6
Continuous
370
    50
100
AcDbCircle
 10
202.49998474121
 20
-188.5
 30
0.0
 40
14.5
  0
ARC
  5
2BB
330
18
100
AcDbEntity
  8
PV0001_1
  6
Continuous
 48
0.5
370
    50
100
AcDbCircle
 10
202.49998474121
 20
-188.5
 30
0.0
 40
24.5
100
AcDbArc
 50
310.965730439022
 51
319.0343012074479
  0
ARC
  5
2BC
330
18
100
AcDbEntity
  8
PV0001_1
  6
Continuous
 48
0.5
370
    50
100
AcDbCircle
 10
202.49998474121
 20
-188.5
 30
0.0
 40
24.5
100
AcDbArc
 50
40.96568854727033
 51
49.03427297607572
  0
ARC
  5
2BD
330
18
100
AcDbEntity
  8
PV0001_1
  6
Continuous
 48
0.5
370
    50
100
AcDbCircle
 10
202.49998474121
 20
-188.5
 30
0.0
 40
24.5
100
AcDbArc
 50
130.9657081272208
 51
139.0342788956466
  0
ARC
  5
2BE
330
18
100
AcDbEntity
  8
PV0001_1
  6
Continuous
 48
0.5
370
    50
100
AcDbCircle
 10
202.49998474121
 20
-188.5
 30
0.0
 40
24.5
100
AcDbArc
 50
220.9657074439738
 51
229.0342782123997
  0
CIRCLE
  5
2BF
330
18
100
AcDbEntity
  8
PV0001_1
  6
CENTER2
370
    25
100
AcDbCircle
 10
202.49998474121
 20
-188.5
 30
0.0
 40
19.5
  0
ARC
  5
2C0
330
18
100
AcDbEntity
  8
PV0001_1
  6
Continuous
370
    50
100
AcDbCircle
 10
202.49998474121
 20
-88.49999999999999
 30
0.0
 40
41.0
100
AcDbArc
 50
50.64330161998979
 51
129.3567204644396
  0
CIRCLE
  5
2C1
330
18
100
AcDbEntity
  8
PV0001_1
  6
CENTER2
370
    25
100
AcDbCircle
 10
202.49998474121
 20
-88.49999999999999
 30
0.0
 40
33.5
  0
CIRCLE
  5
2C3
330
18
100
AcDbEntity
  8
PV0001_1
  6
Continuous
370
    50
100
AcDbCircle
 10
202.49998474121
 20
-88.49999999999999
 30
0.0
 40
10.0
  0
ARC
  5
2C4
330
18
100
AcDbEntity
  8
PV0001_1
  6
Continuous
370
    50
100
AcDbCircle
 10
202.49998474121
 20
-88.49999999999999
 30
0.0
 40
41.0
100
AcDbArc
 50
230.6432795355604
 51
309.3566983800102
  0
CIRCLE
  5
2C5
330
18
100
AcDbEntity
  8
PV0001_1
  6
Continuous
 48
0.5
370
    50
100
AcDbCircle
 10
185.74996948242
 20
-59.488159179687
 30
0.0
 40
3.2999999523163
  0
CIRCLE
  5
2C6
330
18
100
AcDbEntity
  8
PV0001_1
  6
Continuous
 48
0.5
370
    50
100
AcDbCircle
 10
219.24998474121
 20
-59.488159179687
 30
0.0
 40
3.2999999523163
  0
CIRCLE
  5
2C7
330
18
100
AcDbEntity
  8
PV0001_1
  6
Continuous
 48
0.5
370
    50
100
AcDbCircle
 10
219.24998474121
 20
-117.5118560791
 30
0.0
 40
3.2999999523163
  0
CIRCLE
  5
2C8
330
18
100
AcDbEntity
  8
PV0001_1
  6
Continuous
 48
0.5
370
    50
100
AcDbCircle
 10
185.74996948242
 20
-117.5118560791
 30
0.0
 40
3.2999999523163
  0
CIRCLE
  5
2C9
330
18
100
AcDbEntity
  8
PV0001_1
  6
Continuous
370
    50
100
AcDbCircle
 10
861.5
 20
-158.5
 30
0.0
 40
8.5
  0
CIRCLE
  5
2CA
330
18
100
AcDbEntity
  8
PV0001_1
  6
Continuous
370
    50
100
AcDbCircle
 10
861.5
 20
-218.5
 30
0.0
 40
8.5
  0
CIRCLE
  5
2CB
330
18
100
AcDbEntity
  8
PV0001_1
  6
Continuous
370
    50
100
AcDbCircle
 10
861.5
 20
-218.5
 30
0.0
 40
5.5
  0
CIRCLE
  5
2CC
330
18
100
AcDbEntity
  8
PV0001_1
  6
Continuous
370
    50
100
AcDbCircle
 10
861.5
 20
-158.5
 30
0.0
 40
5.5
  0
CIRCLE
  5
2CD
330
18
100
AcDbEntity
  8
PV0001_1
  6
Continuous
370
    50
100
AcDbCircle
 10
321.5
 20
-158.5
 30
0.0
 40
5.5
  0
CIRCLE
  5
2CE
330
18
100
AcDbEntity
  8
PV0001_1
  6
Continuous
370
    50
100
AcDbCircle
 10
321.50003051757
 20
-218.5
 30
0.0
 40
5.5
  0
CIRCLE
  5
2CF
330
18
100
AcDbEntity
  8
PV0001_1
  6
Continuous
370
    50
100
AcDbCircle
 10
321.5
 20
-158.5
 30
0.0
 40
8.5
  0
CIRCLE
  5
2D0
330
18
100
AcDbEntity
  8
PV0001_1
  6
Continuous
370
    50
100
AcDbCircle
 10
321.50003051757
 20
-218.5
 30
0.0
 40
8.5
  0
ARC
  5
2D1
330
18
100
AcDbEntity
  8
PV0001_1
  6
PHANTOM2
 48
0.5
370
    25
100
AcDbCircle
 10
343.70001220703
 20
-360.70001220703
 30
0.0
 40
0.3000000119209
100
AcDbArc
 50
269.9999974955211
 51
0.0
  0
ARC
  5
2D2
330
18
100
AcDbEntity
  8
PV0001_1
  6
PHANTOM2
 48
0.5
370
    25
100
AcDbCircle
 10
343.70001220703
 20
-376.29998779296
 30
0.0
 40
0.3000000119209
100
AcDbArc
 50
0.0
 51
90.00000250447893
  0
ARC
  5
2D3
330
18
100
AcDbEntity
  8
PV0001_1
  6
PHANTOM2
 48
0.5
370
    25
100
AcDbCircle
 10
857.29998779296
 20
-376.2999877929601
 30
0.0
 40
0.3000000119209
100
AcDbArc
 50
90.00000250447893
 51
180.0000050089578
  0
ARC
  5
2D4
330
18
100
AcDbEntity
  8
PV0001_1
  6
PHANTOM2
 48
0.5
370
    25
100
AcDbCircle
 10
343.70001220703
 20
-296.29998779296
 30
0.0
 40
0.3000000119209
100
AcDbArc
 50
0.0
 51
90.00000250447893
  0
ARC
  5
2D5
330
18
100
AcDbEntity
  8
PV0001_1
  6
PHANTOM2
 48
0.5
370
    25
100
AcDbCircle
 10
343.70001220703
 20
-280.70001220703
 30
0.0
 40
0.3000000119209
100
AcDbArc
 50
269.9999974955211
 51
0.0
  0
ARC
  5
2D6
330
18
100
AcDbEntity
  8
PV0001_1
  6
PHANTOM2
 48
0.5
370
    25
100
AcDbCircle
 10
857.29998779296
 20
-360.7000122070301
 30
0.0
 40
0.3000000119209
100
AcDbArc
 50
179.9999913485783
 51
270.000000683247
  0
ARC
  5
2D7
330
18
100
AcDbEntity
  8
PV0001_1
  6
Continuous
 48
0.5
370
    50
100
AcDbCircle
 10
857.29998779296
 20
-30.700000762939
 30
0.0
 40
0.3000000119209
100
AcDbArc
 50
179.9999913485783
 51
270.000000683247
  0
ARC
  5
2D8
330
18
100
AcDbEntity
  8
PV0001_1
  6
Continuous
 48
0.5
370
    50
100
AcDbCircle
 10
343.70001220703
 20
-30.700000762939
 30
0.0
 40
0.3000000119209
100
AcDbArc
 50
269.9999974955211
 51
0.0
  0
ARC
  5
2D9
330
18
100
AcDbEntity
  8
PV0001_1
  6
Continuous
 48
0.5
370
    50
100
AcDbCircle
 10
343.70001220703
 20
-46.29999923706
 30
0.0
 40
0.3000000119209
100
AcDbArc
 50
0.0
 51
90.00000250447893
  0
ARC
  5
2DA
330
18
100
AcDbEntity
  8
PV0001_1
  6
Continuous
 48
0.5
370
    50
100
AcDbCircle
 10
857.29998779296
 20
-46.29999923706
 30
0.0
 40
0.3000000119209
100
AcDbArc
 50
90.00000250447893
 51
180.0000050089578
  0
ARC
  5
2DB
330
18
100
AcDbEntity
  8
PV0001_1
  6
PHANTOM2
 48
0.5
370
    25
100
AcDbCircle
 10
857.29998779296
 20
-180.69999694824
 30
0.0
 40
0.3000000119209
100
AcDbArc
 50
179.9999913485783
 51
270.000000683247
  0
ARC
  5
2DC
330
18
100
AcDbEntity
  8
PV0001_1
  6
PHANTOM2
 48
0.5
370
    25
100
AcDbCircle
 10
343.70001220703
 20
-180.69999694824
 30
0.0
 40
0.3000000119209
100
AcDbArc
 50
269.9999974955211
 51
0.0
  0
ARC
  5
2DD
330
18
100
AcDbEntity
  8
PV0001_1
  6
PHANTOM2
 48
0.5
370
    25
100
AcDbCircle
 10
343.70001220703
 20
-196.30000305175
 30
0.0
 40
0.3000000119209
100
AcDbArc
 50
0.0
 51
90.00000250447893
  0
ARC
  5
2DE
330
18
100
AcDbEntity
  8
PV0001_1
  6
PHANTOM2
 48
0.5
370
    25
100
AcDbCircle
 10
857.29998779296
 20
-196.30000305175
 30
0.0
 40
0.3000000119209
100
AcDbArc
 50
90.00000250447893
 51
180.0000050089578
  0
MTEXT
  5
2DF
330
18
100
AcDbEntity
  8
PV0001_1
 62
     7
370
    25
100
AcDbMText
 10
111.8284938931421
 20
48.0
 30
0.0
 40
3.2
 41
0.0
 71
     4
 72
     5
  1
\T1.40;\W0.61;MODEL
 73
     1
 44
1.0
1001
ACAD
1000
MTEXTBEGIN
1070
    73
1070
     1
1070
    44
1040
1.0
1070
    74
1070
     0
1000
MTEXTEND
  0
MTEXT
  5
2E0
330
18
100
AcDbEntity
  8
PV0001_1
 62
     7
370
    25
100
AcDbMText
 10
49.82849389314615
 20
48.0
 30
0.0
 40
3.2
 41
0.0
 71
     4
 72
     5
  1
\T1.40;\W0.61;FILE\U+3000NAME
 73
     1
 44
1.0
1001
ACAD
1000
MTEXTBEGIN
1070
    73
1070
     1
1070
    44
1040
1.0
1070
    74
1070
     0
1000
MTEXTEND
  0
MTEXT
  5
2E1
330
18
100
AcDbEntity
  8
PV0001_1
 62
     7
370
    25
100
AcDbMText
 10
235.8284938931421
 20
48.0
 30
0.0
 40
3.2
 41
0.0
 71
     4
 72
     5
  1
\T1.40;\W0.61;L
 73
     1
 44
1.0
1001
ACAD
1000
MTEXTBEGIN
1070
    73
1070
     1
1070
    44
1040
1.0
1070
    74
1070
     0
1000
MTEXTEND
  0
MTEXT
  5
2E2
330
18
100
AcDbEntity
  8
PV0001_1
 62
     7
370
    25
100
AcDbMText
 10
111.8284938931421
 20
36.0
 30
0.0
 40
3.2
 41
0.0
 71
     4
 72
     5
  1
\T1.40;\W0.61;MODEL
 73
     1
 44
1.0
1001
ACAD
1000
MTEXTBEGIN
1070
    73
1070
     1
1070
    44
1040
1.0
1070
    74
1070
     0
1000
MTEXTEND
  0
MTEXT
  5
2E3
330
18
100
AcDbEntity
  8
PV0001_1
 62
     7
370
    25
100
AcDbMText
 10
235.8284938931421
 20
36.0
 30
0.0
 40
3.2
 41
0.0
 71
     4
 72
     5
  1
\T1.40;\W0.61;L
 73
     1
 44
1.0
1001
ACAD
1000
MTEXTBEGIN
1070
    73
1070
     1
1070
    44
1040
1.0
1070
    74
1070
     0
1000
MTEXTEND
  0
MTEXT
  5
2E4
330
18
100
AcDbEntity
  8
PV0001_1
 62
     7
370
    25
100
AcDbMText
 10
111.8284938931421
 20
24.0
 30
0.0
 40
3.2
 41
0.0
 71
     4
 72
     5
  1
\T1.40;\W0.61;MODEL
 73
     1
 44
1.0
1001
ACAD
1000
MTEXTBEGIN
1070
    73
1070
     1
1070
    44
1040
1.0
1070
    74
1070
     0
1000
MTEXTEND
  0
MTEXT
  5
2E5
330
18
100
AcDbEntity
  8
PV0001_1
 62
     7
370
    25
100
AcDbMText
 10
235.8284938931421
 20
24.0
 30
0.0
 40
3.2
 41
0.0
 71
     4
 72
     5
  1
\T1.40;\W0.61;L
 73
     1
 44
1.0
1001
ACAD
1000
MTEXTBEGIN
1070
    73
1070
     1
1070
    44
1040
1.0
1070
    74
1070
     0
1000
MTEXTEND
  0
MTEXT
  5
2E6
330
18
100
AcDbEntity
  8
PV0001_1
 62
     7
370
    25
100
AcDbMText
 10
119.5427439212755
 20
42.5
 30
0.0
 40
4.799999999999999
 41
0.0
 71
     4
 72
     5
  1
\T1.40;\W0.61;GW2010DS-HULR-0600A
 73
     1
 44
1.0
1001
ACAD
1000
MTEXTBEGIN
1070
    73
1070
     1
1070
    44
1040
1.0
1070
    74
1070
     0
1000
MTEXTEND
  0
MTEXT
  5
2E7
330
18
100
AcDbEntity
  8
PV0001_1
 62
     7
370
    25
100
AcDbMText
 10
65.54274392127952
 20
42.5
 30
0.0
 40
4.799999999999999
 41
0.0
 71
     4
 72
     5
  1
\T1.40;\W0.61;GW2010DS
 73
     1
 44
1.0
1001
ACAD
1000
MTEXTBEGIN
1070
    73
1070
     1
1070
    44
1040
1.0
1070
    74
1070
     0
1000
MTEXTEND
  0
MTEXT
  5
2E8
330
18
100
AcDbEntity
  8
PV0001_1
 62
     7
370
    25
100
AcDbMText
 10
243.5427439212755
 20
42.5
 30
0.0
 40
4.799999999999999
 41
0.0
 71
     4
 72
     5
  1
\T1.40;\W0.61;600
 73
     1
 44
1.0
1001
ACAD
1000
MTEXTBEGIN
1070
    73
1070
     1
1070
    44
1040
1.0
1070
    74
1070
     0
1000
MTEXTEND
  0
MTEXT
  5
2E9
330
18
100
AcDbEntity
  8
PV0001_1
 62
     7
370
    25
100
AcDbMText
 10
119.5427439212755
 20
18.5
 30
0.0
 40
4.799999999999999
 41
0.0
 71
     4
 72
     5
  1
\T1.40;\W0.61;GW2010DS-HULR-2000A
 73
     1
 44
1.0
1001
ACAD
1000
MTEXTBEGIN
1070
    73
1070
     1
1070
    44
1040
1.0
1070
    74
1070
     0
1000
MTEXTEND
  0
MTEXT
  5
2EA
330
18
100
AcDbEntity
  8
PV0001_1
 62
     7
370
    25
100
AcDbMText
 10
239.3377420902155
 20
30.76590919494601
 30
0.0
 40
4.799999999999999
 41
0.0
 71
     4
 72
     5
  1
\T1.40;\W0.61;1200
 73
     1
 44
1.0
1001
ACAD
1000
MTEXTBEGIN
1070
    73
1070
     1
1070
    44
1040
1.0
1070
    74
1070
     0
1000
MTEXTEND
  0
MTEXT
  5
2EB
330
18
100
AcDbEntity
  8
PV0001_1
 62
     7
370
    25
100
AcDbMText
 10
119.5427439212755
 20
30.5
 30
0.0
 40
4.799999999999999
 41
0.0
 71
     4
 72
     5
  1
\T1.40;\W0.61;GW2010DS-HULR-1200A
 73
     1
 44
1.0
1001
ACAD
1000
MTEXTBEGIN
1070
    73
1070
     1
1070
    44
1040
1.0
1070
    74
1070
     0
1000
MTEXTEND
  0
MTEXT
  5
2EC
330
18
100
AcDbEntity
  8
PV0001_1
 62
     7
370
    25
100
AcDbMText
 10
239.7344858646355
 20
18.72857093811001
 30
0.0
 40
4.799999999999999
 41
0.0
 71
     4
 72
     5
  1
\T1.40;\W0.61;2000
 73
     1
 44
1.0
1001
ACAD
1000
MTEXTBEGIN
1070
    73
1070
     1
1070
    44
1040
1.0
1070
    74
1070
     0
1000
MTEXTEND
  0
MTEXT
  5
2ED
330
18
100
AcDbEntity
  8
PV0001_1
 62
     7
370
    25
100
AcDbMText
 10
320.9307582974421
 20
-398.70849609375
 30
0.0
 40
3.2
 41
0.0
 71
     4
 72
     5
  1
\T1.40;\W0.61;BUM-15
 73
     1
 44
1.0
1001
ACAD
1000
MTEXTBEGIN
1070
    73
1070
     1
1070
    44
1040
1.0
1070
    74
1070
     0
1000
MTEXTEND
  0
MTEXT
  5
2EE
330
18
100
AcDbEntity
  8
PV0001_1
 62
     7
370
    25
100
AcDbMText
 10
855.6354091763422
 20
-388.67477416992
 30
0.0
 40
3.2
 41
0.0
 71
     4
 72
     5
  1
\T1.40;\W0.61;6002ZZ
 73
     1
 44
1.0
1001
ACAD
1000
MTEXTBEGIN
1070
    73
1070
     1
1070
    44
1040
1.0
1070
    74
1070
     0
1000
MTEXTEND
  0
MTEXT
  5
2EF
330
18
100
AcDbEntity
  8
PV0001_1
 62
     7
370
    25
100
AcDbMText
 10
302.5626857876722
 20
-319.21383666992
 30
0.0
 40
3.2
 41
0.0
 71
     4
 72
     5
  1
\T1.40;\W0.61;BUM-15
 73
     1
 44
1.0
1001
ACAD
1000
MTEXTBEGIN
1070
    73
1070
     1
1070
    44
1040
1.0
1070
    74
1070
     0
1000
MTEXTEND
  0
MTEXT
  5
2F0
330
18
100
AcDbEntity
  8
PV0001_1
 62
     7
370
    25
100
AcDbMText
 10
852.2737148404122
 20
-234.26684570312
 30
0.0
 40
3.2
 41
0.0
 71
     4
 72
     5
  1
\T1.40;\W0.61;BUK-15S
 73
     1
 44
1.0
1001
ACAD
1000
MTEXTBEGIN
1070
    73
1070
     1
1070
    44
1040
1.0
1070
    74
1070
     0
1000
MTEXTEND
  0
MTEXT
  5
2F1
330
18
100
AcDbEntity
  8
PV0001_1
 62
     7
370
    25
100
AcDbMText
 10
310.8631618618921
 20
-234.26684570312
 30
0.0
 40
3.2
 41
0.0
 71
     4
 72
     5
  1
\T1.40;\W0.61;BUK-15F
 73
     1
 44
1.0
1001
ACAD
1000
MTEXTBEGIN
1070
    73
1070
     1
1070
    44
1040
1.0
1070
    74
1070
     0
1000
MTEXTEND
  0
MTEXT
  5
2F2
330
18
100
AcDbEntity
  8
PV0001_1
 62
     7
370
    25
100
AcDbMText
 10
328.4284999966621
 20
-23.5
 30
0.0
 40
3.2
 41
0.0
 71
     4
 72
     5
  1
\T1.40;\W0.61;OPTIONAL\U+3000COLLAR
 73
     1
 44
1.0
1001
ACAD
1000
MTEXTBEGIN
1070
    73
1070
     1
1070
    44
1040
1.0
1070
    74
1070
     0
1000
MTEXTEND
  0
LINE
  5
6D2
330
18
100
AcDbEntity
  8
note
  6
kuroda_ittensasen1
100
AcDbLine
 10
202.49998474121
 20
-544.5397222252097
 30
0.0
 11
202.49998474121
 21
-599.9203219181167
 31
0.0
1001
GENIUS_GENOBJ-N-CEN_13
1002
{
1000
OWNER
1000
GEN
1002
}
1001
GENIUS_GENODEF_13
1002
{
1000
HIER
1070
     0
1002
}
1002
{
1000
MANEDIT
1070
     0
1002
}
1002
{
1000
NOSEL
1070
     0
1002
}
1002
{
1000
BEHIND
1070
     0
1002
}
1002
{
1000
OTHER
1070
     0
1002
}
1002
{
1000
REACTOR
1002
}
  0
LINE
  5
6D3
330
18
100
AcDbEntity
  8
note
  6
AM_ISO08W050x2
 48
0.5
100
AcDbLine
 10
460.5
 20
-570.0
 30
0.0
 11
460.5
 21
-575.394
 31
0.0
1001
GENIUS_GENOREF_13
1005
8EF
  0
LINE
  5
6D4
330
18
100
AcDbEntity
  8
note
  6
AM_ISO08W050x2
 48
0.5
100
AcDbLine
 10
460.5
 20
-570.0
 30
0.0
 11
455.1059999999999
 21
-570.0
 31
0.0
1001
GENIUS_GENOREF_13
1005
8EF
  0
LINE
  5
6D5
330
18
100
AcDbEntity
  8
note
  6
AM_ISO08W050x2
 48
0.5
100
AcDbLine
 10
460.5
 20
-570.0
 30
0.0
 11
460.5
 21
-564.606
 31
0.0
1001
GENIUS_GENOREF_13
1005
8EF
  0
LINE
  5
6D6
330
18
100
AcDbEntity
  8
note
  6
AM_ISO08W050x2
 48
0.5
100
AcDbLine
 10
460.5
 20
-570.0
 30
0.0
 11
465.894
 21
-570.0
 31
0.0
1001
GENIUS_GENOREF_13
1005
8EF
  0
CIRCLE
  5
6D7
330
18
100
AcDbEntity
  8
note
100
AcDbCircle
 10
460.5
 20
-570.0
 30
0.0
 40
2.6
  0
CIRCLE
  5
6D8
330
18
100
AcDbEntity
  8
note
100
AcDbCircle
 10
460.5
 20
-570.0
 30
0.0
 40
3.0
  0
LINE
  5
6D9
330
18
100
AcDbEntity
  8
note
100
AcDbLine
 10
449.0
 20
-559.0
 30
0.0
 11
507.0
 21
-559.0
 31
0.0
  0
LINE
  5
6DF
330
18
100
AcDbEntity
  8
note
100
AcDbLine
 10
507.0
 20
-586.0
 30
0.0
 11
449.0
 21
-586.0
 31
0.0
  0
LINE
  5
6E0
330
18
100
AcDbEntity
  8
note
100
AcDbLine
 10
507.0
 20
-550.0
 30
0.0
 11
507.0
 21
-586.0
 31
0.0
  0
LINE
  5
6E1
330
18
100
AcDbEntity
  8
note
100
AcDbLine
 10
449.0
 20
-550.0
 30
0.0
 11
507.0
 21
-550.0
 31
0.0
  0
DIMENSION
  5
6E2
330
18
100
AcDbEntity
  8
PV0001_1
100
AcDbDimension
  2
*D4
 10
869.0
 20
-606.8434066772399
 30
0.0
 11
569.0
 21
-606.8434066772399
 31
0.0
 70
   160
  1
L
 71
     5
 42
600.0
  3
STANDARD
100
AcDbAlignedDimension
 13
269.0
 23
-578.0
 33
0.0
 14
869.0
 24
-578.0
 34
0.0
100
AcDbRotatedDimension
1001
ACAD
1000
DSTYLE
1002
{
1070
   284
1070
     8
1070
   140
1040
3.2
1070
   271
1070
     0
1070
    45
1040
0.1
1070
   173
1070
     1
1070
     6
1000
OPEN
1070
     7
1000
OPEN
1002
}
  0
LINE
  5
6E3
330
18
100
AcDbEntity
  8
PV0001_1
  6
Continuous
370
    50
100
AcDbLine
 10
0.0
 20
-909.0
 30
0.0
 11
1044.0
 21
-909.0
 31
0.0
  0
LINE
  5
6E5
330
18
100
AcDbEntity
  8
PV0001_1
  6
Continuous
370
    50
100
AcDbLine
 10
0.0
 20
-429.4999999999999
 30
0.0
 11
0.0
 21
-909.0
 31
0.0
  0
LINE
  5
6E6
330
18
100
AcDbEntity
  8
PV0001_1
  6
Continuous
370
    50
100
AcDbLine
 10
0.0
 20
-441.5
 30
0.0
 11
289.30798339843
 21
-441.5
 31
0.0
  0
LINE
  5
6E7
330
18
100
AcDbEntity
  8
PV0001_1
  6
Continuous
370
    50
100
AcDbLine
 10
1044.0
 20
-429.4999999999999
 30
0.0
 11
1044.0
 21
-909.0
 31
0.0
  0
LINE
  5
6E8
330
18
100
AcDbEntity
  8
PV0001_1
  6
Continuous
 48
0.5
370
    50
100
AcDbLine
 10
39.671600341796
 20
-436.100006103516
 30
0.0
 11
40.92251586914
 21
-436.100006103516
 31
0.0
  0
LINE
  5
6E9
330
18
100
AcDbEntity
  8
PV0001_1
  6
Continuous
 48
0.5
370
    50
100
AcDbLine
 10
41.800003051757
 20
-437.899993896485
 30
0.0
 11
43.399993896484
 21
-437.899993896485
 31
0.0
  0
LINE
  5
6EA
330
18
100
AcDbEntity
  8
PV0001_1
  6
Continuous
 48
0.5
370
    50
100
AcDbLine
 10
41.51231384277299
 20
-437.036739349366
 30
0.0
 11
41.800052642822
 21
-437.8999595642089
 31
0.0
  0
LINE
  5
6EB
330
18
100
AcDbEntity
  8
PV0001_1
  6
Continuous
 48
0.5
370
    50
100
AcDbLine
 10
38.48781967163
 20
-435.836772918702
 30
0.0
 11
39.154487609863
 21
-433.8367729187019
 31
0.0
  0
LINE
  5
6EC
330
18
100
AcDbEntity
  8
PV0001_1
  6
Continuous
 48
0.5
370
    50
100
AcDbLine
 10
41.399997711181
 20
-433.1000022888189
 30
0.0
 11
43.400001525878
 21
-437.900012969971
 31
0.0
  0
LINE
  5
6ED
330
18
100
AcDbEntity
  8
PV0001_1
  6
Continuous
 48
0.5
370
    50
100
AcDbLine
 10
38.199981689453
 20
-433.0999946594239
 30
0.0
 11
36.199989318847
 21
-437.899978637696
 31
0.0
  0
LINE
  5
6EE
330
18
100
AcDbEntity
  8
PV0001_1
  6
Continuous
 48
0.5
370
    50
100
AcDbLine
 10
40.445644378662
 20
-433.836730957032
 30
0.0
 11
41.112308502197
 21
-435.836727142334
 31
0.0
  0
LINE
  5
6EF
330
18
100
AcDbEntity
  8
PV0001_1
  6
Continuous
 48
0.5
370
    50
100
AcDbLine
 10
37.800079345703
 20
-437.900005340577
 30
0.0
 11
38.087825775146
 21
-437.0367546081549
 31
0.0
  0
LINE
  5
6F0
330
18
100
AcDbEntity
  8
PV0001_1
  6
Continuous
 48
0.5
370
    50
100
AcDbLine
 10
38.677490234375
 20
-436.100006103516
 30
0.0
 11
39.671600341796
 21
-436.100006103516
 31
0.0
  0
LINE
  5
6F1
330
18
100
AcDbEntity
  8
PV0001_1
  6
Continuous
 48
0.5
370
    50
100
AcDbLine
 10
38.27749633789
 20
-436.899993896485
 30
0.0
 11
41.322509765625
 21
-436.899993896485
 31
0.0
  0
LINE
  5
6F2
330
18
100
AcDbEntity
  8
PV0001_1
  6
Continuous
 48
0.5
370
    50
100
AcDbLine
 10
38.199996948242
 20
-433.100006103516
 30
0.0
 11
41.399993896484
 21
-433.100006103516
 31
0.0
  0
LINE
  5
6F3
330
18
100
AcDbEntity
  8
PV0001_1
  6
Continuous
 48
0.5
370
    50
100
AcDbLine
 10
39.344146728515
 20
-433.7000122070319
 30
0.0
 11
40.25585937499999
 21
-433.7000122070319
 31
0.0
  0
LINE
  5
6F4
330
18
100
AcDbEntity
  8
PV0001_1
  6
Continuous
 48
0.5
370
    50
100
AcDbLine
 10
36.199996948242
 20
-437.899993896485
 30
0.0
 11
37.800003051757
 21
-437.899993896485
 31
0.0
  0
LINE
  5
6F5
330
18
100
AcDbEntity
  8
PV0001_1
  6
Continuous
 48
0.5
370
    50
100
AcDbLine
 10
31.600006103515
 20
-437.100006103516
 30
0.0
 11
33.80000305175701
 21
-437.100006103516
 31
0.0
  0
LINE
  5
6F6
330
18
100
AcDbEntity
  8
PV0001_1
  6
Continuous
 48
0.5
370
    50
100
AcDbLine
 10
34.600006103515
 20
-434.4999999999999
 30
0.0
 11
34.600006103515
 21
-436.299987792969
 31
0.0
  0
LINE
  5
6F7
330
18
100
AcDbEntity
  8
PV0001_1
  6
Continuous
 48
0.5
370
    50
100
AcDbLine
 10
31.399993896484
 20
-433.899993896485
 30
0.0
 11
31.399993896484
 21
-436.899993896485
 31
0.0
  0
LINE
  5
6F8
330
18
100
AcDbEntity
  8
PV0001_1
  6
Continuous
 48
0.5
370
    50
100
AcDbLine
 10
29.800003051757
 20
-433.0999755859379
 30
0.0
 11
29.800003051757
 21
-437.899993896485
 31
0.0
  0
LINE
  5
6F9
330
18
100
AcDbEntity
  8
PV0001_1
  6
Continuous
 48
0.5
370
    50
100
AcDbLine
 10
36.199996948242
 20
-434.4999999999999
 30
0.0
 11
36.199996948242
 21
-436.5
 31
0.0
  0
LINE
  5
6FA
330
18
100
AcDbEntity
  8
PV0001_1
  6
Continuous
 48
0.5
370
    50
100
AcDbLine
 10
27.800003051757
 20
-434.4999999999999
 30
0.0
 11
27.800003051757
 21
-436.299987792969
 31
0.0
  0
LINE
  5
6FB
330
18
100
AcDbEntity
  8
PV0001_1
  6
Continuous
 48
0.5
370
    50
100
AcDbLine
 10
24.399993896484
 20
-434.4999999999999
 30
0.0
 11
24.399993896484
 21
-436.299987792969
 31
0.0
  0
LINE
  5
6FC
330
18
100
AcDbEntity
  8
PV0001_1
  6
Continuous
 48
0.5
370
    50
100
AcDbLine
 10
25.199996948242
 20
-437.100006103516
 30
0.0
 11
27.0
 21
-437.100006103516
 31
0.0
  0
LINE
  5
6FD
330
18
100
AcDbEntity
  8
PV0001_1
  6
Continuous
 48
0.5
370
    50
100
AcDbLine
 10
29.800003051757
 20
-433.100006103516
 30
0.0
 11
34.800003051757
 21
-433.100006103516
 31
0.0
  0
LINE
  5
6FE
330
18
100
AcDbEntity
  8
PV0001_1
  6
Continuous
 48
0.5
370
    50
100
AcDbLine
 10
31.600006103515
 20
-433.7000122070319
 30
0.0
 11
33.80000305175701
 21
-433.7000122070319
 31
0.0
  0
LINE
  5
6FF
330
18
100
AcDbEntity
  8
PV0001_1
  6
Continuous
 48
0.5
370
    50
100
AcDbLine
 10
29.793655395507
 20
-437.899993896485
 30
0.0
 11
34.800003051757
 21
-437.899993896485
 31
0.0
  0
LINE
  5
700
330
18
100
AcDbEntity
  8
PV0001_1
  6
Continuous
 48
0.5
370
    50
100
AcDbLine
 10
29.399993896484
 20
-434.4999999999999
 30
0.0
 11
29.399993896484
 21
-436.5
 31
0.0
  0
LINE
  5
701
330
18
100
AcDbEntity
  8
PV0001_1
  6
Continuous
 48
0.5
370
    50
100
AcDbLine
 10
22.800003051757
 20
-434.4999999999999
 30
0.0
 11
22.800003051757
 21
-436.5
 31
0.0
  0
LINE
  5
702
330
18
100
AcDbEntity
  8
PV0001_1
  6
Continuous
 48
0.5
370
    50
100
AcDbLine
 10
20.800003051757
 20
-436.899993896485
 30
0.0
 11
20.800003051757
 21
-437.899993896485
 31
0.0
  0
LINE
  5
703
330
18
100
AcDbEntity
  8
PV0001_1
  6
Continuous
 48
0.5
370
    50
100
AcDbLine
 10
24.199996948242
 20
-433.100006103516
 30
0.0
 11
28.0
 21
-433.100006103516
 31
0.0
  0
LINE
  5
704
330
18
100
AcDbEntity
  8
PV0001_1
  6
Continuous
 48
0.5
370
    50
100
AcDbLine
 10
25.199996948242
 20
-433.7000122070319
 30
0.0
 11
27.0
 21
-433.7000122070319
 31
0.0
  0
LINE
  5
705
330
18
100
AcDbEntity
  8
PV0001_1
  6
Continuous
 48
0.5
370
    50
100
AcDbLine
 10
24.199996948242
 20
-437.899993896485
 30
0.0
 11
28.0
 21
-437.899993896485
 31
0.0
  0
LINE
  5
706
330
18
100
AcDbEntity
  8
PV0001_1
  6
Continuous
 48
0.5
370
    50
100
AcDbLine
 10
17.899993896484
 20
-436.700012207032
 30
0.0
 11
17.899993896484
 21
-437.899993896485
 31
0.0
  0
LINE
  5
707
330
18
100
AcDbEntity
  8
PV0001_1
  6
Continuous
 48
0.5
370
    50
100
AcDbLine
 10
20.800003051757
 20
-437.899993896485
 30
0.0
 11
22.5
 21
-437.899993896485
 31
0.0
  0
LINE
  5
708
330
18
100
AcDbEntity
  8
PV0001_1
  6
Continuous
 48
0.5
370
    50
100
AcDbLine
 10
18.100006103515
 20
-435.6000061035159
 30
0.0
 11
20.199996948242
 21
-435.6000061035159
 31
0.0
  0
LINE
  5
709
330
18
100
AcDbEntity
  8
PV0001_1
  6
Continuous
 48
0.5
370
    50
100
AcDbLine
 10
18.100006103515
 20
-433.7000122070319
 30
0.0
 11
20.199996948242
 21
-433.7000122070319
 31
0.0
  0
LINE
  5
70A
330
18
100
AcDbEntity
  8
PV0001_1
  6
Continuous
 48
0.5
370
    50
100
AcDbLine
 10
18.300003051757
 20
-436.299987792969
 30
0.0
 11
20.199996948242
 21
-436.299987792969
 31
0.0
  0
LINE
  5
70B
330
18
100
AcDbEntity
  8
PV0001_1
  6
Continuous
 48
0.5
370
    50
100
AcDbLine
 10
17.899993896484
 20
-433.899993896485
 30
0.0
 11
17.899993896484
 21
-435.3999938964849
 31
0.0
  0
LINE
  5
70C
330
18
100
AcDbEntity
  8
PV0001_1
  6
Continuous
 48
0.5
370
    50
100
AcDbLine
 10
20.800003051757
 20
-434.2999877929689
 30
0.0
 11
20.800003051757
 21
-435.0
 31
0.0
  0
LINE
  5
70D
330
18
100
AcDbEntity
  8
PV0001_1
  6
Continuous
 48
0.5
370
    50
100
AcDbLine
 10
16.300003051757
 20
-433.0999755859379
 30
0.0
 11
16.300003051757
 21
-437.899993896485
 31
0.0
  0
LINE
  5
70E
330
18
100
AcDbEntity
  8
PV0001_1
  6
Continuous
 48
0.5
370
    50
100
AcDbLine
 10
16.300003051757
 20
-437.899993896485
 30
0.0
 11
17.899993896484
 21
-437.899993896485
 31
0.0
  0
LINE
  5
70F
330
18
100
AcDbEntity
  8
PV0001_1
  6
Continuous
 48
0.5
370
    50
100
AcDbLine
 10
16.300003051757
 20
-433.100006103516
 30
0.0
 11
21.0
 21
-433.100006103516
 31
0.0
  0
LINE
  5
710
330
18
100
AcDbEntity
  8
PV0001_1
  6
Continuous
 48
0.5
370
    50
100
AcDbLine
 10
14.399993896484
 20
-433.100006103516
 30
0.0
 11
15.800003051757
 21
-433.100006103516
 31
0.0
  0
LINE
  5
711
330
18
100
AcDbEntity
  8
PV0001_1
  6
Continuous
 48
0.5
370
    50
100
AcDbLine
 10
11.600006103515
 20
-437.100006103516
 30
0.0
 11
13.800003051757
 21
-437.100006103516
 31
0.0
  0
LINE
  5
712
330
18
100
AcDbEntity
  8
PV0001_1
  6
Continuous
 48
0.5
370
    50
100
AcDbLine
 10
14.399993896484
 20
-433.0999755859379
 30
0.0
 11
14.399993896484
 21
-436.5
 31
0.0
  0
LINE
  5
713
330
18
100
AcDbEntity
  8
PV0001_1
  6
Continuous
 48
0.5
370
    50
100
AcDbLine
 10
11.0
 20
-433.100006103516
 30
0.0
 11
11.0
 21
-436.5
 31
0.0
  0
LINE
  5
714
330
18
100
AcDbEntity
  8
PV0001_1
  6
Continuous
 48
0.5
370
    50
100
AcDbLine
 10
15.800003051757
 20
-433.0999755859379
 30
0.0
 11
15.800003051757
 21
-436.700012207032
 31
0.0
  0
LINE
  5
715
330
18
100
AcDbEntity
  8
PV0001_1
  6
Continuous
 48
0.5
370
    50
100
AcDbLine
 10
4.6000061035156
 20
-435.700012207032
 30
0.0
 11
4.6000061035156
 21
-437.899993896485
 31
0.0
  0
LINE
  5
716
330
18
100
AcDbEntity
  8
PV0001_1
  6
Continuous
 48
0.5
370
    50
100
AcDbLine
 10
7.199996948242199
 20
-433.100006103516
 30
0.0
 11
9.199996948242199
 21
-433.100006103516
 31
0.0
  0
LINE
  5
717
330
18
100
AcDbEntity
  8
PV0001_1
  6
Continuous
 48
0.5
370
    50
100
AcDbLine
 10
7.6000061035156
 20
-437.899993896485
 30
0.0
 11
9.6000061035156
 21
-437.899993896485
 31
0.0
  0
LINE
  5
718
330
18
100
AcDbEntity
  8
PV0001_1
  6
Continuous
 48
0.5
370
    50
100
AcDbLine
 10
7.3309688568115
 20
-434.9690666198729
 30
0.0
 11
9.2000284194946
 21
-433.100009918213
 31
0.0
  0
LINE
  5
719
330
18
100
AcDbEntity
  8
PV0001_1
  6
Continuous
 48
0.5
370
    50
100
AcDbLine
 10
5.8600568771362
 20
-434.8227806091309
 30
0.0
 11
7.1999979019165
 21
-433.1000022888189
 31
0.0
  0
LINE
  5
71A
330
18
100
AcDbEntity
  8
PV0001_1
  6
Continuous
 48
0.5
370
    50
100
AcDbLine
 10
7.320542812347399
 20
-435.2405815124519
 30
0.0
 11
9.600020408630399
 21
-437.8999748229979
 31
0.0
  0
LINE
  5
71B
330
18
100
AcDbEntity
  8
PV0001_1
  6
Continuous
 48
0.5
370
    50
100
AcDbLine
 10
5.8599553108215
 20
-435.580024719239
 30
0.0
 11
7.5999608039856
 21
-437.9000320434569
 31
0.0
  0
LINE
  5
71C
330
18
100
AcDbEntity
  8
PV0001_1
  6
Continuous
 48
0.5
370
    50
100
AcDbLine
 10
4.8000030517578
 20
-434.8999938964849
 30
0.0
 11
5.7021789550781
 21
-434.8999938964849
 31
0.0
  0
LINE
  5
71D
330
18
100
AcDbEntity
  8
PV0001_1
  6
Continuous
 48
0.5
370
    50
100
AcDbLine
 10
4.8000030517578
 20
-435.5
 30
0.0
 11
5.699996948242199
 21
-435.5
 31
0.0
  0
LINE
  5
71E
330
18
100
AcDbEntity
  8
PV0001_1
  6
Continuous
 48
0.5
370
    50
100
AcDbLine
 10
9.6000061035156
 20
-433.100006103516
 30
0.0
 11
11.0
 21
-433.100006103516
 31
0.0
  0
LINE
  5
71F
330
18
100
AcDbEntity
  8
PV0001_1
  6
Continuous
 48
0.5
370
    50
100
AcDbLine
 10
10.800003051757
 20
-437.899993896485
 30
0.0
 11
14.600006103515
 21
-437.899993896485
 31
0.0
  0
LINE
  5
720
330
18
100
AcDbEntity
  8
PV0001_1
  6
Continuous
 48
0.5
370
    50
100
AcDbLine
 10
9.6000061035156
 20
-433.100006103516
 30
0.0
 11
9.6000061035156
 21
-436.700012207032
 31
0.0
  0
LINE
  5
721
330
18
100
AcDbEntity
  8
PV0001_1
  6
Continuous
 48
0.5
370
    50
100
AcDbLine
 10
4.6000061035156
 20
-433.100006103516
 30
0.0
 11
4.6000061035156
 21
-434.7000122070319
 31
0.0
  0
LINE
  5
722
330
18
100
AcDbEntity
  8
PV0001_1
  6
Continuous
 48
0.5
370
    50
100
AcDbLine
 10
3.0
 20
-433.100006103516
 30
0.0
 11
4.6000061035156
 21
-433.100006103516
 31
0.0
  0
LINE
  5
723
330
18
100
AcDbEntity
  8
PV0001_1
  6
Continuous
 48
0.5
370
    50
100
AcDbLine
 10
3.0
 20
-433.100006103516
 30
0.0
 11
3.0
 21
-437.899993896485
 31
0.0
  0
LINE
  5
724
330
18
100
AcDbEntity
  8
PV0001_1
  6
Continuous
 48
0.5
370
    50
100
AcDbLine
 10
3.0
 20
-437.899993896485
 30
0.0
 11
4.6000061035156
 21
-437.899993896485
 31
0.0
  0
LINE
  5
725
330
18
100
AcDbEntity
  8
PV0001_1
  6
Continuous
 48
0.5
370
    50
100
AcDbLine
 10
108.39999389648
 20
-429.4999999999999
 30
0.0
 11
108.39999389648
 21
-441.5
 31
0.0
  0
LINE
  5
726
330
18
100
AcDbEntity
  8
PV0001_1
  6
Continuous
 48
0.5
370
    50
100
AcDbLine
 10
46.399993896484
 20
-429.4999999999999
 30
0.0
 11
46.399993896484
 21
-441.5
 31
0.0
  0
LINE
  5
727
330
18
100
AcDbEntity
  8
PV0001_1
  6
Continuous
 48
0.5
370
   100
100
AcDbLine
 10
281.71597290039
 20
-432.7999877929689
 30
0.0
 11
281.71597290039
 21
-438.2000122070319
 31
0.0
  0
LINE
  5
728
330
18
100
AcDbEntity
  8
PV0001_1
  6
Continuous
 48
0.5
370
   100
100
AcDbLine
 10
275.23599243164
 20
-437.120372772217
 30
0.0
 11
281.71600341796
 21
-438.200370788575
 31
0.0
  0
LINE
  5
729
330
18
100
AcDbEntity
  8
PV0001_1
  6
Continuous
 48
0.5
370
   100
100
AcDbLine
 10
275.23596191406
 20
-433.8800048828129
 30
0.0
 11
275.23596191406
 21
-437.120056152344
 31
0.0
  0
LINE
  5
72A
330
18
100
AcDbEntity
  8
PV0001_1
  6
Continuous
 48
0.5
370
   100
100
AcDbLine
 10
275.23602294921
 20
-433.8803482055669
 30
0.0
 11
281.71603393554
 21
-432.800346374512
 31
0.0
  0
LINE
  5
72B
330
18
100
AcDbEntity
  8
PV0001_1
  6
CENTER2
 48
0.5
370
    25
100
AcDbLine
 10
274.3935546875
 20
-435.5
 30
0.0
 11
282.82943725585
 21
-435.5
 31
0.0
  0
LINE
  5
72C
330
18
100
AcDbEntity
  8
PV0001_1
  6
CENTER2
 48
0.5
370
    25
100
AcDbLine
 10
266.30798339843
 20
-431.55517578125
 30
0.0
 11
266.30798339843
 21
-439.232879638672
 31
0.0
  0
LINE
  5
72D
330
18
100
AcDbEntity
  8
PV0001_1
  6
CENTER2
 48
0.5
370
    25
100
AcDbLine
 10
262.46533203125
 20
-435.5
 30
0.0
 11
270.05261230468
 21
-435.5
 31
0.0
  0
LINE
  5
72E
330
18
100
AcDbEntity
  8
PV0001_1
  6
Continuous
 48
0.5
370
    50
100
AcDbLine
 10
289.30798339843
 20
-429.4999999999999
 30
0.0
 11
289.30798339843
 21
-441.5
 31
0.0
  0
LINE
  5
72F
330
18
100
AcDbEntity
  8
PV0001_1
  6
Continuous
 48
0.5
370
    50
100
AcDbLine
 10
259.30798339843
 20
-429.4999999999999
 30
0.0
 11
259.30798339843
 21
-441.5
 31
0.0
  0
LINE
  5
730
330
18
100
AcDbEntity
  8
PV0001_1
  6
Continuous
 48
0.5
370
    50
100
AcDbLine
 10
232.39999389648
 20
-429.4999999999999
 30
0.0
 11
232.39999389648
 21
-441.5
 31
0.0
  0
LINE
  5
731
330
18
100
AcDbEntity
  8
PV0001_1
  6
Continuous
370
    50
100
AcDbLine
 10
108.39999389648
 20
-453.5
 30
0.0
 11
259.30798339843
 21
-453.5
 31
0.0
  0
LINE
  5
732
330
18
100
AcDbEntity
  8
PV0001_1
  6
Continuous
 48
0.5
370
    50
100
AcDbLine
 10
232.39999389648
 20
-441.5
 30
0.0
 11
232.39999389648
 21
-453.5
 31
0.0
  0
LINE
  5
733
330
18
100
AcDbEntity
  8
PV0001_1
  6
Continuous
 48
0.5
370
    50
100
AcDbLine
 10
108.39999389648
 20
-441.5
 30
0.0
 11
108.39999389648
 21
-453.5
 31
0.0
  0
LINE
  5
734
330
18
100
AcDbEntity
  8
PV0001_1
  6
Continuous
 48
0.5
370
    50
100
AcDbLine
 10
259.30798339843
 20
-441.5
 30
0.0
 11
259.30798339843
 21
-453.5
 31
0.0
  0
LINE
  5
735
330
18
100
AcDbEntity
  8
PV0001_1
  6
Continuous
370
    50
100
AcDbLine
 10
108.39999389648
 20
-465.5
 30
0.0
 11
259.30798339843
 21
-465.5
 31
0.0
  0
LINE
  5
736
330
18
100
AcDbEntity
  8
PV0001_1
  6
Continuous
 48
0.5
370
    50
100
AcDbLine
 10
232.39999389648
 20
-453.5
 30
0.0
 11
232.39999389648
 21
-465.5
 31
0.0
  0
LINE
  5
737
330
18
100
AcDbEntity
  8
PV0001_1
  6
Continuous
 48
0.5
370
    50
100
AcDbLine
 10
108.39999389648
 20
-453.5
 30
0.0
 11
108.39999389648
 21
-465.5
 31
0.0
  0
LINE
  5
738
330
18
100
AcDbEntity
  8
PV0001_1
  6
Continuous
 48
0.5
370
    50
100
AcDbLine
 10
259.30798339843
 20
-453.5
 30
0.0
 11
259.30798339843
 21
-465.5
 31
0.0
  0
LINE
  5
739
330
18
100
AcDbEntity
  8
PV0001_1
  6
CENTER2
370
    25
100
AcDbLine
 10
177.10623168945
 20
-768.0
 30
0.0
 11
233.8728942871
 21
-768.0
 31
0.0
  0
LINE
  5
73A
330
18
100
AcDbEntity
  8
PV0001_1
  6
CENTER2
 48
0.5
370
    25
100
AcDbLine
 10
210.19345092773
 20
-752.3573303222599
 30
0.0
 11
214.24565124511
 21
-741.22399902343
 31
0.0
  0
LINE
  5
73B
330
18
100
AcDbEntity
  8
PV0001_1
  6
CENTER2
370
    25
100
AcDbLine
 10
181.58166503906
 20
-745.08163452148
 30
0.0
 11
228.54202270507
 21
-792.04196166992
 31
0.0
  0
LINE
  5
73C
330
18
100
AcDbEntity
  8
PV0001_1
  6
CENTER2
 48
0.5
370
    25
100
AcDbLine
 10
220.44294738769
 20
-773.8027954101499
 30
0.0
 11
231.84922790527
 21
-777.9543457031199
 31
0.0
  0
LINE
  5
73D
330
18
100
AcDbEntity
  8
PV0001_1
  6
CENTER2
 48
0.5
370
    25
100
AcDbLine
 10
176.7998046875
 20
-757.9179687499999
 30
0.0
 11
189.73643493652
 21
-762.6265258789
 31
0.0
  0
LINE
  5
73E
330
18
100
AcDbEntity
  8
PV0001_1
  6
CENTER2
 48
0.5
370
    25
100
AcDbLine
 10
195.00877380371
 20
-794.0768432617099
 30
0.0
 11
198.70733642578
 21
-783.9151306152301
 31
0.0
  0
LINE
  5
73F
330
18
100
AcDbEntity
  8
PV0001_1
  6
CENTER2
370
    25
100
AcDbLine
 10
180.66508483886
 20
-791.8348693847599
 30
0.0
 11
228.62460327148
 21
-743.87533569335
 31
0.0
  0
LINE
  5
740
330
18
100
AcDbEntity
  8
PV0001_1
  6
Continuous
 48
0.5
370
    50
100
AcDbLine
 10
215.49998474121
 20
-762.06283569335
 30
0.0
 11
215.49998474121
 21
-773.9371643066399
 31
0.0
  0
LINE
  5
741
330
18
100
AcDbEntity
  8
PV0001_1
  6
Continuous
 48
0.5
370
    50
100
AcDbLine
 10
193.49998474121
 20
-762.06283569335
 30
0.0
 11
193.49998474121
 21
-773.9371643066399
 31
0.0
  0
LINE
  5
742
330
18
100
AcDbEntity
  8
PV0001_1
  6
Continuous
 48
0.5
370
    50
100
AcDbLine
 10
198.56282043457
 20
-779.0
 30
0.0
 11
210.43714904785
 21
-779.0
 31
0.0
  0
LINE
  5
743
330
18
100
AcDbEntity
  8
PV0001_1
  6
Continuous
 48
0.5
370
    50
100
AcDbLine
 10
198.56282043457
 20
-757.0
 30
0.0
 11
210.43714904785
 21
-757.0
 31
0.0
  0
LINE
  5
744
330
18
100
AcDbEntity
  8
PV0001_1
  6
Continuous
370
    50
100
AcDbLine
 10
178.49998474121
 20
-750.2165832519499
 30
0.0
 11
178.49998474121
 21
-785.78341674804
 31
0.0
  0
LINE
  5
745
330
18
100
AcDbEntity
  8
PV0001_1
  6
Continuous
370
    50
100
AcDbLine
 10
230.49998474121
 20
-750.2165832519499
 30
0.0
 11
230.49998474121
 21
-785.78341674804
 31
0.0
  0
LINE
  5
746
330
18
100
AcDbEntity
  8
PV0001_1
  6
Continuous
370
    50
100
AcDbLine
 10
186.71656799316
 20
-742.0
 30
0.0
 11
222.28340148925
 21
-742.0
 31
0.0
  0
LINE
  5
747
330
18
100
AcDbEntity
  8
PV0001_1
  6
Continuous
370
    50
100
AcDbLine
 10
186.71656799316
 20
-794.0
 30
0.0
 11
222.28340148925
 21
-794.0
 31
0.0
  0
LINE
  5
748
330
18
100
AcDbEntity
  8
PV0001_1
  6
CENTER2
370
    25
100
AcDbLine
 10
204.49998474121
 20
-738.5434875488199
 30
0.0
 11
204.49998474121
 21
-796.5348205566399
 31
0.0
  0
LINE
  5
749
330
18
100
AcDbEntity
  8
PV0001_1
  6
DASHED2
 48
0.5
370
    50
100
AcDbLine
 10
976.0
 20
-689.5
 30
0.0
 11
976.0
 21
-706.5
 31
0.0
  0
LINE
  5
74A
330
18
100
AcDbEntity
  8
PV0001_1
  6
DASHED2
 48
0.5
370
    50
100
AcDbLine
 10
976.0
 20
-629.4999999999999
 30
0.0
 11
976.0
 21
-646.49996948242
 31
0.0
  0
LINE
  5
74B
330
18
100
AcDbEntity
  8
PV0001_1
  6
DASHED2
 48
0.5
370
    50
100
AcDbLine
 10
961.0
 20
-629.50001525878
 30
0.0
 11
976.0
 21
-629.50001525878
 31
0.0
  0
LINE
  5
74C
330
18
100
AcDbEntity
  8
PV0001_1
  6
DASHED2
 48
0.5
370
    50
100
AcDbLine
 10
961.0
 20
-646.5000305175699
 30
0.0
 11
976.0
 21
-646.5000305175699
 31
0.0
  0
LINE
  5
74D
330
18
100
AcDbEntity
  8
PV0001_1
  6
DASHED2
 48
0.5
370
    50
100
AcDbLine
 10
961.0
 20
-689.5
 30
0.0
 11
976.0
 21
-689.5
 31
0.0
  0
LINE
  5
74E
330
18
100
AcDbEntity
  8
PV0001_1
  6
DASHED2
 48
0.5
370
    50
100
AcDbLine
 10
961.0
 20
-706.5000305175699
 30
0.0
 11
976.0
 21
-706.5000305175699
 31
0.0
  0
LINE
  5
74F
330
18
100
AcDbEntity
  8
PV0001_1
  6
DASHED2
 48
0.5
370
    50
100
AcDbLine
 10
976.0
 20
-692.4999999999999
 30
0.0
 11
1001.0
 21
-692.4999999999999
 31
0.0
  0
LINE
  5
750
330
18
100
AcDbEntity
  8
PV0001_1
  6
DASHED2
 48
0.5
370
    50
100
AcDbLine
 10
976.0
 20
-703.5
 30
0.0
 11
1001.0
 21
-703.5
 31
0.0
  0
LINE
  5
751
330
18
100
AcDbEntity
  8
PV0001_1
  6
DASHED2
 48
0.5
370
    50
100
AcDbLine
 10
976.0
 20
-643.5
 30
0.0
 11
1001.0
 21
-643.5
 31
0.0
  0
LINE
  5
752
330
18
100
AcDbEntity
  8
PV0001_1
  6
DASHED2
 48
0.5
370
    50
100
AcDbLine
 10
976.0
 20
-632.5
 30
0.0
 11
1001.0
 21
-632.5
 31
0.0
  0
LINE
  5
753
330
18
100
AcDbEntity
  8
PV0001_1
  6
Continuous
 48
0.5
370
    50
100
AcDbLine
 10
961.0
 20
-688.4999999999999
 30
0.0
 11
961.0
 21
-708.0
 31
0.0
  0
LINE
  5
754
330
18
100
AcDbEntity
  8
PV0001_1
  6
Continuous
 48
0.5
370
    50
100
AcDbLine
 10
961.0
 20
-628.0
 30
0.0
 11
961.0
 21
-647.5
 31
0.0
  0
LINE
  5
755
330
18
100
AcDbEntity
  8
PV0001_1
  6
Continuous
 48
0.5
370
    50
100
AcDbLine
 10
951.0
 20
-647.5
 30
0.0
 11
961.0
 21
-647.5
 31
0.0
  0
LINE
  5
756
330
18
100
AcDbEntity
  8
PV0001_1
  6
Continuous
 48
0.5
370
    50
100
AcDbLine
 10
951.0
 20
-688.4999999999999
 30
0.0
 11
961.0
 21
-688.4999999999999
 31
0.0
  0
LINE
  5
757
330
18
100
AcDbEntity
  8
PV0001_1
  6
Continuous
370
    50
100
AcDbLine
 10
951.0
 20
-647.5
 30
0.0
 11
951.0
 21
-688.4999999999999
 31
0.0
  0
LINE
  5
758
330
18
100
AcDbEntity
  8
PV0001_1
  6
Continuous
370
    50
100
AcDbLine
 10
1001.0
 20
-628.0
 30
0.0
 11
1001.0
 21
-708.0
 31
0.0
  0
LINE
  5
759
330
18
100
AcDbEntity
  8
PV0001_1
  6
CENTER2
370
    25
100
AcDbLine
 10
959.07824707031
 20
-638.0
 30
0.0
 11
1003.0332641601
 21
-638.0
 31
0.0
  0
LINE
  5
75A
330
18
100
AcDbEntity
  8
PV0001_1
  6
CENTER2
370
    25
100
AcDbLine
 10
948.29681396484
 20
-668.0
 30
0.0
 11
1003.6552734375
 21
-668.0
 31
0.0
  0
LINE
  5
75B
330
18
100
AcDbEntity
  8
PV0001_1
  6
CENTER2
370
    25
100
AcDbLine
 10
971.0
 20
-624.18540954589
 30
0.0
 11
971.0
 21
-711.6186828613199
 31
0.0
  0
LINE
  5
75C
330
18
100
AcDbEntity
  8
PV0001_1
  6
Continuous
370
    50
100
AcDbLine
 10
961.0
 20
-708.0
 30
0.0
 11
1001.0
 21
-708.0
 31
0.0
  0
LINE
  5
75D
330
18
100
AcDbEntity
  8
PV0001_1
  6
Continuous
370
    50
100
AcDbLine
 10
961.0
 20
-628.0
 30
0.0
 11
1001.0
 21
-628.0
 31
0.0
  0
LINE
  5
75E
330
18
100
AcDbEntity
  8
PV0001_1
  6
CENTER2
370
    25
100
AcDbLine
 10
958.45623779296
 20
-698.0
 30
0.0
 11
1003.4479370117
 21
-698.0
 31
0.0
  0
LINE
  5
75F
330
18
100
AcDbEntity
  8
PV0001_1
  6
CENTER2
 48
0.5
370
    25
100
AcDbLine
 10
211.92010498046
 20
-658.5798645019499
 30
0.0
 11
220.66407775878
 21
-649.83587646484
 31
0.0
  0
LINE
  5
760
330
18
100
AcDbEntity
  8
PV0001_1
  6
CENTER2
 48
0.5
370
    25
100
AcDbLine
 10
193.07984924316
 20
-658.5798950195299
 30
0.0
 11
184.33586120605
 21
-649.83590698242
 31
0.0
  0
LINE
  5
761
330
18
100
AcDbEntity
  8
PV0001_1
  6
CENTER2
 48
0.5
370
    25
100
AcDbLine
 10
211.92010498046
 20
-677.42013549804
 30
0.0
 11
220.66409301757
 21
-686.1641235351499
 31
0.0
  0
LINE
  5
762
330
18
100
AcDbEntity
  8
PV0001_1
  6
Continuous
 48
0.5
370
    50
100
AcDbLine
 10
208.43713378906
 20
-657.0000152587799
 30
0.0
 11
196.56283569335
 21
-657.0000152587799
 31
0.0
  0
LINE
  5
763
330
18
100
AcDbEntity
  8
PV0001_1
  6
Continuous
 48
0.5
370
    50
100
AcDbLine
 10
208.43713378906
 20
-678.99998474121
 30
0.0
 11
196.56283569335
 21
-678.99998474121
 31
0.0
  0
LINE
  5
764
330
18
100
AcDbEntity
  8
PV0001_1
  6
Continuous
 48
0.5
370
    50
100
AcDbLine
 10
191.5
 20
-673.9371490478499
 30
0.0
 11
191.5
 21
-662.06283569335
 31
0.0
  0
LINE
  5
765
330
18
100
AcDbEntity
  8
PV0001_1
  6
Continuous
 48
0.5
370
    50
100
AcDbLine
 10
213.49996948242
 20
-673.9371490478499
 30
0.0
 11
213.49996948242
 21
-662.06283569335
 31
0.0
  0
LINE
  5
766
330
18
100
AcDbEntity
  8
PV0001_1
  6
CENTER2
 48
0.5
370
    25
100
AcDbLine
 10
193.07986450195
 20
-677.42010498046
 30
0.0
 11
184.33587646484
 21
-686.1640930175699
 31
0.0
  0
LINE
  5
767
330
18
100
AcDbEntity
  8
PV0001_1
  6
CENTER2
370
    25
100
AcDbLine
 10
224.99899291992
 20
-668.0
 30
0.0
 11
169.52139282226
 21
-668.0
 31
0.0
  0
LINE
  5
768
330
18
100
AcDbEntity
  8
PV0001_1
  6
CENTER2
370
    25
100
AcDbLine
 10
202.49998474121
 20
-711.0
 30
0.0
 11
202.49998474121
 21
-625.0
 31
0.0
  0
LINE
  5
769
330
18
100
AcDbEntity
  8
PV0001_1
  6
Continuous
370
    50
100
AcDbLine
 10
220.99996948242
 20
-684.06237792968
 30
0.0
 11
220.99996948242
 21
-651.93759155273
 31
0.0
  0
LINE
  5
76A
330
18
100
AcDbEntity
  8
PV0001_1
  6
Continuous
370
    50
100
AcDbLine
 10
184.0
 20
-684.06237792968
 30
0.0
 11
184.0
 21
-651.93759155273
 31
0.0
  0
LINE
  5
76B
330
18
100
AcDbEntity
  8
PV0001_1
  6
Continuous
370
    50
100
AcDbLine
 10
218.56237792968
 20
-649.5000152587799
 30
0.0
 11
186.43759155273
 21
-649.5000152587799
 31
0.0
  0
LINE
  5
76C
330
18
100
AcDbEntity
  8
PV0001_1
  6
Continuous
370
    50
100
AcDbLine
 10
218.56237792968
 20
-686.5
 30
0.0
 11
186.43759155273
 21
-686.5
 31
0.0
  0
LINE
  5
76D
330
18
100
AcDbEntity
  8
PV0001_1
  6
DASHED2
 48
0.5
370
    50
100
AcDbLine
 10
212.49998474121
 20
-629.50001525878
 30
0.0
 11
197.49998474121
 21
-629.50001525878
 31
0.0
  0
LINE
  5
76E
330
18
100
AcDbEntity
  8
PV0001_1
  6
DASHED2
 48
0.5
370
    50
100
AcDbLine
 10
197.49998474121
 20
-632.5
 30
0.0
 11
172.49998474121
 21
-632.5
 31
0.0
  0
LINE
  5
76F
330
18
100
AcDbEntity
  8
PV0001_1
  6
CENTER2
370
    25
100
AcDbLine
 10
213.9308013916
 20
-638.0
 30
0.0
 11
170.88784790039
 21
-638.0
 31
0.0
  0
LINE
  5
770
330
18
100
AcDbEntity
  8
PV0001_1
  6
DASHED2
 48
0.5
370
    50
100
AcDbLine
 10
197.49998474121
 20
-643.5
 30
0.0
 11
172.49998474121
 21
-643.5
 31
0.0
  0
LINE
  5
771
330
18
100
AcDbEntity
  8
PV0001_1
  6
DASHED2
 48
0.5
370
    50
100
AcDbLine
 10
197.49998474121
 20
-629.4999999999999
 30
0.0
 11
197.49998474121
 21
-646.49996948242
 31
0.0
  0
LINE
  5
772
330
18
100
AcDbEntity
  8
PV0001_1
  6
DASHED2
 48
0.5
370
    50
100
AcDbLine
 10
212.49998474121
 20
-646.49998474121
 30
0.0
 11
197.49998474121
 21
-646.49998474121
 31
0.0
  0
LINE
  5
773
330
18
100
AcDbEntity
  8
PV0001_1
  6
DASHED2
 48
0.5
370
    50
100
AcDbLine
 10
197.49998474121
 20
-706.4999694824201
 30
0.0
 11
197.49998474121
 21
-689.5
 31
0.0
  0
LINE
  5
774
330
18
100
AcDbEntity
  8
PV0001_1
  6
DASHED2
 48
0.5
370
    50
100
AcDbLine
 10
197.49998474121
 20
-692.4999999999999
 30
0.0
 11
172.49998474121
 21
-692.4999999999999
 31
0.0
  0
LINE
  5
775
330
18
100
AcDbEntity
  8
PV0001_1
  6
DASHED2
 48
0.5
370
    50
100
AcDbLine
 10
197.49998474121
 20
-703.5
 30
0.0
 11
172.49998474121
 21
-703.5
 31
0.0
  0
LINE
  5
776
330
18
100
AcDbEntity
  8
PV0001_1
  6
DASHED2
 48
0.5
370
    50
100
AcDbLine
 10
212.49998474121
 20
-689.5
 30
0.0
 11
197.49998474121
 21
-689.5
 31
0.0
  0
LINE
  5
777
330
18
100
AcDbEntity
  8
PV0001_1
  6
DASHED2
 48
0.5
370
    50
100
AcDbLine
 10
212.49998474121
 20
-706.5
 30
0.0
 11
197.49998474121
 21
-706.5
 31
0.0
  0
LINE
  5
778
330
18
100
AcDbEntity
  8
PV0001_1
  6
CENTER2
370
    25
100
AcDbLine
 10
214.34074401855
 20
-698.0
 30
0.0
 11
171.02449035644
 21
-698.0
 31
0.0
  0
LINE
  5
779
330
18
100
AcDbEntity
  8
PV0001_1
  6
Continuous
 48
0.5
370
    50
100
AcDbLine
 10
212.49998474121
 20
-708.0
 30
0.0
 11
212.49998474121
 21
-688.4999999999999
 31
0.0
  0
LINE
  5
77A
330
18
100
AcDbEntity
  8
PV0001_1
  6
Continuous
370
    50
100
AcDbLine
 10
212.49998474121
 20
-708.0
 30
0.0
 11
172.49998474121
 21
-708.0
 31
0.0
  0
LINE
  5
77B
330
18
100
AcDbEntity
  8
PV0001_1
  6
Continuous
370
    50
100
AcDbLine
 10
212.49998474121
 20
-628.0
 30
0.0
 11
172.49998474121
 21
-628.0
 31
0.0
  0
LINE
  5
77C
330
18
100
AcDbEntity
  8
PV0001_1
  6
Continuous
 48
0.5
370
    50
100
AcDbLine
 10
222.49998474121
 20
-688.4999999999999
 30
0.0
 11
212.49998474121
 21
-688.4999999999999
 31
0.0
  0
LINE
  5
77D
330
18
100
AcDbEntity
  8
PV0001_1
  6
Continuous
 48
0.5
370
    50
100
AcDbLine
 10
222.49998474121
 20
-647.5
 30
0.0
 11
212.49998474121
 21
-647.5
 31
0.0
  0
LINE
  5
77E
330
18
100
AcDbEntity
  8
PV0001_1
  6
Continuous
 48
0.5
370
    50
100
AcDbLine
 10
212.49998474121
 20
-647.5
 30
0.0
 11
212.49998474121
 21
-628.0
 31
0.0
  0
LINE
  5
77F
330
18
100
AcDbEntity
  8
PV0001_1
  6
Continuous
370
    50
100
AcDbLine
 10
172.49998474121
 20
-708.0
 30
0.0
 11
172.49998474121
 21
-628.0
 31
0.0
  0
LINE
  5
780
330
18
100
AcDbEntity
  8
PV0001_1
  6
Continuous
370
    50
100
AcDbLine
 10
222.49998474121
 20
-688.4999999999999
 30
0.0
 11
222.49998474121
 21
-647.5
 31
0.0
  0
LINE
  5
781
330
18
100
AcDbEntity
  8
PV0001_1
  6
CENTER2
370
    25
100
AcDbLine
 10
172.95452880859
 20
-568.0
 30
0.0
 11
232.34846496582
 21
-568.0
 31
0.0
  0
LINE
  5
782
330
18
100
AcDbEntity
  8
PV0001_1
  6
CENTER2
370
    25
100
AcDbLine
 10
264.3030090332
 20
-568.0
 30
0.0
 11
873.09094238281
 21
-568.0
 31
0.0
  0
LINE
  5
783
330
18
100
AcDbEntity
  8
PV0001_1
  6
Continuous
370
    50
100
AcDbLine
 10
449.0
 20
-550.0
 30
0.0
 11
449.0
 21
-586.0
 31
0.0
  0
LINE
  5
784
330
18
100
AcDbEntity
  8
PV0001_1
  6
Continuous
 48
0.5
370
    50
100
AcDbLine
 10
869.0
 20
-558.0
 30
0.0
 11
869.0
 21
-578.0
 31
0.0
  0
LINE
  5
785
330
18
100
AcDbEntity
  8
PV0001_1
  6
Continuous
 48
0.5
370
    50
100
AcDbLine
 10
269.0
 20
-558.0
 30
0.0
 11
269.0
 21
-578.0
 31
0.0
  0
LINE
  5
786
330
18
100
AcDbEntity
  8
PV0001_1
  6
Continuous
370
    50
100
AcDbLine
 10
269.0
 20
-578.0
 30
0.0
 11
449.0
 21
-578.0
 31
0.0
  0
LINE
  5
787
330
18
100
AcDbEntity
  8
PV0001_1
  6
Continuous
370
    50
100
AcDbLine
 10
269.0
 20
-558.0
 30
0.0
 11
449.0
 21
-558.0
 31
0.0
  0
LINE
  5
788
330
18
100
AcDbEntity
  8
PV0001_1
  6
Continuous
370
    25
100
AcDbLine
 10
269.0
 20
-576.75
 30
0.0
 11
449.0
 21
-576.75
 31
0.0
  0
LINE
  5
789
330
18
100
AcDbEntity
  8
PV0001_1
  6
Continuous
370
    25
100
AcDbLine
 10
269.0
 20
-559.25
 30
0.0
 11
449.0
 21
-559.25
 31
0.0
  0
LINE
  5
78A
330
18
100
AcDbEntity
  8
PV0001_1
  6
Continuous
370
    50
100
AcDbLine
 10
507.0
 20
-578.0
 30
0.0
 11
869.0
 21
-578.0
 31
0.0
  0
LINE
  5
78B
330
18
100
AcDbEntity
  8
PV0001_1
  6
Continuous
370
    25
100
AcDbLine
 10
507.0
 20
-576.75
 30
0.0
 11
869.0
 21
-576.75
 31
0.0
  0
LINE
  5
78C
330
18
100
AcDbEntity
  8
PV0001_1
  6
Continuous
370
    25
100
AcDbLine
 10
507.0
 20
-559.25
 30
0.0
 11
869.0
 21
-559.25
 31
0.0
  0
LINE
  5
78D
330
18
100
AcDbEntity
  8
PV0001_1
  6
Continuous
370
    50
100
AcDbLine
 10
507.0
 20
-558.0
 30
0.0
 11
869.0
 21
-558.0
 31
0.0
  0
LINE
  5
78E
330
18
100
AcDbEntity
  8
PV0001_1
  6
DASHED2
 48
0.5
370
    50
100
AcDbLine
 10
857.0
 20
-675.4999999999999
 30
0.0
 11
866.0
 21
-675.4999999999999
 31
0.0
  0
LINE
  5
791
330
18
100
AcDbEntity
  8
PV0001_1
  6
Continuous
370
    50
100
AcDbLine
 10
337.0
 20
-874.0
 30
0.0
 11
337.0
 21
-822.0
 31
0.0
  0
LINE
  5
792
330
18
100
AcDbEntity
  8
PV0001_1
  6
DASHED2
 48
0.5
370
    50
100
AcDbLine
 10
322.0
 20
-827.5723266601499
 30
0.0
 11
331.0
 21
-827.5723266601499
 31
0.0
  0
LINE
  5
793
330
18
100
AcDbEntity
  8
PV0001_1
  6
DASHED2
 48
0.5
370
    50
100
AcDbLine
 10
322.0
 20
-833.07232666015
 30
0.0
 11
331.0
 21
-833.07232666015
 31
0.0
  0
LINE
  5
794
330
18
100
AcDbEntity
  8
PV0001_1
  6
DASHED2
 48
0.5
370
    50
100
AcDbLine
 10
331.0
 20
-825.5723266601499
 30
0.0
 11
337.0
 21
-825.5723266601499
 31
0.0
  0
LINE
  5
795
330
18
100
AcDbEntity
  8
PV0001_1
  6
Continuous
 48
0.5
370
    50
100
AcDbLine
 10
305.0
 20
-838.0
 30
0.0
 11
301.0
 21
-838.0
 31
0.0
  0
LINE
  5
796
330
18
100
AcDbEntity
  8
PV0001_1
  6
Continuous
 48
0.5
370
    50
100
AcDbLine
 10
305.0
 20
-858.0
 30
0.0
 11
301.0
 21
-858.0
 31
0.0
  0
LINE
  5
797
330
18
100
AcDbEntity
  8
PV0001_1
  6
Continuous
 48
0.5
370
    50
100
AcDbLine
 10
300.0
 20
-837.0
 30
0.0
 11
300.0
 21
-859.0
 31
0.0
  0
LINE
  5
798
330
18
100
AcDbEntity
  8
PV0001_1
  6
Continuous
 48
0.5
370
    50
100
AcDbLine
 10
301.0
 20
-837.5
 30
0.0
 11
300.0
 21
-837.5
 31
0.0
  0
LINE
  5
799
330
18
100
AcDbEntity
  8
PV0001_1
  6
Continuous
 48
0.5
370
    50
100
AcDbLine
 10
301.0
 20
-858.5
 30
0.0
 11
300.0
 21
-858.5
 31
0.0
  0
LINE
  5
79A
330
18
100
AcDbEntity
  8
PV0001_1
  6
Continuous
 48
0.5
370
    50
100
AcDbLine
 10
300.0
 20
-859.0
 30
0.0
 11
291.0
 21
-859.0
 31
0.0
  0
LINE
  5
79B
330
18
100
AcDbEntity
  8
PV0001_1
  6
Continuous
 48
0.5
370
    50
100
AcDbLine
 10
300.0
 20
-837.0
 30
0.0
 11
291.0
 21
-837.0
 31
0.0
  0
LINE
  5
79C
330
18
100
AcDbEntity
  8
PV0001_1
  6
Continuous
 48
0.5
370
    50
100
AcDbLine
 10
301.0
 20
-837.5
 30
0.0
 11
301.0
 21
-858.5
 31
0.0
  0
LINE
  5
79D
330
18
100
AcDbEntity
  8
PV0001_1
  6
Continuous
 48
0.5
370
    50
100
AcDbLine
 10
291.0
 20
-837.0
 30
0.0
 11
291.0
 21
-859.0
 31
0.0
  0
LINE
  5
79E
330
18
100
AcDbEntity
  8
PV0001_1
  6
Continuous
 48
0.5
370
    50
100
AcDbLine
 10
322.0
 20
-874.0
 30
0.0
 11
337.0
 21
-874.0
 31
0.0
  0
LINE
  5
79F
330
18
100
AcDbEntity
  8
PV0001_1
  6
Continuous
 48
0.5
370
    50
100
AcDbLine
 10
322.0
 20
-822.0
 30
0.0
 11
337.0
 21
-822.0
 31
0.0
  0
LINE
  5
7A0
330
18
100
AcDbEntity
  8
PV0001_1
  6
Continuous
 48
0.5
370
    50
100
AcDbLine
 10
305.0
 20
-868.0
 30
0.0
 11
322.0
 21
-868.0
 31
0.0
  0
LINE
  5
7A1
330
18
100
AcDbEntity
  8
PV0001_1
  6
Continuous
 48
0.5
370
    50
100
AcDbLine
 10
305.0
 20
-828.0
 30
0.0
 11
322.0
 21
-828.0
 31
0.0
  0
LINE
  5
7A2
330
18
100
AcDbEntity
  8
PV0001_1
  6
Continuous
370
    50
100
AcDbLine
 10
322.0
 20
-874.0
 30
0.0
 11
322.0
 21
-822.0
 31
0.0
  0
LINE
  5
7A3
330
18
100
AcDbEntity
  8
PV0001_1
  6
CENTER2
 48
0.5
370
    25
100
AcDbLine
 10
319.26416015625
 20
-830.32232666015
 30
0.0
 11
339.31884765625
 21
-830.32232666015
 31
0.0
  0
LINE
  5
7A4
330
18
100
AcDbEntity
  8
PV0001_1
  6
Continuous
370
    50
100
AcDbLine
 10
305.0
 20
-868.0
 30
0.0
 11
305.0
 21
-828.0
 31
0.0
  0
LINE
  5
7A5
330
18
100
AcDbEntity
  8
PV0001_1
  6
Continuous
370
    50
100
AcDbLine
 10
331.0
 20
-874.0
 30
0.0
 11
331.0
 21
-822.0
 31
0.0
  0
LINE
  5
7A6
330
18
100
AcDbEntity
  8
PV0001_1
  6
DASHED2
 48
0.5
370
    50
100
AcDbLine
 10
331.0
 20
-835.07232666015
 30
0.0
 11
337.0
 21
-835.07232666015
 31
0.0
  0
LINE
  5
7B0
330
18
100
AcDbEntity
  8
PV0001_1
  6
Continuous
370
    50
100
AcDbLine
 10
303.0
 20
-742.0
 30
0.0
 11
303.0
 21
-794.0
 31
0.0
  0
LINE
  5
7B1
330
18
100
AcDbEntity
  8
PV0001_1
  6
DASHED2
 48
0.5
370
    50
100
AcDbLine
 10
318.0
 20
-788.42767333984
 30
0.0
 11
309.0
 21
-788.42767333984
 31
0.0
  0
LINE
  5
7B2
330
18
100
AcDbEntity
  8
PV0001_1
  6
DASHED2
 48
0.5
370
    50
100
AcDbLine
 10
318.0
 20
-782.9276733398399
 30
0.0
 11
309.0
 21
-782.9276733398399
 31
0.0
  0
LINE
  5
7B3
330
18
100
AcDbEntity
  8
PV0001_1
  6
DASHED2
 48
0.5
370
    50
100
AcDbLine
 10
309.0
 20
-790.42767333984
 30
0.0
 11
303.0
 21
-790.42767333984
 31
0.0
  0
LINE
  5
7B4
330
18
100
AcDbEntity
  8
PV0001_1
  6
Continuous
 48
0.5
370
    50
100
AcDbLine
 10
303.0
 20
-758.0
 30
0.0
 11
301.0
 21
-758.0
 31
0.0
  0
LINE
  5
7B5
330
18
100
AcDbEntity
  8
PV0001_1
  6
Continuous
 48
0.5
370
    50
100
AcDbLine
 10
303.0
 20
-778.0
 30
0.0
 11
301.0
 21
-778.0
 31
0.0
  0
LINE
  5
7B6
330
18
100
AcDbEntity
  8
PV0001_1
  6
Continuous
 48
0.5
370
    50
100
AcDbLine
 10
300.0
 20
-757.0
 30
0.0
 11
300.0
 21
-779.0
 31
0.0
  0
LINE
  5
7B7
330
18
100
AcDbEntity
  8
PV0001_1
  6
Continuous
 48
0.5
370
    50
100
AcDbLine
 10
301.0
 20
-757.5
 30
0.0
 11
300.0
 21
-757.5
 31
0.0
  0
LINE
  5
7B8
330
18
100
AcDbEntity
  8
PV0001_1
  6
Continuous
 48
0.5
370
    50
100
AcDbLine
 10
301.0
 20
-778.5
 30
0.0
 11
300.0
 21
-778.5
 31
0.0
  0
LINE
  5
7B9
330
18
100
AcDbEntity
  8
PV0001_1
  6
Continuous
 48
0.5
370
    50
100
AcDbLine
 10
300.0
 20
-779.0
 30
0.0
 11
291.0
 21
-779.0
 31
0.0
  0
LINE
  5
7BA
330
18
100
AcDbEntity
  8
PV0001_1
  6
Continuous
 48
0.5
370
    50
100
AcDbLine
 10
300.0
 20
-757.0
 30
0.0
 11
291.0
 21
-757.0
 31
0.0
  0
LINE
  5
7BB
330
18
100
AcDbEntity
  8
PV0001_1
  6
Continuous
 48
0.5
370
    50
100
AcDbLine
 10
301.0
 20
-757.5
 30
0.0
 11
301.0
 21
-778.5
 31
0.0
  0
LINE
  5
7BC
330
18
100
AcDbEntity
  8
PV0001_1
  6
Continuous
 48
0.5
370
    50
100
AcDbLine
 10
291.0
 20
-757.0
 30
0.0
 11
291.0
 21
-779.0
 31
0.0
  0
LINE
  5
7BD
330
18
100
AcDbEntity
  8
PV0001_1
  6
Continuous
 48
0.5
370
    50
100
AcDbLine
 10
318.0
 20
-742.0
 30
0.0
 11
303.0
 21
-742.0
 31
0.0
  0
LINE
  5
7BE
330
18
100
AcDbEntity
  8
PV0001_1
  6
Continuous
 48
0.5
370
    50
100
AcDbLine
 10
318.0
 20
-794.0
 30
0.0
 11
303.0
 21
-794.0
 31
0.0
  0
LINE
  5
7BF
330
18
100
AcDbEntity
  8
PV0001_1
  6
Continuous
 48
0.5
370
    50
100
AcDbLine
 10
335.0
 20
-748.0
 30
0.0
 11
318.0
 21
-748.0
 31
0.0
  0
LINE
  5
7C0
330
18
100
AcDbEntity
  8
PV0001_1
  6
Continuous
 48
0.5
370
    50
100
AcDbLine
 10
335.0
 20
-788.0
 30
0.0
 11
318.0
 21
-788.0
 31
0.0
  0
LINE
  5
7C1
330
18
100
AcDbEntity
  8
PV0001_1
  6
Continuous
370
    50
100
AcDbLine
 10
318.0
 20
-742.0
 30
0.0
 11
318.0
 21
-794.0
 31
0.0
  0
LINE
  5
7C2
330
18
100
AcDbEntity
  8
PV0001_1
  6
CENTER2
 48
0.5
370
    25
100
AcDbLine
 10
320.73583984375
 20
-785.6776733398399
 30
0.0
 11
300.68115234375
 21
-785.6776733398399
 31
0.0
  0
LINE
  5
7C3
330
18
100
AcDbEntity
  8
PV0001_1
  6
Continuous
370
    50
100
AcDbLine
 10
335.0
 20
-748.0
 30
0.0
 11
335.0
 21
-788.0
 31
0.0
  0
LINE
  5
7C4
330
18
100
AcDbEntity
  8
PV0001_1
  6
Continuous
370
    50
100
AcDbLine
 10
309.0
 20
-742.0
 30
0.0
 11
309.0
 21
-794.0
 31
0.0
  0
LINE
  5
7C5
330
18
100
AcDbEntity
  8
PV0001_1
  6
DASHED2
 48
0.5
370
    50
100
AcDbLine
 10
309.0
 20
-780.92767333984
 30
0.0
 11
303.0
 21
-780.92767333984
 31
0.0
  0
LINE
  5
7C6
330
18
100
AcDbEntity
  8
PV0001_1
  6
Continuous
 48
0.5
370
    50
100
AcDbLine
 10
269.0
 20
-512.0
 30
0.0
 11
269.0
 21
-524.0
 31
0.0
  0
LINE
  5
7C7
330
18
100
AcDbEntity
  8
PV0001_1
  6
CENTER2
 48
0.5
370
    25
100
AcDbLine
 10
861.5
 20
-687.5
 30
0.0
 11
861.5
 21
-708.4999999999999
 31
0.0
  0
LINE
  5
7C8
330
18
100
AcDbEntity
  8
PV0001_1
  6
CENTER2
 48
0.5
370
    25
100
AcDbLine
 10
872.0
 20
-698.0
 30
0.0
 11
851.0
 21
-698.0
 31
0.0
  0
LINE
  5
7C9
330
18
100
AcDbEntity
  8
PV0001_1
  6
CENTER2
 48
0.5
370
    25
100
AcDbLine
 10
861.5
 20
-627.5
 30
0.0
 11
861.5
 21
-648.49998474121
 31
0.0
  0
LINE
  5
7CA
330
18
100
AcDbEntity
  8
PV0001_1
  6
CENTER2
 48
0.5
370
    25
100
AcDbLine
 10
872.0
 20
-638.0
 30
0.0
 11
851.0
 21
-638.0
 31
0.0
  0
LINE
  5
7CB
330
18
100
AcDbEntity
  8
PV0001_1
  6
Continuous
 48
0.5
370
    50
100
AcDbLine
 10
851.5
 20
-688.4999999999999
 30
0.0
 11
871.4999999999999
 21
-688.4999999999999
 31
0.0
  0
LINE
  5
7CC
330
18
100
AcDbEntity
  8
PV0001_1
  6
Continuous
 48
0.5
370
    50
100
AcDbLine
 10
851.5
 20
-647.5
 30
0.0
 11
871.4999999999999
 21
-647.5
 31
0.0
  0
LINE
  5
7CD
330
18
100
AcDbEntity
  8
PV0001_1
  6
Continuous
 48
0.5
370
    50
100
AcDbLine
 10
851.5
 20
-708.0
 30
0.0
 11
871.4999999999999
 21
-708.0
 31
0.0
  0
LINE
  5
7CE
330
18
100
AcDbEntity
  8
PV0001_1
  6
Continuous
 48
0.5
370
    50
100
AcDbLine
 10
851.5
 20
-628.0
 30
0.0
 11
871.4999999999999
 21
-628.0
 31
0.0
  0
LINE
  5
7CF
330
18
100
AcDbEntity
  8
PV0001_1
  6
Continuous
370
    50
100
AcDbLine
 10
871.4999999999999
 20
-628.0
 30
0.0
 11
871.4999999999999
 21
-708.0
 31
0.0
  0
LINE
  5
7D0
330
18
100
AcDbEntity
  8
PV0001_1
  6
Continuous
370
    50
100
AcDbLine
 10
851.5
 20
-628.0
 30
0.0
 11
851.5
 21
-708.0
 31
0.0
  0
LINE
  5
7D1
330
18
100
AcDbEntity
  8
PV0001_1
  6
DASHED2
 48
0.5
370
    50
100
AcDbLine
 10
867.0
 20
-679.50001525878
 30
0.0
 11
867.0
 21
-656.4999694824201
 31
0.0
  0
LINE
  5
7D2
330
18
100
AcDbEntity
  8
PV0001_1
  6
DASHED2
370
    50
100
AcDbLine
 10
857.0
 20
-683.99998474121
 30
0.0
 11
857.0
 21
-652.0000152587799
 31
0.0
  0
LINE
  5
7D3
330
18
100
AcDbEntity
  8
PV0001_1
  6
DASHED2
370
    50
100
AcDbLine
 10
866.0
 20
-683.99998474121
 30
0.0
 11
866.0
 21
-652.0000152587799
 31
0.0
  0
LINE
  5
7D4
330
18
100
AcDbEntity
  8
PV0001_1
  6
DASHED2
 48
0.5
370
    50
100
AcDbLine
 10
867.0
 20
-679.50001525878
 30
0.0
 11
866.0
 21
-679.50001525878
 31
0.0
  0
LINE
  5
7D5
330
18
100
AcDbEntity
  8
PV0001_1
  6
DASHED2
 48
0.5
370
    50
100
AcDbLine
 10
867.0
 20
-656.49998474121
 30
0.0
 11
866.0
 21
-656.49998474121
 31
0.0
  0
LINE
  5
7D6
330
18
100
AcDbEntity
  8
PV0001_1
  6
DASHED2
 48
0.5
370
    50
100
AcDbLine
 10
867.0
 20
-675.14999389648
 30
0.0
 11
866.0
 21
-675.14999389648
 31
0.0
  0
LINE
  5
7D7
330
18
100
AcDbEntity
  8
PV0001_1
  6
DASHED2
 48
0.5
370
    50
100
AcDbLine
 10
867.0
 20
-660.8500061035099
 30
0.0
 11
866.0
 21
-660.8500061035099
 31
0.0
  0
LINE
  5
7D8
330
18
100
AcDbEntity
  8
PV0001_1
  6
DASHED2
 48
0.5
370
    50
100
AcDbLine
 10
866.0
 20
-683.99998474121
 30
0.0
 11
857.0
 21
-683.99998474121
 31
0.0
  0
LINE
  5
7D9
330
18
100
AcDbEntity
  8
PV0001_1
  6
DASHED2
 48
0.5
370
    50
100
AcDbLine
 10
866.0
 20
-652.0000152587799
 30
0.0
 11
857.0
 21
-652.0000152587799
 31
0.0
  0
LINE
  5
7DA
330
18
100
AcDbEntity
  8
PV0001_1
  6
DASHED2
 48
0.5
370
    50
100
AcDbLine
 10
857.0
 20
-660.5
 30
0.0
 11
866.0
 21
-660.5
 31
0.0
  0
LINE
  5
7DB
330
18
100
AcDbEntity
  8
PV0001_1
  6
Continuous
370
    50
100
AcDbLine
 10
309.0
 20
-708.0
 30
0.0
 11
309.0
 21
-628.0
 31
0.0
  0
LINE
  5
7DC
330
18
100
AcDbEntity
  8
PV0001_1
  6
Continuous
 48
0.5
370
    50
100
AcDbLine
 10
334.0
 20
-628.0
 30
0.0
 11
309.0
 21
-628.0
 31
0.0
  0
LINE
  5
7DD
330
18
100
AcDbEntity
  8
PV0001_1
  6
Continuous
 48
0.5
370
    50
100
AcDbLine
 10
334.0
 20
-647.5
 30
0.0
 11
309.0
 21
-647.5
 31
0.0
  0
LINE
  5
7DE
330
18
100
AcDbEntity
  8
PV0001_1
  6
Continuous
 48
0.5
370
    50
100
AcDbLine
 10
303.0
 20
-678.0
 30
0.0
 11
301.0
 21
-678.0
 31
0.0
  0
LINE
  5
7DF
330
18
100
AcDbEntity
  8
PV0001_1
  6
Continuous
 48
0.5
370
    50
100
AcDbLine
 10
303.0
 20
-658.0
 30
0.0
 11
301.0
 21
-658.0
 31
0.0
  0
LINE
  5
7E0
330
18
100
AcDbEntity
  8
PV0001_1
  6
Continuous
 48
0.5
370
    50
100
AcDbLine
 10
301.0
 20
-657.5
 30
0.0
 11
300.00003051757
 21
-657.5
 31
0.0
  0
LINE
  5
7E1
330
18
100
AcDbEntity
  8
PV0001_1
  6
Continuous
 48
0.5
370
    50
100
AcDbLine
 10
301.0
 20
-678.5
 30
0.0
 11
300.00003051757
 21
-678.5
 31
0.0
  0
LINE
  5
7E2
330
18
100
AcDbEntity
  8
PV0001_1
  6
Continuous
 48
0.5
370
    50
100
AcDbLine
 10
300.00003051757
 20
-678.99996948242
 30
0.0
 11
300.00003051757
 21
-657.0
 31
0.0
  0
LINE
  5
7E3
330
18
100
AcDbEntity
  8
PV0001_1
  6
Continuous
 48
0.5
370
    50
100
AcDbLine
 10
301.0
 20
-678.49998474121
 30
0.0
 11
301.0
 21
-657.5
 31
0.0
  0
LINE
  5
7E4
330
18
100
AcDbEntity
  8
PV0001_1
  6
Continuous
 48
0.5
370
    50
100
AcDbLine
 10
300.00003051757
 20
-657.0000152587799
 30
0.0
 11
291.0
 21
-657.0000152587799
 31
0.0
  0
LINE
  5
7E5
330
18
100
AcDbEntity
  8
PV0001_1
  6
Continuous
 48
0.5
370
    50
100
AcDbLine
 10
300.00003051757
 20
-678.99998474121
 30
0.0
 11
291.0
 21
-678.99998474121
 31
0.0
  0
LINE
  5
7E6
330
18
100
AcDbEntity
  8
PV0001_1
  6
Continuous
 48
0.5
370
    50
100
AcDbLine
 10
291.0
 20
-678.99996948242
 30
0.0
 11
291.0
 21
-657.0
 31
0.0
  0
LINE
  5
7E7
330
18
100
AcDbEntity
  8
PV0001_1
  6
Continuous
 48
0.5
370
    50
100
AcDbLine
 10
309.0
 20
-649.5000152587799
 30
0.0
 11
303.0
 21
-649.5000152587799
 31
0.0
  0
LINE
  5
7E8
330
18
100
AcDbEntity
  8
PV0001_1
  6
Continuous
 48
0.5
370
    50
100
AcDbLine
 10
309.0
 20
-686.5
 30
0.0
 11
303.0
 21
-686.5
 31
0.0
  0
LINE
  5
7E9
330
18
100
AcDbEntity
  8
PV0001_1
  6
Continuous
370
    50
100
AcDbLine
 10
303.0
 20
-686.49996948242
 30
0.0
 11
303.0
 21
-649.5
 31
0.0
  0
LINE
  5
7EA
330
18
100
AcDbEntity
  8
PV0001_1
  6
CENTER2
 48
0.5
370
    25
100
AcDbLine
 10
321.5
 20
-648.99996948242
 30
0.0
 11
321.5
 21
-627.0
 31
0.0
  0
LINE
  5
7EB
330
18
100
AcDbEntity
  8
PV0001_1
  6
CENTER2
 48
0.5
370
    25
100
AcDbLine
 10
310.5
 20
-638.0
 30
0.0
 11
332.5
 21
-638.0
 31
0.0
  0
LINE
  5
7EC
330
18
100
AcDbEntity
  8
PV0001_1
  6
CENTER2
 48
0.5
370
    25
100
AcDbLine
 10
321.5
 20
-708.99996948242
 30
0.0
 11
321.5
 21
-687.0
 31
0.0
  0
LINE
  5
7ED
330
18
100
AcDbEntity
  8
PV0001_1
  6
Continuous
 48
0.5
370
    50
100
AcDbLine
 10
334.0
 20
-688.4999999999999
 30
0.0
 11
309.0
 21
-688.4999999999999
 31
0.0
  0
LINE
  5
7EE
330
18
100
AcDbEntity
  8
PV0001_1
  6
Continuous
 48
0.5
370
    50
100
AcDbLine
 10
334.0
 20
-708.0
 30
0.0
 11
309.0
 21
-708.0
 31
0.0
  0
LINE
  5
7EF
330
18
100
AcDbEntity
  8
PV0001_1
  6
Continuous
370
    50
100
AcDbLine
 10
334.0
 20
-708.0
 30
0.0
 11
334.0
 21
-628.0
 31
0.0
  0
LINE
  5
7F0
330
18
100
AcDbEntity
  8
PV0001_1
  6
CENTER2
 48
0.5
370
    25
100
AcDbLine
 10
310.5
 20
-698.0
 30
0.0
 11
332.5
 21
-698.0
 31
0.0
  0
LINE
  5
7F1
330
18
100
AcDbEntity
  8
PV0001_1
  6
CENTER2
370
    25
100
AcDbLine
 10
745.7626953125
 20
-518.0
 30
0.0
 11
874.5454101562499
 21
-518.0
 31
0.0
  0
LINE
  5
7F2
330
18
100
AcDbEntity
  8
PV0001_1
  6
CENTER2
370
    25
100
AcDbLine
 10
261.32815551757
 20
-518.0
 30
0.0
 11
387.85501098632
 21
-518.0
 31
0.0
  0
LINE
  5
7F3
330
18
100
AcDbEntity
  8
PV0001_1
  6
Continuous
 48
0.5
370
    50
100
AcDbLine
 10
869.0
 20
-510.5
 30
0.0
 11
869.0
 21
-525.4999999999999
 31
0.0
  0
LINE
  5
7F4
330
18
100
AcDbEntity
  8
PV0001_1
  6
DASHED2
 48
0.5
370
    50
100
AcDbLine
 10
329.0
 20
-528.0
 30
0.0
 11
344.0
 21
-528.0
 31
0.0
  0
LINE
  5
7F5
330
18
100
AcDbEntity
  8
PV0001_1
  6
DASHED2
 48
0.5
370
    50
100
AcDbLine
 10
329.0
 20
-508.0
 30
0.0
 11
344.0
 21
-508.0
 31
0.0
  0
LINE
  5
7F6
330
18
100
AcDbEntity
  8
PV0001_1
  6
Continuous
 48
0.5
370
    25
100
AcDbLine
 10
344.0
 20
-509.25
 30
0.0
 11
369.0
 21
-509.25
 31
0.0
  0
LINE
  5
7F7
330
18
100
AcDbEntity
  8
PV0001_1
  6
Continuous
 48
0.5
370
    25
100
AcDbLine
 10
344.0
 20
-526.75
 30
0.0
 11
369.0
 21
-526.75
 31
0.0
  0
LINE
  5
7F8
330
18
100
AcDbEntity
  8
PV0001_1
  6
Continuous
370
    50
100
AcDbLine
 10
769.0
 20
-508.0
 30
0.0
 11
857.0
 21
-508.0
 31
0.0
  0
LINE
  5
7F9
330
18
100
AcDbEntity
  8
PV0001_1
  6
Continuous
370
    25
100
AcDbLine
 10
769.0
 20
-509.25
 30
0.0
 11
857.0
 21
-509.25
 31
0.0
  0
LINE
  5
7FA
330
18
100
AcDbEntity
  8
PV0001_1
  6
Continuous
370
    25
100
AcDbLine
 10
769.0
 20
-526.75
 30
0.0
 11
857.0
 21
-526.75
 31
0.0
  0
LINE
  5
7FB
330
18
100
AcDbEntity
  8
PV0001_1
  6
Continuous
370
    50
100
AcDbLine
 10
769.0
 20
-528.0
 30
0.0
 11
857.0
 21
-528.0
 31
0.0
  0
LINE
  5
7FC
330
18
100
AcDbEntity
  8
PV0001_1
  6
DASHED2
 48
0.5
370
    50
100
AcDbLine
 10
329.0
 20
-508.0
 30
0.0
 11
329.0
 21
-528.0
 31
0.0
  0
LINE
  5
7FD
330
18
100
AcDbEntity
  8
PV0001_1
  6
Continuous
 48
0.5
370
    50
100
AcDbLine
 10
344.0
 20
-508.0
 30
0.0
 11
344.0
 21
-528.0
 31
0.0
  0
LINE
  5
7FE
330
18
100
AcDbEntity
  8
PV0001_1
  6
Continuous
 48
0.5
370
    25
100
AcDbLine
 10
289.0
 20
-524.958499908447
 30
0.0
 11
304.0
 21
-524.958499908447
 31
0.0
  0
LINE
  5
7FF
330
18
100
AcDbEntity
  8
PV0001_1
  6
Continuous
 48
0.5
370
    50
100
AcDbLine
 10
289.0
 20
-510.5
 30
0.0
 11
289.0
 21
-525.4999999999999
 31
0.0
  0
LINE
  5
800
330
18
100
AcDbEntity
  8
PV0001_1
  6
Continuous
370
    50
100
AcDbLine
 10
289.0
 20
-525.4999999999999
 30
0.0
 11
343.70001220703
 21
-525.4999999999999
 31
0.0
  0
LINE
  5
801
330
18
100
AcDbEntity
  8
PV0001_1
  6
Continuous
 48
0.5
370
    50
100
AcDbLine
 10
344.0
 20
-528.0
 30
0.0
 11
369.0
 21
-528.0
 31
0.0
  0
LINE
  5
802
330
18
100
AcDbEntity
  8
PV0001_1
  6
Continuous
 48
0.5
370
    50
100
AcDbLine
 10
344.0
 20
-508.0
 30
0.0
 11
369.0
 21
-508.0
 31
0.0
  0
LINE
  5
803
330
18
100
AcDbEntity
  8
PV0001_1
  6
Continuous
 48
0.5
370
    25
100
AcDbLine
 10
289.0
 20
-511.0415000915519
 30
0.0
 11
304.0
 21
-511.0415000915519
 31
0.0
  0
LINE
  5
804
330
18
100
AcDbEntity
  8
PV0001_1
  6
Continuous
 48
0.5
370
    50
100
AcDbLine
 10
269.0
 20
-512.0
 30
0.0
 11
289.0
 21
-512.0
 31
0.0
  0
LINE
  5
805
330
18
100
AcDbEntity
  8
PV0001_1
  6
Continuous
 48
0.5
370
    50
100
AcDbLine
 10
269.0
 20
-524.0
 30
0.0
 11
289.0
 21
-524.0
 31
0.0
  0
LINE
  5
806
330
18
100
AcDbEntity
  8
PV0001_1
  6
Continuous
370
    50
100
AcDbLine
 10
289.0
 20
-510.5
 30
0.0
 11
343.70001220703
 21
-510.5
 31
0.0
  0
LINE
  5
807
330
18
100
AcDbEntity
  8
PV0001_1
  6
Continuous
 48
0.5
370
    50
100
AcDbLine
 10
304.0
 20
-510.5
 30
0.0
 11
304.0
 21
-525.4999999999999
 31
0.0
  0
LINE
  5
808
330
18
100
AcDbEntity
  8
PV0001_1
  6
Continuous
 48
0.5
370
    50
100
AcDbLine
 10
867.1499633789
 20
-510.5
 30
0.0
 11
867.1499633789
 21
-525.4999999999999
 31
0.0
  0
LINE
  5
809
330
18
100
AcDbEntity
  8
PV0001_1
  6
Continuous
 48
0.5
370
    25
100
AcDbLine
 10
304.0
 20
-524.9585075378409
 30
0.0
 11
304.93792724609
 21
-525.5000114440909
 31
0.0
  0
LINE
  5
80A
330
18
100
AcDbEntity
  8
PV0001_1
  6
Continuous
 48
0.5
370
    50
100
AcDbLine
 10
857.0
 20
-508.0
 30
0.0
 11
857.0
 21
-528.0
 31
0.0
  0
LINE
  5
80B
330
18
100
AcDbEntity
  8
PV0001_1
  6
Continuous
 48
0.5
370
    25
100
AcDbLine
 10
304.0
 20
-511.041490554809
 30
0.0
 11
304.93789672851
 21
-510.499994277954
 31
0.0
  0
LINE
  5
80C
330
18
100
AcDbEntity
  8
PV0001_1
  6
Continuous
 48
0.5
370
    50
100
AcDbLine
 10
866.0
 20
-510.5
 30
0.0
 11
866.0
 21
-525.4999999999999
 31
0.0
  0
LINE
  5
80D
330
18
100
AcDbEntity
  8
PV0001_1
  6
Continuous
 48
0.5
370
    50
100
AcDbLine
 10
866.0
 20
-510.850000381469
 30
0.0
 11
867.1499633789
 21
-510.850000381469
 31
0.0
  0
LINE
  5
80E
330
18
100
AcDbEntity
  8
PV0001_1
  6
Continuous
 48
0.5
370
    50
100
AcDbLine
 10
857.29998779296
 20
-510.5
 30
0.0
 11
866.0
 21
-510.5
 31
0.0
  0
LINE
  5
80F
330
18
100
AcDbEntity
  8
PV0001_1
  6
Continuous
 48
0.5
370
    50
100
AcDbLine
 10
867.1499633789
 20
-525.4999999999999
 30
0.0
 11
869.0
 21
-525.4999999999999
 31
0.0
  0
LINE
  5
810
330
18
100
AcDbEntity
  8
PV0001_1
  6
Continuous
 48
0.5
370
    50
100
AcDbLine
 10
867.1499633789
 20
-510.5
 30
0.0
 11
869.0
 21
-510.5
 31
0.0
  0
LINE
  5
811
330
18
100
AcDbEntity
  8
PV0001_1
  6
Continuous
 48
0.5
370
    50
100
AcDbLine
 10
866.0
 20
-525.150001525878
 30
0.0
 11
867.1499633789
 21
-525.150001525878
 31
0.0
  0
LINE
  5
812
330
18
100
AcDbEntity
  8
PV0001_1
  6
Continuous
 48
0.5
370
    50
100
AcDbLine
 10
857.29998779296
 20
-525.4999999999999
 30
0.0
 11
866.0
 21
-525.4999999999999
 31
0.0
  0
LINE
  5
813
330
18
100
AcDbEntity
  8
PV0001_1
  6
CENTER2
370
    25
100
AcDbLine
 10
261.32815551757
 20
-848.0
 30
0.0
 11
387.85501098632
 21
-848.0
 31
0.0
  0
LINE
  5
814
330
18
100
AcDbEntity
  8
PV0001_1
  6
CENTER2
370
    25
100
AcDbLine
 10
261.32815551757
 20
-768.0
 30
0.0
 11
387.85501098632
 21
-768.0
 31
0.0
  0
LINE
  5
823
330
18
100
AcDbEntity
  8
PV0001_1
  6
PHANTOM2
 48
0.5
370
    25
100
AcDbLine
 10
304.0
 20
-761.04147338867
 30
0.0
 11
304.93789672851
 21
-760.5
 31
0.0
  0
LINE
  5
824
330
18
100
AcDbEntity
  8
PV0001_1
  6
PHANTOM2
 48
0.5
370
    25
100
AcDbLine
 10
304.0
 20
-774.9584960937499
 30
0.0
 11
304.93792724609
 21
-775.4999999999999
 31
0.0
  0
LINE
  5
825
330
18
100
AcDbEntity
  8
PV0001_1
  6
PHANTOM2
 48
0.5
370
    25
100
AcDbLine
 10
304.0
 20
-760.5
 30
0.0
 11
304.0
 21
-775.4999999999999
 31
0.0
  0
LINE
  5
826
330
18
100
AcDbEntity
  8
PV0001_1
  6
PHANTOM2
370
    25
100
AcDbLine
 10
289.0
 20
-760.5
 30
0.0
 11
343.70001220703
 21
-760.5
 31
0.0
  0
LINE
  5
827
330
18
100
AcDbEntity
  8
PV0001_1
  6
PHANTOM2
 48
0.5
370
    25
100
AcDbLine
 10
269.0
 20
-774.0
 30
0.0
 11
289.0
 21
-774.0
 31
0.0
  0
LINE
  5
828
330
18
100
AcDbEntity
  8
PV0001_1
  6
CENTER2
370
    25
100
AcDbLine
 10
261.32815551757
 20
-668.0
 30
0.0
 11
387.85501098632
 21
-668.0
 31
0.0
  0
LINE
  5
829
330
18
100
AcDbEntity
  8
PV0001_1
  6
PHANTOM2
 48
0.5
370
    25
100
AcDbLine
 10
269.0
 20
-662.0
 30
0.0
 11
269.0
 21
-674.0
 31
0.0
  0
LINE
  5
82A
330
18
100
AcDbEntity
  8
PV0001_1
  6
PHANTOM2
 48
0.5
370
    25
100
AcDbLine
 10
329.0
 20
-678.0
 30
0.0
 11
344.0
 21
-678.0
 31
0.0
  0
LINE
  5
82B
330
18
100
AcDbEntity
  8
PV0001_1
  6
PHANTOM2
 48
0.5
370
    25
100
AcDbLine
 10
329.0
 20
-658.0
 30
0.0
 11
344.0
 21
-658.0
 31
0.0
  0
LINE
  5
82C
330
18
100
AcDbEntity
  8
PV0001_1
  6
PHANTOM2
 48
0.5
370
    25
100
AcDbLine
 10
344.0
 20
-659.25
 30
0.0
 11
369.0
 21
-659.25
 31
0.0
  0
LINE
  5
82D
330
18
100
AcDbEntity
  8
PV0001_1
  6
PHANTOM2
 48
0.5
370
    25
100
AcDbLine
 10
344.0
 20
-676.75
 30
0.0
 11
369.0
 21
-676.75
 31
0.0
  0
LINE
  5
82E
330
18
100
AcDbEntity
  8
PV0001_1
  6
PHANTOM2
 48
0.5
370
    25
100
AcDbLine
 10
329.0
 20
-658.0
 30
0.0
 11
329.0
 21
-678.0
 31
0.0
  0
LINE
  5
82F
330
18
100
AcDbEntity
  8
PV0001_1
  6
PHANTOM2
 48
0.5
370
    25
100
AcDbLine
 10
344.0
 20
-658.0
 30
0.0
 11
344.0
 21
-678.0
 31
0.0
  0
LINE
  5
830
330
18
100
AcDbEntity
  8
PV0001_1
  6
PHANTOM2
 48
0.5
370
    25
100
AcDbLine
 10
289.0
 20
-674.9584960937499
 30
0.0
 11
304.0
 21
-674.9584960937499
 31
0.0
  0
LINE
  5
831
330
18
100
AcDbEntity
  8
PV0001_1
  6
PHANTOM2
 48
0.5
370
    25
100
AcDbLine
 10
289.0
 20
-660.5
 30
0.0
 11
289.0
 21
-675.4999999999999
 31
0.0
  0
LINE
  5
832
330
18
100
AcDbEntity
  8
PV0001_1
  6
PHANTOM2
370
    25
100
AcDbLine
 10
289.0
 20
-675.4999999999999
 30
0.0
 11
343.70001220703
 21
-675.4999999999999
 31
0.0
  0
LINE
  5
833
330
18
100
AcDbEntity
  8
PV0001_1
  6
PHANTOM2
 48
0.5
370
    25
100
AcDbLine
 10
344.0
 20
-678.0
 30
0.0
 11
369.0
 21
-678.0
 31
0.0
  0
LINE
  5
834
330
18
100
AcDbEntity
  8
PV0001_1
  6
PHANTOM2
 48
0.5
370
    25
100
AcDbLine
 10
344.0
 20
-658.0
 30
0.0
 11
369.0
 21
-658.0
 31
0.0
  0
LINE
  5
835
330
18
100
AcDbEntity
  8
PV0001_1
  6
PHANTOM2
 48
0.5
370
    25
100
AcDbLine
 10
289.0
 20
-661.04150390625
 30
0.0
 11
304.0
 21
-661.04150390625
 31
0.0
  0
LINE
  5
836
330
18
100
AcDbEntity
  8
PV0001_1
  6
PHANTOM2
 48
0.5
370
    25
100
AcDbLine
 10
269.0
 20
-662.0
 30
0.0
 11
289.0
 21
-662.0
 31
0.0
  0
LINE
  5
837
330
18
100
AcDbEntity
  8
PV0001_1
  6
PHANTOM2
 48
0.5
370
    25
100
AcDbLine
 10
269.0
 20
-674.0
 30
0.0
 11
289.0
 21
-674.0
 31
0.0
  0
LINE
  5
838
330
18
100
AcDbEntity
  8
PV0001_1
  6
PHANTOM2
370
    25
100
AcDbLine
 10
289.0
 20
-660.5
 30
0.0
 11
343.70001220703
 21
-660.5
 31
0.0
  0
LINE
  5
839
330
18
100
AcDbEntity
  8
PV0001_1
  6
PHANTOM2
 48
0.5
370
    25
100
AcDbLine
 10
304.0
 20
-660.5
 30
0.0
 11
304.0
 21
-675.4999999999999
 31
0.0
  0
LINE
  5
83A
330
18
100
AcDbEntity
  8
PV0001_1
  6
PHANTOM2
 48
0.5
370
    25
100
AcDbLine
 10
304.0
 20
-674.9585113525299
 30
0.0
 11
304.93792724609
 21
-675.50001525878
 31
0.0
  0
LINE
  5
83B
330
18
100
AcDbEntity
  8
PV0001_1
  6
PHANTOM2
 48
0.5
370
    25
100
AcDbLine
 10
304.0
 20
-661.04148864746
 30
0.0
 11
304.93789672851
 21
-660.5
 31
0.0
  0
LINE
  5
83C
330
18
100
AcDbEntity
  8
PV0001_1
  6
CENTER2
370
    25
100
AcDbLine
 10
745.7626953125
 20
-668.0
 30
0.0
 11
874.5454711914
 21
-668.0
 31
0.0
  0
LINE
  5
83D
330
18
100
AcDbEntity
  8
PV0001_1
  6
PHANTOM2
 48
0.5
370
    25
100
AcDbLine
 10
869.0
 20
-660.5
 30
0.0
 11
869.0
 21
-675.4999999999999
 31
0.0
  0
LINE
  5
83E
330
18
100
AcDbEntity
  8
PV0001_1
  6
PHANTOM2
370
    25
100
AcDbLine
 10
769.0
 20
-658.0
 30
0.0
 11
857.0
 21
-658.0
 31
0.0
  0
LINE
  5
83F
330
18
100
AcDbEntity
  8
PV0001_1
  6
PHANTOM2
370
    25
100
AcDbLine
 10
769.0
 20
-659.25
 30
0.0
 11
857.0
 21
-659.25
 31
0.0
  0
LINE
  5
840
330
18
100
AcDbEntity
  8
PV0001_1
  6
PHANTOM2
370
    25
100
AcDbLine
 10
769.0
 20
-676.75
 30
0.0
 11
857.0
 21
-676.75
 31
0.0
  0
LINE
  5
841
330
18
100
AcDbEntity
  8
PV0001_1
  6
PHANTOM2
370
    25
100
AcDbLine
 10
769.0
 20
-678.0
 30
0.0
 11
857.0
 21
-678.0
 31
0.0
  0
LINE
  5
842
330
18
100
AcDbEntity
  8
PV0001_1
  6
PHANTOM2
 48
0.5
370
    25
100
AcDbLine
 10
867.1500244140601
 20
-660.5
 30
0.0
 11
867.1500244140601
 21
-675.4999999999999
 31
0.0
  0
LINE
  5
843
330
18
100
AcDbEntity
  8
PV0001_1
  6
PHANTOM2
 48
0.5
370
    25
100
AcDbLine
 10
857.0
 20
-658.0
 30
0.0
 11
857.0
 21
-678.0
 31
0.0
  0
LINE
  5
844
330
18
100
AcDbEntity
  8
PV0001_1
  6
PHANTOM2
 48
0.5
370
    25
100
AcDbLine
 10
866.0
 20
-660.5
 30
0.0
 11
866.0
 21
-675.4999999999999
 31
0.0
  0
LINE
  5
845
330
18
100
AcDbEntity
  8
PV0001_1
  6
PHANTOM2
 48
0.5
370
    25
100
AcDbLine
 10
866.0
 20
-660.8500061035099
 30
0.0
 11
867.1500244140601
 21
-660.8500061035099
 31
0.0
  0
LINE
  5
846
330
18
100
AcDbEntity
  8
PV0001_1
  6
PHANTOM2
 48
0.5
370
    25
100
AcDbLine
 10
857.29998779296
 20
-660.5
 30
0.0
 11
866.0
 21
-660.5
 31
0.0
  0
LINE
  5
847
330
18
100
AcDbEntity
  8
PV0001_1
  6
PHANTOM2
 48
0.5
370
    25
100
AcDbLine
 10
867.1500244140601
 20
-675.4999999999999
 30
0.0
 11
869.0
 21
-675.4999999999999
 31
0.0
  0
LINE
  5
848
330
18
100
AcDbEntity
  8
PV0001_1
  6
PHANTOM2
 48
0.5
370
    25
100
AcDbLine
 10
867.1500244140601
 20
-660.5
 30
0.0
 11
869.0
 21
-660.5
 31
0.0
  0
LINE
  5
849
330
18
100
AcDbEntity
  8
PV0001_1
  6
PHANTOM2
 48
0.5
370
    25
100
AcDbLine
 10
866.0
 20
-675.14999389648
 30
0.0
 11
867.1500244140601
 21
-675.14999389648
 31
0.0
  0
LINE
  5
84A
330
18
100
AcDbEntity
  8
PV0001_1
  6
PHANTOM2
 48
0.5
370
    25
100
AcDbLine
 10
857.29998779296
 20
-675.4999999999999
 30
0.0
 11
866.0
 21
-675.4999999999999
 31
0.0
  0
LINE
  5
84C
330
18
100
AcDbEntity
  8
PV0001_1
  6
PHANTOM2
 48
0.5
370
    25
100
AcDbLine
 10
269.0
 20
-762.0
 30
0.0
 11
289.0
 21
-762.0
 31
0.0
  0
LINE
  5
84D
330
18
100
AcDbEntity
  8
PV0001_1
  6
PHANTOM2
 48
0.5
370
    25
100
AcDbLine
 10
289.0
 20
-761.04150390625
 30
0.0
 11
304.0
 21
-761.04150390625
 31
0.0
  0
LINE
  5
84E
330
18
100
AcDbEntity
  8
PV0001_1
  6
PHANTOM2
 48
0.5
370
    25
100
AcDbLine
 10
344.0
 20
-758.0
 30
0.0
 11
369.0
 21
-758.0
 31
0.0
  0
LINE
  5
84F
330
18
100
AcDbEntity
  8
PV0001_1
  6
PHANTOM2
 48
0.5
370
    25
100
AcDbLine
 10
344.0
 20
-778.0
 30
0.0
 11
369.0
 21
-778.0
 31
0.0
  0
LINE
  5
850
330
18
100
AcDbEntity
  8
PV0001_1
  6
PHANTOM2
370
    25
100
AcDbLine
 10
289.0
 20
-775.4999999999999
 30
0.0
 11
343.70001220703
 21
-775.4999999999999
 31
0.0
  0
LINE
  5
851
330
18
100
AcDbEntity
  8
PV0001_1
  6
PHANTOM2
 48
0.5
370
    25
100
AcDbLine
 10
289.0
 20
-760.5
 30
0.0
 11
289.0
 21
-775.4999999999999
 31
0.0
  0
LINE
  5
852
330
18
100
AcDbEntity
  8
PV0001_1
  6
PHANTOM2
 48
0.5
370
    25
100
AcDbLine
 10
289.0
 20
-774.9584960937499
 30
0.0
 11
304.0
 21
-774.9584960937499
 31
0.0
  0
LINE
  5
853
330
18
100
AcDbEntity
  8
PV0001_1
  6
PHANTOM2
 48
0.5
370
    25
100
AcDbLine
 10
344.0
 20
-758.0
 30
0.0
 11
344.0
 21
-778.0
 31
0.0
  0
LINE
  5
854
330
18
100
AcDbEntity
  8
PV0001_1
  6
PHANTOM2
 48
0.5
370
    25
100
AcDbLine
 10
329.0
 20
-758.0
 30
0.0
 11
329.0
 21
-778.0
 31
0.0
  0
LINE
  5
855
330
18
100
AcDbEntity
  8
PV0001_1
  6
PHANTOM2
 48
0.5
370
    25
100
AcDbLine
 10
344.0
 20
-776.75
 30
0.0
 11
369.0
 21
-776.75
 31
0.0
  0
LINE
  5
856
330
18
100
AcDbEntity
  8
PV0001_1
  6
PHANTOM2
 48
0.5
370
    25
100
AcDbLine
 10
344.0
 20
-759.25
 30
0.0
 11
369.0
 21
-759.25
 31
0.0
  0
LINE
  5
857
330
18
100
AcDbEntity
  8
PV0001_1
  6
PHANTOM2
 48
0.5
370
    25
100
AcDbLine
 10
329.0
 20
-758.0
 30
0.0
 11
344.0
 21
-758.0
 31
0.0
  0
LINE
  5
858
330
18
100
AcDbEntity
  8
PV0001_1
  6
PHANTOM2
 48
0.5
370
    25
100
AcDbLine
 10
329.0
 20
-778.0
 30
0.0
 11
344.0
 21
-778.0
 31
0.0
  0
LINE
  5
859
330
18
100
AcDbEntity
  8
PV0001_1
  6
PHANTOM2
 48
0.5
370
    25
100
AcDbLine
 10
269.0
 20
-762.0
 30
0.0
 11
269.0
 21
-774.0
 31
0.0
  0
LINE
  5
85A
330
18
100
AcDbEntity
  8
PV0001_1
  6
PHANTOM2
 48
0.5
370
    25
100
AcDbLine
 10
304.0
 20
-841.0415039062499
 30
0.0
 11
304.93789672851
 21
-840.4999999999999
 31
0.0
  0
LINE
  5
85B
330
18
100
AcDbEntity
  8
PV0001_1
  6
PHANTOM2
 48
0.5
370
    25
100
AcDbLine
 10
304.0
 20
-854.9584960937499
 30
0.0
 11
304.93789672851
 21
-855.4999999999999
 31
0.0
  0
LINE
  5
85C
330
18
100
AcDbEntity
  8
PV0001_1
  6
PHANTOM2
 48
0.5
370
    25
100
AcDbLine
 10
304.0
 20
-840.4999999999999
 30
0.0
 11
304.0
 21
-855.4999999999999
 31
0.0
  0
LINE
  5
85D
330
18
100
AcDbEntity
  8
PV0001_1
  6
PHANTOM2
370
    25
100
AcDbLine
 10
289.0
 20
-840.4999999999999
 30
0.0
 11
343.70001220703
 21
-840.4999999999999
 31
0.0
  0
LINE
  5
85E
330
18
100
AcDbEntity
  8
PV0001_1
  6
PHANTOM2
 48
0.5
370
    25
100
AcDbLine
 10
269.0
 20
-854.0
 30
0.0
 11
289.0
 21
-854.0
 31
0.0
  0
LINE
  5
85F
330
18
100
AcDbEntity
  8
PV0001_1
  6
PHANTOM2
 48
0.5
370
    25
100
AcDbLine
 10
269.0
 20
-842.0
 30
0.0
 11
289.0
 21
-842.0
 31
0.0
  0
LINE
  5
860
330
18
100
AcDbEntity
  8
PV0001_1
  6
PHANTOM2
 48
0.5
370
    25
100
AcDbLine
 10
289.0
 20
-841.0415039062499
 30
0.0
 11
304.0
 21
-841.0415039062499
 31
0.0
  0
LINE
  5
861
330
18
100
AcDbEntity
  8
PV0001_1
  6
PHANTOM2
 48
0.5
370
    25
100
AcDbLine
 10
344.0
 20
-838.0
 30
0.0
 11
369.0
 21
-838.0
 31
0.0
  0
LINE
  5
862
330
18
100
AcDbEntity
  8
PV0001_1
  6
PHANTOM2
 48
0.5
370
    25
100
AcDbLine
 10
344.0
 20
-858.0
 30
0.0
 11
369.0
 21
-858.0
 31
0.0
  0
LINE
  5
863
330
18
100
AcDbEntity
  8
PV0001_1
  6
PHANTOM2
370
    25
100
AcDbLine
 10
289.0
 20
-855.4999999999999
 30
0.0
 11
343.70001220703
 21
-855.4999999999999
 31
0.0
  0
LINE
  5
864
330
18
100
AcDbEntity
  8
PV0001_1
  6
PHANTOM2
 48
0.5
370
    25
100
AcDbLine
 10
289.0
 20
-840.4999999999999
 30
0.0
 11
289.0
 21
-855.4999999999999
 31
0.0
  0
LINE
  5
865
330
18
100
AcDbEntity
  8
PV0001_1
  6
PHANTOM2
 48
0.5
370
    25
100
AcDbLine
 10
289.0
 20
-854.9584960937499
 30
0.0
 11
304.0
 21
-854.9584960937499
 31
0.0
  0
LINE
  5
866
330
18
100
AcDbEntity
  8
PV0001_1
  6
PHANTOM2
 48
0.5
370
    25
100
AcDbLine
 10
344.0
 20
-838.0
 30
0.0
 11
344.0
 21
-858.0
 31
0.0
  0
LINE
  5
867
330
18
100
AcDbEntity
  8
PV0001_1
  6
PHANTOM2
 48
0.5
370
    25
100
AcDbLine
 10
329.0
 20
-838.0
 30
0.0
 11
329.0
 21
-858.0
 31
0.0
  0
LINE
  5
868
330
18
100
AcDbEntity
  8
PV0001_1
  6
PHANTOM2
 48
0.5
370
    25
100
AcDbLine
 10
344.0
 20
-856.75
 30
0.0
 11
369.0
 21
-856.75
 31
0.0
  0
LINE
  5
869
330
18
100
AcDbEntity
  8
PV0001_1
  6
PHANTOM2
 48
0.5
370
    25
100
AcDbLine
 10
344.0
 20
-839.25
 30
0.0
 11
369.0
 21
-839.25
 31
0.0
  0
LINE
  5
86A
330
18
100
AcDbEntity
  8
PV0001_1
  6
PHANTOM2
 48
0.5
370
    25
100
AcDbLine
 10
329.0
 20
-838.0
 30
0.0
 11
344.0
 21
-838.0
 31
0.0
  0
LINE
  5
86B
330
18
100
AcDbEntity
  8
PV0001_1
  6
PHANTOM2
 48
0.5
370
    25
100
AcDbLine
 10
329.0
 20
-858.0
 30
0.0
 11
344.0
 21
-858.0
 31
0.0
  0
LINE
  5
86C
330
18
100
AcDbEntity
  8
PV0001_1
  6
PHANTOM2
 48
0.5
370
    25
100
AcDbLine
 10
269.0
 20
-842.0
 30
0.0
 11
269.0
 21
-854.0
 31
0.0
  0
ARC
  5
86D
330
18
100
AcDbEntity
  8
PV0001_1
  6
Continuous
 48
0.5
370
    50
100
AcDbCircle
 10
33.80000305175701
 20
-436.299987792969
 30
0.0
 40
0.8000000119209
100
AcDbArc
 50
270.0000179860904
 51
0.0
  0
ARC
  5
86E
330
18
100
AcDbEntity
  8
PV0001_1
  6
Continuous
 48
0.5
370
    50
100
AcDbCircle
 10
33.80000305175701
 20
-434.4999999999999
 30
0.0
 40
0.8000000119209
100
AcDbArc
 50
0.0
 51
89.99998201390964
  0
ARC
  5
86F
330
18
100
AcDbEntity
  8
PV0001_1
  6
Continuous
 48
0.5
370
    50
100
AcDbCircle
 10
34.800003051757
 20
-436.5
 30
0.0
 40
1.399999976158099
100
AcDbArc
 50
270.0000179860904
 51
0.0
  0
ARC
  5
870
330
18
100
AcDbEntity
  8
PV0001_1
  6
Continuous
 48
0.5
370
    50
100
AcDbCircle
 10
34.800003051757
 20
-434.4999999999999
 30
0.0
 40
1.399999976158099
100
AcDbArc
 50
0.0
 51
89.99998201390964
  0
ARC
  5
871
330
18
100
AcDbEntity
  8
PV0001_1
  6
Continuous
 48
0.5
370
    50
100
AcDbCircle
 10
38.677490234375
 20
-435.8999938964849
 30
0.0
 40
0.2000000029802
100
AcDbArc
 50
161.5650375711489
 51
270.000000683247
  0
ARC
  5
872
330
18
100
AcDbEntity
  8
PV0001_1
  6
Continuous
 48
0.5
370
    50
100
AcDbCircle
 10
40.92251586914
 20
-435.8999938964849
 30
0.0
 40
0.2000000029802
100
AcDbArc
 50
270.0000179860904
 51
18.43488035289773
  0
ARC
  5
873
330
18
100
AcDbEntity
  8
PV0001_1
  6
Continuous
 48
0.5
370
    50
100
AcDbCircle
 10
39.344146728515
 20
-433.899993896485
 30
0.0
 40
0.2000000029802
100
AcDbArc
 50
89.99998201390964
 51
161.5651331937952
  0
ARC
  5
874
330
18
100
AcDbEntity
  8
PV0001_1
  6
Continuous
 48
0.5
370
    50
100
AcDbCircle
 10
31.600006103515
 20
-436.899993896485
 30
0.0
 40
0.2000000029802
100
AcDbArc
 50
179.9999776882002
 51
270.0000280040004
  0
ARC
  5
875
330
18
100
AcDbEntity
  8
PV0001_1
  6
Continuous
 48
0.5
370
    50
100
AcDbCircle
 10
31.600006103515
 20
-433.899993896485
 30
0.0
 40
0.2000000029802
100
AcDbArc
 50
89.99998201390964
 51
179.9999640278186
  0
ARC
  5
876
330
18
100
AcDbEntity
  8
PV0001_1
  6
Continuous
 48
0.5
370
    50
100
AcDbCircle
 10
27.0
 20
-434.4999999999999
 30
0.0
 40
0.8000000119209
100
AcDbArc
 50
0.0
 51
89.99998201390964
  0
ARC
  5
877
330
18
100
AcDbEntity
  8
PV0001_1
  6
Continuous
 48
0.5
370
    50
100
AcDbCircle
 10
27.0
 20
-436.299987792969
 30
0.0
 40
0.8000000119209
100
AcDbArc
 50
270.0000179860904
 51
0.0
  0
ARC
  5
878
330
18
100
AcDbEntity
  8
PV0001_1
  6
Continuous
 48
0.5
370
    50
100
AcDbCircle
 10
25.199996948242
 20
-436.299987792969
 30
0.0
 40
0.8000000119209
100
AcDbArc
 50
179.9999776882002
 51
270.0000280040004
  0
ARC
  5
879
330
18
100
AcDbEntity
  8
PV0001_1
  6
Continuous
 48
0.5
370
    50
100
AcDbCircle
 10
25.199996948242
 20
-434.4999999999999
 30
0.0
 40
0.8000000119209
100
AcDbArc
 50
89.99998201390964
 51
179.9999640278186
  0
ARC
  5
87A
330
18
100
AcDbEntity
  8
PV0001_1
  6
Continuous
 48
0.5
370
    50
100
AcDbCircle
 10
24.199996948242
 20
-434.4999999999999
 30
0.0
 40
1.399999976158099
100
AcDbArc
 50
89.99998201390964
 51
179.9999640278186
  0
ARC
  5
87B
330
18
100
AcDbEntity
  8
PV0001_1
  6
Continuous
 48
0.5
370
    50
100
AcDbCircle
 10
28.0
 20
-434.4999999999999
 30
0.0
 40
1.399999976158099
100
AcDbArc
 50
0.0
 51
89.99998201390964
  0
ARC
  5
87C
330
18
100
AcDbEntity
  8
PV0001_1
  6
Continuous
 48
0.5
370
    50
100
AcDbCircle
 10
28.0
 20
-436.5
 30
0.0
 40
1.399999976158099
100
AcDbArc
 50
270.0000179860904
 51
0.0
  0
ARC
  5
87D
330
18
100
AcDbEntity
  8
PV0001_1
  6
Continuous
 48
0.5
370
    50
100
AcDbCircle
 10
24.199996948242
 20
-436.5
 30
0.0
 40
1.399999976158099
100
AcDbArc
 50
179.9999776882002
 51
270.0000280040004
  0
ARC
  5
87E
330
18
100
AcDbEntity
  8
PV0001_1
  6
Continuous
 48
0.5
370
    50
100
AcDbCircle
 10
20.199996948242
 20
-434.2999877929689
 30
0.0
 40
0.6000000238419
100
AcDbArc
 50
0.0
 51
89.99998201390964
  0
ARC
  5
87F
330
18
100
AcDbEntity
  8
PV0001_1
  6
Continuous
 48
0.5
370
    50
100
AcDbCircle
 10
20.199996948242
 20
-435.0
 30
0.0
 40
0.6000000238419
100
AcDbArc
 50
270.0000179860904
 51
0.0
  0
ARC
  5
880
330
18
100
AcDbEntity
  8
PV0001_1
  6
Continuous
 48
0.5
370
    50
100
AcDbCircle
 10
18.100006103515
 20
-435.3999938964849
 30
0.0
 40
0.2000000029802
100
AcDbArc
 50
179.9999776882002
 51
270.0000280040004
  0
ARC
  5
881
330
18
100
AcDbEntity
  8
PV0001_1
  6
Continuous
 48
0.5
370
    50
100
AcDbCircle
 10
18.100006103515
 20
-433.899993896485
 30
0.0
 40
0.2000000029802
100
AcDbArc
 50
89.99998201390964
 51
179.9999640278186
  0
ARC
  5
882
330
18
100
AcDbEntity
  8
PV0001_1
  6
Continuous
 48
0.5
370
    50
100
AcDbCircle
 10
21.779830932617
 20
-436.110595703125
 30
0.0
 40
0.2000000029802
100
AcDbArc
 50
117.3049472966022
 51
234.4267362404177
  0
ARC
  5
883
330
18
100
AcDbEntity
  8
PV0001_1
  6
Continuous
 48
0.5
370
    50
100
AcDbCircle
 10
20.199996948242
 20
-436.899993896485
 30
0.0
 40
0.6000000238419
100
AcDbArc
 50
0.0
 51
89.99998201390964
  0
ARC
  5
884
330
18
100
AcDbEntity
  8
PV0001_1
  6
Continuous
 48
0.5
370
    50
100
AcDbCircle
 10
18.300003051757
 20
-436.700012207032
 30
0.0
 40
0.4000000059605
100
AcDbArc
 50
89.99998201390964
 51
179.9999640278186
  0
ARC
  5
885
330
18
100
AcDbEntity
  8
PV0001_1
  6
Continuous
 48
0.5
370
    50
100
AcDbCircle
 10
21.0
 20
-434.599975585938
 30
0.0
 40
1.5
100
AcDbArc
 50
297.3049900989718
 51
0.0
  0
ARC
  5
886
330
18
100
AcDbEntity
  8
PV0001_1
  6
Continuous
 48
0.5
370
    50
100
AcDbCircle
 10
21.0
 20
-434.599975585938
 30
0.0
 40
1.5
100
AcDbArc
 50
0.0
 51
89.99998201390964
  0
ARC
  5
887
330
18
100
AcDbEntity
  8
PV0001_1
  6
Continuous
 48
0.5
370
    50
100
AcDbCircle
 10
20.5
 20
-437.899993896485
 30
0.0
 40
2.0
100
AcDbArc
 50
0.0
 51
54.4267312314609
  0
ARC
  5
888
330
18
100
AcDbEntity
  8
PV0001_1
  6
Continuous
 48
0.5
370
    50
100
AcDbCircle
 10
11.600006103515
 20
-436.5
 30
0.0
 40
0.6000000238419
100
AcDbArc
 50
179.9999776882002
 51
270.0000280040004
  0
ARC
  5
889
330
18
100
AcDbEntity
  8
PV0001_1
  6
Continuous
 48
0.5
370
    50
100
AcDbCircle
 10
13.800003051757
 20
-436.5
 30
0.0
 40
0.6000000238419
100
AcDbArc
 50
270.0000179860904
 51
0.0
  0
ARC
  5
88A
330
18
100
AcDbEntity
  8
PV0001_1
  6
Continuous
 48
0.5
370
    50
100
AcDbCircle
 10
14.600006103515
 20
-436.700012207032
 30
0.0
 40
1.2000000476837
100
AcDbArc
 50
270.0000179860904
 51
0.0
  0
ARC
  5
88B
330
18
100
AcDbEntity
  8
PV0001_1
  6
Continuous
 48
0.5
370
    50
100
AcDbCircle
 10
10.800003051757
 20
-436.700012207032
 30
0.0
 40
1.2000000476837
100
AcDbArc
 50
179.9999776882002
 51
270.0000280040004
  0
ARC
  5
88C
330
18
100
AcDbEntity
  8
PV0001_1
  6
Continuous
 48
0.5
370
    50
100
AcDbCircle
 10
4.8000030517578
 20
-435.700012207032
 30
0.0
 40
0.2000000029802
100
AcDbArc
 50
89.99998201390964
 51
179.9999640278186
  0
ARC
  5
88D
330
18
100
AcDbEntity
  8
PV0001_1
  6
Continuous
 48
0.5
370
    50
100
AcDbCircle
 10
4.8000030517578
 20
-434.7000122070319
 30
0.0
 40
0.2000000029802
100
AcDbArc
 50
179.9999776882002
 51
270.0000280040004
  0
ARC
  5
88E
330
18
100
AcDbEntity
  8
PV0001_1
  6
Continuous
 48
0.5
370
    50
100
AcDbCircle
 10
5.699996948242199
 20
-435.700012207032
 30
0.0
 40
0.2000000029802
100
AcDbArc
 50
36.86990755486291
 51
89.99998201390964
  0
ARC
  5
88F
330
18
100
AcDbEntity
  8
PV0001_1
  6
Continuous
 48
0.5
370
    50
100
AcDbCircle
 10
5.7021789550781
 20
-434.7000122070319
 30
0.0
 40
0.2000000029802
100
AcDbArc
 50
270.0000179860904
 51
322.1249959578269
  0
ARC
  5
890
330
18
100
AcDbEntity
  8
PV0001_1
  6
Continuous
 48
0.5
370
    50
100
AcDbCircle
 10
7.472381591796899
 20
-435.110473632813
 30
0.0
 40
0.2000000029802
100
AcDbArc
 50
135.0000549831355
 51
220.6012585677751
  0
CIRCLE
  5
891
330
18
100
AcDbEntity
  8
PV0001_1
  6
Continuous
 48
0.5
370
   100
100
AcDbCircle
 10
266.30798339843
 20
-435.5000610351569
 30
0.0
 40
2.700000047683699
  0
ARC
  5
892
330
18
100
AcDbEntity
  8
PV0001_1
  6
Continuous
 48
0.5
370
    50
100
AcDbCircle
 10
40.25585937499999
 20
-433.899993896485
 30
0.0
 40
0.2000000029802
100
AcDbArc
 50
18.43505281517092
 51
89.99998201390964
  0
ARC
  5
893
330
18
100
AcDbEntity
  8
PV0001_1
  6
Continuous
 48
0.5
370
    50
100
AcDbCircle
 10
38.27749633789
 20
-437.0999755859379
 30
0.0
 40
0.2000000029802
100
AcDbArc
 50
89.99998201390964
 51
161.5650102503889
  0
ARC
  5
894
330
18
100
AcDbEntity
  8
PV0001_1
  6
Continuous
 48
0.5
370
    50
100
AcDbCircle
 10
41.322509765625
 20
-437.0999755859379
 30
0.0
 40
0.2000000029802
100
AcDbArc
 50
18.43488035289773
 51
89.99998201390964
  0
CIRCLE
  5
895
330
18
100
AcDbEntity
  8
PV0001_1
  6
Continuous
 48
0.5
370
   100
100
AcDbCircle
 10
266.30798339843
 20
-435.5000610351569
 30
0.0
 40
1.6200001239777
  0
CIRCLE
  5
896
330
18
100
AcDbEntity
  8
PV0001_1
  6
Continuous
370
    50
100
AcDbCircle
 10
204.49998474121
 20
-768.0
 30
0.0
 40
14.5
  0
CIRCLE
  5
897
330
18
100
AcDbEntity
  8
PV0001_1
  6
Continuous
 48
0.5
370
    50
100
AcDbCircle
 10
212.19543457031
 20
-746.85693359375
 30
0.0
 40
3.5
  0
CIRCLE
  5
898
330
18
100
AcDbEntity
  8
PV0001_1
  6
CENTER2
370
    25
100
AcDbCircle
 10
204.49998474121
 20
-768.0
 30
0.0
 40
22.5
  0
CIRCLE
  5
899
330
18
100
AcDbEntity
  8
PV0001_1
  6
Continuous
 48
0.5
370
    50
100
AcDbCircle
 10
222.17765808105
 20
-785.6776733398399
 30
0.0
 40
2.75
  0
CIRCLE
  5
89A
330
18
100
AcDbEntity
  8
PV0001_1
  6
Continuous
 48
0.5
370
    50
100
AcDbCircle
 10
186.82231140136
 20
-785.6776733398399
 30
0.0
 40
2.75
  0
CIRCLE
  5
89B
330
18
100
AcDbEntity
  8
PV0001_1
  6
Continuous
 48
0.5
370
    50
100
AcDbCircle
 10
186.82231140136
 20
-750.32232666015
 30
0.0
 40
2.75
  0
CIRCLE
  5
89C
330
18
100
AcDbEntity
  8
PV0001_1
  6
Continuous
 48
0.5
370
    50
100
AcDbCircle
 10
222.17765808105
 20
-750.32232666015
 30
0.0
 40
2.75
  0
CIRCLE
  5
89D
330
18
100
AcDbEntity
  8
PV0001_1
  6
Continuous
 48
0.5
370
    50
100
AcDbCircle
 10
222.17765808105
 20
-785.6776733398399
 30
0.0
 40
4.75
  0
CIRCLE
  5
89E
330
18
100
AcDbEntity
  8
PV0001_1
  6
Continuous
 48
0.5
370
    50
100
AcDbCircle
 10
186.82231140136
 20
-785.6776733398399
 30
0.0
 40
4.75
  0
CIRCLE
  5
89F
330
18
100
AcDbEntity
  8
PV0001_1
  6
Continuous
 48
0.5
370
    50
100
AcDbCircle
 10
186.82231140136
 20
-750.32232666015
 30
0.0
 40
4.75
  0
CIRCLE
  5
8A0
330
18
100
AcDbEntity
  8
PV0001_1
  6
Continuous
 48
0.5
370
    50
100
AcDbCircle
 10
222.17765808105
 20
-750.32232666015
 30
0.0
 40
4.75
  0
CIRCLE
  5
8A1
330
18
100
AcDbEntity
  8
PV0001_1
  6
CENTER2
370
    25
100
AcDbCircle
 10
204.49998474121
 20
-768.0
 30
0.0
 40
25.0
  0
ARC
  5
8A2
330
18
100
AcDbEntity
  8
PV0001_1
  6
Continuous
 48
0.5
370
    50
100
AcDbCircle
 10
204.49998474121
 20
-768.0
 30
0.0
 40
12.5
100
AcDbArc
 50
298.3576110425267
 51
331.6423642548794
  0
ARC
  5
8A3
330
18
100
AcDbEntity
  8
PV0001_1
  6
Continuous
 48
0.5
370
    50
100
AcDbCircle
 10
204.49998474121
 20
-768.0
 30
0.0
 40
12.5
100
AcDbArc
 50
208.3576153682364
 51
241.6423702881403
  0
ARC
  5
8A4
330
18
100
AcDbEntity
  8
PV0001_1
  6
Continuous
 48
0.5
370
    50
100
AcDbCircle
 10
204.49998474121
 20
-768.0
 30
0.0
 40
12.5
100
AcDbArc
 50
118.3576297118596
 51
151.6423846317636
  0
ARC
  5
8A5
330
18
100
AcDbEntity
  8
PV0001_1
  6
Continuous
 48
0.5
370
    50
100
AcDbCircle
 10
204.49998474121
 20
-768.0
 30
0.0
 40
12.5
100
AcDbArc
 50
28.35763574512058
 51
61.64238895747331
  0
ARC
  5
8A6
330
18
100
AcDbEntity
  8
PV0001_1
  6
Continuous
 48
0.5
370
    50
100
AcDbCircle
 10
204.49998474121
 20
-768.0
 30
0.0
 40
31.5
100
AcDbArc
 50
304.3712510972669
 51
325.6287463982554
  0
ARC
  5
8A7
330
18
100
AcDbEntity
  8
PV0001_1
  6
Continuous
 48
0.5
370
    50
100
AcDbCircle
 10
204.49998474121
 20
-768.0
 30
0.0
 40
31.5
100
AcDbArc
 50
214.3712417625968
 51
235.628730233403
  0
ARC
  5
8A8
330
18
100
AcDbEntity
  8
PV0001_1
  6
Continuous
 48
0.5
370
    50
100
AcDbCircle
 10
204.49998474121
 20
-768.0
 30
0.0
 40
31.5
100
AcDbArc
 50
124.371269766597
 51
145.6287582374032
  0
ARC
  5
8A9
330
18
100
AcDbEntity
  8
PV0001_1
  6
Continuous
 48
0.5
370
    50
100
AcDbCircle
 10
204.49998474121
 20
-768.0
 30
0.0
 40
31.5
100
AcDbArc
 50
34.37125360174466
 51
55.62874890273309
  0
CIRCLE
  5
8AA
330
18
100
AcDbEntity
  8
PV0001_1
  6
Continuous
 48
0.5
370
    50
100
AcDbCircle
 10
225.64306640625
 20
-775.69543457031
 30
0.0
 40
4.0
  0
CIRCLE
  5
8AB
330
18
100
AcDbEntity
  8
PV0001_1
  6
Continuous
 48
0.5
370
    50
100
AcDbCircle
 10
196.80451965332
 20
-789.1430664062499
 30
0.0
 40
4.0
  0
CIRCLE
  5
8AC
330
18
100
AcDbEntity
  8
PV0001_1
  6
Continuous
 48
0.5
370
    50
100
AcDbCircle
 10
196.80451965332
 20
-789.1430664062499
 30
0.0
 40
3.5
  0
CIRCLE
  5
8AD
330
18
100
AcDbEntity
  8
PV0001_1
  6
Continuous
 48
0.5
370
    50
100
AcDbCircle
 10
225.64306640625
 20
-775.69543457031
 30
0.0
 40
3.5
  0
CIRCLE
  5
8AE
330
18
100
AcDbEntity
  8
PV0001_1
  6
Continuous
 48
0.5
370
    50
100
AcDbCircle
 10
183.35690307617
 20
-760.3045654296799
 30
0.0
 40
3.5
  0
CIRCLE
  5
8AF
330
18
100
AcDbEntity
  8
PV0001_1
  6
Continuous
 48
0.5
370
    50
100
AcDbCircle
 10
212.19543457031
 20
-746.85693359375
 30
0.0
 40
4.0
  0
CIRCLE
  5
8B0
330
18
100
AcDbEntity
  8
PV0001_1
  6
Continuous
 48
0.5
370
    50
100
AcDbCircle
 10
183.35690307617
 20
-760.3045654296799
 30
0.0
 40
4.0
  0
CIRCLE
  5
8B1
330
18
100
AcDbEntity
  8
PV0001_1
  6
Continuous
370
    50
100
AcDbCircle
 10
971.0
 20
-668.0
 30
0.0
 40
16.0
  0
CIRCLE
  5
8B2
330
18
100
AcDbEntity
  8
PV0001_1
  6
Continuous
 48
0.5
370
    50
100
AcDbCircle
 10
216.28858947753
 20
-681.78857421875
 30
0.0
 40
3.5
  0
CIRCLE
  5
8B3
330
18
100
AcDbEntity
  8
PV0001_1
  6
Continuous
 48
0.5
370
    50
100
AcDbCircle
 10
216.28854370117
 20
-654.21142578125
 30
0.0
 40
3.5
  0
CIRCLE
  5
8B4
330
18
100
AcDbEntity
  8
PV0001_1
  6
Continuous
 48
0.5
370
    50
100
AcDbCircle
 10
188.71142578125
 20
-681.78857421875
 30
0.0
 40
3.5
  0
CIRCLE
  5
8B5
330
18
100
AcDbEntity
  8
PV0001_1
  6
Continuous
 48
0.5
370
    50
100
AcDbCircle
 10
188.71138000488
 20
-654.21142578125
 30
0.0
 40
3.5
  0
CIRCLE
  5
8B6
330
18
100
AcDbEntity
  8
PV0001_1
  6
Continuous
 48
0.5
370
    50
100
AcDbCircle
 10
216.28854370117
 20
-654.21142578125
 30
0.0
 40
4.0
  0
CIRCLE
  5
8B7
330
18
100
AcDbEntity
  8
PV0001_1
  6
Continuous
 48
0.5
370
    50
100
AcDbCircle
 10
188.71138000488
 20
-654.21142578125
 30
0.0
 40
4.0
  0
CIRCLE
  5
8B8
330
18
100
AcDbEntity
  8
PV0001_1
  6
Continuous
 48
0.5
370
    50
100
AcDbCircle
 10
216.28858947753
 20
-681.78857421875
 30
0.0
 40
4.0
  0
ARC
  5
8B9
330
18
100
AcDbEntity
  8
PV0001_1
  6
Continuous
 48
0.5
370
    50
100
AcDbCircle
 10
202.49998474121
 20
-668.0
 30
0.0
 40
12.5
100
AcDbArc
 50
118.3576297118596
 51
151.6423573110016
  0
ARC
  5
8BA
330
18
100
AcDbEntity
  8
PV0001_1
  6
Continuous
 48
0.5
370
    50
100
AcDbCircle
 10
202.49998474121
 20
-668.0
 30
0.0
 40
12.5
100
AcDbArc
 50
28.35759647153347
 51
61.64234114614875
  0
ARC
  5
8BB
330
18
100
AcDbEntity
  8
PV0001_1
  6
Continuous
 48
0.5
370
    50
100
AcDbCircle
 10
202.49998474121
 20
-668.0
 30
0.0
 40
12.5
100
AcDbArc
 50
298.3576520236604
 51
331.642379622804
  0
ARC
  5
8BC
330
18
100
AcDbEntity
  8
PV0001_1
  6
Continuous
 48
0.5
370
    50
100
AcDbCircle
 10
202.49998474121
 20
-668.0
 30
0.0
 40
12.5
100
AcDbArc
 50
208.3576290286184
 51
241.6423566277615
  0
CIRCLE
  5
8BD
330
18
100
AcDbEntity
  8
PV0001_1
  6
Continuous
 48
0.5
370
    50
100
AcDbCircle
 10
188.71142578125
 20
-681.78857421875
 30
0.0
 40
4.0
  0
CIRCLE
  5
8BE
330
18
100
AcDbEntity
  8
PV0001_1
  6
Continuous
370
    50
100
AcDbCircle
 10
202.49998474121
 20
-668.0
 30
0.0
 40
14.5
  0
ARC
  5
8BF
330
18
100
AcDbEntity
  8
PV0001_1
  6
Continuous
 48
0.5
370
    50
100
AcDbCircle
 10
202.49998474121
 20
-668.0
 30
0.0
 40
24.5
100
AcDbArc
 50
310.9657304390204
 51
319.0343012074479
  0
ARC
  5
8C0
330
18
100
AcDbEntity
  8
PV0001_1
  6
Continuous
 48
0.5
370
    50
100
AcDbCircle
 10
202.49998474121
 20
-668.0
 30
0.0
 40
24.5
100
AcDbArc
 50
40.9656885472699
 51
49.03427297607772
  0
ARC
  5
8C1
330
18
100
AcDbEntity
  8
PV0001_1
  6
Continuous
 48
0.5
370
    50
100
AcDbCircle
 10
202.49998474121
 20
-668.0
 30
0.0
 40
24.5
100
AcDbArc
 50
130.9657081272226
 51
139.0342788956482
  0
ARC
  5
8C2
330
18
100
AcDbEntity
  8
PV0001_1
  6
Continuous
 48
0.5
370
    50
100
AcDbCircle
 10
202.49998474121
 20
-668.0
 30
0.0
 40
24.5
100
AcDbArc
 50
220.9657074439751
 51
229.0342782124001
  0
CIRCLE
  5
8C3
330
18
100
AcDbEntity
  8
PV0001_1
  6
CENTER2
370
    25
100
AcDbCircle
 10
202.49998474121
 20
-668.0
 30
0.0
 40
19.5
  0
CIRCLE
  5
8C4
330
18
100
AcDbEntity
  8
PV0001_1
  6
Continuous
370
    50
100
AcDbCircle
 10
202.49998474121
 20
-568.0
 30
0.0
 40
10.0
  0
CIRCLE
  5
8C5
330
18
100
AcDbEntity
  8
PV0001_1
  6
Continuous
370
    50
100
AcDbCircle
 10
861.5
 20
-638.0
 30
0.0
 40
8.5
  0
CIRCLE
  5
8C6
330
18
100
AcDbEntity
  8
PV0001_1
  6
Continuous
370
    50
100
AcDbCircle
 10
861.5
 20
-698.0
 30
0.0
 40
8.5
  0
CIRCLE
  5
8C7
330
18
100
AcDbEntity
  8
PV0001_1
  6
Continuous
370
    50
100
AcDbCircle
 10
861.5
 20
-698.0
 30
0.0
 40
5.5
  0
CIRCLE
  5
8C8
330
18
100
AcDbEntity
  8
PV0001_1
  6
Continuous
370
    50
100
AcDbCircle
 10
861.5
 20
-638.0
 30
0.0
 40
5.5
  0
CIRCLE
  5
8C9
330
18
100
AcDbEntity
  8
PV0001_1
  6
Continuous
370
    50
100
AcDbCircle
 10
321.5
 20
-638.0
 30
0.0
 40
5.5
  0
CIRCLE
  5
8CA
330
18
100
AcDbEntity
  8
PV0001_1
  6
Continuous
370
    50
100
AcDbCircle
 10
321.50003051757
 20
-698.0
 30
0.0
 40
5.5
  0
CIRCLE
  5
8CB
330
18
100
AcDbEntity
  8
PV0001_1
  6
Continuous
370
    50
100
AcDbCircle
 10
321.5
 20
-638.0
 30
0.0
 40
8.5
  0
CIRCLE
  5
8CC
330
18
100
AcDbEntity
  8
PV0001_1
  6
Continuous
370
    50
100
AcDbCircle
 10
321.50003051757
 20
-698.0
 30
0.0
 40
8.5
  0
ARC
  5
8CD
330
18
100
AcDbEntity
  8
PV0001_1
  6
PHANTOM2
 48
0.5
370
    25
100
AcDbCircle
 10
343.70001220703
 20
-840.2000122070299
 30
0.0
 40
0.3000000119209
100
AcDbArc
 50
269.9999974955211
 51
0.0
  0
ARC
  5
8CE
330
18
100
AcDbEntity
  8
PV0001_1
  6
PHANTOM2
 48
0.5
370
    25
100
AcDbCircle
 10
343.70001220703
 20
-855.7999877929599
 30
0.0
 40
0.3000000119209
100
AcDbArc
 50
0.0
 51
90.00000250447893
  0
ARC
  5
8D0
330
18
100
AcDbEntity
  8
PV0001_1
  6
PHANTOM2
 48
0.5
370
    25
100
AcDbCircle
 10
343.70001220703
 20
-775.7999877929599
 30
0.0
 40
0.3000000119209
100
AcDbArc
 50
0.0
 51
90.00000250447893
  0
ARC
  5
8D1
330
18
100
AcDbEntity
  8
PV0001_1
  6
PHANTOM2
 48
0.5
370
    25
100
AcDbCircle
 10
343.70001220703
 20
-760.2000122070299
 30
0.0
 40
0.3000000119209
100
AcDbArc
 50
269.9999974955211
 51
0.0
  0
ARC
  5
8D3
330
18
100
AcDbEntity
  8
PV0001_1
  6
Continuous
 48
0.5
370
    50
100
AcDbCircle
 10
857.29998779296
 20
-510.2000007629389
 30
0.0
 40
0.3000000119209
100
AcDbArc
 50
179.9999913485786
 51
270.000000683247
  0
ARC
  5
8D4
330
18
100
AcDbEntity
  8
PV0001_1
  6
Continuous
 48
0.5
370
    50
100
AcDbCircle
 10
343.70001220703
 20
-510.2000007629389
 30
0.0
 40
0.3000000119209
100
AcDbArc
 50
269.9999974955211
 51
0.0
  0
ARC
  5
8D5
330
18
100
AcDbEntity
  8
PV0001_1
  6
Continuous
 48
0.5
370
    50
100
AcDbCircle
 10
343.70001220703
 20
-525.7999992370599
 30
0.0
 40
0.3000000119209
100
AcDbArc
 50
0.0
 51
90.00000250447893
  0
ARC
  5
8D6
330
18
100
AcDbEntity
  8
PV0001_1
  6
Continuous
 48
0.5
370
    50
100
AcDbCircle
 10
857.29998779296
 20
-525.7999992370599
 30
0.0
 40
0.3000000119209
100
AcDbArc
 50
90.00000250447893
 51
180.0000050089569
  0
ARC
  5
8D7
330
18
100
AcDbEntity
  8
PV0001_1
  6
PHANTOM2
 48
0.5
370
    25
100
AcDbCircle
 10
857.29998779296
 20
-660.19999694824
 30
0.0
 40
0.3000000119209
100
AcDbArc
 50
179.9999913485786
 51
270.000000683247
  0
ARC
  5
8D8
330
18
100
AcDbEntity
  8
PV0001_1
  6
PHANTOM2
 48
0.5
370
    25
100
AcDbCircle
 10
343.70001220703
 20
-660.19999694824
 30
0.0
 40
0.3000000119209
100
AcDbArc
 50
269.9999974955211
 51
0.0
  0
ARC
  5
8D9
330
18
100
AcDbEntity
  8
PV0001_1
  6
PHANTOM2
 48
0.5
370
    25
100
AcDbCircle
 10
343.70001220703
 20
-675.8000030517499
 30
0.0
 40
0.3000000119209
100
AcDbArc
 50
0.0
 51
90.00000250447893
  0
ARC
  5
8DA
330
18
100
AcDbEntity
  8
PV0001_1
  6
PHANTOM2
 48
0.5
370
    25
100
AcDbCircle
 10
857.29998779296
 20
-675.8000030517499
 30
0.0
 40
0.3000000119209
100
AcDbArc
 50
90.00000250447893
 51
180.0000050089569
  0
MTEXT
  5
8DB
330
18
100
AcDbEntity
  8
PV0001_1
 62
     7
370
    25
100
AcDbMText
 10
111.8284938931421
 20
-431.5
 30
0.0
 40
3.2
 41
0.0
 71
     4
 72
     5
  1
\T1.40;\W0.61;MODEL
 73
     1
 44
1.0
1001
ACAD
1000
MTEXTBEGIN
1070
    73
1070
     1
1070
    44
1040
1.0
1070
    74
1070
     0
1000
MTEXTEND
  0
MTEXT
  5
8DC
330
18
100
AcDbEntity
  8
PV0001_1
 62
     7
370
    25
100
AcDbMText
 10
49.82849389314615
 20
-431.5
 30
0.0
 40
3.2
 41
0.0
 71
     4
 72
     5
  1
\T1.40;\W0.61;FILE\U+3000NAME
 73
     1
 44
1.0
1001
ACAD
1000
MTEXTBEGIN
1070
    73
1070
     1
1070
    44
1040
1.0
1070
    74
1070
     0
1000
MTEXTEND
  0
MTEXT
  5
8DD
330
18
100
AcDbEntity
  8
PV0001_1
 62
     7
370
    25
100
AcDbMText
 10
235.8284938931421
 20
-431.5
 30
0.0
 40
3.2
 41
0.0
 71
     4
 72
     5
  1
\T1.40;\W0.61;L
 73
     1
 44
1.0
1001
ACAD
1000
MTEXTBEGIN
1070
    73
1070
     1
1070
    44
1040
1.0
1070
    74
1070
     0
1000
MTEXTEND
  0
MTEXT
  5
8DE
330
18
100
AcDbEntity
  8
PV0001_1
 62
     7
370
    25
100
AcDbMText
 10
111.8284938931421
 20
-443.5
 30
0.0
 40
3.2
 41
0.0
 71
     4
 72
     5
  1
\T1.40;\W0.61;MODEL
 73
     1
 44
1.0
1001
ACAD
1000
MTEXTBEGIN
1070
    73
1070
     1
1070
    44
1040
1.0
1070
    74
1070
     0
1000
MTEXTEND
  0
MTEXT
  5
8DF
330
18
100
AcDbEntity
  8
PV0001_1
 62
     7
370
    25
100
AcDbMText
 10
235.8284938931421
 20
-443.5
 30
0.0
 40
3.2
 41
0.0
 71
     4
 72
     5
  1
\T1.40;\W0.61;L
 73
     1
 44
1.0
1001
ACAD
1000
MTEXTBEGIN
1070
    73
1070
     1
1070
    44
1040
1.0
1070
    74
1070
     0
1000
MTEXTEND
  0
MTEXT
  5
8E0
330
18
100
AcDbEntity
  8
PV0001_1
 62
     7
370
    25
100
AcDbMText
 10
111.8284938931421
 20
-455.4999999999999
 30
0.0
 40
3.2
 41
0.0
 71
     4
 72
     5
  1
\T1.40;\W0.61;MODEL
 73
     1
 44
1.0
1001
ACAD
1000
MTEXTBEGIN
1070
    73
1070
     1
1070
    44
1040
1.0
1070
    74
1070
     0
1000
MTEXTEND
  0
MTEXT
  5
8E1
330
18
100
AcDbEntity
  8
PV0001_1
 62
     7
370
    25
100
AcDbMText
 10
235.8284938931421
 20
-455.4999999999999
 30
0.0
 40
3.2
 41
0.0
 71
     4
 72
     5
  1
\T1.40;\W0.61;L
 73
     1
 44
1.0
1001
ACAD
1000
MTEXTBEGIN
1070
    73
1070
     1
1070
    44
1040
1.0
1070
    74
1070
     0
1000
MTEXTEND
  0
MTEXT
  5
8E2
330
18
100
AcDbEntity
  8
PV0001_1
 62
     7
370
    25
100
AcDbMText
 10
119.5427439212755
 20
-437.0
 30
0.0
 40
4.799999999999999
 41
0.0
 71
     4
 72
     5
  1
\T1.4;\W0.61;GW2010DS-NKLR-0600A
 73
     1
 44
1.0
1001
ACAD
1000
MTEXTBEGIN
1070
    73
1070
     1
1070
    44
1040
1.0
1070
    74
1070
     0
1000
MTEXTEND
  0
MTEXT
  5
8E3
330
18
100
AcDbEntity
  8
PV0001_1
 62
     7
370
    25
100
AcDbMText
 10
65.54274392127952
 20
-437.0
 30
0.0
 40
4.799999999999999
 41
0.0
 71
     4
 72
     5
  1
\T1.4;\W0.61;GW2010DS
 73
     1
 44
1.0
1001
ACAD
1000
MTEXTBEGIN
1070
    73
1070
     1
1070
    44
1040
1.0
1070
    74
1070
     0
1000
MTEXTEND
  0
MTEXT
  5
8E4
330
18
100
AcDbEntity
  8
PV0001_1
 62
     7
370
    25
100
AcDbMText
 10
243.5427439212755
 20
-437.0
 30
0.0
 40
4.799999999999999
 41
0.0
 71
     4
 72
     5
  1
\T1.40;\W0.61;600
 73
     1
 44
1.0
1001
ACAD
1000
MTEXTBEGIN
1070
    73
1070
     1
1070
    44
1040
1.0
1070
    74
1070
     0
1000
MTEXTEND
  0
MTEXT
  5
8E5
330
18
100
AcDbEntity
  8
PV0001_1
 62
     7
370
    25
100
AcDbMText
 10
119.5427439212755
 20
-461.0
 30
0.0
 40
4.799999999999999
 41
0.0
 71
     4
 72
     5
  1
\T1.4;\W0.61;GW2010DS-NKLR-2000A
 73
     1
 44
1.0
1001
ACAD
1000
MTEXTBEGIN
1070
    73
1070
     1
1070
    44
1040
1.0
1070
    74
1070
     0
1000
MTEXTEND
  0
MTEXT
  5
8E6
330
18
100
AcDbEntity
  8
PV0001_1
 62
     7
370
    25
100
AcDbMText
 10
239.3377420902155
 20
-448.734090805054
 30
0.0
 40
4.799999999999999
 41
0.0
 71
     4
 72
     5
  1
\T1.40;\W0.61;1200
 73
     1
 44
1.0
1001
ACAD
1000
MTEXTBEGIN
1070
    73
1070
     1
1070
    44
1040
1.0
1070
    74
1070
     0
1000
MTEXTEND
  0
MTEXT
  5
8E7
330
18
100
AcDbEntity
  8
PV0001_1
 62
     7
370
    25
100
AcDbMText
 10
119.5427439212755
 20
-449.0
 30
0.0
 40
4.799999999999999
 41
0.0
 71
     4
 72
     5
  1
\T1.4;\W0.61;GW2010DS-NKLR-1200A
 73
     1
 44
1.0
1001
ACAD
1000
MTEXTBEGIN
1070
    73
1070
     1
1070
    44
1040
1.0
1070
    74
1070
     0
1000
MTEXTEND
  0
MTEXT
  5
8E8
330
18
100
AcDbEntity
  8
PV0001_1
 62
     7
370
    25
100
AcDbMText
 10
239.7344858646355
 20
-460.77142906189
 30
0.0
 40
4.799999999999999
 41
0.0
 71
     4
 72
     5
  1
\T1.40;\W0.61;2000
 73
     1
 44
1.0
1001
ACAD
1000
MTEXTBEGIN
1070
    73
1070
     1
1070
    44
1040
1.0
1070
    74
1070
     0
1000
MTEXTEND
  0
MTEXT
  5
8E9
330
18
100
AcDbEntity
  8
PV0001_1
 62
     7
370
    25
100
AcDbMText
 10
320.9307582974421
 20
-878.2084960937499
 30
0.0
 40
3.2
 41
0.0
 71
     4
 72
     5
  1
\T1.40;\W0.61;BUM-15
 73
     1
 44
1.0
1001
ACAD
1000
MTEXTBEGIN
1070
    73
1070
     1
1070
    44
1040
1.0
1070
    74
1070
     0
1000
MTEXTEND
  0
MTEXT
  5
8EB
330
18
100
AcDbEntity
  8
PV0001_1
 62
     7
370
    25
100
AcDbMText
 10
302.5626857876722
 20
-798.71383666992
 30
0.0
 40
3.2
 41
0.0
 71
     4
 72
     5
  1
\T1.40;\W0.61;BUM-15
 73
     1
 44
1.0
1001
ACAD
1000
MTEXTBEGIN
1070
    73
1070
     1
1070
    44
1040
1.0
1070
    74
1070
     0
1000
MTEXTEND
  0
MTEXT
  5
8EC
330
18
100
AcDbEntity
  8
PV0001_1
 62
     7
370
    25
100
AcDbMText
 10
852.2737148404122
 20
-713.76684570312
 30
0.0
 40
3.2
 41
0.0
 71
     4
 72
     5
  1
\T1.40;\W0.61;BUK-15S
 73
     1
 44
1.0
1001
ACAD
1000
MTEXTBEGIN
1070
    73
1070
     1
1070
    44
1040
1.0
1070
    74
1070
     0
1000
MTEXTEND
  0
MTEXT
  5
8ED
330
18
100
AcDbEntity
  8
PV0001_1
 62
     7
370
    25
100
AcDbMText
 10
310.8631618618921
 20
-713.76684570312
 30
0.0
 40
3.2
 41
0.0
 71
     4
 72
     5
  1
\T1.40;\W0.61;BUK-15F
 73
     1
 44
1.0
1001
ACAD
1000
MTEXTBEGIN
1070
    73
1070
     1
1070
    44
1040
1.0
1070
    74
1070
     0
1000
MTEXTEND
  0
MTEXT
  5
8EE
330
18
100
AcDbEntity
  8
PV0001_1
 62
     7
370
    25
100
AcDbMText
 10
328.4284999966621
 20
-503.0
 30
0.0
 40
3.2
 41
0.0
 71
     4
 72
     5
  1
\T1.40;\W0.61;OPTIONAL\U+3000COLLAR
 73
     1
 44
1.0
1001
ACAD
1000
MTEXTBEGIN
1070
    73
1070
     1
1070
    44
1040
1.0
1070
    74
1070
     0
1000
MTEXTEND
  0
POINT
  5
8EF
330
18
100
AcDbEntity
  8
0
 60
     1
100
AcDbPoint
 10
-0.0000005331703505
 20
-908.9999998211512
 30
0.0
1001
GENIUS_GENODEF_13
1002
{
1000
HIER
1070
    10
1002
}
1002
{
1000
MANEDIT
1070
     0
1002
}
1002
{
1000
NOSEL
1070
     0
1002
}
1002
{
1000
BEHIND
1070
     0
1002
}
1002
{
1000
OTHER
1070
     0
1002
}
1002
{
1000
REACTOR
1002
}
1001
GENIUS_GENOLIS_13
1002
{
1000
ENT
1005
6D3
1005
6D4
1005
6D5
1005
6D6
1002
}
1001
GENIUS_GENOENT_13
1002
{
1000
MYREF
1005
8EF
1002
}
1002
{
1000
GRP
1005
0
1002
}
1001
GENIUS_GENOBJ-N-CRS_13
1002
{
1000
OWNER
1000
GEN
1002
}
  0
LINE
  5
992
330
18
100
AcDbEntity
  8
0
100
AcDbLine
 10
485.5
 20
-586.0
 30
0.0
 11
485.5
 21
-596.0
 31
0.0
  0
LINE
  5
993
330
18
100
AcDbEntity
  8
0
100
AcDbLine
 10
485.5
 20
-596.0
 30
0.0
 11
470.5
 21
-596.0
 31
0.0
  0
LINE
  5
994
330
18
100
AcDbEntity
  8
0
100
AcDbLine
 10
470.5
 20
-596.0
 30
0.0
 11
470.5
 21
-586.0
 31
0.0
  0
ARC
  5
9BB
330
18
100
AcDbEntity
  8
0
100
AcDbCircle
 10
472.8099530733289
 20
-584.318793993754
 30
0.0
 40
9.952971060761413
100
AcDbArc
 50
189.7247402770218
 51
256.5800391909891
  0
ARC
  5
9BC
330
18
100
AcDbEntity
  8
0
100
AcDbCircle
 10
483.190046926671
 20
-584.318793993754
 30
0.0
 40
9.952971060761413
100
AcDbArc
 50
283.4199608090109
 51
350.2752597229783
  0
LINE
  5
9FD
330
18
100
AcDbEntity
  8
0
100
AcDbLine
 10
178.49998474121
 20
-550.0
 30
0.0
 11
187.49998474121
 21
-550.0
 31
0.0
  0
LINE
  5
9FE
330
18
100
AcDbEntity
  8
0
100
AcDbLine
 10
226.49998474121
 20
-550.0
 30
0.0
 11
226.49998474121
 21
-559.0
 31
0.0
  0
LINE
  5
9FF
330
18
100
AcDbEntity
  8
0
100
AcDbLine
 10
225.99998474121
 20
-586.0
 30
0.0
 11
178.99998474121
 21
-586.0
 31
0.0
  0
LINE
  5
A00
330
18
100
AcDbEntity
  8
0
100
AcDbLine
 10
178.49998474121
 20
-559.0
 30
0.0
 11
178.49998474121
 21
-550.0
 31
0.0
  0
ARC
  5
A0E
330
18
100
AcDbEntity
  8
0
100
AcDbCircle
 10
207.690031667881
 20
-584.318793993754
 30
0.0
 40
9.952971060761413
100
AcDbArc
 50
283.419960809011
 51
350.2752597229796
  0
ARC
  5
A0F
330
18
100
AcDbEntity
  8
0
100
AcDbCircle
 10
197.309937814539
 20
-584.318793993754
 30
0.0
 40
9.952971060761413
100
AcDbArc
 50
189.7247402770203
 51
256.580039190989
  0
LINE
  5
A10
330
18
100
AcDbEntity
  8
0
100
AcDbLine
 10
194.99998474121
 20
-596.0
 30
0.0
 11
194.99998474121
 21
-586.0
 31
0.0
  0
LINE
  5
A11
330
18
100
AcDbEntity
  8
0
100
AcDbLine
 10
209.99998474121
 20
-596.0
 30
0.0
 11
194.99998474121
 21
-596.0
 31
0.0
  0
LINE
  5
A12
330
18
100
AcDbEntity
  8
0
100
AcDbLine
 10
209.99998474121
 20
-586.0
 30
0.0
 11
209.99998474121
 21
-596.0
 31
0.0
  0
LINE
  5
A3E
330
18
100
AcDbEntity
  8
0
100
AcDbLine
 10
187.49998474121
 20
-550.0
 30
0.0
 11
187.49998474121
 21
-550.4999999999999
 31
0.0
  0
LINE
  5
A3F
330
18
100
AcDbEntity
  8
0
100
AcDbLine
 10
187.49998474121
 20
-550.4999999999999
 30
0.0
 11
217.49998474121
 21
-550.4999999999999
 31
0.0
  0
LINE
  5
A40
330
18
100
AcDbEntity
  8
0
100
AcDbLine
 10
217.49998474121
 20
-550.4999999999999
 30
0.0
 11
217.49998474121
 21
-550.0
 31
0.0
  0
LINE
  5
A56
330
18
100
AcDbEntity
  8
0
100
AcDbLine
 10
178.49998474121
 20
-559.0
 30
0.0
 11
178.99998474121
 21
-559.0
 31
0.0
  0
LINE
  5
A57
330
18
100
AcDbEntity
  8
0
100
AcDbLine
 10
178.99998474121
 20
-559.0
 30
0.0
 11
178.99998474121
 21
-586.0
 31
0.0
  0
LINE
  5
A58
330
18
100
AcDbEntity
  8
0
100
AcDbLine
 10
226.49998474121
 20
-559.0
 30
0.0
 11
225.99998474121
 21
-559.0
 31
0.0
  0
LINE
  5
A59
330
18
100
AcDbEntity
  8
0
100
AcDbLine
 10
225.99998474121
 20
-559.0
 30
0.0
 11
225.99998474121
 21
-586.0
 31
0.0
  0
LINE
  5
A5B
330
18
100
AcDbEntity
  8
0
100
AcDbLine
 10
217.49998474121
 20
-550.0
 30
0.0
 11
226.49998474121
 21
-550.0
 31
0.0
  0
LINE
  5
AF0
330
18
100
AcDbEntity
  8
PV0001_1
  6
CENTER2
370
    25
100
AcDbLine
 10
745.7626953125
 20
-288.5000000000001
 30
0.0
 11
874.5454101562499
 21
-288.5000000000001
 31
0.0
  0
MTEXT
  5
B21
330
18
100
AcDbEntity
  8
PV0001_1
 62
     7
370
    25
100
AcDbMText
 10
859.864378805034
 20
-326.9910343634399
 30
0.0
 40
3.2
 41
0.0
 71
     4
 72
     5
  1
\T1.4;\W0.61;BUM-15S
 73
     1
 44
1.0
1001
ACAD
1000
MTEXTBEGIN
1070
    73
1070
     1
1070
    44
1040
1.0
1070
    74
1070
     0
1000
MTEXTEND
  0
LINE
  5
B22
330
18
100
AcDbEntity
  8
0
370
    -2
100
AcDbLine
 10
873.4999999999999
 20
-272.5
 30
0.0
 11
857.5000000000001
 21
-272.5
 31
0.0
  0
CIRCLE
  5
B23
330
18
100
AcDbEntity
  8
0
370
    -2
100
AcDbCircle
 10
984.5983451586501
 20
-288.5000000000001
 30
0.0
 40
16.5
  0
LINE
  5
B24
330
18
100
AcDbEntity
  8
0
100
AcDbLine
 10
857.5000000000001
 20
-272.5
 30
0.0
 11
857.0
 21
-272.0000000000001
 31
0.0
  0
LINE
  5
B25
330
18
100
AcDbEntity
  8
0
100
AcDbLine
 10
857.5000000000001
 20
-304.5000000000001
 30
0.0
 11
857.5000000000001
 21
-272.5
 31
0.0
  0
LINE
  5
B26
330
18
100
AcDbEntity
  8
0
100
AcDbLine
 10
857.0
 20
-305.0000000000001
 30
0.0
 11
857.5000000000001
 21
-304.5000000000001
 31
0.0
  0
LINE
  5
B27
330
18
100
AcDbEntity
  8
0
100
AcDbLine
 10
873.4999999999999
 20
-272.5
 30
0.0
 11
874.0
 21
-272.0000000000001
 31
0.0
  0
LINE
  5
B28
330
18
100
AcDbEntity
  8
0
100
AcDbLine
 10
873.4999999999999
 20
-304.5000000000001
 30
0.0
 11
873.4999999999999
 21
-272.5
 31
0.0
  0
LINE
  5
B29
330
18
100
AcDbEntity
  8
0
100
AcDbLine
 10
874.0
 20
-305.0000000000001
 30
0.0
 11
873.4999999999999
 21
-304.5000000000001
 31
0.0
  0
LINE
  5
B2A
330
18
100
AcDbEntity
  8
0
370
    -2
100
AcDbLine
 10
864.9999999999998
 20
-320.0000000000001
 30
0.0
 11
874.0
 21
-320.0000000000001
 31
0.0
  0
LINE
  5
B2B
330
18
100
AcDbEntity
  8
0
370
    -2
100
AcDbLine
 10
873.4999999999999
 20
-304.5000000000001
 30
0.0
 11
857.5000000000001
 21
-304.5000000000001
 31
0.0
  0
LINE
  5
B2C
330
18
100
AcDbEntity
  8
0
370
    -2
100
AcDbLine
 10
865.0
 20
-308.5000000000001
 30
0.0
 11
857.0
 21
-308.5000000000001
 31
0.0
  0
CIRCLE
  5
B2E
330
18
100
AcDbEntity
  8
0
370
    -2
100
AcDbCircle
 10
966.9206756289863
 20
-306.1776695296638
 30
0.0
 40
2.75
  0
CIRCLE
  5
B2F
330
18
100
AcDbEntity
  8
0
370
    -2
100
AcDbCircle
 10
966.920676649199
 20
-306.1776705498765
 30
0.0
 40
4.75
  0
LINE
  5
B30
330
18
100
AcDbEntity
  8
0
370
    -2
100
AcDbLine
 10
864.9999999999998
 20
-268.5
 30
0.0
 11
864.9999999999998
 21
-262.5
 31
0.0
  0
LINE
  5
B31
330
18
100
AcDbEntity
  8
0
370
    -2
100
AcDbLine
 10
874.0
 20
-262.5
 30
0.0
 11
864.9999999999998
 21
-262.5
 31
0.0
  0
LINE
  5
B32
330
18
100
AcDbEntity
  8
0
370
    -2
100
AcDbLine
 10
864.9999999999998
 20
-268.5
 30
0.0
 11
857.0
 21
-268.5
 31
0.0
  0
ARC
  5
B33
330
18
100
AcDbEntity
  8
0
370
    -2
100
AcDbCircle
 10
984.5983451586501
 20
-288.5000000000001
 30
0.0
 40
31.5
100
AcDbArc
 50
124.3712560240872
 51
145.6287439759218
  0
LINE
  5
B34
330
18
100
AcDbEntity
  8
0
370
    -2
100
AcDbLine
 10
958.59834515865
 20
-306.2834192437788
 30
0.0
 11
958.59834515865
 21
-270.7165807562213
 31
0.0
  0
CIRCLE
  5
B35
330
18
100
AcDbEntity
  8
0
370
    -2
100
AcDbCircle
 10
966.9206756289863
 20
-270.8223304703363
 30
0.0
 40
4.75
  0
CIRCLE
  5
B36
330
18
100
AcDbEntity
  8
0
370
    -2
100
AcDbCircle
 10
966.9206746087736
 20
-270.8223294501236
 30
0.0
 40
2.75
  0
LINE
  5
B37
330
18
100
AcDbEntity
  8
0
370
    -2
100
AcDbLine
 10
857.0
 20
-268.5
 30
0.0
 11
857.0
 21
-308.5000000000001
 31
0.0
  0
LINE
  5
B38
330
18
100
AcDbEntity
  8
0
370
    -2
100
AcDbLine
 10
874.0
 20
-320.0000000000001
 30
0.0
 11
874.0
 21
-262.5
 31
0.0
  0
ARC
  5
B39
330
18
100
AcDbEntity
  8
0
370
    -2
100
AcDbCircle
 10
984.5983451586501
 20
-288.5000000000001
 30
0.0
 40
31.5
100
AcDbArc
 50
214.3712560240782
 51
235.6287439759128
  0
LINE
  5
B3A
330
18
100
AcDbEntity
  8
0
370
    -2
100
AcDbLine
 10
865.0
 20
-308.5000000000001
 30
0.0
 11
864.9999999999998
 21
-320.0000000000001
 31
0.0
  0
CIRCLE
  5
B3B
330
18
100
AcDbEntity
  8
0
370
    -2
100
AcDbCircle
 10
1002.276013668101
 20
-306.177668509451
 30
0.0
 40
2.75
  0
CIRCLE
  5
B3C
330
18
100
AcDbEntity
  8
0
370
    -2
100
AcDbCircle
 10
1002.276014688314
 20
-306.1776695296637
 30
0.0
 40
4.75
  0
ARC
  5
B3D
330
18
100
AcDbEntity
  8
0
370
    -2
100
AcDbCircle
 10
984.5983451586501
 20
-288.5000000000001
 30
0.0
 40
31.5
100
AcDbArc
 50
34.37125602407815
 51
55.62874397591279
  0
LINE
  5
B3E
330
18
100
AcDbEntity
  8
0
370
    -2
100
AcDbLine
 10
1010.59834515865
 20
-306.2834192437788
 30
0.0
 11
1010.59834515865
 21
-270.7165807562213
 31
0.0
  0
CIRCLE
  5
B3F
330
18
100
AcDbEntity
  8
0
370
    -2
100
AcDbCircle
 10
1002.276014688314
 20
-270.8223304703364
 30
0.0
 40
4.75
  0
CIRCLE
  5
B40
330
18
100
AcDbEntity
  8
0
370
    -2
100
AcDbCircle
 10
1002.276013668101
 20
-270.8223294501237
 30
0.0
 40
2.75
  0
LINE
  5
B41
330
18
100
AcDbEntity
  8
0
  6
AM_ISO08W050
370
    -2
100
AcDbLine
 10
984.5983451586501
 20
-323.0
 30
0.0
 11
984.5983451586501
 21
-254.0
 31
0.0
  0
ARC
  5
B42
330
18
100
AcDbEntity
  8
0
370
    -2
100
AcDbCircle
 10
984.5983451586501
 20
-288.5000000000001
 30
0.0
 40
31.5
100
AcDbArc
 50
304.3712560240872
 51
325.6287439759219
  0
CIRCLE
  5
B43
330
18
100
AcDbEntity
  8
0
370
    -2
100
AcDbCircle
 10
984.5983451586501
 20
-288.5000000000001
 30
0.0
 40
16.0
  0
CIRCLE
  5
B44
330
18
100
AcDbEntity
  8
0
  6
AM_ISO08W050
370
    -2
100
AcDbCircle
 10
984.5983451586501
 20
-288.5000000000001
 30
0.0
 40
25.0
  0
LINE
  5
B45
330
18
100
AcDbEntity
  8
0
  6
AM_ISO08W050
370
    -2
100
AcDbLine
 10
1008.993529109586
 20
-264.1048160490642
 30
0.0
 11
960.2031612077141
 21
-312.895183950936
 31
0.0
  0
LINE
  5
B46
330
18
100
AcDbEntity
  8
0
  6
AM_ISO08W050
370
    -2
100
AcDbLine
 10
1008.993529109586
 20
-312.8951839509359
 30
0.0
 11
960.2031612077141
 21
-264.1048160490641
 31
0.0
  0
CIRCLE
  5
B47
330
18
100
AcDbEntity
  8
0
  6
DASHED2
370
    -2
100
AcDbCircle
 10
984.5983451586501
 20
-288.5000000000001
 30
0.0
 40
20.0
  0
LINE
  5
B48
330
18
100
AcDbEntity
  8
0
  6
AM_ISO08W050
370
    -2
100
AcDbLine
 10
1019.09834515865
 20
-288.5000000000001
 30
0.0
 11
950.0983451586501
 21
-288.5000000000001
 31
0.0
  0
LINE
  5
B49
330
18
100
AcDbEntity
  8
0
370
    -2
100
AcDbLine
 10
1002.381764402429
 20
-262.5
 30
0.0
 11
966.8149259148712
 21
-262.5
 31
0.0
  0
LINE
  5
B4A
330
18
100
AcDbEntity
  8
0
370
    -2
100
AcDbLine
 10
966.8149259148712
 20
-314.5
 30
0.0
 11
1002.381764402429
 21
-314.5
 31
0.0
  0
LINE
  5
BAA
330
18
100
AcDbEntity
  8
0
370
    -2
100
AcDbLine
 10
966.8149259148712
 20
-794.0
 30
0.0
 11
1002.381764402429
 21
-794.0
 31
0.0
  0
LINE
  5
BAB
330
18
100
AcDbEntity
  8
0
370
    -2
100
AcDbLine
 10
1002.381764402429
 20
-742.0
 30
0.0
 11
966.8149259148712
 21
-742.0
 31
0.0
  0
LINE
  5
BAC
330
18
100
AcDbEntity
  8
0
  6
AM_ISO08W050
370
    -2
100
AcDbLine
 10
1019.09834515865
 20
-768.0
 30
0.0
 11
950.0983451586501
 21
-768.0
 31
0.0
  0
CIRCLE
  5
BAD
330
18
100
AcDbEntity
  8
0
  6
DASHED2
370
    -2
100
AcDbCircle
 10
984.5983451586501
 20
-768.0
 30
0.0
 40
20.0
  0
LINE
  5
BAE
330
18
100
AcDbEntity
  8
0
  6
AM_ISO08W050
370
    -2
100
AcDbLine
 10
1008.993529109586
 20
-792.3951839509359
 30
0.0
 11
960.2031612077141
 21
-743.604816049064
 31
0.0
  0
LINE
  5
BAF
330
18
100
AcDbEntity
  8
0
  6
AM_ISO08W050
370
    -2
100
AcDbLine
 10
1008.993529109586
 20
-743.6048160490642
 30
0.0
 11
960.2031612077141
 21
-792.3951839509359
 31
0.0
  0
CIRCLE
  5
BB0
330
18
100
AcDbEntity
  8
0
  6
AM_ISO08W050
370
    -2
100
AcDbCircle
 10
984.5983451586501
 20
-768.0
 30
0.0
 40
25.0
  0
CIRCLE
  5
BB1
330
18
100
AcDbEntity
  8
0
370
    -2
100
AcDbCircle
 10
984.5983451586501
 20
-768.0
 30
0.0
 40
16.0
  0
ARC
  5
BB2
330
18
100
AcDbEntity
  8
0
370
    -2
100
AcDbCircle
 10
984.5983451586501
 20
-768.0
 30
0.0
 40
31.5
100
AcDbArc
 50
304.3712560240872
 51
325.6287439759219
  0
LINE
  5
BB3
330
18
100
AcDbEntity
  8
0
  6
AM_ISO08W050
370
    -2
100
AcDbLine
 10
984.5983451586501
 20
-802.5
 30
0.0
 11
984.5983451586501
 21
-733.4999999999999
 31
0.0
  0
CIRCLE
  5
BB4
330
18
100
AcDbEntity
  8
0
370
    -2
100
AcDbCircle
 10
1002.276013668101
 20
-750.3223294501236
 30
0.0
 40
2.75
  0
CIRCLE
  5
BB5
330
18
100
AcDbEntity
  8
0
370
    -2
100
AcDbCircle
 10
1002.276014688314
 20
-750.3223304703364
 30
0.0
 40
4.75
  0
LINE
  5
BB6
330
18
100
AcDbEntity
  8
0
370
    -2
100
AcDbLine
 10
1010.59834515865
 20
-785.7834192437787
 30
0.0
 11
1010.59834515865
 21
-750.2165807562213
 31
0.0
  0
ARC
  5
BB7
330
18
100
AcDbEntity
  8
0
370
    -2
100
AcDbCircle
 10
984.5983451586501
 20
-768.0
 30
0.0
 40
31.5
100
AcDbArc
 50
34.37125602407815
 51
55.62874397591279
  0
CIRCLE
  5
BB8
330
18
100
AcDbEntity
  8
0
370
    -2
100
AcDbCircle
 10
1002.276014688314
 20
-785.6776695296637
 30
0.0
 40
4.75
  0
CIRCLE
  5
BB9
330
18
100
AcDbEntity
  8
0
370
    -2
100
AcDbCircle
 10
1002.276013668101
 20
-785.6776685094509
 30
0.0
 40
2.75
  0
LINE
  5
BBA
330
18
100
AcDbEntity
  8
0
370
    -2
100
AcDbLine
 10
865.0
 20
-788.0
 30
0.0
 11
864.9999999999998
 21
-799.5
 31
0.0
  0
ARC
  5
BBB
330
18
100
AcDbEntity
  8
0
370
    -2
100
AcDbCircle
 10
984.5983451586501
 20
-768.0
 30
0.0
 40
31.5
100
AcDbArc
 50
214.3712560240782
 51
235.6287439759128
  0
LINE
  5
BBC
330
18
100
AcDbEntity
  8
0
370
    -2
100
AcDbLine
 10
874.0
 20
-799.5
 30
0.0
 11
874.0
 21
-742.0
 31
0.0
  0
LINE
  5
BBD
330
18
100
AcDbEntity
  8
0
370
    -2
100
AcDbLine
 10
857.0
 20
-748.0
 30
0.0
 11
857.0
 21
-788.0
 31
0.0
  0
CIRCLE
  5
BBE
330
18
100
AcDbEntity
  8
0
370
    -2
100
AcDbCircle
 10
966.9206746087736
 20
-750.3223294501236
 30
0.0
 40
2.75
  0
CIRCLE
  5
BBF
330
18
100
AcDbEntity
  8
0
370
    -2
100
AcDbCircle
 10
966.9206756289863
 20
-750.3223304703363
 30
0.0
 40
4.75
  0
LINE
  5
BC0
330
18
100
AcDbEntity
  8
0
370
    -2
100
AcDbLine
 10
958.59834515865
 20
-785.7834192437787
 30
0.0
 11
958.59834515865
 21
-750.2165807562213
 31
0.0
  0
ARC
  5
BC1
330
18
100
AcDbEntity
  8
0
370
    -2
100
AcDbCircle
 10
984.5983451586501
 20
-768.0
 30
0.0
 40
31.5
100
AcDbArc
 50
124.3712560240872
 51
145.6287439759218
  0
LINE
  5
BC2
330
18
100
AcDbEntity
  8
0
370
    -2
100
AcDbLine
 10
864.9999999999998
 20
-748.0
 30
0.0
 11
857.0
 21
-748.0
 31
0.0
  0
LINE
  5
BC3
330
18
100
AcDbEntity
  8
0
370
    -2
100
AcDbLine
 10
874.0
 20
-742.0
 30
0.0
 11
864.9999999999998
 21
-742.0
 31
0.0
  0
LINE
  5
BC4
330
18
100
AcDbEntity
  8
0
370
    -2
100
AcDbLine
 10
864.9999999999998
 20
-748.0
 30
0.0
 11
864.9999999999998
 21
-742.0
 31
0.0
  0
CIRCLE
  5
BC5
330
18
100
AcDbEntity
  8
0
370
    -2
100
AcDbCircle
 10
966.920676649199
 20
-785.6776705498764
 30
0.0
 40
4.75
  0
CIRCLE
  5
BC6
330
18
100
AcDbEntity
  8
0
370
    -2
100
AcDbCircle
 10
966.9206756289863
 20
-785.6776695296637
 30
0.0
 40
2.75
  0
LINE
  5
BC7
330
18
100
AcDbEntity
  8
0
  6
AM_ISO08W050
370
    -2
100
AcDbLine
 10
877.0
 20
-768.0
 30
0.0
 11
851.0
 21
-768.0
 31
0.0
  0
LINE
  5
BC8
330
18
100
AcDbEntity
  8
0
370
    -2
100
AcDbLine
 10
865.0
 20
-788.0
 30
0.0
 11
857.0
 21
-788.0
 31
0.0
  0
LINE
  5
BC9
330
18
100
AcDbEntity
  8
0
370
    -2
100
AcDbLine
 10
873.4999999999999
 20
-784.0
 30
0.0
 11
857.5000000000001
 21
-784.0
 31
0.0
  0
LINE
  5
BCA
330
18
100
AcDbEntity
  8
0
370
    -2
100
AcDbLine
 10
864.9999999999998
 20
-799.5
 30
0.0
 11
874.0
 21
-799.5
 31
0.0
  0
LINE
  5
BCB
330
18
100
AcDbEntity
  8
0
100
AcDbLine
 10
874.0
 20
-784.4999999999999
 30
0.0
 11
873.4999999999999
 21
-784.0
 31
0.0
  0
LINE
  5
BCC
330
18
100
AcDbEntity
  8
0
100
AcDbLine
 10
873.4999999999999
 20
-784.0
 30
0.0
 11
873.4999999999999
 21
-752.0
 31
0.0
  0
LINE
  5
BCD
330
18
100
AcDbEntity
  8
0
100
AcDbLine
 10
873.4999999999999
 20
-752.0
 30
0.0
 11
874.0
 21
-751.5
 31
0.0
  0
LINE
  5
BCE
330
18
100
AcDbEntity
  8
0
100
AcDbLine
 10
857.0
 20
-784.4999999999999
 30
0.0
 11
857.5000000000001
 21
-784.0
 31
0.0
  0
LINE
  5
BCF
330
18
100
AcDbEntity
  8
0
100
AcDbLine
 10
857.5000000000001
 20
-784.0
 30
0.0
 11
857.5000000000001
 21
-752.0
 31
0.0
  0
LINE
  5
BD0
330
18
100
AcDbEntity
  8
0
100
AcDbLine
 10
857.5000000000001
 20
-752.0
 30
0.0
 11
857.0
 21
-751.5
 31
0.0
  0
CIRCLE
  5
BD1
330
18
100
AcDbEntity
  8
0
370
    -2
100
AcDbCircle
 10
984.5983451586501
 20
-768.0
 30
0.0
 40
16.5
  0
LINE
  5
BD2
330
18
100
AcDbEntity
  8
0
370
    -2
100
AcDbLine
 10
873.4999999999999
 20
-752.0
 30
0.0
 11
857.5000000000001
 21
-752.0
 31
0.0
  0
MTEXT
  5
BD3
330
18
100
AcDbEntity
  8
PV0001_1
 62
     7
370
    25
100
AcDbMText
 10
859.864378805034
 20
-806.4910343634398
 30
0.0
 40
3.2
 41
0.0
 71
     4
 72
     5
  1
\T1.4;\W0.61;BUM-15S
 73
     1
 44
1.0
1001
ACAD
1000
MTEXTBEGIN
1070
    73
1070
     1
1070
    44
1040
1.0
1070
    74
1070
     0
1000
MTEXTEND
  0
LINE
  5
BD4
330
18
100
AcDbEntity
  8
PV0001_1
  6
CENTER2
370
    25
100
AcDbLine
 10
745.7626953125
 20
-768.0
 30
0.0
 11
874.5454101562499
 21
-768.0
 31
0.0
  0
MTEXT
  5
BE5
330
18
100
AcDbEntity
  8
PV0001_1
 62
     7
370
    25
100
AcDbMText
 10
855.6354091763422
 20
-868.1747741699201
 30
0.0
 40
3.2
 41
0.0
 71
     4
 72
     5
  1
\T1.40;\W0.61;6002ZZ
 73
     1
 44
1.0
1001
ACAD
1000
MTEXTBEGIN
1070
    73
1070
     1
1070
    44
1040
1.0
1070
    74
1070
     0
1000
MTEXTEND
  0
ARC
  5
BE6
330
18
100
AcDbEntity
  8
PV0001_1
  6
PHANTOM2
 48
0.5
370
    25
100
AcDbCircle
 10
857.29998779296
 20
-840.2000122070301
 30
0.0
 40
0.3000000119209
100
AcDbArc
 50
179.9999913485786
 51
270.0000006832462
  0
ARC
  5
BE7
330
18
100
AcDbEntity
  8
PV0001_1
  6
PHANTOM2
 48
0.5
370
    25
100
AcDbCircle
 10
857.29998779296
 20
-855.7999877929601
 30
0.0
 40
0.3000000119209
100
AcDbArc
 50
90.00000250447845
 51
180.0000050089569
  0
LINE
  5
BE8
330
18
100
AcDbEntity
  8
PV0001_1
  6
CENTER2
370
    25
100
AcDbLine
 10
745.7626953125
 20
-848.0
 30
0.0
 11
874.5454711914
 21
-848.0
 31
0.0
  0
LINE
  5
BE9
330
18
100
AcDbEntity
  8
PV0001_1
  6
PHANTOM2
 48
0.5
370
    25
100
AcDbLine
 10
869.0
 20
-840.4999999999999
 30
0.0
 11
869.0
 21
-855.4999999999999
 31
0.0
  0
LINE
  5
BEA
330
18
100
AcDbEntity
  8
PV0001_1
  6
PHANTOM2
370
    25
100
AcDbLine
 10
769.0
 20
-838.0
 30
0.0
 11
857.0
 21
-838.0
 31
0.0
  0
LINE
  5
BEB
330
18
100
AcDbEntity
  8
PV0001_1
  6
PHANTOM2
370
    25
100
AcDbLine
 10
769.0
 20
-839.25
 30
0.0
 11
857.0
 21
-839.25
 31
0.0
  0
LINE
  5
BEC
330
18
100
AcDbEntity
  8
PV0001_1
  6
PHANTOM2
370
    25
100
AcDbLine
 10
769.0
 20
-856.75
 30
0.0
 11
857.0
 21
-856.75
 31
0.0
  0
LINE
  5
BED
330
18
100
AcDbEntity
  8
PV0001_1
  6
PHANTOM2
370
    25
100
AcDbLine
 10
769.0
 20
-858.0
 30
0.0
 11
857.0
 21
-858.0
 31
0.0
  0
LINE
  5
BEE
330
18
100
AcDbEntity
  8
PV0001_1
  6
PHANTOM2
 48
0.5
370
    25
100
AcDbLine
 10
867.1500244140601
 20
-840.4999999999999
 30
0.0
 11
867.1500244140601
 21
-855.4999999999999
 31
0.0
  0
LINE
  5
BEF
330
18
100
AcDbEntity
  8
PV0001_1
  6
PHANTOM2
 48
0.5
370
    25
100
AcDbLine
 10
857.0
 20
-838.0
 30
0.0
 11
857.0
 21
-858.0
 31
0.0
  0
LINE
  5
BF0
330
18
100
AcDbEntity
  8
PV0001_1
  6
PHANTOM2
 48
0.5
370
    25
100
AcDbLine
 10
866.0
 20
-840.4999999999999
 30
0.0
 11
866.0
 21
-855.4999999999999
 31
0.0
  0
LINE
  5
BF1
330
18
100
AcDbEntity
  8
PV0001_1
  6
PHANTOM2
 48
0.5
370
    25
100
AcDbLine
 10
866.0
 20
-840.85000610351
 30
0.0
 11
867.1500244140601
 21
-840.85000610351
 31
0.0
  0
LINE
  5
BF2
330
18
100
AcDbEntity
  8
PV0001_1
  6
PHANTOM2
 48
0.5
370
    25
100
AcDbLine
 10
857.29998779296
 20
-840.4999999999999
 30
0.0
 11
866.0
 21
-840.4999999999999
 31
0.0
  0
LINE
  5
BF3
330
18
100
AcDbEntity
  8
PV0001_1
  6
PHANTOM2
 48
0.5
370
    25
100
AcDbLine
 10
867.1500244140601
 20
-855.4999999999999
 30
0.0
 11
869.0
 21
-855.4999999999999
 31
0.0
  0
LINE
  5
BF4
330
18
100
AcDbEntity
  8
PV0001_1
  6
PHANTOM2
 48
0.5
370
    25
100
AcDbLine
 10
867.1500244140601
 20
-840.4999999999999
 30
0.0
 11
869.0
 21
-840.4999999999999
 31
0.0
  0
LINE
  5
BF5
330
18
100
AcDbEntity
  8
PV0001_1
  6
PHANTOM2
 48
0.5
370
    25
100
AcDbLine
 10
866.0
 20
-855.14999389648
 30
0.0
 11
867.1500244140601
 21
-855.14999389648
 31
0.0
  0
LINE
  5
BF6
330
18
100
AcDbEntity
  8
PV0001_1
  6
PHANTOM2
 48
0.5
370
    25
100
AcDbLine
 10
857.29998779296
 20
-855.4999999999999
 30
0.0
 11
866.0
 21
-855.4999999999999
 31
0.0
  0
LINE
  5
BF7
330
18
100
AcDbEntity
  8
PV0001_1
  6
Continuous
370
    50
100
AcDbLine
 10
857.0
 20
-832.0
 30
0.0
 11
857.0
 21
-864.0
 31
0.0
  0
LINE
  5
BF8
330
18
100
AcDbEntity
  8
PV0001_1
  6
Continuous
370
    50
100
AcDbLine
 10
866.0
 20
-832.0
 30
0.0
 11
866.0
 21
-864.0
 31
0.0
  0
LINE
  5
BF9
330
18
100
AcDbEntity
  8
PV0001_1
  6
Continuous
 48
0.5
370
    50
100
AcDbLine
 10
866.0
 20
-864.0
 30
0.0
 11
857.0
 21
-864.0
 31
0.0
  0
LINE
  5
BFA
330
18
100
AcDbEntity
  8
PV0001_1
  6
Continuous
 48
0.5
370
    50
100
AcDbLine
 10
866.0
 20
-832.0
 30
0.0
 11
857.0
 21
-832.0
 31
0.0
  0
LINE
  5
BFB
330
18
100
AcDbEntity
  8
PV0001_1
  6
Continuous
 48
0.5
370
    50
100
AcDbLine
 10
867.0
 20
-855.14999389648
 30
0.0
 11
866.0
 21
-855.14999389648
 31
0.0
  0
LINE
  5
BFC
330
18
100
AcDbEntity
  8
PV0001_1
  6
Continuous
 48
0.5
370
    50
100
AcDbLine
 10
867.0
 20
-840.85000610351
 30
0.0
 11
866.0
 21
-840.85000610351
 31
0.0
  0
LINE
  5
BFD
330
18
100
AcDbEntity
  8
PV0001_1
  6
Continuous
 48
0.5
370
    50
100
AcDbLine
 10
867.0
 20
-859.5
 30
0.0
 11
866.0
 21
-859.5
 31
0.0
  0
LINE
  5
BFE
330
18
100
AcDbEntity
  8
PV0001_1
  6
Continuous
 48
0.5
370
    50
100
AcDbLine
 10
867.0
 20
-836.5
 30
0.0
 11
866.0
 21
-836.5
 31
0.0
  0
LINE
  5
BFF
330
18
100
AcDbEntity
  8
PV0001_1
  6
Continuous
 48
0.5
370
    50
100
AcDbLine
 10
867.0
 20
-836.5
 30
0.0
 11
867.0
 21
-859.5
 31
0.0
  0
LINE
  5
C00
330
18
100
AcDbEntity
  8
PV0001_1
  6
DASHED2
 48
0.5
370
    50
100
AcDbLine
 10
866.0
 20
-855.4999999999999
 30
0.0
 11
857.0
 21
-855.4999999999999
 31
0.0
  0
LINE
  5
C01
330
18
100
AcDbEntity
  8
PV0001_1
  6
DASHED2
 48
0.5
370
    50
100
AcDbLine
 10
866.0
 20
-840.4999999999999
 30
0.0
 11
857.0
 21
-840.4999999999999
 31
0.0
  0
ARC
  5
CA9
330
18
100
AcDbEntity
  8
PV0001_1
  6
PHANTOM2
 48
0.5
370
    25
100
AcDbCircle
 10
857.29998779296
 20
-296.3000030517501
 30
0.0
 40
0.3000000119209
100
AcDbArc
 50
90.00000250448172
 51
180.0000050089569
  0
ARC
  5
CAA
330
18
100
AcDbEntity
  8
PV0001_1
  6
PHANTOM2
 48
0.5
370
    25
100
AcDbCircle
 10
857.29998779296
 20
-280.69999694824
 30
0.0
 40
0.3000000119209
100
AcDbArc
 50
179.9999913485786
 51
270.0000006832495
  0
LINE
  5
CAB
330
18
100
AcDbEntity
  8
PV0001_1
  6
PHANTOM2
 48
0.5
370
    25
100
AcDbLine
 10
857.29998779296
 20
-296.0
 30
0.0
 11
866.0
 21
-296.0
 31
0.0
  0
LINE
  5
CAC
330
18
100
AcDbEntity
  8
PV0001_1
  6
PHANTOM2
 48
0.5
370
    25
100
AcDbLine
 10
866.0
 20
-295.6499938964801
 30
0.0
 11
867.1500244140601
 21
-295.6499938964801
 31
0.0
  0
LINE
  5
CAD
330
18
100
AcDbEntity
  8
PV0001_1
  6
PHANTOM2
 48
0.5
370
    25
100
AcDbLine
 10
867.1500244140601
 20
-281.0
 30
0.0
 11
869.0
 21
-281.0
 31
0.0
  0
LINE
  5
CAE
330
18
100
AcDbEntity
  8
PV0001_1
  6
PHANTOM2
 48
0.5
370
    25
100
AcDbLine
 10
867.1500244140601
 20
-296.0
 30
0.0
 11
869.0
 21
-296.0
 31
0.0
  0
LINE
  5
CAF
330
18
100
AcDbEntity
  8
PV0001_1
  6
PHANTOM2
 48
0.5
370
    25
100
AcDbLine
 10
857.29998779296
 20
-281.0
 30
0.0
 11
866.0
 21
-281.0
 31
0.0
  0
LINE
  5
CB0
330
18
100
AcDbEntity
  8
PV0001_1
  6
PHANTOM2
 48
0.5
370
    25
100
AcDbLine
 10
866.0
 20
-281.35000610351
 30
0.0
 11
867.1500244140601
 21
-281.35000610351
 31
0.0
  0
LINE
  5
CB1
330
18
100
AcDbEntity
  8
PV0001_1
  6
PHANTOM2
 48
0.5
370
    25
100
AcDbLine
 10
866.0
 20
-281.0
 30
0.0
 11
866.0
 21
-296.0
 31
0.0
  0
LINE
  5
CB2
330
18
100
AcDbEntity
  8
PV0001_1
  6
PHANTOM2
 48
0.5
370
    25
100
AcDbLine
 10
857.0
 20
-278.5000000000001
 30
0.0
 11
857.0
 21
-298.5000000000001
 31
0.0
  0
LINE
  5
CB3
330
18
100
AcDbEntity
  8
PV0001_1
  6
PHANTOM2
 48
0.5
370
    25
100
AcDbLine
 10
867.1500244140601
 20
-281.0
 30
0.0
 11
867.1500244140601
 21
-296.0
 31
0.0
  0
LINE
  5
CB4
330
18
100
AcDbEntity
  8
PV0001_1
  6
PHANTOM2
370
    25
100
AcDbLine
 10
769.0
 20
-298.5000000000001
 30
0.0
 11
857.0
 21
-298.5000000000001
 31
0.0
  0
LINE
  5
CB5
330
18
100
AcDbEntity
  8
PV0001_1
  6
PHANTOM2
370
    25
100
AcDbLine
 10
769.0
 20
-297.2500000000001
 30
0.0
 11
857.0
 21
-297.2500000000001
 31
0.0
  0
LINE
  5
CB6
330
18
100
AcDbEntity
  8
PV0001_1
  6
PHANTOM2
370
    25
100
AcDbLine
 10
769.0
 20
-279.7500000000001
 30
0.0
 11
857.0
 21
-279.7500000000001
 31
0.0
  0
LINE
  5
CB7
330
18
100
AcDbEntity
  8
PV0001_1
  6
PHANTOM2
370
    25
100
AcDbLine
 10
769.0
 20
-278.5000000000001
 30
0.0
 11
857.0
 21
-278.5000000000001
 31
0.0
  0
LINE
  5
CB8
330
18
100
AcDbEntity
  8
PV0001_1
  6
PHANTOM2
 48
0.5
370
    25
100
AcDbLine
 10
869.0
 20
-281.0
 30
0.0
 11
869.0
 21
-296.0
 31
0.0
  0
LINE
  5
CB9
330
18
100
AcDbEntity
  8
PV0001_1
  6
DASHED2
 48
0.5
370
    50
100
AcDbLine
 10
857.0
 20
-281.0
 30
0.0
 11
866.0
 21
-281.0
 31
0.0
  0
LINE
  5
CBA
330
18
100
AcDbEntity
  8
PV0001_1
  6
DASHED2
 48
0.5
370
    50
100
AcDbLine
 10
866.0
 20
-272.5000152587801
 30
0.0
 11
857.0
 21
-272.5000152587801
 31
0.0
  0
LINE
  5
CBB
330
18
100
AcDbEntity
  8
PV0001_1
  6
DASHED2
 48
0.5
370
    50
100
AcDbLine
 10
867.0
 20
-281.35000610351
 30
0.0
 11
866.0
 21
-281.35000610351
 31
0.0
  0
LINE
  5
CBC
330
18
100
AcDbEntity
  8
PV0001_1
  6
DASHED2
 48
0.5
370
    50
100
AcDbLine
 10
867.0
 20
-295.6499938964801
 30
0.0
 11
866.0
 21
-295.6499938964801
 31
0.0
  0
LINE
  5
CBD
330
18
100
AcDbEntity
  8
PV0001_1
  6
DASHED2
 48
0.5
370
    50
100
AcDbLine
 10
867.0
 20
-276.99998474121
 30
0.0
 11
866.0
 21
-276.99998474121
 31
0.0
  0
LINE
  5
CBE
330
18
100
AcDbEntity
  8
PV0001_1
  6
DASHED2
 48
0.5
370
    50
100
AcDbLine
 10
867.0
 20
-300.0000152587801
 30
0.0
 11
866.0
 21
-300.0000152587801
 31
0.0
  0
LINE
  5
CBF
330
18
100
AcDbEntity
  8
PV0001_1
  6
DASHED2
 48
0.5
370
    50
100
AcDbLine
 10
867.0
 20
-300.0000152587801
 30
0.0
 11
867.0
 21
-276.9999694824201
 31
0.0
  0
LINE
  5
CC0
330
18
100
AcDbEntity
  8
PV0001_1
  6
DASHED2
 48
0.5
370
    50
100
AcDbLine
 10
857.0
 20
-296.0
 30
0.0
 11
866.0
 21
-296.0
 31
0.0
  0
LINE
  5
CC1
330
18
100
AcDbEntity
  8
PV0001_1
  6
DASHED2
 48
0.5
370
    50
100
AcDbLine
 10
866.0
 20
-304.49998474121
 30
0.0
 11
857.0
 21
-304.49998474121
 31
0.0
  0
LINE
  5
CC2
330
18
100
AcDbEntity
  8
PV0001_1
  6
DASHED2
370
    50
100
AcDbLine
 10
866.0
 20
-304.49998474121
 30
0.0
 11
866.0
 21
-272.5000152587801
 31
0.0
  0
LINE
  5
CC3
330
18
100
AcDbEntity
  8
PV0001_1
  6
DASHED2
370
    50
100
AcDbLine
 10
857.0
 20
-304.49998474121
 30
0.0
 11
857.0
 21
-272.5000152587801
 31
0.0
  0
ARC
  5
CE5
330
18
100
AcDbEntity
  8
PV0001_1
  6
PHANTOM2
 48
0.5
370
    25
100
AcDbCircle
 10
857.29998779296
 20
-775.8000030517499
 30
0.0
 40
0.3000000119209
100
AcDbArc
 50
90.00000250448172
 51
180.0000050089569
  0
ARC
  5
CE6
330
18
100
AcDbEntity
  8
PV0001_1
  6
PHANTOM2
 48
0.5
370
    25
100
AcDbCircle
 10
857.29998779296
 20
-760.19999694824
 30
0.0
 40
0.3000000119209
100
AcDbArc
 50
179.9999913485786
 51
270.0000006832495
  0
LINE
  5
CE7
330
18
100
AcDbEntity
  8
PV0001_1
  6
PHANTOM2
 48
0.5
370
    25
100
AcDbLine
 10
857.29998779296
 20
-775.4999999999999
 30
0.0
 11
866.0
 21
-775.4999999999999
 31
0.0
  0
LINE
  5
CE8
330
18
100
AcDbEntity
  8
PV0001_1
  6
PHANTOM2
 48
0.5
370
    25
100
AcDbLine
 10
866.0
 20
-775.14999389648
 30
0.0
 11
867.1500244140601
 21
-775.14999389648
 31
0.0
  0
LINE
  5
CE9
330
18
100
AcDbEntity
  8
PV0001_1
  6
PHANTOM2
 48
0.5
370
    25
100
AcDbLine
 10
867.1500244140601
 20
-760.5
 30
0.0
 11
869.0
 21
-760.5
 31
0.0
  0
LINE
  5
CEA
330
18
100
AcDbEntity
  8
PV0001_1
  6
PHANTOM2
 48
0.5
370
    25
100
AcDbLine
 10
867.1500244140601
 20
-775.4999999999999
 30
0.0
 11
869.0
 21
-775.4999999999999
 31
0.0
  0
LINE
  5
CEB
330
18
100
AcDbEntity
  8
PV0001_1
  6
PHANTOM2
 48
0.5
370
    25
100
AcDbLine
 10
857.29998779296
 20
-760.5
 30
0.0
 11
866.0
 21
-760.5
 31
0.0
  0
LINE
  5
CEC
330
18
100
AcDbEntity
  8
PV0001_1
  6
PHANTOM2
 48
0.5
370
    25
100
AcDbLine
 10
866.0
 20
-760.8500061035099
 30
0.0
 11
867.1500244140601
 21
-760.8500061035099
 31
0.0
  0
LINE
  5
CED
330
18
100
AcDbEntity
  8
PV0001_1
  6
PHANTOM2
 48
0.5
370
    25
100
AcDbLine
 10
866.0
 20
-760.5
 30
0.0
 11
866.0
 21
-775.4999999999999
 31
0.0
  0
LINE
  5
CEE
330
18
100
AcDbEntity
  8
PV0001_1
  6
PHANTOM2
 48
0.5
370
    25
100
AcDbLine
 10
857.0
 20
-758.0
 30
0.0
 11
857.0
 21
-778.0
 31
0.0
  0
LINE
  5
CEF
330
18
100
AcDbEntity
  8
PV0001_1
  6
PHANTOM2
 48
0.5
370
    25
100
AcDbLine
 10
867.1500244140601
 20
-760.5
 30
0.0
 11
867.1500244140601
 21
-775.4999999999999
 31
0.0
  0
LINE
  5
CF0
330
18
100
AcDbEntity
  8
PV0001_1
  6
PHANTOM2
370
    25
100
AcDbLine
 10
769.0
 20
-778.0
 30
0.0
 11
857.0
 21
-778.0
 31
0.0
  0
LINE
  5
CF1
330
18
100
AcDbEntity
  8
PV0001_1
  6
PHANTOM2
370
    25
100
AcDbLine
 10
769.0
 20
-776.75
 30
0.0
 11
857.0
 21
-776.75
 31
0.0
  0
LINE
  5
CF2
330
18
100
AcDbEntity
  8
PV0001_1
  6
PHANTOM2
370
    25
100
AcDbLine
 10
769.0
 20
-759.25
 30
0.0
 11
857.0
 21
-759.25
 31
0.0
  0
LINE
  5
CF3
330
18
100
AcDbEntity
  8
PV0001_1
  6
PHANTOM2
370
    25
100
AcDbLine
 10
769.0
 20
-758.0
 30
0.0
 11
857.0
 21
-758.0
 31
0.0
  0
LINE
  5
CF4
330
18
100
AcDbEntity
  8
PV0001_1
  6
PHANTOM2
 48
0.5
370
    25
100
AcDbLine
 10
869.0
 20
-760.5
 30
0.0
 11
869.0
 21
-775.4999999999999
 31
0.0
  0
LINE
  5
CF5
330
18
100
AcDbEntity
  8
PV0001_1
  6
DASHED2
 48
0.5
370
    50
100
AcDbLine
 10
857.0
 20
-760.5
 30
0.0
 11
866.0
 21
-760.5
 31
0.0
  0
LINE
  5
CF6
330
18
100
AcDbEntity
  8
PV0001_1
  6
DASHED2
 48
0.5
370
    50
100
AcDbLine
 10
866.0
 20
-752.0000152587799
 30
0.0
 11
857.0
 21
-752.0000152587799
 31
0.0
  0
LINE
  5
CF7
330
18
100
AcDbEntity
  8
PV0001_1
  6
DASHED2
 48
0.5
370
    50
100
AcDbLine
 10
867.0
 20
-760.8500061035099
 30
0.0
 11
866.0
 21
-760.8500061035099
 31
0.0
  0
LINE
  5
CF8
330
18
100
AcDbEntity
  8
PV0001_1
  6
DASHED2
 48
0.5
370
    50
100
AcDbLine
 10
867.0
 20
-775.14999389648
 30
0.0
 11
866.0
 21
-775.14999389648
 31
0.0
  0
LINE
  5
CF9
330
18
100
AcDbEntity
  8
PV0001_1
  6
DASHED2
 48
0.5
370
    50
100
AcDbLine
 10
867.0
 20
-756.49998474121
 30
0.0
 11
866.0
 21
-756.49998474121
 31
0.0
  0
LINE
  5
CFA
330
18
100
AcDbEntity
  8
PV0001_1
  6
DASHED2
 48
0.5
370
    50
100
AcDbLine
 10
867.0
 20
-779.50001525878
 30
0.0
 11
866.0
 21
-779.50001525878
 31
0.0
  0
LINE
  5
CFB
330
18
100
AcDbEntity
  8
PV0001_1
  6
DASHED2
 48
0.5
370
    50
100
AcDbLine
 10
867.0
 20
-779.50001525878
 30
0.0
 11
867.0
 21
-756.4999694824201
 31
0.0
  0
LINE
  5
CFC
330
18
100
AcDbEntity
  8
PV0001_1
  6
DASHED2
 48
0.5
370
    50
100
AcDbLine
 10
857.0
 20
-775.4999999999999
 30
0.0
 11
866.0
 21
-775.4999999999999
 31
0.0
  0
LINE
  5
CFD
330
18
100
AcDbEntity
  8
PV0001_1
  6
DASHED2
 48
0.5
370
    50
100
AcDbLine
 10
866.0
 20
-783.99998474121
 30
0.0
 11
857.0
 21
-783.99998474121
 31
0.0
  0
LINE
  5
CFE
330
18
100
AcDbEntity
  8
PV0001_1
  6
DASHED2
370
    50
100
AcDbLine
 10
866.0
 20
-783.99998474121
 30
0.0
 11
866.0
 21
-752.0000152587799
 31
0.0
  0
LINE
  5
CFF
330
18
100
AcDbEntity
  8
PV0001_1
  6
DASHED2
370
    50
100
AcDbLine
 10
857.0
 20
-783.99998474121
 30
0.0
 11
857.0
 21
-752.0000152587799
 31
0.0
  0
ENDSEC
  0
SECTION
  2
OBJECTS
  0
DICTIONARY
  5
C
330
0
100
AcDbDictionary
281
     1
  3
ACAD_COLOR
350
362
  3
ACAD_GROUP
350
D
  3
ACAD_LAYOUT
350
5E
  3
ACAD_MATERIAL
350
361
  3
ACAD_MLINESTYLE
350
1B
  3
ACAD_PLOTSETTINGS
350
5F
  3
ACAD_PLOTSTYLENAME
350
5C
  3
ACAD_TABLESTYLE
350
D8C
  3
ACDBHEADERROUNDTRIPXREC
350
F88
  3
AcDbVariableDictionary
350
E12
  3
AcmDictionary
350
3DB
  3
AMG
350
368
  3
AMGSNAPSETTINGS
350
469
  3
SAKAE_DICT
350
317
  0
DICTIONARY
  5
351
330
18
100
AcDbDictionary
280
     1
281
     1
  3
ACAD_LAYOUTSELFREF
360
352
  0
DICTIONARY
  5
34F
330
15
100
AcDbDictionary
280
     1
281
     1
  3
ACAD_LAYOUTSELFREF
360
350
  0
DICTIONARY
  5
362
102
{ACAD_REACTORS
330
C
102
}
330
C
100
AcDbDictionary
281
     1
  0
DICTIONARY
  5
D
102
{ACAD_REACTORS
330
C
102
}
330
C
100
AcDbDictionary
281
     1
  0
DICTIONARY
  5
5E
102
{ACAD_REACTORS
330
C
102
}
330
C
100
AcDbDictionary
281
     1
  3
Model
350
60
  3
ﾚｲｱｳﾄ1
350
61
  0
DICTIONARY
  5
361
102
{ACAD_REACTORS
330
C
102
}
330
C
100
AcDbDictionary
281
     1
  0
DICTIONARY
  5
1B
102
{ACAD_REACTORS
330
C
102
}
330
C
100
AcDbDictionary
281
     1
  3
STANDARD
350
1C
  0
DICTIONARY
  5
5F
102
{ACAD_REACTORS
330
C
102
}
330
C
100
AcDbDictionary
281
     1
  0
ACDBDICTIONARYWDFLT
  5
5C
102
{ACAD_REACTORS
330
C
102
}
330
C
100
AcDbDictionary
281
     1
  3
Normal
350
5D
100
AcDbDictionaryWithDefault
340
5D
1001
ACAD
1000
TREAT_AS_HARD
1070
     0
  0
DICTIONARY
  5
D8C
102
{ACAD_REACTORS
330
C
102
}
330
C
100
AcDbDictionary
281
     1
  3
Standard
350
D8D
  0
DICTIONARY
  5
F88
102
{ACAD_REACTORS
330
C
102
}
330
C
100
AcDbDictionary
281
     1
  0
DICTIONARY
  5
E12
102
{ACAD_REACTORS
330
C
102
}
330
C
100
AcDbDictionary
281
     1
  3
CTABLESTYLE
350
E13
  3
DIMASSOC
350
E14
  3
PROJECTNAME
350
E15
  0
DICTIONARY
  5
3DB
102
{ACAD_REACTORS
330
C
102
}
330
C
100
AcDbDictionary
281
     1
  3
AcmStdDictionary
350
3E5
  3
AMDTSECTSYM_ARROWCOLOR
350
DCE
  0
DICTIONARY
  5
368
102
{ACAD_REACTORS
330
C
102
}
330
C
100
AcDbDictionary
281
     1
  0
DICTIONARY
  5
469
102
{ACAD_REACTORS
330
C
102
}
330
C
100
AcDbDictionary
281
     1
  0
DICTIONARY
  5
317
102
{ACAD_REACTORS
330
C
102
}
330
C
100
AcDbDictionary
281
     1
  3
XREC1
350
318
  0
XRECORD
  5
352
102
{ACAD_REACTORS
330
351
102
}
330
351
100
AcDbXrecord
280
     1
340
18
  0
XRECORD
  5
350
102
{ACAD_REACTORS
330
34F
102
}
330
34F
100
AcDbXrecord
280
     1
340
15
  0
LAYOUT
  5
60
102
{ACAD_XDICTIONARY
360
F89
102
}
102
{ACAD_REACTORS
330
5E
102
}
330
5E
100
AcDbPlotSettings
  1

  2
none_device
  4
ANSI_A_(8.50_x_11.00_Inches)
  6

 40
6.349999904632568
 41
19.04999923706055
 42
6.350006103515625
 43
19.04998779296875
 44
215.8999938964844
 45
279.3999938964844
 46
0.0
 47
0.0
 48
0.0
 49
0.0
140
0.0
141
0.0
142
1.0
143
1.0
 70
 11936
 72
     0
 73
     1
 74
     0
  7

 75
     0
147
1.0
148
1.166901962778297
149
-544.7787025703799
100
AcDbLayout
  1
Model
 70
     1
 71
     0
 10
0.0
 20
0.0
 11
12.0
 21
9.0
 12
0.0
 22
0.0
 32
0.0
 14
0.0
 24
0.0
 34
0.0
 15
0.0
 25
0.0
 35
0.0
146
0.0
 13
0.0
 23
0.0
 33
0.0
 16
1.0
 26
0.0
 36
0.0
 17
0.0
 27
1.0
 37
0.0
 76
     0
330
18
  0
LAYOUT
  5
61
102
{ACAD_XDICTIONARY
360
F8B
102
}
102
{ACAD_REACTORS
330
5E
102
}
330
5E
100
AcDbPlotSettings
  1

  2
\\BLUEWAVE2\EPSON LP-9200SX
  4

  6

 40
0.0
 41
0.0
 42
0.0
 43
0.0
 44
0.0
 45
0.0
 46
0.0
 47
0.0
 48
0.0
 49
0.0
140
0.0
141
0.0
142
1.0
143
1.0
 70
   688
 72
     0
 73
     0
 74
     5
  7

 75
    16
147
1.0
148
0.0
149
0.0
100
AcDbLayout
  1
ﾚｲｱｳﾄ1
 70
     1
 71
     1
 10
0.0
 20
0.0
 11
420.0
 21
297.0
 12
0.0
 22
0.0
 32
0.0
 14
1.000000000000000E+20
 24
1.000000000000000E+20
 34
1.000000000000000E+20
 15
-1.000000000000000E+20
 25
-1.000000000000000E+20
 35
-1.000000000000000E+20
146
0.0
 13
0.0
 23
0.0
 33
0.0
 16
1.0
 26
0.0
 36
0.0
 17
0.0
 27
1.0
 37
0.0
 76
     0
330
15
  0
MLINESTYLE
  5
1C
102
{ACAD_REACTORS
330
1B
102
}
330
1B
100
AcDbMlineStyle
  2
STANDARD
 70
     0
  3

 62
   256
 51
90.0
 52
90.0
 71
     2
 49
0.5
 62
   256
  6
BYLAYER
 49
-0.5
 62
   256
  6
BYLAYER
  0
ACDBPLACEHOLDER
  5
5D
102
{ACAD_REACTORS
330
5C
102
}
330
5C
  0
TABLESTYLE
  5
D8D
102
{ACAD_REACTORS
330
D8C
102
}
330
D8C
100
AcDbTableStyle
  3
Standard
 70
     0
 71
     0
 40
1.5
 41
1.5
280
     0
281
     0
  7
STANDARD
140
4.5
170
     2
 62
     0
 63
     7
283
     0
274
    -2
284
     1
 64
     0
275
    -2
285
     1
 65
     0
276
    -2
286
     1
 66
     0
277
    -2
287
     1
 67
     0
278
    -2
288
     1
 68
     0
279
    -2
289
     1
 69
     0
  7
STANDARD
140
6.0
170
     5
 62
     0
 63
     7
283
     0
274
    -2
284
     1
 64
     0
275
    -2
285
     1
 65
     0
276
    -2
286
     1
 66
     0
277
    -2
287
     1
 67
     0
278
    -2
288
     1
 68
     0
279
    -2
289
     1
 69
     0
  7
STANDARD
140
4.5
170
     5
 62
     0
 63
     7
283
     0
274
    -2
284
     1
 64
     0
275
    -2
285
     1
 65
     0
276
    -2
286
     1
 66
     0
277
    -2
287
     1
 67
     0
278
    -2
288
     1
 68
     0
279
    -2
289
     1
 69
     0
  0
DICTIONARYVAR
  5
E13
102
{ACAD_REACTORS
330
E12
102
}
330
E12
100
DictionaryVariables
280
     0
  1
STANDARD
  0
DICTIONARYVAR
  5
E14
102
{ACAD_REACTORS
330
E12
102
}
330
E12
100
DictionaryVariables
280
     0
  1
1
  0
DICTIONARYVAR
  5
E15
102
{ACAD_REACTORS
330
E12
102
}
330
E12
100
DictionaryVariables
280
     0
  1

  0
DICTIONARY
  5
3E5
102
{ACAD_REACTORS
330
3DB
102
}
330
3DB
100
AcDbDictionary
281
     1
  0
XRECORD
  5
DCE
102
{ACAD_REACTORS
330
3DB
102
}
330
3DB
100
AcDbXrecord
280
     1
 90
-1023410169
  0
XRECORD
  5
318
102
{ACAD_REACTORS
330
317
102
}
330
317
100
AcDbXrecord
280
     1
  1
PV
 40
1.0
 50
0.0
 51
0.0
 52
0.0
 53
0.0
  0
DICTIONARY
  5
F89
330
60
100
AcDbDictionary
280
     1
281
     1
  3
ACAD_XREC_ROUNDTRIP
360
F8A
  0
DICTIONARY
  5
F8B
330
61
100
AcDbDictionary
280
     1
281
     1
  3
ACAD_XREC_ROUNDTRIP
360
F8C
  0
XRECORD
  5
F8A
102
{ACAD_REACTORS
330
F89
102
}
330
F89
100
AcDbXrecord
280
     1
102
SHADEPLOT
 70
     0
102
SHADEPLOTRESLEVEL
 70
     2
102
SHADEPLOTCUSTOMDPI
 70
   300
  0
XRECORD
  5
F8C
102
{ACAD_REACTORS
330
F8B
102
}
330
F8B
100
AcDbXrecord
280
     1
102
SHADEPLOT
 70
     0
102
SHADEPLOTRESLEVEL
 70
     2
102
SHADEPLOTCUSTOMDPI
 70
   300
  0
ENDSEC
  0
EOF
