  0
SECTION
  2
HEADER
  9
$ACADVER
  1
AC1015
  9
$ACADMAINTVER
 70
    20
  9
$DWGCODEPAGE
  3
ANSI_932
  9
$INSBASE
 10
0.0
 20
0.0
 30
0.0
  9
$EXTMIN
 10
0.0000012365348994
 20
-0.0000005918091119
 30
0.0
  9
$EXTMAX
 10
1061.000001236535
 20
459.4999994081908
 30
0.0
  9
$LIMMIN
 10
885.7853498848784
 20
149.3573754772458
  9
$LIMMAX
 10
1172.785349884878
 20
349.6215064809856
  9
$ORTHOMODE
 70
     0
  9
$REGENMODE
 70
     1
  9
$FILLMODE
 70
     1
  9
$QTEXTMODE
 70
     0
  9
$MIRRTEXT
 70
     1
  9
$LTSCALE
 40
1.0
  9
$ATTMODE
 70
     1
  9
$TEXTSIZE
 40
3.2
  9
$TRACEWID
 40
1.0
  9
$TEXTSTYLE
  7
STANDARD
  9
$CLAYER
  8
outline
  9
$CELTYPE
  6
ByLayer
  9
$CECOLOR
 62
   256
  9
$CELTSCALE
 40
1.0
  9
$DISPSILH
 70
     0
  9
$DIMSCALE
 40
1.0
  9
$DIMASZ
 40
2.5
  9
$DIMEXO
 40
1.0
  9
$DIMDLI
 40
10.0
  9
$DIMRND
 40
0.0
  9
$DIMDLE
 40
0.0
  9
$DIMEXE
 40
1.0
  9
$DIMTP
 40
0.1
  9
$DIMTM
 40
0.1
  9
$DIMTXT
 40
3.2
  9
$DIMCEN
 40
0.0
  9
$DIMTSZ
 40
0.0
  9
$DIMTOL
 70
     0
  9
$DIMLIM
 70
     0
  9
$DIMTIH
 70
     0
  9
$DIMTOH
 70
     0
  9
$DIMSE1
 70
     0
  9
$DIMSE2
 70
     0
  9
$DIMTAD
 70
     3
  9
$DIMZIN
 70
     8
  9
$DIMBLK
  1
Open
  9
$DIMASO
 70
     1
  9
$DIMSHO
 70
     1
  9
$DIMPOST
  1

  9
$DIMAPOST
  1
"
  9
$DIMALT
 70
     0
  9
$DIMALTD
 70
     2
  9
$DIMALTF
 40
0.0393701
  9
$DIMLFAC
 40
1.0
  9
$DIMTOFL
 70
     1
  9
$DIMTVP
 40
0.0
  9
$DIMTIX
 70
     1
  9
$DIMSOXD
 70
     0
  9
$DIMSAH
 70
     0
  9
$DIMBLK1
  1

  9
$DIMBLK2
  1

  9
$DIMSTYLE
  2
JIS-KURODA
  9
$DIMCLRD
 70
     7
  9
$DIMCLRE
 70
     7
  9
$DIMCLRT
 70
     7
  9
$DIMTFAC
 40
0.71
  9
$DIMGAP
 40
1.5
  9
$DIMJUST
 70
     0
  9
$DIMSD1
 70
     0
  9
$DIMSD2
 70
     0
  9
$DIMTOLJ
 70
     0
  9
$DIMTZIN
 70
     8
  9
$DIMALTZ
 70
     0
  9
$DIMALTTZ
 70
     0
  9
$DIMUPT
 70
     0
  9
$DIMDEC
 70
     2
  9
$DIMTDEC
 70
     2
  9
$DIMALTU
 70
     2
  9
$DIMALTTD
 70
     2
  9
$DIMTXSTY
  7
STANDARD
  9
$DIMAUNIT
 70
     0
  9
$DIMADEC
 70
     0
  9
$DIMALTRND
 40
0.0
  9
$DIMAZIN
 70
     2
  9
$DIMDSEP
 70
    46
  9
$DIMATFIT
 70
     3
  9
$DIMFRAC
 70
     0
  9
$DIMLDRBLK
  1
Open
  9
$DIMLUNIT
 70
     2
  9
$DIMLWD
 70
    -1
  9
$DIMLWE
 70
    -1
  9
$DIMTMOVE
 70
     0
  9
$LUNITS
 70
     2
  9
$LUPREC
 70
     2
  9
$SKETCHINC
 40
1.0
  9
$FILLETRAD
 40
2.0
  9
$AUNITS
 70
     0
  9
$AUPREC
 70
     0
  9
$MENU
  1
.
  9
$ELEVATION
 40
0.0
  9
$PELEVATION
 40
0.0
  9
$THICKNESS
 40
0.0
  9
$LIMCHECK
 70
     0
  9
$CHAMFERA
 40
2.5
  9
$CHAMFERB
 40
2.5
  9
$CHAMFERC
 40
2.5
  9
$CHAMFERD
 40
0.6931928110224819
  9
$SKPOLY
 70
     0
  9
$TDCREATE
 40
2453223.549611447
  9
$TDUCREATE
 40
2453223.174611447
  9
$TDUPDATE
 40
2454174.425519989
  9
$TDUUPDATE
 40
2454174.050519989
  9
$TDINDWG
 40
0.2293169560
  9
$TDUSRTIMER
 40
0.2293167708
  9
$USRTIMER
 70
     1
  9
$ANGBASE
 50
0.0
  9
$ANGDIR
 70
     0
  9
$PDMODE
 70
     0
  9
$PDSIZE
 40
0.0
  9
$PLINEWID
 40
0.0
  9
$SPLFRAME
 70
     0
  9
$SPLINETYPE
 70
     6
  9
$SPLINESEGS
 70
     8
  9
$HANDSEED
  5
12185
  9
$SURFTAB1
 70
     6
  9
$SURFTAB2
 70
     6
  9
$SURFTYPE
 70
     6
  9
$SURFU
 70
     6
  9
$SURFV
 70
     6
  9
$UCSBASE
  2

  9
$UCSNAME
  2

  9
$UCSORG
 10
0.0
 20
0.0
 30
0.0
  9
$UCSXDIR
 10
1.0
 20
0.0
 30
0.0
  9
$UCSYDIR
 10
0.0
 20
1.0
 30
0.0
  9
$UCSORTHOREF
  2

  9
$UCSORTHOVIEW
 70
     0
  9
$UCSORGTOP
 10
0.0
 20
0.0
 30
0.0
  9
$UCSORGBOTTOM
 10
0.0
 20
0.0
 30
0.0
  9
$UCSORGLEFT
 10
0.0
 20
0.0
 30
0.0
  9
$UCSORGRIGHT
 10
0.0
 20
0.0
 30
0.0
  9
$UCSORGFRONT
 10
0.0
 20
0.0
 30
0.0
  9
$UCSORGBACK
 10
0.0
 20
0.0
 30
0.0
  9
$PUCSBASE
  2

  9
$PUCSNAME
  2

  9
$PUCSORG
 10
0.0
 20
0.0
 30
0.0
  9
$PUCSXDIR
 10
1.0
 20
0.0
 30
0.0
  9
$PUCSYDIR
 10
0.0
 20
1.0
 30
0.0
  9
$PUCSORTHOREF
  2

  9
$PUCSORTHOVIEW
 70
     0
  9
$PUCSORGTOP
 10
0.0
 20
0.0
 30
0.0
  9
$PUCSORGBOTTOM
 10
0.0
 20
0.0
 30
0.0
  9
$PUCSORGLEFT
 10
0.0
 20
0.0
 30
0.0
  9
$PUCSORGRIGHT
 10
0.0
 20
0.0
 30
0.0
  9
$PUCSORGFRONT
 10
0.0
 20
0.0
 30
0.0
  9
$PUCSORGBACK
 10
0.0
 20
0.0
 30
0.0
  9
$USERI1
 70
     0
  9
$USERI2
 70
     0
  9
$USERI3
 70
     0
  9
$USERI4
 70
     0
  9
$USERI5
 70
     0
  9
$USERR1
 40
0.0
  9
$USERR2
 40
0.0
  9
$USERR3
 40
0.0
  9
$USERR4
 40
0.0
  9
$USERR5
 40
0.0
  9
$WORLDVIEW
 70
     1
  9
$SHADEDGE
 70
     3
  9
$SHADEDIF
 70
    70
  9
$TILEMODE
 70
     1
  9
$MAXACTVP
 70
    64
  9
$PINSBASE
 10
0.0
 20
0.0
 30
0.0
  9
$PLIMCHECK
 70
     0
  9
$PEXTMIN
 10
1.000000000000000E+20
 20
1.000000000000000E+20
 30
1.000000000000000E+20
  9
$PEXTMAX
 10
-1.000000000000000E+20
 20
-1.000000000000000E+20
 30
-1.000000000000000E+20
  9
$PLIMMIN
 10
-0.7937499880790711
 20
-0.7937499880790711
  9
$PLIMMAX
 10
419.2062500119209
 20
296.2062500119209
  9
$UNITMODE
 70
     0
  9
$VISRETAIN
 70
     1
  9
$PLINEGEN
 70
     0
  9
$PSLTSCALE
 70
     1
  9
$TREEDEPTH
 70
  3020
  9
$CMLSTYLE
  2
Standard
  9
$CMLJUST
 70
     0
  9
$CMLSCALE
 40
20.0
  9
$PROXYGRAPHICS
 70
     1
  9
$MEASUREMENT
 70
     1
  9
$CELWEIGHT
370
    -1
  9
$ENDCAPS
280
     0
  9
$JOINSTYLE
280
     0
  9
$LWDISPLAY
290
     0
  9
$INSUNITS
 70
     4
  9
$HYPERLINKBASE
  1

  9
$STYLESHEET
  1
kuroda-monochrome.ctb
  9
$XEDIT
290
     1
  9
$CEPSNTYPE
380
     0
  9
$PSTYLEMODE
290
     1
  9
$FINGERPRINTGUID
  2
{E97E77C0-4D99-11D4-88E9-000629851478}
  9
$VERSIONGUID
  2
{10DD48ED-6E50-4CFE-94F2-96BC3922BEB9}
  9
$EXTNAMES
290
     1
  9
$PSVPSCALE
 40
0.0
  9
$OLESTARTUP
290
     0
  0
ENDSEC
  0
SECTION
  2
CLASSES
  0
CLASS
  1
ACDBDICTIONARYWDFLT
  2
AcDbDictionaryWithDefault
  3
ObjectDBX Classes
 90
        0
280
     0
281
     0
  0
CLASS
  1
ACDBPLACEHOLDER
  2
AcDbPlaceHolder
  3
ObjectDBX Classes
 90
        0
280
     0
281
     0
  0
CLASS
  1
LAYOUT
  2
AcDbLayout
  3
ObjectDBX Classes
 90
        0
280
     0
281
     0
  0
CLASS
  1
ACME_DOCUMENT
  2
AcMeDbDoc
  3
AcMeServices
 90
        0
280
     0
281
     0
  0
CLASS
  1
ACMESCOPE
  2
AcMeScope
  3
AcMeServices
 90
        0
280
     0
281
     0
  0
CLASS
  1
ACMECOMMANDHISTORY
  2
AcMeCommandHistory
  3
AcMeServices
 90
        0
280
     0
281
     0
  0
CLASS
  1
DICTIONARYVAR
  2
AcDbDictionaryVar
  3
ObjectDBX Classes
 90
        0
280
     0
281
     0
  0
CLASS
  1
ACIMSYSVARMAN
  2
AcImSysVarManager
  3
AcMeServices
 90
        0
280
     0
281
     0
  0
CLASS
  1
ACIMREALSYSVAR
  2
AcImRealSysVar
  3
AcMeServices
 90
        0
280
     0
281
     0
  0
CLASS
  1
ACIMINTSYSVAR
  2
AcImIntSysVar
  3
AcMeServices
 90
        0
280
     0
281
     0
  0
CLASS
  1
ACMEDRAWINGMAN
  2
AcMeDrawingMan
  3
AcMeServices
 90
        0
280
     0
281
     0
  0
CLASS
  1
ACMEVIEW
  2
AcMeView
  3
AcMeServices
 90
        0
280
     0
281
     0
  0
CLASS
  1
ACDBENTITYCACHE
  2
AcMeEntityCache
  3
AcMeServices
 90
        0
280
     0
281
     0
  0
CLASS
  1
GSMANAGER
  2
AcMeGSManager
  3
AcMeServices
 90
        0
280
     0
281
     0
  0
CLASS
  1
AMDTINTERNALREACTOR
  2
AmdtInternalReactor
  3
AcMeServices
 90
        0
280
     0
281
     0
  0
CLASS
  1
ACMESTATEMGR
  2
AcMeStateMgr
  3
AcMeServices
 90
        0
280
     0
281
     0
  0
CLASS
  1
ACME_DATABASE
  2
AcMeDbDatabase
  3
AcMeServices
 90
        0
280
     0
281
     0
  0
CLASS
  1
ACRFINSADJUSTERMGR
  2
AcRfInsAdjusterMgr
  3
AcMeServices
 90
        0
280
     0
281
     0
  0
CLASS
  1
AMGSETTINGSOBJ
  2
AmgSettingsObj
  3
"AcadM|Product Description: AutoCAD Mechanical 2000|Company: Autodesk"
 90
        0
280
     0
281
     0
  0
CLASS
  1
ACMDATADICTIONARY
  2
AcmDataDictionary
  3
"AcmSymBB|Product Description: AutoCAD Mechanical 2004 DX|Company: Autodesk"
 90
        0
280
     0
281
     0
  0
CLASS
  1
ACMDATAENTRYBLOCK
  2
AcmDataEntryBlock
  3
"AcmSymBB|Product Description: AutoCAD Mechanical 2004 DX|Company: Autodesk"
 90
    32768
280
     0
281
     0
  0
CLASS
  1
AMGOBJPROPCFG
  2
AmgObjPropCfg
  3
"AmgLay|Product Description: AutoCAD Mechanical 2000|Company: Autodesk"
 90
        1
280
     0
281
     0
  0
CLASS
  1
ACAMGFILTERDAT
  2
AcAmgFilterDat
  3
"AcadM|Product Description: AutoCAD Mechanical 2000|Company: Autodesk"
 90
    32768
280
     0
281
     0
  0
CLASS
  1
LAYER_INDEX
  2
AcDbLayerIndex
  3
ObjectDBX Classes
 90
    32768
280
     0
281
     0
  0
CLASS
  1
IDBUFFER
  2
AcDbIdBuffer
  3
ObjectDBX Classes
 90
    32768
280
     0
281
     0
  0
CLASS
  1
PLOTSETTINGS
  2
AcDbPlotSettings
  3
ObjectDBX Classes
 90
        0
280
     0
281
     0
  0
CLASS
  1
ACIMSTRSYSVAR
  2
AcImStrSysVar
  3
AcMeServices
 90
        0
280
     0
281
     0
  0
CLASS
  1
ACMSTANDARDJIS
  2
AcmStandardJIS
  3
"Amdt_StdImp|Product Description: AutoCAD Mechanical 2004 DX|Company: Autodesk"
 90
        0
280
     0
281
     0
  0
CLASS
  1
ACMSURFSTANDARDJIS
  2
AcmSurfTextStdJIS
  3
"Amdt_StdImp|Product Description: AutoCAD Mechanical 2004 DX|Company: Autodesk"
 90
        0
280
     0
281
     0
  0
CLASS
  1
ACMFCFSTANDARDJIS
  2
AcmFCFStdJIS
  3
"Amdt_StdImp|Product Description: AutoCAD Mechanical 2004 DX|Company: Autodesk"
 90
        0
280
     0
281
     0
  0
CLASS
  1
ACMWELDSTANDARDJIS
  2
AcmWeldingStdJIS
  3
"Amdt_StdImp|Product Description: AutoCAD Mechanical 2004 DX|Company: Autodesk"
 90
        0
280
     0
281
     0
  0
CLASS
  1
ACMIDSTANDARDJIS
  2
AcmIdStdJIS
  3
"Amdt_StdImp|Product Description: AutoCAD Mechanical 2004 DX|Company: Autodesk"
 90
        0
280
     0
281
     0
  0
CLASS
  1
ACMDATUMSTANDARDJIS
  2
AcmDatumStdJIS
  3
"Amdt_StdImp|Product Description: AutoCAD Mechanical 2004 DX|Company: Autodesk"
 90
        0
280
     0
281
     0
  0
CLASS
  1
ACMBOMSTANDARDJIS
  2
AcmBOMStdJIS
  3
"Amdt_StdImp|Product Description: AutoCAD Mechanical 2004 DX|Company: Autodesk"
 90
        0
280
     0
281
     0
  0
CLASS
  1
ACGREFMASTER
  2
AcGrefMaster
  3
AcAttribServices
 90
        0
280
     0
281
     0
  0
CLASS
  1
ACGREFACADMASTER
  2
AcGrefacadMaster
  3
AcGrefServices
 90
        0
280
     0
281
     0
  0
CLASS
  1
AMIMASTER
  2
AmiMaster
  3
AmiServices
 90
        0
280
     0
281
     0
  0
CLASS
  1
ACAMGLAYSTD
  2
AcAmgLayStd
  3
"AcAmgLayStd|Product Description: AutoCAD Mechanical 2000|Company: Autodesk"
 90
        0
280
     0
281
     0
  0
CLASS
  1
ACAMGDIMSTD
  2
AcAmgDimStd
  3
"AcAmgDimStd|Product Description: AutoCAD Mechanical 2000|Company: Autodesk"
 90
        0
280
     0
281
     0
  0
CLASS
  1
ACAMGTITLESTD
  2
AcAmgTitleStd
  3
"TITLEAPP"
 90
        0
280
     0
281
     0
  0
CLASS
  1
ACMDETAILSTANDARDJIS
  2
AmdtDetailSymStdJIS
  3
"Amdt_StdImp|Product Description: AutoCAD Mechanical 2004 DX|Company: Autodesk"
 90
        0
280
     0
281
     0
  0
CLASS
  1
ACMSECTIONSTANDARDJIS
  2
AmdtSectionSymStdJIS
  3
"Amdt_StdImp|Product Description: AutoCAD Mechanical 2004 DX|Company: Autodesk"
 90
        0
280
     0
281
     0
  0
CLASS
  1
ACMCENTERLINESTANDARDJIS
  2
AmdtCenterLineStdJIS
  3
"Amdt_StdImp|Product Description: AutoCAD Mechanical 2004 DX|Company: Autodesk"
 90
        0
280
     0
281
     0
  0
CLASS
  1
ACMTHREADLINESTANDARDJIS
  2
AmdtThreadLineStdJIS
  3
"Amdt_StdImp|Product Description: AutoCAD Mechanical 2004 DX|Company: Autodesk"
 90
        0
280
     0
281
     0
  0
CLASS
  1
AMDTFORMULAUPDATEDISPATCHER
  2
AmdtFormulaUpdateDispatcher
  3
AcMeServices
 90
    32768
280
     0
281
     0
  0
CLASS
  1
AMDTNOTE
  2
AmdtNote
  3
"AcmSymBB|Product Description: AutoCAD Mechanical 2004 DX|Company: Autodesk"
 90
    33791
280
     0
281
     1
  0
CLASS
  1
ACMSURFSYM
  2
AcmSurfaceTexture
  3
"AcmSymBB|Product Description: AutoCAD Mechanical 2004 DX|Company: Autodesk"
 90
    33791
280
     0
281
     1
  0
CLASS
  1
ACDBLINERES
  2
AcDbLineRes
  3
AcGrefServices
 90
    32768
280
     0
281
     0
  0
CLASS
  1
ACDBDIMENSIONRES
  2
AcDbDimensionRes
  3
"AcDbDimensionRes|Product Description: AutoCAD Mechanical 2000|Company: Autodesk"
 90
    32768
280
     0
281
     0
  0
CLASS
  1
ACMSTANDARDANSI
  2
AcmStandardANSI
  3
"Amdt_StdImp|Product Description: AutoCAD Mechanical 2004 DX|Company: Autodesk"
 90
        0
280
     0
281
     0
  0
CLASS
  1
ACMSURFSTANDARDANSI
  2
AcmSurfTextStdANSI
  3
"Amdt_StdImp|Product Description: AutoCAD Mechanical 2004 DX|Company: Autodesk"
 90
        0
280
     0
281
     0
  0
CLASS
  1
ACMFCFSTANDARDANSI
  2
AcmFCFStdANSI
  3
"Amdt_StdImp|Product Description: AutoCAD Mechanical 2004 DX|Company: Autodesk"
 90
        0
280
     0
281
     0
  0
CLASS
  1
ACMWELDSTANDARDANSI
  2
AcmWeldingStdANSI
  3
"Amdt_StdImp|Product Description: AutoCAD Mechanical 2004 DX|Company: Autodesk"
 90
        0
280
     0
281
     0
  0
CLASS
  1
ACMIDSTANDARDANSI
  2
AcmIdStdANSI
  3
"Amdt_StdImp|Product Description: AutoCAD Mechanical 2004 DX|Company: Autodesk"
 90
        0
280
     0
281
     0
  0
CLASS
  1
ACMDATUMSTANDARDANSI
  2
AcmDatumStdANSI
  3
"Amdt_StdImp|Product Description: AutoCAD Mechanical 2004 DX|Company: Autodesk"
 90
        0
280
     0
281
     0
  0
CLASS
  1
ACMBOMSTANDARDANSI
  2
AcmBOMStdANSI
  3
"Amdt_StdImp|Product Description: AutoCAD Mechanical 2004 DX|Company: Autodesk"
 90
        0
280
     0
281
     0
  0
CLASS
  1
ACMDETAILSTANDARDANSI
  2
AmdtDetailSymStdANSI
  3
"Amdt_StdImp|Product Description: AutoCAD Mechanical 2004 DX|Company: Autodesk"
 90
        0
280
     0
281
     0
  0
CLASS
  1
ACMSECTIONSTANDARDANSI
  2
AmdtSectionSymStdANSI
  3
"Amdt_StdImp|Product Description: AutoCAD Mechanical 2004 DX|Company: Autodesk"
 90
        0
280
     0
281
     0
  0
CLASS
  1
ACMCENTERLINESTANDARDANSI
  2
AmdtCenterLineStdANSI
  3
"Amdt_StdImp|Product Description: AutoCAD Mechanical 2004 DX|Company: Autodesk"
 90
        0
280
     0
281
     0
  0
CLASS
  1
ACMSTANDARDISO
  2
AcmStandardISO
  3
"Amdt_StdImp|Product Description: AutoCAD Mechanical 2004 DX|Company: Autodesk"
 90
        0
280
     0
281
     0
  0
CLASS
  1
AMDTEDGESTANDARDISO
  2
AmdtEdgeStdISO
  3
"Amdt_StdImp|Product Description: AutoCAD Mechanical 2004 DX|Company: Autodesk"
 90
        0
280
     0
281
     0
  0
CLASS
  1
ACMSURFSTANDARDISO
  2
AcmSurfTextStdISO
  3
"Amdt_StdImp|Product Description: AutoCAD Mechanical 2004 DX|Company: Autodesk"
 90
        0
280
     0
281
     0
  0
CLASS
  1
ACMFCFSTANDARDISO
  2
AcmFCFStdISO
  3
"Amdt_StdImp|Product Description: AutoCAD Mechanical 2004 DX|Company: Autodesk"
 90
        0
280
     0
281
     0
  0
CLASS
  1
ACMWELDSTANDARDISO
  2
AcmWeldingStdISO
  3
"Amdt_StdImp|Product Description: AutoCAD Mechanical 2004 DX|Company: Autodesk"
 90
        0
280
     0
281
     0
  0
CLASS
  1
ACMIDSTANDARDISO
  2
AcmIdStdISO
  3
"Amdt_StdImp|Product Description: AutoCAD Mechanical 2004 DX|Company: Autodesk"
 90
        0
280
     0
281
     0
  0
CLASS
  1
ACMDATUMSTANDARDISO
  2
AcmDatumStdISO
  3
"Amdt_StdImp|Product Description: AutoCAD Mechanical 2004 DX|Company: Autodesk"
 90
        0
280
     0
281
     0
  0
CLASS
  1
ACMBOMSTANDARDISO
  2
AcmBOMStdISO
  3
"Amdt_StdImp|Product Description: AutoCAD Mechanical 2004 DX|Company: Autodesk"
 90
        0
280
     0
281
     0
  0
CLASS
  1
ACMDETAILSTANDARDISO
  2
AmdtDetailSymStdISO
  3
"Amdt_StdImp|Product Description: AutoCAD Mechanical 2004 DX|Company: Autodesk"
 90
        0
280
     0
281
     0
  0
CLASS
  1
ACMSECTIONSTANDARDISO
  2
AmdtSectionSymStdISO
  3
"Amdt_StdImp|Product Description: AutoCAD Mechanical 2004 DX|Company: Autodesk"
 90
        0
280
     0
281
     0
  0
CLASS
  1
ACMCENTERLINESTANDARDISO
  2
AmdtCenterLineStdISO
  3
"Amdt_StdImp|Product Description: AutoCAD Mechanical 2004 DX|Company: Autodesk"
 90
        0
280
     0
281
     0
  0
CLASS
  1
ACMNOTESTANDARDJIS
  2
AmdtNoteStdJIS
  3
"Amdt_StdImp|Product Description: AutoCAD Mechanical 2004 DX|Company: Autodesk"
 90
        0
280
     0
281
     0
  0
CLASS
  1
ACMNOTESTANDARDANSI
  2
AmdtNoteStdANSI
  3
"Amdt_StdImp|Product Description: AutoCAD Mechanical 2004 DX|Company: Autodesk"
 90
        0
280
     0
281
     0
  0
CLASS
  1
ACMNOTESTANDARDISO
  2
AmdtNoteStdISO
  3
"Amdt_StdImp|Product Description: AutoCAD Mechanical 2004 DX|Company: Autodesk"
 90
        0
280
     0
281
     0
  0
CLASS
  1
AM_DRAWING_MGR
  2
AcDmDwgMgr
  3
AcMechDwgViewMgmt
 90
        0
280
     0
281
     0
  0
CLASS
  1
AM_DWG_DOCUMENT
  2
AcDmDwgDocument
  3
AcMechDwgViewMgmt
 90
        0
280
     0
281
     0
  0
CLASS
  1
AM_DWG_SHEET
  2
AcDmSheet
  3
AcMechDwgViewMgmt
 90
        0
280
     0
281
     0
  0
CLASS
  1
AM_VIEWDIMPARMAP
  2
AcDmViewDimParMap
  3
AcMechDwgViewMgmt
 90
        0
280
     0
281
     0
  0
CLASS
  1
AM_DWGMGR_NAME
  2
AcDmDwgMgrName
  3
AcMechDwgViewMgmt
 90
        0
280
     0
281
     0
  0
CLASS
  1
AMDTMENUSTATEMGR
  2
AmdtMenuStateMgr
  3
McadcomServices
 90
        0
280
     0
281
     0
  0
CLASS
  1
AMDTMCOMMENUSTATE
  2
AmdtMcomMenuState
  3
McadcomServices
 90
        0
280
     0
281
     0
  0
CLASS
  1
MAPIAMMOUDLE
  2
MApiAmModule
  3
MApiAmServices
 90
        0
280
     0
281
     0
  0
CLASS
  1
AMDTADMENUSTATE
  2
AmdtAdMenuState
  3
DesignerServices
 90
        0
280
     0
281
     0
  0
CLASS
  1
ADAPPL
  2
AcAdAppl
  3
DesignerServices
 90
        0
280
     0
281
     0
  0
CLASS
  1
DEPMGR
  2
AcAdDepMgr
  3
DesignerServices
 90
        0
280
     0
281
     0
  0
CLASS
  1
PARAMMGR
  2
AcAdParamMgr
  3
DesignerServices
 90
        0
280
     0
281
     0
  0
CLASS
  1
PARAMSCOPE
  2
AcAdParamScope
  3
DesignerServices
 90
        0
280
     0
281
     0
  0
CLASS
  1
NAMEDAPPL
  2
AcAdNamedAppl
  3
DesignerServices
 90
        0
280
     0
281
     0
  0
CLASS
  1
AMDTDMMENUSTATE
  2
AmdtDmMenuState
  3
AcMechDwgViewMgmt
 90
        0
280
     0
281
     0
  0
CLASS
  1
AMDTAMMENUSTATE
  2
AmdtAmMenuState
  3
DesignerAssemblies
 90
        0
280
     0
281
     0
  0
CLASS
  1
ACAMPROJECT
  2
AcAmProject
  3
DesignerAssemblies
 90
        0
280
     0
281
     0
  0
CLASS
  1
ACAMGRCOMPDEF
  2
AcAmGrCompDef
  3
DesignerAssemblies
 90
        0
280
     0
281
     0
  0
CLASS
  1
ACCMCONTEXT
  2
AcCmContext
  3
DesignerAssemblies
 90
        0
280
     0
281
     0
  0
CLASS
  1
ACAMCOMPDEF
  2
AcAmCompDef
  3
DesignerAssemblies
 90
        0
280
     0
281
     0
  0
CLASS
  1
ACAMCOMPDEFMGR
  2
AcAmCompDefMgr
  3
DesignerAssemblies
 90
        0
280
     0
281
     0
  0
CLASS
  1
AMCONTEXTMGR
  2
AcAmContextMgr
  3
DesignerAssemblies
 90
        0
280
     0
281
     0
  0
CLASS
  1
ACAMCONTEXTMODELER
  2
AcAmContextModeler
  3
DesignerAssemblies
 90
        0
280
     0
281
     0
  0
CLASS
  1
ACMTHREADLINESTANDARDANSI
  2
AmdtThreadLineStdANSI
  3
"Amdt_StdImp|Product Description: AutoCAD Mechanical 2004 DX|Company: Autodesk"
 90
        0
280
     0
281
     0
  0
CLASS
  1
ACMTHREADLINESTANDARDISO
  2
AmdtThreadLineStdISO
  3
"Amdt_StdImp|Product Description: AutoCAD Mechanical 2004 DX|Company: Autodesk"
 90
        0
280
     0
281
     0
  0
CLASS
  1
CATALOGSTATE
  2
AcAmCatalogState
  3
DesignerAssemblies
 90
        0
280
     0
281
     0
  0
CLASS
  1
ACAMGRCOMPDEFSET
  2
AcAmGrCompDefSet
  3
DesignerAssemblies
 90
        0
280
     0
281
     0
  0
CLASS
  1
AMDTBROWSERDBTAB
  2
AmdtBrowserDbTab
  3
McadcomServices
 90
        0
280
     0
281
     0
  0
CLASS
  1
CBROWSERAPPOBJECT
  2
CBrowserAppObject
  3
McadcomServices
 90
        0
280
     0
281
     0
  0
CLASS
  1
DM_PLACEHOLDER
  2
AcDmSelsetPlaceholder
  3
AcMechDwgViewMgmt
 90
        0
280
     0
281
     0
  0
CLASS
  1
TABLESTYLE
  2
AcDbTableStyle
  3
ObjectDBX Classes
 90
     2047
280
     0
281
     0
  0
CLASS
  1
AMDTEDGESTANDARDISO13715
  2
AmdtEdgeStdISO13715
  3
"Amdt_StdImp|Product Description: AutoCAD Mechanical 2004 DX|Company: Autodesk"
 90
    32768
280
     0
281
     0
  0
CLASS
  1
AMDTNOTETEMPLATEDB
  2
AmdtNoteTemplateDB
  3
AMDT_STDIMP_MODULE_NAME
 90
    32768
280
     0
281
     0
  0
CLASS
  1
ACAMGHOLECHARTSTDISO
  2
AcAmgHoleChartStdISO
  3
ACMSYMBB_MODULE_NAME
 90
    32768
280
     0
281
     0
  0
ENDSEC
  0
SECTION
  2
TABLES
  0
TABLE
  2
VPORT
  5
8
330
0
100
AcDbSymbolTable
 70
     3
  0
VPORT
  5
1216C
330
8
100
AcDbSymbolTableRecord
100
AcDbViewportTableRecord
  2
*Active
 70
     0
 10
0.0
 20
0.0
 11
1.0
 21
1.0
 12
561.5962654872292
 22
229.7500004780478
 13
0.0
 23
0.0
 14
2.5
 24
2.5
 15
10.0
 25
10.0
 16
0.0
 26
0.0
 36
1.0
 17
0.0
 27
0.0
 37
0.0
 40
878.3313247317014
 41
1.285904255319148
 42
50.0
 43
0.0
 44
0.0
 50
0.0
 51
0.0
 71
    16
 72
  2000
 73
     1
 74
     3
 75
     0
 76
     0
 77
     0
 78
     0
281
     0
 65
     1
110
0.0
120
0.0
130
0.0
111
1.0
121
0.0
131
0.0
112
0.0
122
1.0
132
0.0
 79
     0
146
0.0
  0
ENDTAB
  0
TABLE
  2
LTYPE
  5
5
330
0
100
AcDbSymbolTable
 70
    28
  0
LTYPE
  5
14
330
5
100
AcDbSymbolTableRecord
100
AcDbLinetypeTableRecord
  2
ByBlock
 70
     0
  3

 72
    65
 73
     0
 40
0.0
  0
LTYPE
  5
15
330
5
100
AcDbSymbolTableRecord
100
AcDbLinetypeTableRecord
  2
ByLayer
 70
     0
  3

 72
    65
 73
     0
 40
0.0
  0
LTYPE
  5
16
330
5
100
AcDbSymbolTableRecord
100
AcDbLinetypeTableRecord
  2
Continuous
 70
     0
  3
Solid line
 72
    65
 73
     0
 40
0.0
  0
LTYPE
  5
4B
330
5
100
AcDbSymbolTableRecord
100
AcDbLinetypeTableRecord
  2
AM_ISO02W050
 70
     0
  3
__ __ __ __ __ __ __ __ __ __ __ __ __ __ __
 72
    65
 73
     2
 40
7.5
 49
6.0
 74
     0
 49
-1.5
 74
     0
  0
LTYPE
  5
4C
330
5
100
AcDbSymbolTableRecord
100
AcDbLinetypeTableRecord
  2
AM_ISO08W050
 70
     0
  3
____ . ____ . ____ . ____ . ____ . ____ . ____
 72
    65
 73
     4
 40
18.0
 49
12.0
 74
     0
 49
-1.5
 74
     0
 49
3.0
 74
     0
 49
-1.5
 74
     0
  0
LTYPE
  5
4D
330
5
100
AcDbSymbolTableRecord
100
AcDbLinetypeTableRecord
  2
AM_ISO09W050
 70
     0
  3
_____ . . _____ . . _____ . . ____ .. ____
 72
    65
 73
     6
 40
22.5
 49
12.0
 74
     0
 49
-1.5
 74
     0
 49
3.0
 74
     0
 49
-1.5
 74
     0
 49
3.0
 74
     0
 49
-1.5
 74
     0
  0
LTYPE
  5
4E
330
5
100
AcDbSymbolTableRecord
100
AcDbLinetypeTableRecord
  2
Amconstr
 70
     0
  3
_______________________
 72
    65
 73
     2
 40
9999.0
 49
9999.0
 74
     0
 49
0.0
 74
     0
  0
LTYPE
  5
4F
330
5
100
AcDbSymbolTableRecord
100
AcDbLinetypeTableRecord
  2
AM_ISO02W050x2
 70
     0
  3
 _ _ _ _ _ _ _ _ _ _ _ _
 72
    65
 73
     2
 40
3.75
 49
3.0
 74
     0
 49
-0.75
 74
     0
  0
LTYPE
  5
50
330
5
100
AcDbSymbolTableRecord
100
AcDbLinetypeTableRecord
  2
AM_ISO08W050x2
 70
     0
  3
__ . __ . __ . __ . __ . __
 72
    65
 73
     4
 40
9.0
 49
6.0
 74
     0
 49
-0.75
 74
     0
 49
1.5
 74
     0
 49
-0.75
 74
     0
  0
LTYPE
  5
53
330
5
100
AcDbSymbolTableRecord
100
AcDbLinetypeTableRecord
  2
Amzigzag
 70
     0
  3
/\/-/\/-/\/-/\/-/\/-/\/
 72
    65
 73
     2
 40
11.0001
 49
0.0001
 74
     4
 75
   135
340
52
 46
0.04
 50
0.0
 44
0.0
 45
0.0
 49
-11.0
 74
     0
  0
LTYPE
  5
31D
330
5
100
AcDbSymbolTableRecord
100
AcDbLinetypeTableRecord
  2
ACJISTGB
 70
     0
  3
__ . . __ . .
 72
    65
 73
     6
 40
9.0
 49
4.0
 74
     0
 49
-1.0
 74
     0
 49
1.0
 74
     0
 49
-1.0
 74
     0
 49
1.0
 74
     0
 49
-1.0
 74
     0
  0
LTYPE
  5
31E
330
5
100
AcDbSymbolTableRecord
100
AcDbLinetypeTableRecord
  2
ACJISTGL
 70
     0
  3
_ _ _ _ _
 72
    65
 73
     2
 40
3.0
 49
2.0
 74
     0
 49
-1.0
 74
     0
  0
LTYPE
  5
476
330
5
100
AcDbSymbolTableRecord
100
AcDbLinetypeTableRecord
  2
CENTER
 70
     0
  3
__ . __
 72
    65
 73
     4
 40
7.0
 49
4.0
 74
     0
 49
-1.0
 74
     0
 49
1.0
 74
     0
 49
-1.0
 74
     0
  0
LTYPE
  5
759
330
5
100
AcDbSymbolTableRecord
100
AcDbLinetypeTableRecord
  2
CENTER2
 70
     0
  3
Center (.5x) ___ _ ___ _ ___ _ ___ _ ___ _ ___
 72
    65
 73
     4
 40
28.575
 49
19.05
 74
     0
 49
-3.174999999999999
 74
     0
 49
3.174999999999999
 74
     0
 49
-3.174999999999999
 74
     0
  0
LTYPE
  5
75C
330
5
100
AcDbSymbolTableRecord
100
AcDbLinetypeTableRecord
  2
PHANTOM2
 70
     0
  3
Phantom (.5x) ___ _ _ ___ _ _ ___ _ _ ___ _ _
 72
    65
 73
     6
 40
31.75
 49
15.875
 74
     0
 49
-3.174999999999999
 74
     0
 49
3.174999999999999
 74
     0
 49
-3.174999999999999
 74
     0
 49
3.174999999999999
 74
     0
 49
-3.174999999999999
 74
     0
  0
LTYPE
  5
B773
330
5
100
AcDbSymbolTableRecord
100
AcDbLinetypeTableRecord
  2
ACANSTGB
 70
     0
  3
__ . . __ . .
 72
    65
 73
     6
 40
0.35433070866
 49
0.15748031496
 74
     0
 49
-0.03937007874
 74
     0
 49
0.03937007874
 74
     0
 49
-0.03937007874
 74
     0
 49
0.03937007874
 74
     0
 49
-0.03937007874
 74
     0
  0
LTYPE
  5
B774
330
5
100
AcDbSymbolTableRecord
100
AcDbLinetypeTableRecord
  2
ACANSTGL
 70
     0
  3
_ _ _ _ _
 72
    65
 73
     2
 40
0.11811023622
 49
0.07874015748
 74
     0
 49
-0.03937007874
 74
     0
  0
LTYPE
  5
C4E8
330
5
100
AcDbSymbolTableRecord
100
AcDbLinetypeTableRecord
  2
ACISOWELD
 70
     0
  3
_ _ _ _ _
 72
    65
 73
     2
 40
2.0
 49
2.0
 74
     0
 49
-1.0
 74
     0
  0
LTYPE
  5
C4E9
330
5
100
AcDbSymbolTableRecord
100
AcDbLinetypeTableRecord
  2
ACISOTGB
 70
     0
  3
__ . . __ . .
 72
    65
 73
     6
 40
9.0
 49
4.0
 74
     0
 49
-1.0
 74
     0
 49
1.0
 74
     0
 49
-1.0
 74
     0
 49
1.0
 74
     0
 49
-1.0
 74
     0
  0
LTYPE
  5
C4EA
330
5
100
AcDbSymbolTableRecord
100
AcDbLinetypeTableRecord
  2
ACISOTGL
 70
     0
  3
_ _ _ _ _
 72
    65
 73
     2
 40
3.0
 49
2.0
 74
     0
 49
-1.0
 74
     0
  0
LTYPE
  5
11352
330
5
100
AcDbSymbolTableRecord
100
AcDbLinetypeTableRecord
  2
DASHED
 70
     0
  3
Dashed __ __ __ __ __ __ __ __ __ __ __ __ __ _
 72
    65
 73
     2
 40
19.05
 49
12.7
 74
     0
 49
-6.349999999999999
 74
     0
  0
LTYPE
  5
11353
330
5
100
AcDbSymbolTableRecord
100
AcDbLinetypeTableRecord
  2
DASHED2
 70
     0
  3
Dashed (.5x) _ _ _ _ _ _ _ _ _ _ _ _ _ _ _ _ _
 72
    65
 73
     2
 40
9.524999999999998
 49
6.349999999999999
 74
     0
 49
-3.174999999999999
 74
     0
  0
LTYPE
  5
11354
330
5
100
AcDbSymbolTableRecord
100
AcDbLinetypeTableRecord
  2
PHANTOM
 70
     0
  3
Phantom ______  __  __  ______  __  __  ______
 72
    65
 73
     6
 40
63.5
 49
31.75
 74
     0
 49
-6.349999999999999
 74
     0
 49
6.349999999999999
 74
     0
 49
-6.349999999999999
 74
     0
 49
6.349999999999999
 74
     0
 49
-6.349999999999999
 74
     0
  0
LTYPE
  5
11355
330
5
100
AcDbSymbolTableRecord
100
AcDbLinetypeTableRecord
  2
PHANTOMX2
 70
     0
  3
Phantom (2x) ____________    ____    ____   _
 72
    65
 73
     6
 40
127.0
 49
63.5
 74
     0
 49
-12.7
 74
     0
 49
12.7
 74
     0
 49
-12.7
 74
     0
 49
12.7
 74
     0
 49
-12.7
 74
     0
  0
LTYPE
  5
11356
330
5
100
AcDbSymbolTableRecord
100
AcDbLinetypeTableRecord
  2
DASHEDX2
 70
     0
  3
Dashed (2x) ____  ____  ____  ____  ____  ___
 72
    65
 73
     2
 40
38.1
 49
25.4
 74
     0
 49
-12.7
 74
     0
  0
LTYPE
  5
11357
330
5
100
AcDbSymbolTableRecord
100
AcDbLinetypeTableRecord
  2
CENTERX2
 70
     0
  3
Center (2x) ________  __  ________  __  _____
 72
    65
 73
     4
 40
101.6
 49
63.5
 74
     0
 49
-12.7
 74
     0
 49
12.7
 74
     0
 49
-12.7
 74
     0
  0
LTYPE
  5
113DF
330
5
100
AcDbSymbolTableRecord
100
AcDbLinetypeTableRecord
  2
kuroda_hasen1
 70
     0
  3
dash __ __ __ __ __ __ __ __ __ __ __ __ __
 72
    65
 73
     2
 40
2.5
 49
2.0
 74
     0
 49
-0.5
 74
     0
  0
LTYPE
  5
113E0
330
5
100
AcDbSymbolTableRecord
100
AcDbLinetypeTableRecord
  2
kuroda_ittensasen1
 70
     0
  3
long-dash short-dash ____ __ ____ __ ____ _
 72
    65
 73
     4
 40
19.0
 49
13.0
 74
     0
 49
-2.0
 74
     0
 49
2.0
 74
     0
 49
-2.0
 74
     0
  0
LTYPE
  5
113E1
330
5
100
AcDbSymbolTableRecord
100
AcDbLinetypeTableRecord
  2
kuroda_nitensasen1
 70
     0
  3
long-dash double-short-dash ____ __ __ ____
 72
    65
 73
     6
 40
23.0
 49
13.0
 74
     0
 49
-2.0
 74
     0
 49
2.0
 74
     0
 49
-2.0
 74
     0
 49
2.0
 74
     0
 49
-2.0
 74
     0
  0
LTYPE
  5
11404
330
5
100
AcDbSymbolTableRecord
100
AcDbLinetypeTableRecord
  2
HIDDEN
 70
     0
  3
Hidden __ __ __ __ __ __ __ __ __ __ __ __ __ _
 72
    65
 73
     2
 40
9.524999999999998
 49
6.349999999999999
 74
     0
 49
-3.174999999999999
 74
     0
  0
ENDTAB
  0
TABLE
  2
LAYER
  5
2
102
{ACAD_XDICTIONARY
360
11468
102
}
330
0
100
AcDbSymbolTable
 70
    13
  0
LAYER
  5
10
330
2
100
AcDbSymbolTableRecord
100
AcDbLayerTableRecord
  2
0
 70
     0
 62
     7
  6
Continuous
370
    -3
390
F
  0
LAYER
  5
B4
330
2
100
AcDbSymbolTableRecord
100
AcDbLayerTableRecord
  2
Defpoints
 70
     0
 62
     7
  6
Continuous
290
     0
370
    -3
390
F
  0
LAYER
  5
263
330
2
100
AcDbSymbolTableRecord
100
AcDbLayerTableRecord
  2
outline
 70
     0
 62
     4
  6
Continuous
370
    50
390
F
  0
LAYER
  5
265
330
2
100
AcDbSymbolTableRecord
100
AcDbLayerTableRecord
  2
note
 70
     0
 62
     7
  6
Continuous
370
    25
390
F
  0
LAYER
  5
51B
330
2
100
AcDbSymbolTableRecord
100
AcDbLayerTableRecord
  2
AM_CL
 70
     0
 62
     1
  6
Amconstr
370
    25
390
F
  0
LAYER
  5
4098
330
2
100
AcDbSymbolTableRecord
100
AcDbLayerTableRecord
  2
PV0003_1
 70
     0
 62
     7
  6
Continuous
370
    -3
390
F
  0
LAYER
  5
B781
330
2
100
AcDbSymbolTableRecord
100
AcDbLayerTableRecord
  2
AM_BOR
 70
     0
 62
     7
  6
Continuous
370
    50
390
F
  0
LAYER
  5
D3CF
330
2
100
AcDbSymbolTableRecord
100
AcDbLayerTableRecord
  2
AM_VIEWS
 70
     1
 62
    -1
  6
Continuous
290
     0
370
    25
390
F
  0
LAYER
  5
1134D
330
2
100
AcDbSymbolTableRecord
100
AcDbLayerTableRecord
  2
hatch
 70
     0
 62
     1
  6
Continuous
370
    25
390
F
  0
LAYER
  5
1134E
330
2
100
AcDbSymbolTableRecord
100
AcDbLayerTableRecord
  2
center
 70
     0
 62
     2
  6
CENTER2
370
    25
390
F
  0
LAYER
  5
1134F
330
2
100
AcDbSymbolTableRecord
100
AcDbLayerTableRecord
  2
dimension
 70
     0
 62
     7
  6
Continuous
370
    25
390
F
  0
LAYER
  5
11350
330
2
100
AcDbSymbolTableRecord
100
AcDbLayerTableRecord
  2
imaginary
 70
     0
 62
     2
  6
PHANTOM2
370
    25
390
F
  0
LAYER
  5
1149A
330
2
100
AcDbSymbolTableRecord
100
AcDbLayerTableRecord
  2
PV0001_1
 70
     0
 62
     7
  6
Continuous
370
    -3
390
F
  0
ENDTAB
  0
TABLE
  2
STYLE
  5
3
330
0
100
AcDbSymbolTable
 70
    10
  0
STYLE
  5
11
330
3
100
AcDbSymbolTableRecord
100
AcDbTextStyleTableRecord
  2
STANDARD
 70
     0
 40
0.0
 41
1.0
 50
0.0
 71
     0
 42
3.2
  3
txt.shx
  4
EXTFONT.SHX
  0
STYLE
  5
52
330
3
100
AcDbSymbolTableRecord
100
AcDbTextStyleTableRecord
  2

 70
     1
 40
0.0
 41
1.0
 50
0.0
 71
     0
 42
2.5
  3
ltypeshp.shx
  4

  0
STYLE
  5
315
330
3
100
AcDbSymbolTableRecord
100
AcDbTextStyleTableRecord
  2
ACJISTS
 70
     0
 40
1.0
 41
1.0
 50
0.0
 71
     0
 42
2.5
  3
isocp.shx
  4
bigfont.shx
  0
STYLE
  5
31C
330
3
100
AcDbSymbolTableRecord
100
AcDbTextStyleTableRecord
  2
ACJISGDT
 70
     0
 40
0.0
 41
1.0
 50
0.0
 71
     0
 42
2.5
  3
amgdt.shx
  4

  0
STYLE
  5
80B
330
3
100
AcDbSymbolTableRecord
100
AcDbTextStyleTableRecord
  2
DIM
 70
     0
 40
0.0
 41
1.0
 50
0.0
 71
     0
 42
2.5
  3
monotxt.shx
  4
extfont.shx
  0
STYLE
  5
80C
330
3
100
AcDbSymbolTableRecord
100
AcDbTextStyleTableRecord
  2
CONVERT
 70
     0
 40
0.0
 41
1.0
 50
0.0
 71
     0
 42
2.5
  3
monotxt.shx
  4
extfont.shx
  0
STYLE
  5
B782
330
3
100
AcDbSymbolTableRecord
100
AcDbTextStyleTableRecord
  2
ACANSTS
 70
     0
 40
1.0
 41
1.0
 50
0.0
 71
     0
 42
5.0
  3
romans.shx
  4
extfont.shx
  0
STYLE
  5
B783
330
3
100
AcDbSymbolTableRecord
100
AcDbTextStyleTableRecord
  2
ACANSGDT
 70
     0
 40
0.0
 41
1.0
 50
0.0
 71
     0
 42
5.0
  3
amgdtans.shx
  4

  0
STYLE
  5
C4EE
330
3
100
AcDbSymbolTableRecord
100
AcDbTextStyleTableRecord
  2
ACISOTS
 70
     0
 40
1.0
 41
1.0
 50
0.0
 71
     0
 42
2.5
  3
isocp.shx
  4
extfont.shx
  0
STYLE
  5
C4EF
330
3
100
AcDbSymbolTableRecord
100
AcDbTextStyleTableRecord
  2
ACISOGDT
 70
     0
 40
0.0
 41
1.0
 50
0.0
 71
     0
 42
2.5
  3
amgdt.shx
  4

  0
ENDTAB
  0
TABLE
  2
VIEW
  5
6
330
0
100
AcDbSymbolTable
 70
     6
  0
VIEW
  5
BC30
330
6
100
AcDbSymbolTableRecord
100
AcDbViewTableRecord
  2
AM_VIEW1
 70
     0
 40
100.1320655018699
 10
983.2250038943806
 20
299.5554737300507
 41
194.8793080190041
 11
0.0
 21
0.0
 31
1.0
 12
0.0
 22
0.0
 32
0.0
 42
50.0
 43
0.0
 44
0.0
 50
0.0
 71
    16
281
     0
 72
     0
  0
VIEW
  5
BC31
330
6
100
AcDbSymbolTableRecord
100
AcDbViewTableRecord
  2
AM_VIEW2
 70
     0
 40
100.1320655018699
 10
1075.345695875376
 20
299.5554737300507
 41
194.8793080190041
 11
0.0
 21
0.0
 31
1.0
 12
0.0
 22
0.0
 32
0.0
 42
50.0
 43
0.0
 44
0.0
 50
0.0
 71
    16
281
     0
 72
     0
  0
VIEW
  5
BC32
330
6
100
AcDbSymbolTableRecord
100
AcDbViewTableRecord
  2
AM_VIEW3
 70
     0
 40
100.1320655018699
 10
983.2250038943806
 20
199.4234082281807
 41
194.8793080190041
 11
0.0
 21
0.0
 31
1.0
 12
0.0
 22
0.0
 32
0.0
 42
50.0
 43
0.0
 44
0.0
 50
0.0
 71
    16
281
     0
 72
     0
  0
VIEW
  5
BC33
330
6
100
AcDbSymbolTableRecord
100
AcDbViewTableRecord
  2
AM_VIEW4
 70
     0
 40
100.1320655018699
 10
1075.345695875376
 20
199.4234082281807
 41
194.8793080190041
 11
0.0
 21
0.0
 31
1.0
 12
0.0
 22
0.0
 32
0.0
 42
50.0
 43
0.0
 44
0.0
 50
0.0
 71
    16
281
     0
 72
     0
  0
VIEW
  5
BC34
330
6
100
AcDbSymbolTableRecord
100
AcDbViewTableRecord
  2
AM_VIEW5
 70
     0
 40
100.1320655018699
 10
1029.285349884878
 20
249.4894409791157
 41
194.8793080190043
 11
0.0
 21
0.0
 31
1.0
 12
0.0
 22
0.0
 32
0.0
 42
50.0
 43
0.0
 44
0.0
 50
0.0
 71
    16
281
     0
 72
     0
  0
VIEW
  5
BC35
330
6
100
AcDbSymbolTableRecord
100
AcDbViewTableRecord
  2
AM_VIEW6
 70
     0
 40
200.2621283624299
 10
1029.285349884878
 20
249.4894409791157
 41
389.754718451848
 11
0.0
 21
0.0
 31
1.0
 12
0.0
 22
0.0
 32
0.0
 42
50.0
 43
0.0
 44
0.0
 50
0.0
 71
    16
281
     0
 72
     0
  0
ENDTAB
  0
TABLE
  2
UCS
  5
7
330
0
100
AcDbSymbolTable
 70
     0
  0
ENDTAB
  0
TABLE
  2
APPID
  5
9
330
0
100
AcDbSymbolTable
 70
    28
  0
APPID
  5
12
330
9
100
AcDbSymbolTableRecord
100
AcDbRegAppTableRecord
  2
ACAD
 70
     0
  0
APPID
  5
2C
330
9
100
AcDbSymbolTableRecord
100
AcDbRegAppTableRecord
  2
MCAD_NO_VIS
 70
     0
  0
APPID
  5
2D
330
9
100
AcDbSymbolTableRecord
100
AcDbRegAppTableRecord
  2
ACAD_TEMP_GRAPHIC
 70
     0
  0
APPID
  5
87
330
9
100
AcDbSymbolTableRecord
100
AcDbRegAppTableRecord
  2
GENIUS_GENREC_14
 70
     0
  0
APPID
  5
88
330
9
100
AcDbSymbolTableRecord
100
AcDbRegAppTableRecord
  2
GENIUS_GENODEF_13
 70
     0
  0
APPID
  5
89
330
9
100
AcDbSymbolTableRecord
100
AcDbRegAppTableRecord
  2
GENIUS_GENOBJ-N-REC_13
 70
     0
  0
APPID
  5
A3
330
9
100
AcDbSymbolTableRecord
100
AcDbRegAppTableRecord
  2
GENIUS_GENOBJ-N-CEN_13
 70
     0
  0
APPID
  5
EE
330
9
100
AcDbSymbolTableRecord
100
AcDbRegAppTableRecord
  2
GENIUS_GENDTOL_13
 70
     0
  0
APPID
  5
217
330
9
100
AcDbSymbolTableRecord
100
AcDbRegAppTableRecord
  2
GENIUS_GENDIMSH_14
 70
     0
  0
APPID
  5
46E
330
9
100
AcDbSymbolTableRecord
100
AcDbRegAppTableRecord
  2
ACATTRIBSERVICES
 70
     0
  0
APPID
  5
2652
330
9
100
AcDbSymbolTableRecord
100
AcDbRegAppTableRecord
  2
GENIUS_GENFIL_13
 70
     0
  0
APPID
  5
2653
330
9
100
AcDbSymbolTableRecord
100
AcDbRegAppTableRecord
  2
GENIUS_GENOBJ-N-CHA_13
 70
     0
  0
APPID
  5
265C
330
9
100
AcDbSymbolTableRecord
100
AcDbRegAppTableRecord
  2
GENIUS_GENOLIS_13
 70
     0
  0
APPID
  5
265D
330
9
100
AcDbSymbolTableRecord
100
AcDbRegAppTableRecord
  2
GENIUS_GENOENT_13
 70
     0
  0
APPID
  5
265E
330
9
100
AcDbSymbolTableRecord
100
AcDbRegAppTableRecord
  2
GENIUS_GENOREF_13
 70
     0
  0
APPID
  5
ABA5
330
9
100
AcDbSymbolTableRecord
100
AcDbRegAppTableRecord
  2
GENIUS_GENOBJ-N-CRS_13
 70
     0
  0
APPID
  5
BAB1
330
9
100
AcDbSymbolTableRecord
100
AcDbRegAppTableRecord
  2
GENIUS_GENOBJ-N-TIT_13
 70
     0
  0
APPID
  5
BAB2
330
9
100
AcDbSymbolTableRecord
100
AcDbRegAppTableRecord
  2
GENIUS_GENTITLE_13
 70
     0
  0
APPID
  5
BAB3
330
9
100
AcDbSymbolTableRecord
100
AcDbRegAppTableRecord
  2
GENIUS_GENSCREG_15
 70
     0
  0
APPID
  5
BAB4
330
9
100
AcDbSymbolTableRecord
100
AcDbRegAppTableRecord
  2
GENIUS_GENOBJ-N-SDF_13
 70
     0
  0
APPID
  5
C723
330
9
100
AcDbSymbolTableRecord
100
AcDbRegAppTableRecord
  2
GENIUS_GENTRA_14
 70
     0
  0
APPID
  5
D8E8
330
9
100
AcDbSymbolTableRecord
100
AcDbRegAppTableRecord
  2
GENIUS_GENOBJ-N-FIL_13
 70
     0
  0
APPID
  5
11419
330
9
100
AcDbSymbolTableRecord
100
AcDbRegAppTableRecord
  2
AD_DRAW
 70
     0
  0
APPID
  5
11437
330
9
100
AcDbSymbolTableRecord
100
AcDbRegAppTableRecord
  2
DESIGNERASSEMBLIES
 70
     0
  0
APPID
  5
1143E
330
9
100
AcDbSymbolTableRecord
100
AcDbRegAppTableRecord
  2
ACADM_DIM_EDIT
 70
     0
  0
APPID
  5
1143F
330
9
100
AcDbSymbolTableRecord
100
AcDbRegAppTableRecord
  2
AMDT_DM_ADJ
 70
     0
  0
APPID
  5
11F96
330
9
100
AcDbSymbolTableRecord
100
AcDbRegAppTableRecord
  2
ACAD_DSTYLE_DIMARC_LENGTH_SYMBOL
 70
     0
  0
APPID
  5
11F97
330
9
100
AcDbSymbolTableRecord
100
AcDbRegAppTableRecord
  2
ACAD_DSTYLE_DIMJOGGED_JOGANGLE_SYMBOL
 70
     0
  0
ENDTAB
  0
TABLE
  2
DIMSTYLE
  5
A
330
0
100
AcDbSymbolTable
 70
    29
100
AcDbDimStyleTable
 71
     2
340
616
340
148
  0
DIMSTYLE
105
148
330
A
100
AcDbSymbolTableRecord
100
AcDbDimStyleTableRecord
  2
kuroda_sunpo
 70
     0
  4
"
 41
2.5
 42
1.0
 43
8.0
 44
1.0
 47
0.1
 48
0.1
 73
     0
 74
     0
 77
     3
 78
     8
 79
     2
140
3.2
141
0.0
143
0.0393701
146
0.71
147
1.5
172
     1
176
     7
177
     7
178
     7
179
     2
271
     3
272
     3
275
     1
283
     0
340
11
341
44D
342
44D
371
    -1
372
    -1
  0
DIMSTYLE
105
14A
330
A
100
AcDbSymbolTableRecord
100
AcDbDimStyleTableRecord
  2
kuroda_sunpo$3
 70
     0
  4
"
 41
2.5
 42
1.0
 43
8.0
 44
1.0
 47
0.1
 48
0.1
 73
     0
 77
     3
 78
     8
 79
     2
140
3.2
141
0.0
143
0.0393701
146
0.71
147
1.5
176
     7
177
     7
178
     7
179
     2
271
     3
272
     3
275
     1
283
     0
288
     1
289
     0
340
11
341
44D
342
44D
371
    -1
372
    -1
  0
DIMSTYLE
105
14B
330
A
100
AcDbSymbolTableRecord
100
AcDbDimStyleTableRecord
  2
kuroda_sunpo$4
 70
     0
  4
"
 41
2.5
 42
1.0
 43
8.0
 44
1.0
 47
0.1
 48
0.1
 73
     0
 77
     3
 78
     8
 79
     2
140
3.2
141
0.0
143
0.0393701
146
0.71
147
1.5
176
     7
177
     7
178
     7
179
     2
271
     3
272
     3
275
     1
283
     0
288
     1
289
     0
340
11
341
44D
342
44D
371
    -1
372
    -1
  0
DIMSTYLE
105
14C
330
A
100
AcDbSymbolTableRecord
100
AcDbDimStyleTableRecord
  2
kuroda_sunpo$6
 70
     0
  4
"
 41
2.5
 42
1.0
 43
8.0
 44
1.0
 47
0.1
 48
0.1
 73
     0
 74
     0
 78
     8
 79
     2
140
3.2
141
0.0
143
0.0393701
146
0.71
147
1.5
172
     1
176
     7
177
     7
178
     7
179
     2
271
     3
272
     3
275
     1
283
     0
340
11
341
44D
342
44D
371
    -1
372
    -1
  0
DIMSTYLE
105
14D
330
A
100
AcDbSymbolTableRecord
100
AcDbDimStyleTableRecord
  2
kuroda_sunpo$SF
 70
     0
  4
"
 41
2.5
 42
1.0
 43
8.0
 44
1.0
 47
0.1
 48
0.1
 73
     0
 74
     0
 75
     1
 76
     1
 77
     3
 78
     8
 79
     2
140
5.0
141
0.0
143
0.0393701
146
0.71
147
1.5
172
     1
176
   256
177
   256
178
     7
179
     2
271
     3
272
     3
275
     1
283
     0
340
11
341
6D
342
6D
371
    -1
372
    -1
  0
DIMSTYLE
105
14E
330
A
100
AcDbSymbolTableRecord
100
AcDbDimStyleTableRecord
  2
kuroda_sunpo$SH
 70
     0
  4
"
 41
2.5
 42
1.0
 43
8.0
 44
1.0
 47
0.1
 48
0.1
 73
     0
 74
     0
 75
     1
 76
     1
 77
     3
 78
     8
 79
     2
140
5.0
141
0.0
143
0.0393701
144
2.0
146
0.71
147
1.5
172
     1
173
     1
176
   256
177
   256
178
     7
179
     2
271
     3
272
     3
275
     1
283
     0
340
11
341
6D
342
6D
343
78
371
    -1
372
    -1
  0
DIMSTYLE
105
616
330
A
100
AcDbSymbolTableRecord
100
AcDbDimStyleTableRecord
  2
JIS-KURODA
 70
     0
  4
"
 41
2.5
 42
1.0
 43
10.0
 44
1.0
 47
0.1
 48
0.1
 73
     0
 74
     0
 77
     3
 78
     8
 79
     2
140
3.2
141
0.0
143
0.0393701
146
0.71
147
1.5
172
     1
174
     1
176
     7
177
     7
178
     7
271
     2
272
     2
283
     0
284
     8
340
11
341
44D
342
44D
371
    -1
372
    -1
1001
ACAD_DSTYLE_DIMARC_LENGTH_SYMBOL
1070
   379
1070
     1
1001
ACAD_DSTYLE_DIMJOGGED_JOGANGLE_SYMBOL
1070
   384
1040
0.7853981633974483
  0
DIMSTYLE
105
617
330
A
100
AcDbSymbolTableRecord
100
AcDbDimStyleTableRecord
  2
JIS-KURODA$3
 70
     0
  4
"
 41
2.5
 42
1.0
 43
10.0
 44
1.0
 47
0.1
 48
0.1
 73
     0
 74
     0
 77
     3
 78
     8
 79
     2
140
3.2
141
0.0
143
0.0393701
146
0.71
147
1.5
172
     1
176
     7
177
     7
178
     7
271
     2
272
     2
283
     0
284
     8
288
     1
289
     2
340
11
341
6D
342
44D
371
    -1
372
    -1
1001
ACAD_DSTYLE_DIMARC_LENGTH_SYMBOL
1070
   379
1070
     1
1001
ACAD_DSTYLE_DIMJOGGED_JOGANGLE_SYMBOL
1070
   384
1040
0.7853981633974483
  0
DIMSTYLE
105
618
330
A
100
AcDbSymbolTableRecord
100
AcDbDimStyleTableRecord
  2
JIS-KURODA$4
 70
     0
  4
"
 41
2.5
 42
1.0
 43
10.0
 44
1.0
 47
0.1
 48
0.1
 73
     0
 77
     3
 78
     8
 79
     2
140
3.2
141
0.0
143
0.0393701
146
0.71
147
1.5
173
     1
176
     7
177
     7
178
     7
271
     2
272
     2
279
     1
283
     0
284
     8
288
     1
289
     0
340
11
341
6D
343
6D
344
44D
371
    -1
372
    -1
1001
ACAD_DSTYLE_DIMARC_LENGTH_SYMBOL
1070
   379
1070
     1
1001
ACAD_DSTYLE_DIMJOGGED_JOGANGLE_SYMBOL
1070
   384
1040
0.7853981633974483
  0
DIMSTYLE
105
619
330
A
100
AcDbSymbolTableRecord
100
AcDbDimStyleTableRecord
  2
JIS-KURODA$6
 70
     0
  4
"
 41
2.5
 42
1.0
 43
10.0
 44
1.0
 47
0.1
 48
0.1
 73
     0
 74
     0
 78
     8
 79
     2
140
3.2
141
0.0
143
0.0393701
146
0.71
147
1.5
172
     1
176
     7
177
     7
178
     7
271
     2
272
     2
279
     1
283
     0
284
     8
340
11
341
6D
342
6D
371
    -1
372
    -1
1001
ACAD_DSTYLE_DIMARC_LENGTH_SYMBOL
1070
   379
1070
     1
1001
ACAD_DSTYLE_DIMJOGGED_JOGANGLE_SYMBOL
1070
   384
1040
0.7853981633974483
  0
DIMSTYLE
105
61A
330
A
100
AcDbSymbolTableRecord
100
AcDbDimStyleTableRecord
  2
JIS-KURODA$7
 70
     0
  4
"
 41
2.5
 42
1.0
 43
10.0
 44
1.0
 47
0.1
 48
0.1
 73
     0
 74
     0
 77
     3
 78
     8
 79
     2
140
4.000000000000003
141
0.0
143
0.0393701
146
0.71
147
1.5
172
     1
176
     7
177
     7
178
     7
271
     2
272
     2
279
     1
283
     0
284
     8
340
11
341
44D
342
6D
371
    -1
372
    -1
1001
ACAD_DSTYLE_DIMARC_LENGTH_SYMBOL
1070
   379
1070
     1
1001
ACAD_DSTYLE_DIMJOGGED_JOGANGLE_SYMBOL
1070
   384
1040
0.7853981633974483
  0
DIMSTYLE
105
61B
330
A
100
AcDbSymbolTableRecord
100
AcDbDimStyleTableRecord
  2
JIS-KURODA$SF
 70
     0
  4
"
 41
2.5
 42
1.0
 43
10.0
 44
1.0
 47
0.1
 48
0.1
 73
     0
 74
     0
 75
     1
 76
     1
 77
     3
 78
     8
 79
     2
140
3.5
141
0.0
143
0.0393701
146
0.71
147
1.5
172
     1
176
   256
177
   256
178
     7
271
     2
272
     3
274
     4
283
     0
284
     8
340
11
341
6D
342
6D
343
6D
344
6D
371
    -1
372
    -1
1001
ACAD_DSTYLE_DIMARC_LENGTH_SYMBOL
1070
   379
1070
     1
1001
ACAD_DSTYLE_DIMJOGGED_JOGANGLE_SYMBOL
1070
   384
1040
0.7853981633974483
  0
DIMSTYLE
105
61C
330
A
100
AcDbSymbolTableRecord
100
AcDbDimStyleTableRecord
  2
JIS-KURODA$SH
 70
     0
  4
"
 41
2.5
 42
1.0
 43
10.0
 44
1.0
 47
0.1
 48
0.1
 73
     0
 74
     0
 75
     1
 76
     1
 77
     3
 78
     8
 79
     2
140
3.5
141
0.0
143
0.0393701
144
2.0
146
0.71
147
1.5
172
     1
173
     1
176
   256
177
   256
178
     7
271
     2
272
     3
274
     4
283
     0
284
     8
340
11
341
6D
342
6D
343
78
344
6D
371
    -1
372
    -1
1001
ACAD_DSTYLE_DIMARC_LENGTH_SYMBOL
1070
   379
1070
     1
1001
ACAD_DSTYLE_DIMJOGGED_JOGANGLE_SYMBOL
1070
   384
1040
0.7853981633974483
  0
DIMSTYLE
105
80D
102
{ACAD_REACTORS
330
1191F
102
}
330
A
100
AcDbSymbolTableRecord
100
AcDbDimStyleTableRecord
  2
STANDARD
 70
     0
 41
3.0
 42
1.0
 43
7.0
 44
2.0
 73
     0
 74
     0
 77
     1
140
2.799999999999999
141
0.0
143
0.0394
147
0.7
171
     4
172
     1
173
     1
176
     7
177
     7
178
     7
271
     3
272
     3
273
     8
274
     4
289
     0
340
80B
341
6D
343
6D
344
6D
  0
DIMSTYLE
105
ECC
330
A
100
AcDbSymbolTableRecord
100
AcDbDimStyleTableRecord
  2
SYMBOL
 70
     0
  4
"
 41
2.5
 42
1.0
 43
10.0
 44
1.0
 47
0.1
 48
0.1
 73
     0
 74
     0
 77
     3
 78
     8
 79
     2
140
3.2
141
0.0
143
0.0393701
146
0.71
147
1.5
172
     1
176
     7
177
     7
178
     7
271
     2
272
     2
279
     1
283
     0
284
     8
340
11
341
44D
342
44D
371
    -1
372
    -1
  0
DIMSTYLE
105
B784
330
A
100
AcDbSymbolTableRecord
100
AcDbDimStyleTableRecord
  2
AM_ANSI
 70
     0
  4
mm
 41
0.1
 42
0.05
 43
0.5
 44
0.1
 47
0.1
 48
0.1
 78
     7
 79
     2
140
0.12
141
0.0
146
0.71
147
0.06
176
   256
177
   256
178
     2
274
     4
340
11
371
    -1
372
    -1
1001
ACAD_DSTYLE_DIMARC_LENGTH_SYMBOL
1070
   379
1070
     1
1001
ACAD_DSTYLE_DIMJOGGED_JOGANGLE_SYMBOL
1070
   384
1040
0.7853981633974483
  0
DIMSTYLE
105
B785
330
A
100
AcDbSymbolTableRecord
100
AcDbDimStyleTableRecord
  2
AM_ANSI$3
 70
     0
  4
mm
 41
0.1
 42
0.05
 43
0.5
 44
0.1
 47
0.1
 48
0.1
 78
     7
 79
     2
140
0.12
141
0.0
146
0.71
147
0.06
176
   256
177
   256
178
     2
274
     4
288
     1
289
     0
340
11
371
    -1
372
    -1
1001
ACAD_DSTYLE_DIMARC_LENGTH_SYMBOL
1070
   379
1070
     1
1001
ACAD_DSTYLE_DIMJOGGED_JOGANGLE_SYMBOL
1070
   384
1040
0.7853981633974483
  0
DIMSTYLE
105
B786
330
A
100
AcDbSymbolTableRecord
100
AcDbDimStyleTableRecord
  2
AM_ANSI$4
 70
     0
  4
mm
 41
0.1
 42
0.05
 43
0.5
 44
0.1
 47
0.1
 48
0.1
 78
     7
 79
     2
140
0.12
141
0.0
146
0.71
147
0.06
176
   256
177
   256
178
     2
274
     4
288
     1
289
     0
340
11
371
    -1
372
    -1
1001
ACAD_DSTYLE_DIMARC_LENGTH_SYMBOL
1070
   379
1070
     1
1001
ACAD_DSTYLE_DIMJOGGED_JOGANGLE_SYMBOL
1070
   384
1040
0.7853981633974483
  0
DIMSTYLE
105
B787
330
A
100
AcDbSymbolTableRecord
100
AcDbDimStyleTableRecord
  2
AM_ANSI$7
 70
     0
  4
mm
 41
0.1
 42
0.05
 43
0.5
 44
0.1
 47
0.1
 48
0.1
 78
     7
 79
     2
140
0.24
141
0.0
146
0.71
147
0.06
176
   256
177
   256
178
     2
274
     4
340
11
371
    -1
372
    -1
1001
ACAD_DSTYLE_DIMARC_LENGTH_SYMBOL
1070
   379
1070
     1
1001
ACAD_DSTYLE_DIMJOGGED_JOGANGLE_SYMBOL
1070
   384
1040
0.7853981633974483
  0
DIMSTYLE
105
B788
330
A
100
AcDbSymbolTableRecord
100
AcDbDimStyleTableRecord
  2
AM_ANSI$SF
 70
     0
  4
mm
 41
0.1
 42
0.05
 43
0.5
 44
0.1
 47
0.1
 48
0.1
 75
     1
 76
     1
 78
     7
 79
     2
140
0.12
141
0.0
146
0.71
147
0.06
176
   256
177
   256
178
     2
274
     4
340
11
371
    -1
372
    -1
1001
ACAD_DSTYLE_DIMARC_LENGTH_SYMBOL
1070
   379
1070
     1
1001
ACAD_DSTYLE_DIMJOGGED_JOGANGLE_SYMBOL
1070
   384
1040
0.7853981633974483
  0
DIMSTYLE
105
B789
330
A
100
AcDbSymbolTableRecord
100
AcDbDimStyleTableRecord
  2
AM_ANSI$SH
 70
     0
  4
mm
 41
0.1
 42
0.05
 43
0.5
 44
0.1
 47
0.1
 48
0.1
 75
     1
 76
     1
 78
     7
 79
     2
140
0.12
141
0.0
146
0.71
147
0.06
173
     1
176
   256
177
   256
178
     2
274
     4
340
11
343
78
371
    -1
372
    -1
1001
ACAD_DSTYLE_DIMARC_LENGTH_SYMBOL
1070
   379
1070
     1
1001
ACAD_DSTYLE_DIMJOGGED_JOGANGLE_SYMBOL
1070
   384
1040
0.7853981633974483
  0
DIMSTYLE
105
C47D
330
A
100
AcDbSymbolTableRecord
100
AcDbDimStyleTableRecord
  2
JIS-KURODA$2
 70
     0
  4
"
 41
2.5
 42
1.0
 43
10.0
 44
1.0
 47
0.1
 48
0.1
 73
     0
 74
     0
 77
     3
 78
     8
 79
     2
140
3.2
141
0.0
143
0.0393701
146
0.71
147
1.5
172
     1
174
     1
176
     7
177
     7
178
     7
271
     2
272
     2
283
     0
284
     8
340
11
341
44D
342
44D
371
    -1
372
    -1
1001
ACAD_DSTYLE_DIMARC_LENGTH_SYMBOL
1070
   379
1070
     1
1001
ACAD_DSTYLE_DIMJOGGED_JOGANGLE_SYMBOL
1070
   384
1040
0.7853981633974483
  0
DIMSTYLE
105
C4F0
330
A
100
AcDbSymbolTableRecord
100
AcDbDimStyleTableRecord
  2
AM_ISO
 70
     0
  4
"
 41
2.5
 42
1.0
 43
10.0
 44
1.0
 47
0.1
 48
0.1
 73
     0
 74
     0
 77
     1
 78
     8
 79
     2
140
3.5
141
0.0
143
0.0393701
146
0.71
147
1.5
172
     1
176
   256
177
   256
178
     2
271
     2
272
     3
274
     4
283
     0
284
     8
340
11
371
    -1
372
    -1
1001
ACAD_DSTYLE_DIMARC_LENGTH_SYMBOL
1070
   379
1070
     1
1001
ACAD_DSTYLE_DIMJOGGED_JOGANGLE_SYMBOL
1070
   384
1040
0.7853981633974483
  0
DIMSTYLE
105
C4F1
330
A
100
AcDbSymbolTableRecord
100
AcDbDimStyleTableRecord
  2
AM_ISO$3
 70
     0
  4
"
 41
2.5
 42
1.0
 43
10.0
 44
1.0
 47
0.1
 48
0.1
 73
     0
 77
     1
 78
     8
 79
     2
140
3.5
141
0.0
143
0.0393701
146
0.71
147
1.5
176
   256
177
   256
178
     2
271
     2
272
     3
274
     4
283
     0
284
     8
288
     1
289
     0
340
11
371
    -1
372
    -1
1001
ACAD_DSTYLE_DIMARC_LENGTH_SYMBOL
1070
   379
1070
     1
1001
ACAD_DSTYLE_DIMJOGGED_JOGANGLE_SYMBOL
1070
   384
1040
0.7853981633974483
  0
DIMSTYLE
105
C4F2
330
A
100
AcDbSymbolTableRecord
100
AcDbDimStyleTableRecord
  2
AM_ISO$4
 70
     0
  4
"
 41
2.5
 42
1.0
 43
10.0
 44
1.0
 47
0.1
 48
0.1
 73
     0
 77
     1
 78
     8
 79
     2
140
3.5
141
0.0
143
0.0393701
146
0.71
147
1.5
176
   256
177
   256
178
     2
271
     2
272
     3
274
     4
283
     0
284
     8
288
     1
289
     0
340
11
371
    -1
372
    -1
1001
ACAD_DSTYLE_DIMARC_LENGTH_SYMBOL
1070
   379
1070
     1
1001
ACAD_DSTYLE_DIMJOGGED_JOGANGLE_SYMBOL
1070
   384
1040
0.7853981633974483
  0
DIMSTYLE
105
C4F3
330
A
100
AcDbSymbolTableRecord
100
AcDbDimStyleTableRecord
  2
AM_ISO$6
 70
     0
  4
"
 41
2.5
 42
1.0
 43
10.0
 44
1.0
 47
0.1
 48
0.1
 73
     0
 74
     0
 78
     8
 79
     2
140
3.5
141
0.0
143
0.0393701
146
0.71
147
1.5
172
     1
176
   256
177
   256
178
     2
271
     2
272
     3
274
     4
283
     0
284
     8
340
11
371
    -1
372
    -1
1001
ACAD_DSTYLE_DIMARC_LENGTH_SYMBOL
1070
   379
1070
     1
1001
ACAD_DSTYLE_DIMJOGGED_JOGANGLE_SYMBOL
1070
   384
1040
0.7853981633974483
  0
DIMSTYLE
105
C4F4
330
A
100
AcDbSymbolTableRecord
100
AcDbDimStyleTableRecord
  2
AM_ISO$7
 70
     0
  4
"
 41
2.5
 42
1.0
 43
10.0
 44
1.0
 47
0.1
 48
0.1
 73
     0
 74
     0
 77
     1
 78
     8
 79
     2
140
5.0
141
0.0
143
0.0393701
146
0.71
147
1.5
172
     1
176
   256
177
   256
178
     2
271
     2
272
     3
274
     4
283
     0
284
     8
340
11
371
    -1
372
    -1
1001
ACAD_DSTYLE_DIMARC_LENGTH_SYMBOL
1070
   379
1070
     1
1001
ACAD_DSTYLE_DIMJOGGED_JOGANGLE_SYMBOL
1070
   384
1040
0.7853981633974483
  0
DIMSTYLE
105
C4F5
330
A
100
AcDbSymbolTableRecord
100
AcDbDimStyleTableRecord
  2
AM_ISO$SF
 70
     0
  4
"
 41
2.5
 42
1.0
 43
10.0
 44
1.0
 47
0.1
 48
0.1
 73
     0
 74
     0
 75
     1
 76
     1
 77
     1
 78
     8
 79
     2
140
3.5
141
0.0
143
0.0393701
146
0.71
147
1.5
172
     1
176
   256
177
   256
178
     2
271
     2
272
     3
274
     4
283
     0
284
     8
340
11
371
    -1
372
    -1
1001
ACAD_DSTYLE_DIMARC_LENGTH_SYMBOL
1070
   379
1070
     1
1001
ACAD_DSTYLE_DIMJOGGED_JOGANGLE_SYMBOL
1070
   384
1040
0.7853981633974483
  0
DIMSTYLE
105
C4F6
330
A
100
AcDbSymbolTableRecord
100
AcDbDimStyleTableRecord
  2
AM_ISO$SH
 70
     0
  4
"
 41
2.5
 42
1.0
 43
10.0
 44
1.0
 47
0.1
 48
0.1
 73
     0
 74
     0
 75
     1
 76
     1
 77
     1
 78
     8
 79
     2
140
3.5
141
0.0
143
0.0393701
144
2.0
146
0.71
147
1.5
172
     1
173
     1
176
   256
177
   256
178
     2
271
     2
272
     3
274
     4
283
     0
284
     8
340
11
343
78
371
    -1
372
    -1
1001
ACAD_DSTYLE_DIMARC_LENGTH_SYMBOL
1070
   379
1070
     1
1001
ACAD_DSTYLE_DIMJOGGED_JOGANGLE_SYMBOL
1070
   384
1040
0.7853981633974483
  0
ENDTAB
  0
TABLE
  2
BLOCK_RECORD
  5
1
330
0
100
AcDbSymbolTable
 70
     6
  0
BLOCK_RECORD
  5
1F
102
{ACAD_XDICTIONARY
360
218
102
}
330
1
100
AcDbSymbolTableRecord
100
AcDbBlockTableRecord
  2
*Model_Space
340
22
  0
BLOCK_RECORD
  5
1B
330
1
100
AcDbSymbolTableRecord
100
AcDbBlockTableRecord
  2
*Paper_Space
340
1E
  0
BLOCK_RECORD
  5
23
330
1
100
AcDbSymbolTableRecord
100
AcDbBlockTableRecord
  2
*Paper_Space0
340
26
  0
BLOCK_RECORD
  5
6D
330
1
100
AcDbSymbolTableRecord
100
AcDbBlockTableRecord
  2
_Open30
340
0
  0
BLOCK_RECORD
  5
78
330
1
100
AcDbSymbolTableRecord
100
AcDbBlockTableRecord
  2
GENAXEH
340
0
  0
BLOCK_RECORD
  5
44D
330
1
100
AcDbSymbolTableRecord
100
AcDbBlockTableRecord
  2
_Open
340
0
  0
BLOCK_RECORD
  5
11920
330
1
100
AcDbSymbolTableRecord
100
AcDbBlockTableRecord
  2
*D4
340
0
  0
ENDTAB
  0
ENDSEC
  0
SECTION
  2
BLOCKS
  0
BLOCK
  5
20
330
1F
100
AcDbEntity
  8
0
100
AcDbBlockBegin
  2
*Model_Space
 70
     0
 10
0.0
 20
0.0
 30
0.0
  3
*Model_Space
  1

  0
ENDBLK
  5
21
330
1F
100
AcDbEntity
  8
0
100
AcDbBlockEnd
  0
BLOCK
  5
1C
330
1B
100
AcDbEntity
 67
     1
  8
0
100
AcDbBlockBegin
  2
*Paper_Space
 70
     0
 10
0.0
 20
0.0
 30
0.0
  3
*Paper_Space
  1

  0
ENDBLK
  5
1D
330
1B
100
AcDbEntity
 67
     1
  8
0
100
AcDbBlockEnd
  0
BLOCK
  5
24
330
23
100
AcDbEntity
 67
     1
  8
0
100
AcDbBlockBegin
  2
*Paper_Space0
 70
     0
 10
0.0
 20
0.0
 30
0.0
  3
*Paper_Space0
  1

  0
VIEWPORT
  5
D3D3
102
{ACAD_XDICTIONARY
360
12183
102
}
330
23
100
AcDbEntity
 67
     1
  8
AM_VIEWS
100
AcDbViewport
 10
0.0
 20
0.0
 30
0.0
 40
0.0
 41
0.0
 68
     0
 69
     0
 12
0.0
 22
0.0
 13
0.0
 23
0.0
 14
10.0
 24
10.0
 15
10.0
 25
10.0
 16
0.0
 26
0.0
 36
1.0
 17
0.0
 27
0.0
 37
0.0
 42
50.0
 43
0.0
 44
0.0
 45
0.0
 50
0.0
 51
0.0
 72
   100
 90
    32800
  1

281
     0
 71
     1
 74
     0
110
0.0
120
0.0
130
0.0
111
1.0
121
0.0
131
0.0
112
0.0
122
1.0
132
0.0
 79
     0
146
0.0
1001
GENIUS_GENOBJ-N-SDF_13
1002
{
1000
OWNER
1000
GEN
1002
}
1001
GENIUS_GENODEF_13
1002
{
1000
HIER
1070
     0
1002
}
1002
{
1000
MANEDIT
1070
     0
1002
}
1002
{
1000
NOSEL
1070
     0
1002
}
1002
{
1000
BEHIND
1070
     0
1002
}
1002
{
1000
OTHER
1070
     0
1002
}
1002
{
1000
REACTOR
1002
}
1001
GENIUS_GENSCREG_15
1000
PF
1040
1.0
1000
DF
1040
1.0
1000
MIN
1011
0.0
1021
0.0
1031
0.0
1000
MAX
1011
0.0
1021
0.0
1031
0.0
1000
FLAGS
1070
     2
  0
ENDBLK
  5
25
330
23
100
AcDbEntity
 67
     1
  8
0
100
AcDbBlockEnd
  0
BLOCK
  5
12127
330
6D
100
AcDbEntity
  8
0
100
AcDbBlockBegin
  2
_Open30
 70
     0
 10
0.0
 20
0.0
 30
0.0
  3
_Open30
  1

  0
LINE
  5
12128
330
6D
100
AcDbEntity
  8
0
 62
     0
370
    -2
100
AcDbLine
 10
-1.0
 20
0.26794919
 30
0.0
 11
0.0
 21
0.0
 31
0.0
  0
LINE
  5
12129
330
6D
100
AcDbEntity
  8
0
 62
     0
370
    -2
100
AcDbLine
 10
0.0
 20
0.0
 30
0.0
 11
-1.0
 21
-0.26794919
 31
0.0
  0
LINE
  5
1212A
330
6D
100
AcDbEntity
  8
0
 62
     0
370
    -2
100
AcDbLine
 10
0.0
 20
0.0
 30
0.0
 11
-1.0
 21
0.0
 31
0.0
  0
ENDBLK
  5
1212B
330
6D
100
AcDbEntity
  8
0
100
AcDbBlockEnd
  0
BLOCK
  5
120E1
330
78
100
AcDbEntity
  8
0
100
AcDbBlockBegin
  2
GENAXEH
 70
     0
 10
0.0
 20
0.0
 30
0.0
  3
GENAXEH
  1

  0
LINE
  5
120E2
330
78
100
AcDbEntity
  8
0
100
AcDbLine
 10
-1.0
 20
0.0
 30
0.0
 11
1.0
 21
0.0
 31
0.0
  0
ENDBLK
  5
120E3
330
78
100
AcDbEntity
  8
0
100
AcDbBlockEnd
  0
BLOCK
  5
1211C
330
44D
100
AcDbEntity
  8
0
100
AcDbBlockBegin
  2
_Open
 70
     0
 10
0.0
 20
0.0
 30
0.0
  3
_Open
  1

  0
LINE
  5
1211D
330
44D
100
AcDbEntity
  8
outline
 62
     0
370
    -2
100
AcDbLine
 10
-1.0
 20
0.1666666666666666
 30
0.0
 11
0.0
 21
0.0
 31
0.0
  0
LINE
  5
1211F
330
44D
100
AcDbEntity
  8
outline
 62
     0
370
    -2
100
AcDbLine
 10
-1.0
 20
-0.1666666666666666
 30
0.0
 11
0.0
 21
0.0
 31
0.0
  0
LINE
  5
12120
330
44D
100
AcDbEntity
  8
outline
 62
     0
370
    -2
100
AcDbLine
 10
0.0
 20
0.0
 30
0.0
 11
-1.0
 21
0.0
 31
0.0
  0
ENDBLK
  5
12121
330
44D
100
AcDbEntity
  8
0
100
AcDbBlockEnd
  0
BLOCK
  5
1192A
330
11920
100
AcDbEntity
  8
0
100
AcDbBlockBegin
  2
*D4
 70
     1
 10
0.0
 20
0.0
 30
0.0
  3
*D4
  1

  0
LINE
  5
1192C
330
11920
100
AcDbEntity
  8
PV0001_1
 62
     7
370
    -2
100
AcDbLine
 10
284.0000012365349
 20
312.7499994081909
 30
0.0
 11
284.0000012365349
 21
289.6329644960909
 31
0.0
  0
LINE
  5
1192D
330
11920
100
AcDbEntity
  8
PV0001_1
 62
     7
370
    -2
100
AcDbLine
 10
884.0000012365349
 20
312.4999994081909
 30
0.0
 11
884.0000012365349
 21
289.6329644960909
 31
0.0
  0
LINE
  5
1192E
330
11920
100
AcDbEntity
  8
PV0001_1
 62
     7
370
    -2
100
AcDbLine
 10
287.0000012365349
 20
291.6329644960909
 30
0.0
 11
881.0000012365348
 21
291.6329644960909
 31
0.0
  0
INSERT
  5
1192F
330
11920
100
AcDbEntity
  8
PV0001_1
 62
     7
370
    -2
100
AcDbBlockReference
  2
_Open
 10
284.0000012365349
 20
291.6329644960909
 30
0.0
 41
3.0
 42
3.0
 43
3.0
 50
180.0
  0
INSERT
  5
11930
330
11920
100
AcDbEntity
  8
PV0001_1
 62
     7
370
    -2
100
AcDbBlockReference
  2
_Open
 10
884.0000012365349
 20
291.6329644960909
 30
0.0
 41
3.0
 42
3.0
 43
3.0
  0
MTEXT
  5
11931
330
11920
100
AcDbEntity
  8
PV0001_1
 62
     7
100
AcDbMText
 10
584.0000012365349
 20
293.9329644960909
 30
0.0
 40
3.2
 41
0.0
 71
     5
 72
     1
  1
\A1;L
  7
DIM
 73
     1
 44
1.0
1001
ACAD
1000
MTEXTBEGIN
1070
    73
1070
     1
1070
    44
1040
1.0
1070
    74
1070
     0
1000
MTEXTEND
  0
POINT
  5
11932
330
11920
100
AcDbEntity
  8
Defpoints
 62
     0
100
AcDbPoint
 10
284.0000012365349
 20
313.7499994081909
 30
0.0
  0
POINT
  5
11933
330
11920
100
AcDbEntity
  8
Defpoints
 62
     0
100
AcDbPoint
 10
884.0000012365349
 20
313.4999994081909
 30
0.0
  0
POINT
  5
11934
330
11920
100
AcDbEntity
  8
Defpoints
 62
     0
100
AcDbPoint
 10
884.0000012365349
 20
291.6329644960909
 30
0.0
  0
ENDBLK
  5
1192B
330
11920
100
AcDbEntity
  8
0
100
AcDbBlockEnd
  0
ENDSEC
  0
SECTION
  2
ENTITIES
  0
LINE
  5
116E0
330
1F
100
AcDbEntity
  8
0
100
AcDbLine
 10
0.0000012365348994
 20
-0.0000005918091119
 30
0.0
 11
1061.000001236535
 21
-0.0000005918091119
 31
0.0
  0
MTEXT
  5
116E1
330
1F
100
AcDbEntity
  8
PV0001_1
 62
     7
370
    25
100
AcDbMText
 10
239.7344871011704
 20
416.2285722536498
 30
0.0
 40
4.799999999999999
 41
0.0
 71
     4
 72
     5
  1
\T1.4;\W0.61; 1300
 73
     1
 44
1.0
1001
ACAD
1000
MTEXTBEGIN
1070
    73
1070
     1
1070
    44
1040
1.0
1070
    74
1070
     0
1000
MTEXTEND
  0
MTEXT
  5
116E2
330
1F
100
AcDbEntity
  8
PV0001_1
 62
     7
370
    25
100
AcDbMText
 10
235.828495129677
 20
421.4999994081908
 30
0.0
 40
3.2
 41
0.0
 71
     4
 72
     5
  1
\T1.40;\W0.61;L
 73
     1
 44
1.0
1001
ACAD
1000
MTEXTBEGIN
1070
    73
1070
     1
1070
    44
1040
1.0
1070
    74
1070
     0
1000
MTEXTEND
  0
MTEXT
  5
116E3
330
1F
100
AcDbEntity
  8
PV0001_1
 62
     7
370
    25
100
AcDbMText
 10
111.828495129677
 20
421.4999994081908
 30
0.0
 40
3.2
 41
0.0
 71
     4
 72
     5
  1
\T1.40;\W0.61;MODEL
 73
     1
 44
1.0
1001
ACAD
1000
MTEXTBEGIN
1070
    73
1070
     1
1070
    44
1040
1.0
1070
    74
1070
     0
1000
MTEXTEND
  0
MTEXT
  5
116E4
330
1F
100
AcDbEntity
  8
PV0001_1
 62
     7
370
    25
100
AcDbMText
 10
119.5427451578104
 20
415.9999994081909
 30
0.0
 40
4.799999999999999
 41
0.0
 71
     4
 72
     5
  1
\T1.4;\W0.61;GG1510DS-BALR-1300A
 73
     1
 44
1.0
1001
ACAD
1000
MTEXTBEGIN
1070
    73
1070
     1
1070
    44
1040
1.0
1070
    74
1070
     0
1000
MTEXTEND
  0
MTEXT
  5
116E5
330
1F
100
AcDbEntity
  8
PV0001_1
 62
     7
370
    25
100
AcDbMText
 10
239.7344871011704
 20
428.2285703463018
 30
0.0
 40
4.799999999999999
 41
0.0
 71
     4
 72
     5
  1
\T1.4;\W0.61; 1100
 73
     1
 44
1.0
1001
ACAD
1000
MTEXTBEGIN
1070
    73
1070
     1
1070
    44
1040
1.0
1070
    74
1070
     0
1000
MTEXTEND
  0
MTEXT
  5
116E6
330
1F
100
AcDbEntity
  8
PV0001_1
 62
     7
370
    25
100
AcDbMText
 10
235.828495129677
 20
433.4999994081909
 30
0.0
 40
3.2
 41
0.0
 71
     4
 72
     5
  1
\T1.40;\W0.61;L
 73
     1
 44
1.0
1001
ACAD
1000
MTEXTBEGIN
1070
    73
1070
     1
1070
    44
1040
1.0
1070
    74
1070
     0
1000
MTEXTEND
  0
MTEXT
  5
116E7
330
1F
100
AcDbEntity
  8
PV0001_1
 62
     7
370
    25
100
AcDbMText
 10
111.828495129677
 20
433.4999994081909
 30
0.0
 40
3.2
 41
0.0
 71
     4
 72
     5
  1
\T1.40;\W0.61;MODEL
 73
     1
 44
1.0
1001
ACAD
1000
MTEXTBEGIN
1070
    73
1070
     1
1070
    44
1040
1.0
1070
    74
1070
     0
1000
MTEXTEND
  0
MTEXT
  5
116E8
330
1F
100
AcDbEntity
  8
PV0001_1
 62
     7
370
    25
100
AcDbMText
 10
119.5427451578104
 20
427.9999994081909
 30
0.0
 40
4.799999999999999
 41
0.0
 71
     4
 72
     5
  1
\T1.4;\W0.61;GG1510DS-BALR-1100A
 73
     1
 44
1.0
1001
ACAD
1000
MTEXTBEGIN
1070
    73
1070
     1
1070
    44
1040
1.0
1070
    74
1070
     0
1000
MTEXTEND
  0
MTEXT
  5
116ED
330
1F
100
AcDbEntity
  8
PV0001_1
 62
     7
370
    25
100
AcDbMText
 10
244.1377463785104
 20
440.2659086031378
 30
0.0
 40
4.799999999999999
 41
0.0
 71
     4
 72
     5
  1
\T1.40;\W0.61;900
 73
     1
 44
1.0
1001
ACAD
1000
MTEXTBEGIN
1070
    73
1070
     1
1070
    44
1040
1.0
1070
    74
1070
     0
1000
MTEXTEND
  0
MTEXT
  5
116EE
330
1F
100
AcDbEntity
  8
PV0001_1
 62
     7
370
    25
100
AcDbMText
 10
235.828495129677
 20
445.4999994081909
 30
0.0
 40
3.2
 41
0.0
 71
     4
 72
     5
  1
\T1.40;\W0.61;L
 73
     1
 44
1.0
1001
ACAD
1000
MTEXTBEGIN
1070
    73
1070
     1
1070
    44
1040
1.0
1070
    74
1070
     0
1000
MTEXTEND
  0
MTEXT
  5
116EF
330
1F
100
AcDbEntity
  8
PV0001_1
 62
     7
370
    25
100
AcDbMText
 10
111.828495129677
 20
445.4999994081909
 30
0.0
 40
3.2
 41
0.0
 71
     4
 72
     5
  1
\T1.40;\W0.61;MODEL
 73
     1
 44
1.0
1001
ACAD
1000
MTEXTBEGIN
1070
    73
1070
     1
1070
    44
1040
1.0
1070
    74
1070
     0
1000
MTEXTEND
  0
MTEXT
  5
116F0
330
1F
100
AcDbEntity
  8
PV0001_1
 62
     7
370
    25
100
AcDbMText
 10
119.5427451578104
 20
439.9999994081908
 30
0.0
 40
4.799999999999999
 41
0.0
 71
     4
 72
     5
  1
\T1.4;\W0.61;GG1510DS-BALR-0900A
 73
     1
 44
1.0
1001
ACAD
1000
MTEXTBEGIN
1070
    73
1070
     1
1070
    44
1040
1.0
1070
    74
1070
     0
1000
MTEXTEND
  0
MTEXT
  5
116F1
330
1F
100
AcDbEntity
  8
PV0001_1
 62
     7
370
    25
100
AcDbMText
 10
243.5427451578104
 20
451.9999994081908
 30
0.0
 40
4.799999999999999
 41
0.0
 71
     4
 72
     5
  1
\T1.40;\W0.61;600
 73
     1
 44
1.0
1001
ACAD
1000
MTEXTBEGIN
1070
    73
1070
     1
1070
    44
1040
1.0
1070
    74
1070
     0
1000
MTEXTEND
  0
MTEXT
  5
116F2
330
1F
100
AcDbEntity
  8
PV0001_1
 62
     7
370
    25
100
AcDbMText
 10
235.828495129677
 20
457.4999994081909
 30
0.0
 40
3.2
 41
0.0
 71
     4
 72
     5
  1
\T1.40;\W0.61;L
 73
     1
 44
1.0
1001
ACAD
1000
MTEXTBEGIN
1070
    73
1070
     1
1070
    44
1040
1.0
1070
    74
1070
     0
1000
MTEXTEND
  0
MTEXT
  5
116F3
330
1F
100
AcDbEntity
  8
PV0001_1
 62
     7
370
    25
100
AcDbMText
 10
49.82849512968105
 20
457.4999994081909
 30
0.0
 40
3.2
 41
0.0
 71
     4
 72
     5
  1
\T1.40;\W0.61;FILE\U+3000NAME
 73
     1
 44
1.0
1001
ACAD
1000
MTEXTBEGIN
1070
    73
1070
     1
1070
    44
1040
1.0
1070
    74
1070
     0
1000
MTEXTEND
  0
MTEXT
  5
116F4
330
1F
100
AcDbEntity
  8
PV0001_1
 62
     7
370
    25
100
AcDbMText
 10
65.54274515781442
 20
451.9999994081908
 30
0.0
 40
4.799999999999999
 41
0.0
 71
     4
 72
     5
  1
\T1.4;\W0.61;GG1510DS
 73
     1
 44
1.0
1001
ACAD
1000
MTEXTBEGIN
1070
    73
1070
     1
1070
    44
1040
1.0
1070
    74
1070
     0
1000
MTEXTEND
  0
MTEXT
  5
116F5
330
1F
100
AcDbEntity
  8
PV0001_1
 62
     7
370
    25
100
AcDbMText
 10
111.828495129677
 20
457.4999994081909
 30
0.0
 40
3.2
 41
0.0
 71
     4
 72
     5
  1
\T1.40;\W0.61;MODEL
 73
     1
 44
1.0
1001
ACAD
1000
MTEXTBEGIN
1070
    73
1070
     1
1070
    44
1040
1.0
1070
    74
1070
     0
1000
MTEXTEND
  0
MTEXT
  5
116F6
330
1F
100
AcDbEntity
  8
PV0001_1
 62
     7
370
    25
100
AcDbMText
 10
119.5427451578104
 20
451.9999994081908
 30
0.0
 40
4.799999999999999
 41
0.0
 71
     4
 72
     5
  1
\T1.4;\W0.61;GG1510DS-BALR-0600A
 73
     1
 44
1.0
1001
ACAD
1000
MTEXTBEGIN
1070
    73
1070
     1
1070
    44
1040
1.0
1070
    74
1070
     0
1000
MTEXTEND
  0
ARC
  5
116FD
330
1F
100
AcDbEntity
  8
PV0001_1
  6
Continuous
 48
0.5
370
    50
100
AcDbCircle
 10
204.4999859777449
 20
320.9999994081909
 30
0.0
 40
29.0
100
AcDbArc
 50
54.11170241637485
 51
59.5496736372974
  0
ARC
  5
116FE
330
1F
100
AcDbEntity
  8
PV0001_1
  6
Continuous
 48
0.5
370
    50
100
AcDbCircle
 10
204.4999859777449
 20
320.9999994081909
 30
0.0
 40
29.0
100
AcDbArc
 50
120.4503450320402
 51
125.8883094227744
  0
ARC
  5
116FF
330
1F
100
AcDbEntity
  8
PV0001_1
  6
Continuous
 48
0.5
370
    50
100
AcDbCircle
 10
204.4999859777449
 20
320.9999994081909
 30
0.0
 40
29.0
100
AcDbArc
 50
234.1116905772255
 51
239.5496549679598
  0
ARC
  5
11700
330
1F
100
AcDbEntity
  8
PV0001_1
  6
Continuous
 48
0.5
370
    50
100
AcDbCircle
 10
204.4999859777449
 20
320.9999994081909
 30
0.0
 40
29.0
100
AcDbArc
 50
300.4503127023289
 51
305.8882975836251
  0
CIRCLE
  5
11701
330
1F
100
AcDbEntity
  8
PV0001_1
  6
Continuous
 48
0.5
370
    50
100
AcDbCircle
 10
215.7500012365349
 20
301.5144342226509
 30
0.0
 40
4.75
  0
CIRCLE
  5
11702
330
1F
100
AcDbEntity
  8
PV0001_1
  6
Continuous
 48
0.5
370
    50
100
AcDbCircle
 10
193.2499859777449
 20
301.5144342226509
 30
0.0
 40
4.75
  0
CIRCLE
  5
11703
330
1F
100
AcDbEntity
  8
PV0001_1
  6
Continuous
 48
0.5
370
    50
100
AcDbCircle
 10
193.2499859777449
 20
340.4855722231409
 30
0.0
 40
4.75
  0
CIRCLE
  5
11704
330
1F
100
AcDbEntity
  8
PV0001_1
  6
Continuous
 48
0.5
370
    50
100
AcDbCircle
 10
215.7499859777449
 20
340.4855722231409
 30
0.0
 40
4.75
  0
CIRCLE
  5
11705
330
1F
100
AcDbEntity
  8
PV0001_1
  6
CENTER2
370
    25
100
AcDbCircle
 10
204.4999859777449
 20
320.9999994081909
 30
0.0
 40
22.5
  0
CIRCLE
  5
11706
330
1F
100
AcDbEntity
  8
PV0001_1
  6
Continuous
 48
0.5
370
    50
100
AcDbCircle
 10
215.7500012365349
 20
301.5144342226509
 30
0.0
 40
3.0
  0
CIRCLE
  5
11707
330
1F
100
AcDbEntity
  8
PV0001_1
  6
Continuous
 48
0.5
370
    50
100
AcDbCircle
 10
193.2499859777449
 20
301.5144342226509
 30
0.0
 40
3.0
  0
CIRCLE
  5
11708
330
1F
100
AcDbEntity
  8
PV0001_1
  6
Continuous
 48
0.5
370
    50
100
AcDbCircle
 10
193.2499859777449
 20
340.4855722231409
 30
0.0
 40
3.0
  0
CIRCLE
  5
11709
330
1F
100
AcDbEntity
  8
PV0001_1
  6
Continuous
 48
0.5
370
    50
100
AcDbCircle
 10
215.7499859777449
 20
340.4855722231409
 30
0.0
 40
3.0
  0
CIRCLE
  5
1170A
330
1F
100
AcDbEntity
  8
PV0001_1
  6
Continuous
370
    50
100
AcDbCircle
 10
204.4999859777449
 20
320.9999994081909
 30
0.0
 40
7.5
  0
CIRCLE
  5
11741
330
1F
100
AcDbEntity
  8
PV0001_1
  6
Continuous
 48
0.5
370
   100
100
AcDbCircle
 10
266.3079846349649
 20
453.4999383730346
 30
0.0
 40
1.6200001239777
  0
ARC
  5
11742
330
1F
100
AcDbEntity
  8
PV0001_1
  6
Continuous
 48
0.5
370
    50
100
AcDbCircle
 10
41.3225110021599
 20
451.9000238222534
 30
0.0
 40
0.2000000029802
100
AcDbArc
 50
18.43488035289785
 51
89.99998201390964
  0
ARC
  5
11743
330
1F
100
AcDbEntity
  8
PV0001_1
  6
Continuous
 48
0.5
370
    50
100
AcDbCircle
 10
38.2774975744249
 20
451.9000238222534
 30
0.0
 40
0.2000000029802
100
AcDbArc
 50
89.99998201390964
 51
161.5650102503891
  0
ARC
  5
11744
330
1F
100
AcDbEntity
  8
PV0001_1
  6
Continuous
 48
0.5
370
    50
100
AcDbCircle
 10
40.25586061153489
 20
455.1000055117064
 30
0.0
 40
0.2000000029802
100
AcDbArc
 50
18.43505281517103
 51
89.99998201390964
  0
CIRCLE
  5
11745
330
1F
100
AcDbEntity
  8
PV0001_1
  6
Continuous
 48
0.5
370
   100
100
AcDbCircle
 10
266.3079846349649
 20
453.4999383730346
 30
0.0
 40
2.700000047683699
  0
ARC
  5
11746
330
1F
100
AcDbEntity
  8
PV0001_1
  6
Continuous
 48
0.5
370
    50
100
AcDbCircle
 10
7.472382828331799
 20
453.8895257753783
 30
0.0
 40
0.2000000029802
100
AcDbArc
 50
135.0000549831356
 51
220.6012585677745
  0
ARC
  5
11747
330
1F
100
AcDbEntity
  8
PV0001_1
  6
Continuous
 48
0.5
370
    50
100
AcDbCircle
 10
5.702180191612999
 20
454.2999872011596
 30
0.0
 40
0.2000000029802
100
AcDbArc
 50
270.0000179860904
 51
322.1249959578266
  0
ARC
  5
11748
330
1F
100
AcDbEntity
  8
PV0001_1
  6
Continuous
 48
0.5
370
    50
100
AcDbCircle
 10
5.699998184777099
 20
453.2999872011595
 30
0.0
 40
0.2000000029802
100
AcDbArc
 50
36.86990755486311
 51
89.99998201390964
  0
ARC
  5
11749
330
1F
100
AcDbEntity
  8
PV0001_1
  6
Continuous
 48
0.5
370
    50
100
AcDbCircle
 10
4.800004288292699
 20
454.2999872011596
 30
0.0
 40
0.2000000029802
100
AcDbArc
 50
179.9999776882002
 51
270.0000280040004
  0
ARC
  5
1174A
330
1F
100
AcDbEntity
  8
PV0001_1
  6
Continuous
 48
0.5
370
    50
100
AcDbCircle
 10
4.800004288292699
 20
453.2999872011595
 30
0.0
 40
0.2000000029802
100
AcDbArc
 50
89.99998201390964
 51
179.9999640278186
  0
ARC
  5
1174B
330
1F
100
AcDbEntity
  8
PV0001_1
  6
Continuous
 48
0.5
370
    50
100
AcDbCircle
 10
10.8000042882919
 20
452.2999872011595
 30
0.0
 40
1.2000000476837
100
AcDbArc
 50
179.9999776882002
 51
270.0000280040004
  0
ARC
  5
1174C
330
1F
100
AcDbEntity
  8
PV0001_1
  6
Continuous
 48
0.5
370
    50
100
AcDbCircle
 10
14.6000073400499
 20
452.2999872011595
 30
0.0
 40
1.2000000476837
100
AcDbArc
 50
270.0000179860904
 51
0.0
  0
ARC
  5
1174D
330
1F
100
AcDbEntity
  8
PV0001_1
  6
Continuous
 48
0.5
370
    50
100
AcDbCircle
 10
13.8000042882919
 20
452.4999994081908
 30
0.0
 40
0.6000000238419
100
AcDbArc
 50
270.0000179860904
 51
0.0
  0
ARC
  5
1174E
330
1F
100
AcDbEntity
  8
PV0001_1
  6
Continuous
 48
0.5
370
    50
100
AcDbCircle
 10
11.6000073400499
 20
452.4999994081908
 30
0.0
 40
0.6000000238419
100
AcDbArc
 50
179.9999776882002
 51
270.0000280040004
  0
ARC
  5
1174F
330
1F
100
AcDbEntity
  8
PV0001_1
  6
Continuous
 48
0.5
370
    50
100
AcDbCircle
 10
20.5000012365349
 20
451.1000055117064
 30
0.0
 40
2.0
100
AcDbArc
 50
0.0
 51
54.42673123146029
  0
ARC
  5
11750
330
1F
100
AcDbEntity
  8
PV0001_1
  6
Continuous
 48
0.5
370
    50
100
AcDbCircle
 10
21.0000012365349
 20
454.4000238222533
 30
0.0
 40
1.5
100
AcDbArc
 50
0.0
 51
89.99998201390964
  0
ARC
  5
11751
330
1F
100
AcDbEntity
  8
PV0001_1
  6
Continuous
 48
0.5
370
    50
100
AcDbCircle
 10
21.0000012365349
 20
454.4000238222533
 30
0.0
 40
1.5
100
AcDbArc
 50
297.3049900989714
 51
0.0
  0
ARC
  5
11752
330
1F
100
AcDbEntity
  8
PV0001_1
  6
Continuous
 48
0.5
370
    50
100
AcDbCircle
 10
18.3000042882919
 20
452.2999872011595
 30
0.0
 40
0.4000000059605
100
AcDbArc
 50
89.99998201390964
 51
179.9999640278186
  0
ARC
  5
11753
330
1F
100
AcDbEntity
  8
PV0001_1
  6
Continuous
 48
0.5
370
    50
100
AcDbCircle
 10
20.1999981847769
 20
452.1000055117065
 30
0.0
 40
0.6000000238419
100
AcDbArc
 50
0.0
 51
89.99998201390964
  0
ARC
  5
11754
330
1F
100
AcDbEntity
  8
PV0001_1
  6
Continuous
 48
0.5
370
    50
100
AcDbCircle
 10
21.7798321691519
 20
452.8894037050658
 30
0.0
 40
0.2000000029802
100
AcDbArc
 50
117.3049472966012
 51
234.4267362404176
  0
ARC
  5
11755
330
1F
100
AcDbEntity
  8
PV0001_1
  6
Continuous
 48
0.5
370
    50
100
AcDbCircle
 10
18.1000073400499
 20
455.1000055117064
 30
0.0
 40
0.2000000029802
100
AcDbArc
 50
89.99998201390964
 51
179.9999640278186
  0
ARC
  5
11756
330
1F
100
AcDbEntity
  8
PV0001_1
  6
Continuous
 48
0.5
370
    50
100
AcDbCircle
 10
18.1000073400499
 20
453.6000055117065
 30
0.0
 40
0.2000000029802
100
AcDbArc
 50
179.9999776882002
 51
270.0000280040004
  0
ARC
  5
11757
330
1F
100
AcDbEntity
  8
PV0001_1
  6
Continuous
 48
0.5
370
    50
100
AcDbCircle
 10
20.1999981847769
 20
453.9999994081909
 30
0.0
 40
0.6000000238419
100
AcDbArc
 50
270.0000179860904
 51
0.0
  0
ARC
  5
11758
330
1F
100
AcDbEntity
  8
PV0001_1
  6
Continuous
 48
0.5
370
    50
100
AcDbCircle
 10
20.1999981847769
 20
454.700011615222
 30
0.0
 40
0.6000000238419
100
AcDbArc
 50
0.0
 51
89.99998201390964
  0
ARC
  5
11759
330
1F
100
AcDbEntity
  8
PV0001_1
  6
Continuous
 48
0.5
370
    50
100
AcDbCircle
 10
24.1999981847769
 20
452.4999994081908
 30
0.0
 40
1.399999976158099
100
AcDbArc
 50
179.9999776882002
 51
270.0000280040004
  0
ARC
  5
1175A
330
1F
100
AcDbEntity
  8
PV0001_1
  6
Continuous
 48
0.5
370
    50
100
AcDbCircle
 10
28.0000012365349
 20
452.4999994081908
 30
0.0
 40
1.399999976158099
100
AcDbArc
 50
270.0000179860904
 51
0.0
  0
ARC
  5
1175B
330
1F
100
AcDbEntity
  8
PV0001_1
  6
Continuous
 48
0.5
370
    50
100
AcDbCircle
 10
28.0000012365349
 20
454.4999994081909
 30
0.0
 40
1.399999976158099
100
AcDbArc
 50
0.0
 51
89.99998201390964
  0
ARC
  5
1175C
330
1F
100
AcDbEntity
  8
PV0001_1
  6
Continuous
 48
0.5
370
    50
100
AcDbCircle
 10
24.1999981847769
 20
454.4999994081909
 30
0.0
 40
1.399999976158099
100
AcDbArc
 50
89.99998201390964
 51
179.9999640278186
  0
ARC
  5
1175D
330
1F
100
AcDbEntity
  8
PV0001_1
  6
Continuous
 48
0.5
370
    50
100
AcDbCircle
 10
25.1999981847769
 20
454.4999994081909
 30
0.0
 40
0.8000000119209
100
AcDbArc
 50
89.99998201390964
 51
179.9999640278186
  0
ARC
  5
1175E
330
1F
100
AcDbEntity
  8
PV0001_1
  6
Continuous
 48
0.5
370
    50
100
AcDbCircle
 10
25.1999981847769
 20
452.7000116152221
 30
0.0
 40
0.8000000119209
100
AcDbArc
 50
179.9999776882002
 51
270.0000280040004
  0
ARC
  5
1175F
330
1F
100
AcDbEntity
  8
PV0001_1
  6
Continuous
 48
0.5
370
    50
100
AcDbCircle
 10
27.0000012365349
 20
452.7000116152221
 30
0.0
 40
0.8000000119209
100
AcDbArc
 50
270.0000179860904
 51
0.0
  0
ARC
  5
11760
330
1F
100
AcDbEntity
  8
PV0001_1
  6
Continuous
 48
0.5
370
    50
100
AcDbCircle
 10
27.0000012365349
 20
454.4999994081909
 30
0.0
 40
0.8000000119209
100
AcDbArc
 50
0.0
 51
89.99998201390964
  0
ARC
  5
11761
330
1F
100
AcDbEntity
  8
PV0001_1
  6
Continuous
 48
0.5
370
    50
100
AcDbCircle
 10
31.6000073400499
 20
455.1000055117064
 30
0.0
 40
0.2000000029802
100
AcDbArc
 50
89.99998201390964
 51
179.9999640278186
  0
ARC
  5
11762
330
1F
100
AcDbEntity
  8
PV0001_1
  6
Continuous
 48
0.5
370
    50
100
AcDbCircle
 10
31.6000073400499
 20
452.1000055117065
 30
0.0
 40
0.2000000029802
100
AcDbArc
 50
179.9999776882002
 51
270.0000280040004
  0
ARC
  5
11763
330
1F
100
AcDbEntity
  8
PV0001_1
  6
Continuous
 48
0.5
370
    50
100
AcDbCircle
 10
33.8000042882919
 20
452.7000116152221
 30
0.0
 40
0.8000000119209
100
AcDbArc
 50
270.0000179860904
 51
0.0
  0
ARC
  5
11764
330
1F
100
AcDbEntity
  8
PV0001_1
  6
Continuous
 48
0.5
370
    50
100
AcDbCircle
 10
33.8000042882919
 20
454.4999994081909
 30
0.0
 40
0.8000000119209
100
AcDbArc
 50
0.0
 51
89.99998201390964
  0
ARC
  5
11765
330
1F
100
AcDbEntity
  8
PV0001_1
  6
Continuous
 48
0.5
370
    50
100
AcDbCircle
 10
34.8000042882919
 20
452.4999994081908
 30
0.0
 40
1.399999976158099
100
AcDbArc
 50
270.0000179860904
 51
0.0
  0
ARC
  5
11766
330
1F
100
AcDbEntity
  8
PV0001_1
  6
Continuous
 48
0.5
370
    50
100
AcDbCircle
 10
34.8000042882919
 20
454.4999994081909
 30
0.0
 40
1.399999976158099
100
AcDbArc
 50
0.0
 51
89.99998201390964
  0
ARC
  5
11767
330
1F
100
AcDbEntity
  8
PV0001_1
  6
Continuous
 48
0.5
370
    50
100
AcDbCircle
 10
38.6774914709099
 20
453.1000055117065
 30
0.0
 40
0.2000000029802
100
AcDbArc
 50
161.5650375711489
 51
270.000000683247
  0
ARC
  5
11768
330
1F
100
AcDbEntity
  8
PV0001_1
  6
Continuous
 48
0.5
370
    50
100
AcDbCircle
 10
40.9225171056749
 20
453.1000055117065
 30
0.0
 40
0.2000000029802
100
AcDbArc
 50
270.0000179860904
 51
18.43488035289785
  0
ARC
  5
11769
330
1F
100
AcDbEntity
  8
PV0001_1
  6
Continuous
 48
0.5
370
    50
100
AcDbCircle
 10
39.3441479650499
 20
455.1000055117064
 30
0.0
 40
0.2000000029802
100
AcDbArc
 50
89.99998201390964
 51
161.5651331937951
  0
LINE
  5
1176C
330
1F
100
AcDbEntity
  8
PV0001_1
  6
Continuous
 48
0.5
370
    50
100
AcDbLine
 10
284.0000012365349
 20
328.2499994081909
 30
0.0
 11
309.0000012365349
 21
328.2499994081909
 31
0.0
  0
LINE
  5
1176D
330
1F
100
AcDbEntity
  8
PV0001_1
  6
Continuous
 48
0.5
370
    50
100
AcDbLine
 10
284.0000012365349
 20
313.7499994081909
 30
0.0
 11
309.0000012365349
 21
313.7499994081909
 31
0.0
  0
LINE
  5
1176E
330
1F
100
AcDbEntity
  8
PV0001_1
  6
Continuous
 48
0.5
370
    50
100
AcDbLine
 10
309.0000012365349
 20
328.4999994081909
 30
0.0
 11
309.0000012365349
 21
313.4999994081909
 31
0.0
  0
LINE
  5
1176F
330
1F
100
AcDbEntity
  8
PV0001_1
  6
Continuous
 48
0.5
370
    50
100
AcDbLine
 10
339.0000012365349
 20
327.2499994081909
 30
0.0
 11
344.0000012365349
 21
327.2499994081909
 31
0.0
  0
LINE
  5
11770
330
1F
100
AcDbEntity
  8
PV0001_1
  6
Continuous
 48
0.5
370
    50
100
AcDbLine
 10
339.0000012365349
 20
314.7499994081909
 30
0.0
 11
344.0000012365349
 21
314.7499994081909
 31
0.0
  0
LINE
  5
11771
330
1F
100
AcDbEntity
  8
PV0001_1
  6
CENTER2
370
    25
100
AcDbLine
 10
279.8484814611349
 20
320.9999994081909
 30
0.0
 11
890.0000012365349
 21
320.9999994081909
 31
0.0
  0
LINE
  5
11772
330
1F
100
AcDbEntity
  8
PV0001_1
  6
Continuous
 48
0.5
370
    50
100
AcDbLine
 10
884.0000012365349
 20
328.4999994081909
 30
0.0
 11
884.0000012365349
 21
313.4999994081909
 31
0.0
  0
LINE
  5
11773
330
1F
100
AcDbEntity
  8
PV0001_1
  6
Continuous
 48
0.5
370
    50
100
AcDbLine
 10
344.0000012365349
 20
313.4999994081909
 30
0.0
 11
360.0000012365349
 21
313.4999994081909
 31
0.0
  0
LINE
  5
11774
330
1F
100
AcDbEntity
  8
PV0001_1
  6
Continuous
 48
0.5
370
    50
100
AcDbLine
 10
344.0000012365349
 20
328.4999994081909
 30
0.0
 11
360.0000012365349
 21
328.4999994081909
 31
0.0
  0
LINE
  5
11775
330
1F
100
AcDbEntity
  8
PV0001_1
  6
Continuous
 48
0.5
370
    50
100
AcDbLine
 10
344.0000012365349
 20
328.4999994081909
 30
0.0
 11
344.0000012365349
 21
313.4999994081909
 31
0.0
  0
LINE
  5
11776
330
1F
100
AcDbEntity
  8
PV0001_1
  6
Continuous
 48
0.5
370
    50
100
AcDbLine
 10
339.0000012365349
 20
328.4999994081909
 30
0.0
 11
339.0000012365349
 21
313.4999994081909
 31
0.0
  0
LINE
  5
11777
330
1F
100
AcDbEntity
  8
PV0001_1
  6
Continuous
 48
0.5
370
    50
100
AcDbLine
 10
284.0000012365349
 20
328.2499994081909
 30
0.0
 11
284.0000012365349
 21
313.7499994081909
 31
0.0
  0
LINE
  5
11778
330
1F
100
AcDbEntity
  8
PV0001_1
  6
Continuous
370
    50
100
AcDbLine
 10
309.0000012365349
 20
313.4999994081909
 30
0.0
 11
339.0000012365349
 21
313.4999994081909
 31
0.0
  0
LINE
  5
11779
330
1F
100
AcDbEntity
  8
PV0001_1
  6
Continuous
 48
0.5
370
    25
100
AcDbLine
 10
344.0000012365349
 20
314.7364953798709
 30
0.0
 11
360.0000012365349
 21
314.7364953798709
 31
0.0
  0
LINE
  5
1177A
330
1F
100
AcDbEntity
  8
PV0001_1
  6
Continuous
 48
0.5
370
    25
100
AcDbLine
 10
344.0000012365349
 20
327.2635034365209
 30
0.0
 11
360.0000012365349
 21
327.2635034365209
 31
0.0
  0
LINE
  5
1177B
330
1F
100
AcDbEntity
  8
PV0001_1
  6
Continuous
370
    50
100
AcDbLine
 10
309.0000012365349
 20
328.4999994081909
 30
0.0
 11
339.0000012365349
 21
328.4999994081909
 31
0.0
  0
LINE
  5
1177C
330
1F
100
AcDbEntity
  8
PV0001_1
  6
Continuous
370
    50
100
AcDbLine
 10
412.0000012365348
 20
313.4999994081909
 30
0.0
 11
884.0000012365349
 21
313.4999994081909
 31
0.0
  0
LINE
  5
1177D
330
1F
100
AcDbEntity
  8
PV0001_1
  6
Continuous
370
    25
100
AcDbLine
 10
412.0000012365348
 20
314.7364953798709
 30
0.0
 11
884.0000012365349
 21
314.7364953798709
 31
0.0
  0
LINE
  5
1177E
330
1F
100
AcDbEntity
  8
PV0001_1
  6
Continuous
370
    25
100
AcDbLine
 10
412.0000012365348
 20
327.2635034365209
 30
0.0
 11
884.0000012365349
 21
327.2635034365209
 31
0.0
  0
LINE
  5
1177F
330
1F
100
AcDbEntity
  8
PV0001_1
  6
Continuous
370
    50
100
AcDbLine
 10
412.0000012365348
 20
328.4999994081909
 30
0.0
 11
884.0000012365349
 21
328.4999994081909
 31
0.0
  0
LINE
  5
11780
330
1F
100
AcDbEntity
  8
PV0001_1
  6
PHANTOM2
 48
0.5
370
    25
100
AcDbLine
 10
376.0427258459049
 20
310.3200982851509
 30
0.0
 11
396.8980420080149
 21
330.6474298281209
 31
0.0
  0
LINE
  5
11781
330
1F
100
AcDbEntity
  8
PV0001_1
  6
Continuous
 48
0.5
370
    50
100
AcDbLine
 10
402.0000012365349
 20
332.5217202944309
 30
0.0
 11
402.0000012365349
 21
309.4782861513609
 31
0.0
  0
LINE
  5
11782
330
1F
100
AcDbEntity
  8
PV0001_1
  6
Continuous
370
    50
100
AcDbLine
 10
372.0000012365349
 20
309.4782861513609
 30
0.0
 11
402.0000012365349
 21
309.4782861513609
 31
0.0
  0
LINE
  5
11783
330
1F
100
AcDbEntity
  8
PV0001_1
  6
Continuous
370
    50
100
AcDbLine
 10
372.0000012365349
 20
332.5217202944309
 30
0.0
 11
402.0000012365349
 21
332.5217202944309
 31
0.0
  0
LINE
  5
11784
330
1F
100
AcDbEntity
  8
PV0001_1
  6
Continuous
370
    50
100
AcDbLine
 10
412.0000012365348
 20
337.9999994081909
 30
0.0
 11
412.0000012365348
 21
303.9999994081909
 31
0.0
  0
LINE
  5
11785
330
1F
100
AcDbEntity
  8
PV0001_1
  6
Continuous
370
    50
100
AcDbLine
 10
372.0000012365349
 20
345.9999994081909
 30
0.0
 11
372.0000012365349
 21
295.9999994081909
 31
0.0
  0
LINE
  5
11786
330
1F
100
AcDbEntity
  8
PV0001_1
  6
Continuous
370
    50
100
AcDbLine
 10
360.0000012365349
 20
345.9999994081909
 30
0.0
 11
360.0000012365349
 21
295.9999994081909
 31
0.0
  0
LINE
  5
11787
330
1F
100
AcDbEntity
  8
PV0001_1
  6
Continuous
 48
0.5
370
    50
100
AcDbLine
 10
360.0000012365349
 20
345.9999994081909
 30
0.0
 11
372.0000012365349
 21
345.9999994081909
 31
0.0
  0
LINE
  5
11788
330
1F
100
AcDbEntity
  8
PV0001_1
  6
Continuous
 48
0.5
370
    50
100
AcDbLine
 10
360.0000012365349
 20
295.9999994081909
 30
0.0
 11
372.0000012365349
 21
295.9999994081909
 31
0.0
  0
LINE
  5
11789
330
1F
100
AcDbEntity
  8
PV0001_1
  6
Continuous
370
    50
100
AcDbLine
 10
372.0000012365349
 20
337.9999994081909
 30
0.0
 11
412.0000012365348
 21
337.9999994081909
 31
0.0
  0
LINE
  5
1178A
330
1F
100
AcDbEntity
  8
PV0001_1
  6
Continuous
370
    50
100
AcDbLine
 10
372.0000012365349
 20
303.9999994081909
 30
0.0
 11
412.0000012365348
 21
303.9999994081909
 31
0.0
  0
LINE
  5
1178B
330
1F
100
AcDbEntity
  8
PV0001_1
  6
CENTER2
370
    25
100
AcDbLine
 10
183.4999859777449
 20
320.9999994081909
 30
0.0
 11
225.4999859777449
 21
320.9999994081909
 31
0.0
  0
LINE
  5
1178C
330
1F
100
AcDbEntity
  8
PV0001_1
  6
CENTER2
 48
0.5
370
    25
100
AcDbLine
 10
212.7499707189549
 20
306.7105706972609
 30
0.0
 11
218.7499707189549
 21
296.3182672304609
 31
0.0
  0
LINE
  5
1178D
330
1F
100
AcDbEntity
  8
PV0001_1
  6
CENTER2
 48
0.5
370
    25
100
AcDbLine
 10
190.2499402013749
 20
296.3182824892509
 30
0.0
 11
196.2499402013749
 21
306.7106012148409
 31
0.0
  0
LINE
  5
1178E
330
1F
100
AcDbEntity
  8
PV0001_1
  6
CENTER2
 48
0.5
370
    25
100
AcDbLine
 10
190.2499402013749
 20
345.6817163271409
 30
0.0
 11
196.2499402013749
 21
335.2894052309509
 31
0.0
  0
LINE
  5
1178F
330
1F
100
AcDbEntity
  8
PV0001_1
  6
CENTER2
 48
0.5
370
    25
100
AcDbLine
 10
212.7499554601649
 20
335.2894357485309
 30
0.0
 11
218.7499554601649
 21
345.6817392153209
 31
0.0
  0
LINE
  5
11790
330
1F
100
AcDbEntity
  8
PV0001_1
  6
Continuous
370
    50
100
AcDbLine
 10
187.4999859777449
 20
344.4946817202109
 30
0.0
 11
187.4999859777449
 21
297.5053247255809
 31
0.0
  0
LINE
  5
11791
330
1F
100
AcDbEntity
  8
PV0001_1
  6
Continuous
370
    50
100
AcDbLine
 10
221.4999859777449
 20
344.4946817202109
 30
0.0
 11
221.4999859777449
 21
297.5053247255809
 31
0.0
  0
LINE
  5
11792
330
1F
100
AcDbEntity
  8
PV0001_1
  6
Continuous
 48
0.5
370
    50
100
AcDbLine
 10
189.8030407873149
 20
295.9999994081909
 30
0.0
 11
219.1969311681749
 21
295.9999994081909
 31
0.0
  0
LINE
  5
11793
330
1F
100
AcDbEntity
  8
PV0001_1
  6
Continuous
 48
0.5
370
    50
100
AcDbLine
 10
189.8030407873149
 20
345.9999994081909
 30
0.0
 11
219.1969311681749
 21
345.9999994081909
 31
0.0
  0
LINE
  5
11794
330
1F
100
AcDbEntity
  8
PV0001_1
  6
CENTER2
370
    25
100
AcDbLine
 10
204.4999859777449
 20
351.1967080873909
 30
0.0
 11
204.4999859777449
 21
290.8032830996009
 31
0.0
  0
LINE
  5
117F8
330
1F
100
AcDbEntity
  8
PV0001_1
  6
Continuous
370
    25
100
AcDbLine
 10
344.0000012365349
 20
364.7499994081909
 30
0.0
 11
384.0000012365349
 21
364.7499994081909
 31
0.0
  0
LINE
  5
117F9
330
1F
100
AcDbEntity
  8
PV0001_1
  6
Continuous
370
    25
100
AcDbLine
 10
344.0000012365349
 20
377.2499994081909
 30
0.0
 11
384.0000012365349
 21
377.2499994081909
 31
0.0
  0
LINE
  5
117FA
330
1F
100
AcDbEntity
  8
PV0001_1
  6
Continuous
 48
0.5
370
    50
100
AcDbLine
 10
339.0000012365349
 20
377.2499994081909
 30
0.0
 11
344.0000012365349
 21
377.2499994081909
 31
0.0
  0
LINE
  5
117FB
330
1F
100
AcDbEntity
  8
PV0001_1
  6
Continuous
 48
0.5
370
    50
100
AcDbLine
 10
339.0000012365349
 20
364.7499994081909
 30
0.0
 11
344.0000012365349
 21
364.7499994081909
 31
0.0
  0
LINE
  5
117FD
330
1F
100
AcDbEntity
  8
PV0001_1
  6
Continuous
370
    50
100
AcDbLine
 10
344.0000012365349
 20
363.4999994081909
 30
0.0
 11
384.0000012365349
 21
363.4999994081909
 31
0.0
  0
LINE
  5
117FF
330
1F
100
AcDbEntity
  8
PV0001_1
  6
Continuous
370
    50
100
AcDbLine
 10
344.0000012365349
 20
378.4999994081909
 30
0.0
 11
384.0000012365349
 21
378.4999994081909
 31
0.0
  0
LINE
  5
11808
330
1F
100
AcDbEntity
  8
PV0001_1
  6
CENTER2
370
    25
100
AcDbLine
 10
278.0071423498149
 20
370.9999994081909
 30
0.0
 11
387.8550122228549
 21
370.9999994081909
 31
0.0
  0
LINE
  5
1181E
330
1F
100
AcDbEntity
  8
PV0001_1
  6
Continuous
 48
0.5
370
    50
100
AcDbLine
 10
344.0000012365349
 20
378.4999994081909
 30
0.0
 11
344.0000012365349
 21
363.4999994081909
 31
0.0
  0
LINE
  5
11824
330
1F
100
AcDbEntity
  8
PV0001_1
  6
Continuous
 48
0.5
370
    50
100
AcDbLine
 10
259.3079846349649
 20
423.4999994081908
 30
0.0
 11
259.3079846349649
 21
411.4999994081909
 31
0.0
  0
LINE
  5
11825
330
1F
100
AcDbEntity
  8
PV0001_1
  6
Continuous
 48
0.5
370
    50
100
AcDbLine
 10
108.3999951330149
 20
423.4999994081908
 30
0.0
 11
108.3999951330149
 21
411.4999994081909
 31
0.0
  0
LINE
  5
11826
330
1F
100
AcDbEntity
  8
PV0001_1
  6
Continuous
 48
0.5
370
    50
100
AcDbLine
 10
232.3999951330149
 20
423.4999994081908
 30
0.0
 11
232.3999951330149
 21
411.4999994081909
 31
0.0
  0
LINE
  5
11827
330
1F
100
AcDbEntity
  8
PV0001_1
  6
Continuous
370
    50
100
AcDbLine
 10
108.3999951330149
 20
411.4999994081909
 30
0.0
 11
259.3079846349649
 21
411.4999994081909
 31
0.0
  0
LINE
  5
11828
330
1F
100
AcDbEntity
  8
PV0001_1
  6
Continuous
 48
0.5
370
    50
100
AcDbLine
 10
259.3079846349649
 20
435.4999994081908
 30
0.0
 11
259.3079846349649
 21
423.4999994081908
 31
0.0
  0
LINE
  5
11829
330
1F
100
AcDbEntity
  8
PV0001_1
  6
Continuous
 48
0.5
370
    50
100
AcDbLine
 10
108.3999951330149
 20
435.4999994081908
 30
0.0
 11
108.3999951330149
 21
423.4999994081908
 31
0.0
  0
LINE
  5
1182A
330
1F
100
AcDbEntity
  8
PV0001_1
  6
Continuous
 48
0.5
370
    50
100
AcDbLine
 10
232.3999951330149
 20
435.4999994081908
 30
0.0
 11
232.3999951330149
 21
423.4999994081908
 31
0.0
  0
LINE
  5
1182B
330
1F
100
AcDbEntity
  8
PV0001_1
  6
Continuous
370
    50
100
AcDbLine
 10
108.3999951330149
 20
423.4999994081908
 30
0.0
 11
259.3079846349649
 21
423.4999994081908
 31
0.0
  0
LINE
  5
118CE
330
1F
100
AcDbEntity
  8
PV0001_1
  6
Continuous
 48
0.5
370
    50
100
AcDbLine
 10
259.3079846349649
 20
447.4999994081908
 30
0.0
 11
259.3079846349649
 21
435.4999994081908
 31
0.0
  0
LINE
  5
118CF
330
1F
100
AcDbEntity
  8
PV0001_1
  6
Continuous
 48
0.5
370
    50
100
AcDbLine
 10
108.3999951330149
 20
447.4999994081908
 30
0.0
 11
108.3999951330149
 21
435.4999994081908
 31
0.0
  0
LINE
  5
118D0
330
1F
100
AcDbEntity
  8
PV0001_1
  6
Continuous
 48
0.5
370
    50
100
AcDbLine
 10
232.3999951330149
 20
447.4999994081908
 30
0.0
 11
232.3999951330149
 21
435.4999994081908
 31
0.0
  0
LINE
  5
118D1
330
1F
100
AcDbEntity
  8
PV0001_1
  6
Continuous
370
    50
100
AcDbLine
 10
108.3999951330149
 20
435.4999994081908
 30
0.0
 11
259.3079846349649
 21
435.4999994081908
 31
0.0
  0
LINE
  5
118D2
330
1F
100
AcDbEntity
  8
PV0001_1
  6
Continuous
 48
0.5
370
    50
100
AcDbLine
 10
232.3999951330149
 20
459.4999994081908
 30
0.0
 11
232.3999951330149
 21
447.4999994081908
 31
0.0
  0
LINE
  5
118D3
330
1F
100
AcDbEntity
  8
PV0001_1
  6
Continuous
 48
0.5
370
    50
100
AcDbLine
 10
259.3079846349649
 20
459.4999994081908
 30
0.0
 11
259.3079846349649
 21
447.4999994081908
 31
0.0
  0
LINE
  5
118D4
330
1F
100
AcDbEntity
  8
PV0001_1
  6
Continuous
 48
0.5
370
    50
100
AcDbLine
 10
289.3079846349649
 20
459.4999994081908
 30
0.0
 11
289.3079846349649
 21
447.4999994081908
 31
0.0
  0
LINE
  5
118D5
330
1F
100
AcDbEntity
  8
PV0001_1
  6
CENTER2
 48
0.5
370
    25
100
AcDbLine
 10
262.4653332677849
 20
453.4999994081909
 30
0.0
 11
270.0526135412149
 21
453.4999994081909
 31
0.0
  0
LINE
  5
118D6
330
1F
100
AcDbEntity
  8
PV0001_1
  6
CENTER2
 48
0.5
370
    25
100
AcDbLine
 10
266.3079846349649
 20
457.4448236269408
 30
0.0
 11
266.3079846349649
 21
449.767119769519
 31
0.0
  0
LINE
  5
118D7
330
1F
100
AcDbEntity
  8
PV0001_1
  6
CENTER2
 48
0.5
370
    25
100
AcDbLine
 10
274.3935559240349
 20
453.4999994081909
 30
0.0
 11
282.8294384923849
 21
453.4999994081909
 31
0.0
  0
LINE
  5
118D8
330
1F
100
AcDbEntity
  8
PV0001_1
  6
Continuous
 48
0.5
370
   100
100
AcDbLine
 10
275.2360241857449
 20
455.1196531099731
 30
0.0
 11
281.7160351720749
 21
456.1996554178649
 31
0.0
  0
LINE
  5
118D9
330
1F
100
AcDbEntity
  8
PV0001_1
  6
Continuous
 48
0.5
370
   100
100
AcDbLine
 10
275.2359631505949
 20
455.1199945253784
 30
0.0
 11
275.2359631505949
 21
451.8799432558471
 31
0.0
  0
LINE
  5
118DA
330
1F
100
AcDbEntity
  8
PV0001_1
  6
Continuous
 48
0.5
370
   100
100
AcDbLine
 10
275.2359936681749
 20
451.8796285433226
 30
0.0
 11
281.7159741369249
 21
450.7996314806395
 31
0.0
  0
LINE
  5
118DB
330
1F
100
AcDbEntity
  8
PV0001_1
  6
Continuous
 48
0.5
370
   100
100
AcDbLine
 10
281.7159741369249
 20
456.200011615222
 30
0.0
 11
281.7159741369249
 21
450.7999872011596
 31
0.0
  0
LINE
  5
118DC
330
1F
100
AcDbEntity
  8
PV0001_1
  6
Continuous
 48
0.5
370
    50
100
AcDbLine
 10
46.3999951330189
 20
459.4999994081908
 30
0.0
 11
46.3999951330189
 21
447.4999994081908
 31
0.0
  0
LINE
  5
118DD
330
1F
100
AcDbEntity
  8
PV0001_1
  6
Continuous
 48
0.5
370
    50
100
AcDbLine
 10
108.3999951330149
 20
459.4999994081908
 30
0.0
 11
108.3999951330149
 21
447.4999994081908
 31
0.0
  0
LINE
  5
118DE
330
1F
100
AcDbEntity
  8
PV0001_1
  6
Continuous
 48
0.5
370
    50
100
AcDbLine
 10
3.000001236534899
 20
451.1000055117064
 30
0.0
 11
4.600007340050499
 21
451.1000055117064
 31
0.0
  0
LINE
  5
118DF
330
1F
100
AcDbEntity
  8
PV0001_1
  6
Continuous
 48
0.5
370
    50
100
AcDbLine
 10
3.000001236534899
 20
455.8999933046752
 30
0.0
 11
3.000001236534899
 21
451.1000055117064
 31
0.0
  0
LINE
  5
118E0
330
1F
100
AcDbEntity
  8
PV0001_1
  6
Continuous
 48
0.5
370
    50
100
AcDbLine
 10
3.000001236534899
 20
455.8999933046752
 30
0.0
 11
4.600007340050499
 21
455.8999933046752
 31
0.0
  0
LINE
  5
118E1
330
1F
100
AcDbEntity
  8
PV0001_1
  6
Continuous
 48
0.5
370
    50
100
AcDbLine
 10
4.600007340050499
 20
455.8999933046752
 30
0.0
 11
4.600007340050499
 21
454.2999872011596
 31
0.0
  0
LINE
  5
118E2
330
1F
100
AcDbEntity
  8
PV0001_1
  6
Continuous
 48
0.5
370
    50
100
AcDbLine
 10
9.600007340050499
 20
455.8999933046752
 30
0.0
 11
9.600007340050499
 21
452.2999872011595
 31
0.0
  0
LINE
  5
118E3
330
1F
100
AcDbEntity
  8
PV0001_1
  6
Continuous
 48
0.5
370
    50
100
AcDbLine
 10
10.8000042882919
 20
451.1000055117064
 30
0.0
 11
14.6000073400499
 21
451.1000055117064
 31
0.0
  0
LINE
  5
118E4
330
1F
100
AcDbEntity
  8
PV0001_1
  6
Continuous
 48
0.5
370
    50
100
AcDbLine
 10
9.600007340050499
 20
455.8999933046752
 30
0.0
 11
11.0000012365349
 21
455.8999933046752
 31
0.0
  0
LINE
  5
118E5
330
1F
100
AcDbEntity
  8
PV0001_1
  6
Continuous
 48
0.5
370
    50
100
AcDbLine
 10
4.800004288292699
 20
453.4999994081909
 30
0.0
 11
5.699998184777099
 21
453.4999994081909
 31
0.0
  0
LINE
  5
118E6
330
1F
100
AcDbEntity
  8
PV0001_1
  6
Continuous
 48
0.5
370
    50
100
AcDbLine
 10
4.800004288292699
 20
454.1000055117065
 30
0.0
 11
5.702180191612999
 21
454.1000055117065
 31
0.0
  0
LINE
  5
118E7
330
1F
100
AcDbEntity
  8
PV0001_1
  6
Continuous
 48
0.5
370
    50
100
AcDbLine
 10
5.859956547356399
 20
453.4199751657897
 30
0.0
 11
7.599962040520499
 21
451.0999683184081
 31
0.0
  0
LINE
  5
118E8
330
1F
100
AcDbEntity
  8
PV0001_1
  6
Continuous
 48
0.5
370
    50
100
AcDbLine
 10
7.320544048882299
 20
453.7594150347167
 30
0.0
 11
9.600021645165298
 21
451.1000245851929
 31
0.0
  0
LINE
  5
118E9
330
1F
100
AcDbEntity
  8
PV0001_1
  6
Continuous
 48
0.5
370
    50
100
AcDbLine
 10
5.860058113671099
 20
454.1772183222228
 30
0.0
 11
7.199999138451399
 21
455.8999995035582
 31
0.0
  0
LINE
  5
118EA
330
1F
100
AcDbEntity
  8
PV0001_1
  6
Continuous
 48
0.5
370
    50
100
AcDbLine
 10
7.330968662834899
 20
454.0309299272949
 30
0.0
 11
9.200028702355199
 21
455.899989489978
 31
0.0
  0
LINE
  5
118EB
330
1F
100
AcDbEntity
  8
PV0001_1
  6
Continuous
 48
0.5
370
    50
100
AcDbLine
 10
7.600007340050499
 20
451.1000055117064
 30
0.0
 11
9.600007340050499
 21
451.1000055117064
 31
0.0
  0
LINE
  5
118EC
330
1F
100
AcDbEntity
  8
PV0001_1
  6
Continuous
 48
0.5
370
    50
100
AcDbLine
 10
7.199998184777099
 20
455.8999933046752
 30
0.0
 11
9.199998184777099
 21
455.8999933046752
 31
0.0
  0
LINE
  5
118ED
330
1F
100
AcDbEntity
  8
PV0001_1
  6
Continuous
 48
0.5
370
    50
100
AcDbLine
 10
4.600007340050499
 20
453.2999872011595
 30
0.0
 11
4.600007340050499
 21
451.1000055117064
 31
0.0
  0
LINE
  5
118EE
330
1F
100
AcDbEntity
  8
PV0001_1
  6
Continuous
 48
0.5
370
    50
100
AcDbLine
 10
15.8000042882919
 20
455.9000238222534
 30
0.0
 11
15.8000042882919
 21
452.2999872011595
 31
0.0
  0
LINE
  5
118EF
330
1F
100
AcDbEntity
  8
PV0001_1
  6
Continuous
 48
0.5
370
    50
100
AcDbLine
 10
11.0000012365349
 20
455.8999933046752
 30
0.0
 11
11.0000012365349
 21
452.4999994081908
 31
0.0
  0
LINE
  5
118F0
330
1F
100
AcDbEntity
  8
PV0001_1
  6
Continuous
 48
0.5
370
    50
100
AcDbLine
 10
14.3999951330189
 20
455.9000238222534
 30
0.0
 11
14.3999951330189
 21
452.4999994081908
 31
0.0
  0
LINE
  5
118F1
330
1F
100
AcDbEntity
  8
PV0001_1
  6
Continuous
 48
0.5
370
    50
100
AcDbLine
 10
11.6000073400499
 20
451.8999933046752
 30
0.0
 11
13.8000042882919
 21
451.8999933046752
 31
0.0
  0
LINE
  5
118F2
330
1F
100
AcDbEntity
  8
PV0001_1
  6
Continuous
 48
0.5
370
    50
100
AcDbLine
 10
14.3999951330189
 20
455.8999933046752
 30
0.0
 11
15.8000042882919
 21
455.8999933046752
 31
0.0
  0
LINE
  5
118F3
330
1F
100
AcDbEntity
  8
PV0001_1
  6
Continuous
 48
0.5
370
    50
100
AcDbLine
 10
16.3000042882919
 20
455.8999933046752
 30
0.0
 11
21.0000012365349
 21
455.8999933046752
 31
0.0
  0
LINE
  5
118F4
330
1F
100
AcDbEntity
  8
PV0001_1
  6
Continuous
 48
0.5
370
    50
100
AcDbLine
 10
16.3000042882919
 20
451.1000055117064
 30
0.0
 11
17.89999513301889
 21
451.1000055117064
 31
0.0
  0
LINE
  5
118F5
330
1F
100
AcDbEntity
  8
PV0001_1
  6
Continuous
 48
0.5
370
    50
100
AcDbLine
 10
16.3000042882919
 20
455.9000238222534
 30
0.0
 11
16.3000042882919
 21
451.1000055117064
 31
0.0
  0
LINE
  5
118F6
330
1F
100
AcDbEntity
  8
PV0001_1
  6
Continuous
 48
0.5
370
    50
100
AcDbLine
 10
20.8000042882919
 20
454.700011615222
 30
0.0
 11
20.8000042882919
 21
453.9999994081909
 31
0.0
  0
LINE
  5
118F7
330
1F
100
AcDbEntity
  8
PV0001_1
  6
Continuous
 48
0.5
370
    50
100
AcDbLine
 10
17.89999513301889
 20
455.1000055117064
 30
0.0
 11
17.89999513301889
 21
453.6000055117065
 31
0.0
  0
LINE
  5
118F8
330
1F
100
AcDbEntity
  8
PV0001_1
  6
Continuous
 48
0.5
370
    50
100
AcDbLine
 10
18.3000042882919
 20
452.7000116152221
 30
0.0
 11
20.1999981847769
 21
452.7000116152221
 31
0.0
  0
LINE
  5
118F9
330
1F
100
AcDbEntity
  8
PV0001_1
  6
Continuous
 48
0.5
370
    50
100
AcDbLine
 10
18.1000073400499
 20
455.2999872011596
 30
0.0
 11
20.1999981847769
 21
455.2999872011596
 31
0.0
  0
LINE
  5
118FA
330
1F
100
AcDbEntity
  8
PV0001_1
  6
Continuous
 48
0.5
370
    50
100
AcDbLine
 10
18.1000073400499
 20
453.3999933046752
 30
0.0
 11
20.1999981847769
 21
453.3999933046752
 31
0.0
  0
LINE
  5
118FB
330
1F
100
AcDbEntity
  8
PV0001_1
  6
Continuous
 48
0.5
370
    50
100
AcDbLine
 10
20.8000042882919
 20
451.1000055117064
 30
0.0
 11
22.5000012365349
 21
451.1000055117064
 31
0.0
  0
LINE
  5
118FC
330
1F
100
AcDbEntity
  8
PV0001_1
  6
Continuous
 48
0.5
370
    50
100
AcDbLine
 10
17.89999513301889
 20
452.2999872011595
 30
0.0
 11
17.89999513301889
 21
451.1000055117064
 31
0.0
  0
LINE
  5
118FD
330
1F
100
AcDbEntity
  8
PV0001_1
  6
Continuous
 48
0.5
370
    50
100
AcDbLine
 10
24.1999981847769
 20
451.1000055117064
 30
0.0
 11
28.0000012365349
 21
451.1000055117064
 31
0.0
  0
LINE
  5
118FE
330
1F
100
AcDbEntity
  8
PV0001_1
  6
Continuous
 48
0.5
370
    50
100
AcDbLine
 10
25.1999981847769
 20
455.2999872011596
 30
0.0
 11
27.0000012365349
 21
455.2999872011596
 31
0.0
  0
LINE
  5
118FF
330
1F
100
AcDbEntity
  8
PV0001_1
  6
Continuous
 48
0.5
370
    50
100
AcDbLine
 10
24.1999981847769
 20
455.8999933046752
 30
0.0
 11
28.0000012365349
 21
455.8999933046752
 31
0.0
  0
LINE
  5
11900
330
1F
100
AcDbEntity
  8
PV0001_1
  6
Continuous
 48
0.5
370
    50
100
AcDbLine
 10
20.8000042882919
 20
452.1000055117065
 30
0.0
 11
20.8000042882919
 21
451.1000055117064
 31
0.0
  0
LINE
  5
11901
330
1F
100
AcDbEntity
  8
PV0001_1
  6
Continuous
 48
0.5
370
    50
100
AcDbLine
 10
22.8000042882919
 20
454.4999994081909
 30
0.0
 11
22.8000042882919
 21
452.4999994081908
 31
0.0
  0
LINE
  5
11902
330
1F
100
AcDbEntity
  8
PV0001_1
  6
Continuous
 48
0.5
370
    50
100
AcDbLine
 10
29.3999951330189
 20
454.4999994081909
 30
0.0
 11
29.3999951330189
 21
452.4999994081908
 31
0.0
  0
LINE
  5
11903
330
1F
100
AcDbEntity
  8
PV0001_1
  6
Continuous
 48
0.5
370
    50
100
AcDbLine
 10
29.7936566320419
 20
451.1000055117064
 30
0.0
 11
34.8000042882919
 21
451.1000055117064
 31
0.0
  0
LINE
  5
11904
330
1F
100
AcDbEntity
  8
PV0001_1
  6
Continuous
 48
0.5
370
    50
100
AcDbLine
 10
31.6000073400499
 20
455.2999872011596
 30
0.0
 11
33.8000042882919
 21
455.2999872011596
 31
0.0
  0
LINE
  5
11905
330
1F
100
AcDbEntity
  8
PV0001_1
  6
Continuous
 48
0.5
370
    50
100
AcDbLine
 10
29.8000042882919
 20
455.8999933046752
 30
0.0
 11
34.8000042882919
 21
455.8999933046752
 31
0.0
  0
LINE
  5
11906
330
1F
100
AcDbEntity
  8
PV0001_1
  6
Continuous
 48
0.5
370
    50
100
AcDbLine
 10
25.1999981847769
 20
451.8999933046752
 30
0.0
 11
27.0000012365349
 21
451.8999933046752
 31
0.0
  0
LINE
  5
11907
330
1F
100
AcDbEntity
  8
PV0001_1
  6
Continuous
 48
0.5
370
    50
100
AcDbLine
 10
24.3999951330189
 20
454.4999994081909
 30
0.0
 11
24.3999951330189
 21
452.7000116152221
 31
0.0
  0
LINE
  5
11908
330
1F
100
AcDbEntity
  8
PV0001_1
  6
Continuous
 48
0.5
370
    50
100
AcDbLine
 10
27.8000042882919
 20
454.4999994081909
 30
0.0
 11
27.8000042882919
 21
452.7000116152221
 31
0.0
  0
LINE
  5
11909
330
1F
100
AcDbEntity
  8
PV0001_1
  6
Continuous
 48
0.5
370
    50
100
AcDbLine
 10
36.1999981847769
 20
454.4999994081909
 30
0.0
 11
36.1999981847769
 21
452.4999994081908
 31
0.0
  0
LINE
  5
1190A
330
1F
100
AcDbEntity
  8
PV0001_1
  6
Continuous
 48
0.5
370
    50
100
AcDbLine
 10
29.8000042882919
 20
455.9000238222534
 30
0.0
 11
29.8000042882919
 21
451.1000055117064
 31
0.0
  0
LINE
  5
1190B
330
1F
100
AcDbEntity
  8
PV0001_1
  6
Continuous
 48
0.5
370
    50
100
AcDbLine
 10
31.3999951330189
 20
455.1000055117064
 30
0.0
 11
31.3999951330189
 21
452.1000055117065
 31
0.0
  0
LINE
  5
1190C
330
1F
100
AcDbEntity
  8
PV0001_1
  6
Continuous
 48
0.5
370
    50
100
AcDbLine
 10
34.6000073400499
 20
454.4999994081909
 30
0.0
 11
34.6000073400499
 21
452.7000116152221
 31
0.0
  0
LINE
  5
1190D
330
1F
100
AcDbEntity
  8
PV0001_1
  6
Continuous
 48
0.5
370
    50
100
AcDbLine
 10
31.6000073400499
 20
451.8999933046752
 30
0.0
 11
33.8000042882919
 21
451.8999933046752
 31
0.0
  0
LINE
  5
1190E
330
1F
100
AcDbEntity
  8
PV0001_1
  6
Continuous
 48
0.5
370
    50
100
AcDbLine
 10
36.1999981847769
 20
451.1000055117064
 30
0.0
 11
37.8000042882919
 21
451.1000055117064
 31
0.0
  0
LINE
  5
1190F
330
1F
100
AcDbEntity
  8
PV0001_1
  6
Continuous
 48
0.5
370
    50
100
AcDbLine
 10
39.3441479650499
 20
455.2999872011596
 30
0.0
 11
40.25586061153489
 21
455.2999872011596
 31
0.0
  0
LINE
  5
11910
330
1F
100
AcDbEntity
  8
PV0001_1
  6
Continuous
 48
0.5
370
    50
100
AcDbLine
 10
38.1999981847769
 20
455.8999933046752
 30
0.0
 11
41.3999951330189
 21
455.8999933046752
 31
0.0
  0
LINE
  5
11911
330
1F
100
AcDbEntity
  8
PV0001_1
  6
Continuous
 48
0.5
370
    50
100
AcDbLine
 10
38.2774975744249
 20
452.1000055117065
 30
0.0
 11
41.3225110021599
 21
452.1000055117065
 31
0.0
  0
LINE
  5
11912
330
1F
100
AcDbEntity
  8
PV0001_1
  6
Continuous
 48
0.5
370
    50
100
AcDbLine
 10
38.6774914709099
 20
452.8999933046752
 30
0.0
 11
39.6716015783309
 21
452.8999933046752
 31
0.0
  0
LINE
  5
11913
330
1F
100
AcDbEntity
  8
PV0001_1
  6
Continuous
 48
0.5
370
    50
100
AcDbLine
 10
37.8000805822379
 20
451.0999959749634
 30
0.0
 11
38.0878270116809
 21
451.963243369525
 31
0.0
  0
LINE
  5
11914
330
1F
100
AcDbEntity
  8
PV0001_1
  6
Continuous
 48
0.5
370
    50
100
AcDbLine
 10
40.4456456151969
 20
455.163269881671
 30
0.0
 11
41.1123135534289
 21
453.1632703585082
 31
0.0
  0
LINE
  5
11915
330
1F
100
AcDbEntity
  8
PV0001_1
  6
Continuous
 48
0.5
370
    50
100
AcDbLine
 10
38.1999829259879
 20
455.9000026029998
 30
0.0
 11
36.1999905553819
 21
451.1000198168212
 31
0.0
  0
LINE
  5
11916
330
1F
100
AcDbEntity
  8
PV0001_1
  6
Continuous
 48
0.5
370
    50
100
AcDbLine
 10
41.3999989477159
 20
455.8999971193724
 30
0.0
 11
43.4000027624129
 21
451.0999854845458
 31
0.0
  0
LINE
  5
11917
330
1F
100
AcDbEntity
  8
PV0001_1
  6
Continuous
 48
0.5
370
    50
100
AcDbLine
 10
38.4878209081649
 20
453.1632260126526
 30
0.0
 11
39.1544888463979
 21
455.1632250589783
 31
0.0
  0
LINE
  5
11918
330
1F
100
AcDbEntity
  8
PV0001_1
  6
Continuous
 48
0.5
370
    50
100
AcDbLine
 10
41.5123188940049
 20
451.9632586283141
 30
0.0
 11
41.80005769405389
 21
451.1000407976561
 31
0.0
  0
LINE
  5
11919
330
1F
100
AcDbEntity
  8
PV0001_1
  6
Continuous
 48
0.5
370
    50
100
AcDbLine
 10
41.8000042882919
 20
451.1000055117064
 30
0.0
 11
43.39999513301889
 21
451.1000055117064
 31
0.0
  0
LINE
  5
1191A
330
1F
100
AcDbEntity
  8
PV0001_1
  6
Continuous
 48
0.5
370
    50
100
AcDbLine
 10
39.6716015783309
 20
452.8999933046752
 30
0.0
 11
40.9225171056749
 21
452.8999933046752
 31
0.0
  0
LINE
  5
1191B
330
1F
100
AcDbEntity
  8
PV0001_1
  6
Continuous
370
    50
100
AcDbLine
 10
0.0000012365348994
 20
447.4999994081908
 30
0.0
 11
289.3079846349649
 21
447.4999994081908
 31
0.0
  0
LINE
  5
1191C
330
1F
100
AcDbEntity
  8
PV0001_1
  6
Continuous
370
    50
100
AcDbLine
 10
0.0000012365348994
 20
459.4999994081908
 30
0.0
 11
0.0000012365348994
 21
-0.0000005918091119
 31
0.0
  0
LINE
  5
1191D
330
1F
100
AcDbEntity
  8
PV0001_1
  6
Continuous
370
    50
100
AcDbLine
 10
0.0000012365348994
 20
459.4999994081908
 30
0.0
 11
1061.000001236535
 21
459.4999994081908
 31
0.0
  0
LINE
  5
1191E
330
1F
100
AcDbEntity
  8
PV0001_1
  6
Continuous
370
    50
100
AcDbLine
 10
1061.000001236535
 20
459.4999994081908
 30
0.0
 11
1061.000001236535
 21
-0.0000005918091119
 31
0.0
  0
DIMENSION
  5
1191F
330
1F
100
AcDbEntity
  8
PV0001_1
100
AcDbDimension
  2
*D4
 10
884.0000012365349
 20
291.6329644960909
 30
0.0
 11
584.0000012365349
 21
291.6329644960909
 31
0.0
 70
   160
  1
L
 71
     5
 42
600.0
  3
STANDARD
100
AcDbAlignedDimension
 13
284.0000012365349
 23
313.7499994081909
 33
0.0
 14
884.0000012365349
 24
313.4999994081909
 34
0.0
100
AcDbRotatedDimension
1001
ACAD
1000
DSTYLE
1002
{
1070
   284
1070
     8
1070
   140
1040
3.2
1070
   271
1070
     0
1070
    45
1040
0.1
1070
   173
1070
     1
1070
     6
1000
OPEN
1070
     7
1000
OPEN
1002
}
  0
LINE
  5
1195C
330
1F
100
AcDbEntity
  8
0
  6
DASHED2
 48
0.3
100
AcDbLine
 10
205.6499859777449
 20
305.7708257939954
 30
0.0
 11
205.6499859777449
 21
313.9381307274348
 31
0.0
  0
LINE
  5
1195D
330
1F
100
AcDbEntity
  8
0
  6
DASHED2
 48
0.3
100
AcDbLine
 10
203.3499859777449
 20
305.7708257939954
 30
0.0
 11
203.3499859777449
 21
313.8671515376777
 31
0.0
  0
LINE
  5
1195E
330
1F
100
AcDbEntity
  8
0
  6
DASHED2
 48
0.3
100
AcDbLine
 10
203.3499859777449
 20
300.2291653929964
 30
0.0
 11
203.3499859777449
 21
295.9999955934959
 31
0.0
  0
LINE
  5
1195F
330
1F
100
AcDbEntity
  8
0
  6
DASHED2
 48
0.3
100
AcDbLine
 10
205.6499859777449
 20
295.9999955934959
 30
0.0
 11
205.6499859777449
 21
300.2291653929964
 31
0.0
  0
LINE
  5
11960
330
1F
100
AcDbEntity
  8
0
  6
DASHED2
 48
0.3
100
AcDbLine
 10
205.9999859777449
 20
299.4999955934959
 30
0.0
 11
205.9999859777449
 21
295.9999955934959
 31
0.0
  0
LINE
  5
11961
330
1F
100
AcDbEntity
  8
0
  6
DASHED2
 48
0.3
100
AcDbLine
 10
202.9999859777449
 20
299.4999955934959
 30
0.0
 11
205.9999859777449
 21
299.4999955934959
 31
0.0
  0
LINE
  5
11962
330
1F
100
AcDbEntity
  8
0
  6
DASHED2
 48
0.3
100
AcDbLine
 10
202.9999859777449
 20
295.9999955934959
 30
0.0
 11
202.9999859777449
 21
299.4999955934959
 31
0.0
  0
LINE
  5
11963
330
1F
100
AcDbEntity
  8
center
  6
AM_ISO08W050x2
 62
     0
100
AcDbLine
 10
199.2059859777448
 20
302.9999955934959
 30
0.0
 11
209.7939859777449
 21
302.9999955934959
 31
0.0
1001
GENIUS_GENODEF_13
1002
{
1000
HIER
1070
     0
1002
}
1002
{
1000
MANEDIT
1070
     0
1002
}
1002
{
1000
NOSEL
1070
     0
1002
}
1002
{
1000
BEHIND
1070
     0
1002
}
1002
{
1000
OTHER
1070
     0
1002
}
1002
{
1000
REACTOR
1002
}
1001
GENIUS_GENOBJ-N-CEN_13
1002
{
1000
OWNER
1000
GEN
1002
}
  0
CIRCLE
  5
11964
330
1F
100
AcDbEntity
  8
0
100
AcDbCircle
 10
204.4999859777449
 20
302.9999955934959
 30
0.0
 40
2.5
  0
CIRCLE
  5
11965
330
1F
100
AcDbEntity
  8
0
100
AcDbCircle
 10
204.4999859777449
 20
302.9999955934959
 30
0.0
 40
3.0
  0
LINE
  5
11966
330
1F
100
AcDbEntity
  8
outline
  6
DASHED2
 62
     0
 48
0.2
100
AcDbLine
 10
360.000001236535
 20
305.999995593496
 30
0.0
 11
364.000001236535
 21
305.999995593496
 31
0.0
  0
LINE
  5
11967
330
1F
100
AcDbEntity
  8
outline
  6
DASHED2
 62
     0
 48
0.3
100
AcDbLine
 10
368.000001236535
 20
299.9999955934961
 30
0.0
 11
368.000001236535
 21
295.9999955934961
 31
0.0
  0
LINE
  5
11968
330
1F
100
AcDbEntity
  8
outline
  6
DASHED2
 62
     0
 48
0.3
100
AcDbLine
 10
365.0000012365349
 20
299.9999955934961
 30
0.0
 11
365.0000012365349
 21
295.9999955934961
 31
0.0
  0
LINE
  5
11969
330
1F
100
AcDbEntity
  8
center
  6
CENTER2
 62
     0
 48
0.2
100
AcDbLine
 10
359.5125902694979
 20
302.999995593496
 30
0.0
 11
368.5149774528375
 21
302.999995593496
 31
0.0
  0
LINE
  5
1196A
330
1F
100
AcDbEntity
  8
outline
  6
DASHED2
 62
     0
 48
0.3
100
AcDbLine
 10
365.300001236535
 20
295.9999955934961
 30
0.0
 11
365.300001236535
 21
300.499995593496
 31
0.0
  0
LINE
  5
1196B
330
1F
100
AcDbEntity
  8
outline
  6
DASHED2
 62
     0
 48
0.3
100
AcDbLine
 10
367.7000012365351
 20
295.999995593496
 30
0.0
 11
367.7000012365351
 21
312.6861517171657
 31
0.0
  0
LINE
  5
1196C
330
1F
100
AcDbEntity
  8
center
  6
CENTER2
 62
     0
 48
0.2
100
AcDbLine
 10
366.500001236535
 20
295.660310503587
 30
0.0
 11
366.500001236535
 21
313.3152518737611
 31
0.0
  0
LINE
  5
1196D
330
1F
100
AcDbEntity
  8
outline
  6
DASHED2
 62
     0
 48
0.2
100
AcDbLine
 10
360.000001236535
 20
305.499995593496
 30
0.0
 11
365.300001236535
 21
305.499995593496
 31
0.0
  0
LINE
  5
1196E
330
1F
100
AcDbEntity
  8
outline
  6
DASHED2
 62
     0
 48
0.2
100
AcDbLine
 10
360.000001236535
 20
300.499995593496
 30
0.0
 11
365.300001236535
 21
300.499995593496
 31
0.0
  0
LINE
  5
1196F
330
1F
100
AcDbEntity
  8
outline
  6
DASHED2
 62
     0
 48
0.2
100
AcDbLine
 10
360.000001236535
 20
299.999995593496
 30
0.0
 11
364.000001236535
 21
299.9999955934961
 31
0.0
  0
LINE
  5
11970
330
1F
100
AcDbEntity
  8
outline
  6
DASHED2
 62
     0
 48
0.3
100
AcDbLine
 10
365.300001236535
 20
305.499995593496
 30
0.0
 11
365.300001236535
 21
312.6861517171657
 31
0.0
  0
LINE
  5
11971
330
1F
100
AcDbEntity
  8
outline
  6
DASHED2
 62
     0
 48
0.2
100
AcDbLine
 10
364.000001236535
 20
305.999995593496
 30
0.0
 11
364.000001236535
 21
299.9999955934961
 31
0.0
  0
LINE
  5
11972
330
1F
100
AcDbEntity
  8
outline
  6
DASHED2
 62
     0
 48
0.3
100
AcDbLine
 10
365.000001236535
 20
299.9999955934961
 30
0.0
 11
368.000001236535
 21
299.9999955934961
 31
0.0
  0
LINE
  5
119E2
330
1F
100
AcDbEntity
  8
PV0001_1
  6
Continuous
370
    50
100
AcDbLine
 10
108.3999951330149
 20
399.4999994081909
 30
0.0
 11
259.3079846349649
 21
399.4999994081909
 31
0.0
  0
LINE
  5
119E3
330
1F
100
AcDbEntity
  8
PV0001_1
  6
Continuous
 48
0.5
370
    50
100
AcDbLine
 10
232.3999951330149
 20
411.4999994081909
 30
0.0
 11
232.3999951330149
 21
399.4999994081909
 31
0.0
  0
LINE
  5
119E4
330
1F
100
AcDbEntity
  8
PV0001_1
  6
Continuous
 48
0.5
370
    50
100
AcDbLine
 10
108.3999951330149
 20
411.4999994081909
 30
0.0
 11
108.3999951330149
 21
399.4999994081909
 31
0.0
  0
LINE
  5
119E5
330
1F
100
AcDbEntity
  8
PV0001_1
  6
Continuous
 48
0.5
370
    50
100
AcDbLine
 10
259.3079846349649
 20
411.4999994081909
 30
0.0
 11
259.3079846349649
 21
399.4999994081909
 31
0.0
  0
MTEXT
  5
119E6
330
1F
100
AcDbEntity
  8
PV0001_1
 62
     7
370
    25
100
AcDbMText
 10
119.5427451578104
 20
403.9999994081909
 30
0.0
 40
4.799999999999999
 41
0.0
 71
     4
 72
     5
  1
\T1.4;\W0.61;GG1510DS-BALR-1500A
 73
     1
 44
1.0
1001
ACAD
1000
MTEXTBEGIN
1070
    73
1070
     1
1070
    44
1040
1.0
1070
    74
1070
     0
1000
MTEXTEND
  0
MTEXT
  5
119E7
330
1F
100
AcDbEntity
  8
PV0001_1
 62
     7
370
    25
100
AcDbMText
 10
111.828495129677
 20
409.4999994081908
 30
0.0
 40
3.2
 41
0.0
 71
     4
 72
     5
  1
\T1.40;\W0.61;MODEL
 73
     1
 44
1.0
1001
ACAD
1000
MTEXTBEGIN
1070
    73
1070
     1
1070
    44
1040
1.0
1070
    74
1070
     0
1000
MTEXTEND
  0
MTEXT
  5
119E8
330
1F
100
AcDbEntity
  8
PV0001_1
 62
     7
370
    25
100
AcDbMText
 10
235.828495129677
 20
409.4999994081908
 30
0.0
 40
3.2
 41
0.0
 71
     4
 72
     5
  1
\T1.40;\W0.61;L
 73
     1
 44
1.0
1001
ACAD
1000
MTEXTBEGIN
1070
    73
1070
     1
1070
    44
1040
1.0
1070
    74
1070
     0
1000
MTEXTEND
  0
MTEXT
  5
119E9
330
1F
100
AcDbEntity
  8
PV0001_1
 62
     7
370
    25
100
AcDbMText
 10
239.7344871011704
 20
404.2285722536498
 30
0.0
 40
4.799999999999999
 41
0.0
 71
     4
 72
     5
  1
\T1.4;\W0.61; 1500
 73
     1
 44
1.0
1001
ACAD
1000
MTEXTBEGIN
1070
    73
1070
     1
1070
    44
1040
1.0
1070
    74
1070
     0
1000
MTEXTEND
  0
MTEXT
  5
11C41
330
1F
100
AcDbEntity
  8
PV0001_1
 62
     7
370
    25
100
AcDbMText
 10
323.0385781374871
 20
24.94396913476089
 30
0.0
 40
3.2
 41
0.0
 71
     4
 72
     5
  1
\T1.40;\W0.61;BUM-12
 73
     1
 44
1.0
1001
ACAD
1000
MTEXTBEGIN
1070
    73
1070
     1
1070
    44
1040
1.0
1070
    74
1070
     0
1000
MTEXTEND
  0
MTEXT
  5
11C42
330
1F
100
AcDbEntity
  8
PV0001_1
 62
     7
370
    25
100
AcDbMText
 10
302.863803967567
 20
94.50176942773088
 30
0.0
 40
3.2
 41
0.0
 71
     4
 72
     5
  1
\T1.40;\W0.61;BUM-12
 73
     1
 44
1.0
1001
ACAD
1000
MTEXTBEGIN
1070
    73
1070
     1
1070
    44
1040
1.0
1070
    74
1070
     0
1000
MTEXTEND
  0
MTEXT
  5
11C43
330
1F
100
AcDbEntity
  8
PV0001_1
 62
     7
370
    25
100
AcDbMText
 10
311.687778576947
 20
180.5932611269409
 30
0.0
 40
3.2
 41
0.0
 71
     4
 72
     5
  1
\T1.40;\W0.61;BUK-12F
 73
     1
 44
1.0
1001
ACAD
1000
MTEXTBEGIN
1070
    73
1070
     1
1070
    44
1040
1.0
1070
    74
1070
     0
1000
MTEXTEND
  0
CIRCLE
  5
11C44
330
1F
100
AcDbEntity
  8
PV0001_1
  6
Continuous
 48
0.5
370
    50
100
AcDbCircle
 10
187.5855114904349
 20
127.1563714785109
 30
0.0
 40
4.0
  0
CIRCLE
  5
11C45
330
1F
100
AcDbEntity
  8
PV0001_1
  6
Continuous
 48
0.5
370
    50
100
AcDbCircle
 10
187.5855114904349
 20
127.1563714785109
 30
0.0
 40
3.5
  0
CIRCLE
  5
11C46
330
1F
100
AcDbEntity
  8
PV0001_1
  6
Continuous
 48
0.5
370
    50
100
AcDbCircle
 10
210.6563427892649
 20
137.9144891542909
 30
0.0
 40
4.0
  0
CIRCLE
  5
11C47
330
1F
100
AcDbEntity
  8
PV0001_1
  6
Continuous
 48
0.5
370
    50
100
AcDbCircle
 10
210.6563427892649
 20
137.9144891542909
 30
0.0
 40
3.5
  0
CIRCLE
  5
11C48
330
1F
100
AcDbEntity
  8
PV0001_1
  6
Continuous
 48
0.5
370
    50
100
AcDbCircle
 10
221.4144604650449
 20
114.8436273378809
 30
0.0
 40
4.0
  0
CIRCLE
  5
11C49
330
1F
100
AcDbEntity
  8
PV0001_1
  6
Continuous
 48
0.5
370
    50
100
AcDbCircle
 10
221.4144604650449
 20
114.8436273378809
 30
0.0
 40
3.5
  0
CIRCLE
  5
11C4A
330
1F
100
AcDbEntity
  8
PV0001_1
  6
Continuous
 48
0.5
370
    50
100
AcDbCircle
 10
198.3436139074249
 20
104.0855096621009
 30
0.0
 40
3.5
  0
CIRCLE
  5
11C4B
330
1F
100
AcDbEntity
  8
PV0001_1
  6
Continuous
 48
0.5
370
    50
100
AcDbCircle
 10
198.3436139074249
 20
104.0855096621009
 30
0.0
 40
4.0
  0
CIRCLE
  5
11C4C
330
1F
100
AcDbEntity
  8
PV0001_1
  6
CENTER2
370
    25
100
AcDbCircle
 10
204.4999859777449
 20
120.9999994081909
 30
0.0
 40
18.0
  0
CIRCLE
  5
11C4D
330
1F
100
AcDbEntity
  8
PV0001_1
  6
Continuous
370
    50
100
AcDbCircle
 10
204.4999859777449
 20
120.9999994081909
 30
0.0
 40
12.0
  0
ARC
  5
11C4E
330
1F
100
AcDbEntity
  8
PV0001_1
  6
Continuous
 48
0.5
370
    50
100
AcDbCircle
 10
204.4999859777449
 20
120.9999994081909
 30
0.0
 40
11.0
100
AcDbArc
 50
300.2726458216377
 51
329.7273585040711
  0
ARC
  5
11C4F
330
1F
100
AcDbEntity
  8
PV0001_1
  6
Continuous
 48
0.5
370
    50
100
AcDbCircle
 10
204.4999859777449
 20
120.9999994081909
 30
0.0
 40
11.0
100
AcDbArc
 50
210.2726228265877
 51
239.7273355090307
  0
ARC
  5
11C50
330
1F
100
AcDbEntity
  8
PV0001_1
  6
Continuous
 48
0.5
370
    50
100
AcDbCircle
 10
204.4999859777449
 20
120.9999994081909
 30
0.0
 40
11.0
100
AcDbArc
 50
120.2726644909693
 51
149.7273771734123
  0
ARC
  5
11C51
330
1F
100
AcDbEntity
  8
PV0001_1
  6
Continuous
 48
0.5
370
    50
100
AcDbCircle
 10
204.4999859777449
 20
120.9999994081909
 30
0.0
 40
11.0
100
AcDbArc
 50
30.27262783554871
 51
59.72735417836233
  0
CIRCLE
  5
11C52
330
1F
100
AcDbEntity
  8
PV0001_1
  6
Continuous
 48
0.5
370
    50
100
AcDbCircle
 10
188.9436352697349
 20
105.4436639589809
 30
0.0
 40
4.0
  0
CIRCLE
  5
11C53
330
1F
100
AcDbEntity
  8
PV0001_1
  6
Continuous
 48
0.5
370
    50
100
AcDbCircle
 10
188.9436352697349
 20
105.4436639589809
 30
0.0
 40
2.25
  0
CIRCLE
  5
11C54
330
1F
100
AcDbEntity
  8
PV0001_1
  6
Continuous
 48
0.5
370
    50
100
AcDbCircle
 10
220.0563366857449
 20
105.4436639589809
 30
0.0
 40
4.0
  0
CIRCLE
  5
11C55
330
1F
100
AcDbEntity
  8
PV0001_1
  6
Continuous
 48
0.5
370
    50
100
AcDbCircle
 10
220.0563366857449
 20
105.4436639589809
 30
0.0
 40
2.25
  0
CIRCLE
  5
11C56
330
1F
100
AcDbEntity
  8
PV0001_1
  6
Continuous
 48
0.5
370
    50
100
AcDbCircle
 10
188.9436352697349
 20
136.5563348574109
 30
0.0
 40
4.0
  0
CIRCLE
  5
11C57
330
1F
100
AcDbEntity
  8
PV0001_1
  6
Continuous
 48
0.5
370
    50
100
AcDbCircle
 10
188.9436352697349
 20
136.5563348574109
 30
0.0
 40
2.25
  0
CIRCLE
  5
11C58
330
1F
100
AcDbEntity
  8
PV0001_1
  6
Continuous
 48
0.5
370
    50
100
AcDbCircle
 10
220.0563366857449
 20
136.5563348574109
 30
0.0
 40
2.25
  0
CIRCLE
  5
11C59
330
1F
100
AcDbEntity
  8
PV0001_1
  6
Continuous
 48
0.5
370
    50
100
AcDbCircle
 10
220.0563366857449
 20
136.5563348574109
 30
0.0
 40
4.0
  0
ARC
  5
11C5A
330
1F
100
AcDbEntity
  8
PV0001_1
  6
Continuous
 48
0.5
370
    50
100
AcDbCircle
 10
204.4999859777449
 20
120.9999994081909
 30
0.0
 40
27.0
100
AcDbArc
 50
215.4309319519414
 51
234.5690400440481
  0
ARC
  5
11C5B
330
1F
100
AcDbEntity
  8
PV0001_1
  6
Continuous
 48
0.5
370
    50
100
AcDbCircle
 10
204.4999859777449
 20
120.9999994081909
 30
0.0
 40
27.0
100
AcDbArc
 50
125.4309599559519
 51
144.5690680480585
  0
ARC
  5
11C5C
330
1F
100
AcDbEntity
  8
PV0001_1
  6
Continuous
 48
0.5
370
    50
100
AcDbCircle
 10
204.4999859777449
 20
120.9999994081909
 30
0.0
 40
27.0
100
AcDbArc
 50
305.4309412866131
 51
324.569049378717
  0
CIRCLE
  5
11C5D
330
1F
100
AcDbEntity
  8
PV0001_1
  6
CENTER2
370
    25
100
AcDbCircle
 10
204.4999859777449
 20
120.9999994081909
 30
0.0
 40
22.0
  0
ARC
  5
11C5E
330
1F
100
AcDbEntity
  8
PV0001_1
  6
Continuous
 48
0.5
370
    50
100
AcDbCircle
 10
204.4999859777449
 20
120.9999994081909
 30
0.0
 40
27.0
100
AcDbArc
 50
35.43095062128294
 51
54.56905871338686
  0
CIRCLE
  5
11C5F
330
1F
100
AcDbEntity
  8
PV0001_1
  6
Continuous
370
    50
100
AcDbCircle
 10
323.0000317541049
 20
246.9999994081909
 30
0.0
 40
7.0
  0
CIRCLE
  5
11C60
330
1F
100
AcDbEntity
  8
PV0001_1
  6
Continuous
 48
0.5
370
    50
100
AcDbCircle
 10
323.0000317541049
 20
246.9999994081909
 30
0.0
 40
4.5
  0
CIRCLE
  5
11C61
330
1F
100
AcDbEntity
  8
PV0001_1
  6
Continuous
 48
0.5
370
    50
100
AcDbCircle
 10
323.0000317541049
 20
194.9999994081909
 30
0.0
 40
4.5
  0
CIRCLE
  5
11C62
330
1F
100
AcDbEntity
  8
PV0001_1
  6
Continuous
370
    50
100
AcDbCircle
 10
323.0000317541049
 20
194.9999994081909
 30
0.0
 40
7.0
  0
CIRCLE
  5
11C63
330
1F
100
AcDbEntity
  8
PV0001_1
  6
Continuous
 48
0.5
370
    50
100
AcDbCircle
 10
217.5814526525449
 20
234.0814813417909
 30
0.0
 40
3.5
  0
CIRCLE
  5
11C64
330
1F
100
AcDbEntity
  8
PV0001_1
  6
Continuous
 48
0.5
370
    50
100
AcDbCircle
 10
217.5814526525449
 20
207.9185174746009
 30
0.0
 40
3.5
  0
CIRCLE
  5
11C65
330
1F
100
AcDbEntity
  8
PV0001_1
  6
Continuous
 48
0.5
370
    50
100
AcDbCircle
 10
191.4185193029349
 20
207.9185174746009
 30
0.0
 40
3.5
  0
CIRCLE
  5
11C66
330
1F
100
AcDbEntity
  8
PV0001_1
  6
Continuous
 48
0.5
370
    50
100
AcDbCircle
 10
191.4185193029349
 20
234.0814813417909
 30
0.0
 40
3.5
  0
ARC
  5
11C67
330
1F
100
AcDbEntity
  8
PV0001_1
  6
Continuous
 48
0.5
370
    50
100
AcDbCircle
 10
204.4999859777449
 20
220.9999994081909
 30
0.0
 40
11.0
100
AcDbArc
 50
120.2726235098371
 51
149.7273498526536
  0
ARC
  5
11C68
330
1F
100
AcDbEntity
  8
PV0001_1
  6
Continuous
 48
0.5
370
    50
100
AcDbCircle
 10
204.4999859777449
 20
220.9999994081909
 30
0.0
 40
11.0
100
AcDbArc
 50
30.27261759026338
 51
59.72734734817141
  0
ARC
  5
11C69
330
1F
100
AcDbEntity
  8
PV0001_1
  6
Continuous
 48
0.5
370
    50
100
AcDbCircle
 10
204.4999859777449
 20
220.9999994081909
 30
0.0
 40
11.0
100
AcDbArc
 50
300.2726594820123
 51
329.7273721644513
  0
ARC
  5
11C6A
330
1F
100
AcDbEntity
  8
PV0001_1
  6
Continuous
 48
0.5
370
    50
100
AcDbCircle
 10
204.4999859777449
 20
220.9999994081909
 30
0.0
 40
11.0
100
AcDbArc
 50
210.2726364869662
 51
239.7273628297827
  0
CIRCLE
  5
11C6B
330
1F
100
AcDbEntity
  8
PV0001_1
  6
Continuous
370
    50
100
AcDbCircle
 10
204.4999859777449
 20
220.9999994081909
 30
0.0
 40
11.999999046325
  0
CIRCLE
  5
11C6C
330
1F
100
AcDbEntity
  8
PV0001_1
  6
Continuous
 48
0.5
370
    50
100
AcDbCircle
 10
217.5814526525449
 20
234.0814813417909
 30
0.0
 40
4.0
  0
CIRCLE
  5
11C6D
330
1F
100
AcDbEntity
  8
PV0001_1
  6
Continuous
 48
0.5
370
    50
100
AcDbCircle
 10
191.4185193029349
 20
234.0814813417909
 30
0.0
 40
4.0
  0
CIRCLE
  5
11C6E
330
1F
100
AcDbEntity
  8
PV0001_1
  6
Continuous
 48
0.5
370
    50
100
AcDbCircle
 10
217.5814526525449
 20
207.9185174746009
 30
0.0
 40
4.0
  0
CIRCLE
  5
11C6F
330
1F
100
AcDbEntity
  8
PV0001_1
  6
Continuous
 48
0.5
370
    50
100
AcDbCircle
 10
191.4185193029349
 20
207.9185174746009
 30
0.0
 40
4.0
  0
ARC
  5
11C70
330
1F
100
AcDbEntity
  8
PV0001_1
  6
Continuous
 48
0.5
370
    50
100
AcDbCircle
 10
204.4999859777449
 20
220.9999994081909
 30
0.0
 40
23.0
100
AcDbArc
 50
130.4590856757218
 51
139.5409150075208
  0
ARC
  5
11C71
330
1F
100
AcDbEntity
  8
PV0001_1
  6
Continuous
 48
0.5
370
    50
100
AcDbCircle
 10
204.4999859777449
 20
220.9999994081909
 30
0.0
 40
23.0
100
AcDbArc
 50
40.45905243539269
 51
49.54090908794899
  0
ARC
  5
11C72
330
1F
100
AcDbEntity
  8
PV0001_1
  6
Continuous
 48
0.5
370
    50
100
AcDbCircle
 10
204.4999859777449
 20
220.9999994081909
 30
0.0
 40
23.0
100
AcDbArc
 50
310.4590943271416
 51
319.5409373193207
  0
ARC
  5
11C73
330
1F
100
AcDbEntity
  8
PV0001_1
  6
Continuous
 48
0.5
370
    50
100
AcDbCircle
 10
204.4999859777449
 20
220.9999994081909
 30
0.0
 40
23.0
100
AcDbArc
 50
220.459071332104
 51
229.5409143242781
  0
CIRCLE
  5
11C74
330
1F
100
AcDbEntity
  8
PV0001_1
  6
CENTER2
370
    25
100
AcDbCircle
 10
204.4999859777449
 20
220.9999994081909
 30
0.0
 40
18.5
  0
LINE
  5
11C75
330
1F
100
AcDbEntity
  8
PV0001_1
  6
PHANTOM2
370
    25
100
AcDbLine
 10
344.0000012365349
 20
57.24999940819088
 30
0.0
 11
384.0000012365349
 21
57.24999940819088
 31
0.0
  0
LINE
  5
11C76
330
1F
100
AcDbEntity
  8
PV0001_1
  6
PHANTOM2
370
    25
100
AcDbLine
 10
344.0000012365349
 20
44.74999940819088
 30
0.0
 11
384.0000012365349
 21
44.74999940819088
 31
0.0
  0
LINE
  5
11C77
330
1F
100
AcDbEntity
  8
PV0001_1
  6
PHANTOM2
 48
0.5
370
    25
100
AcDbLine
 10
339.0000012365349
 20
44.74999940819088
 30
0.0
 11
344.0000012365349
 21
44.74999940819088
 31
0.0
  0
LINE
  5
11C78
330
1F
100
AcDbEntity
  8
PV0001_1
  6
PHANTOM2
 48
0.5
370
    25
100
AcDbLine
 10
339.0000012365349
 20
57.24999940819088
 30
0.0
 11
344.0000012365349
 21
57.24999940819088
 31
0.0
  0
LINE
  5
11C79
330
1F
100
AcDbEntity
  8
PV0001_1
  6
CENTER2
370
    25
100
AcDbLine
 10
276.8026745763749
 20
50.99999940819088
 30
0.0
 11
389.1820385900449
 21
50.99999940819088
 31
0.0
  0
LINE
  5
11C7A
330
1F
100
AcDbEntity
  8
PV0001_1
  6
PHANTOM2
370
    25
100
AcDbLine
 10
344.0000012365349
 20
43.49999940819088
 30
0.0
 11
384.0000012365349
 21
43.49999940819088
 31
0.0
  0
LINE
  5
11C7B
330
1F
100
AcDbEntity
  8
PV0001_1
  6
PHANTOM2
 48
0.5
370
    25
100
AcDbLine
 10
344.0000012365349
 20
58.49999940819088
 30
0.0
 11
344.0000012365349
 21
43.49999940819088
 31
0.0
  0
LINE
  5
11C7C
330
1F
100
AcDbEntity
  8
PV0001_1
  6
PHANTOM2
 48
0.5
370
    25
100
AcDbLine
 10
309.0000012365349
 20
45.62902772851089
 30
0.0
 11
310.0894787755949
 21
44.99999940819089
 31
0.0
  0
LINE
  5
11C7D
330
1F
100
AcDbEntity
  8
PV0001_1
  6
PHANTOM2
 48
0.5
370
    25
100
AcDbLine
 10
339.0000012365349
 20
58.49999940819088
 30
0.0
 11
339.0000012365349
 21
43.49999940819088
 31
0.0
  0
LINE
  5
11C7E
330
1F
100
AcDbEntity
  8
PV0001_1
  6
PHANTOM2
 48
0.5
370
    25
100
AcDbLine
 10
309.0000012365349
 20
56.37097108788089
 30
0.0
 11
310.0894787755949
 21
56.99999940819089
 31
0.0
  0
LINE
  5
11C7F
330
1F
100
AcDbEntity
  8
PV0001_1
  6
PHANTOM2
 48
0.5
370
    25
100
AcDbLine
 10
299.0000012365349
 20
56.37097108788089
 30
0.0
 11
309.0000012365349
 21
56.37097108788089
 31
0.0
  0
LINE
  5
11C80
330
1F
100
AcDbEntity
  8
PV0001_1
  6
PHANTOM2
 48
0.5
370
    25
100
AcDbLine
 10
299.0000012365349
 20
45.62902772851089
 30
0.0
 11
309.0000012365349
 21
45.62902772851089
 31
0.0
  0
LINE
  5
11C81
330
1F
100
AcDbEntity
  8
PV0001_1
  6
PHANTOM2
 48
0.5
370
    25
100
AcDbLine
 10
329.0000012365349
 20
58.49999940819088
 30
0.0
 11
339.0000012365349
 21
58.49999940819088
 31
0.0
  0
LINE
  5
11C82
330
1F
100
AcDbEntity
  8
PV0001_1
  6
PHANTOM2
370
    25
100
AcDbLine
 10
299.0000012365349
 20
56.99999940819089
 30
0.0
 11
329.0000012365349
 21
56.99999940819089
 31
0.0
  0
LINE
  5
11C83
330
1F
100
AcDbEntity
  8
PV0001_1
  6
PHANTOM2
 48
0.5
370
    25
100
AcDbLine
 10
329.0000012365349
 20
43.49999940819088
 30
0.0
 11
339.0000012365349
 21
43.49999940819088
 31
0.0
  0
LINE
  5
11C84
330
1F
100
AcDbEntity
  8
PV0001_1
  6
PHANTOM2
 48
0.5
370
    25
100
AcDbLine
 10
309.0000012365349
 20
56.99999940819089
 30
0.0
 11
309.0000012365349
 21
44.99999940819089
 31
0.0
  0
LINE
  5
11C85
330
1F
100
AcDbEntity
  8
PV0001_1
  6
PHANTOM2
370
    25
100
AcDbLine
 10
299.0000012365349
 20
44.99999940819089
 30
0.0
 11
329.0000012365349
 21
44.99999940819089
 31
0.0
  0
LINE
  5
11C86
330
1F
100
AcDbEntity
  8
PV0001_1
  6
PHANTOM2
 48
0.5
370
    25
100
AcDbLine
 10
299.0000012365349
 20
56.99999940819089
 30
0.0
 11
299.0000012365349
 21
44.99999940819089
 31
0.0
  0
LINE
  5
11C87
330
1F
100
AcDbEntity
  8
PV0001_1
  6
PHANTOM2
 48
0.5
370
    25
100
AcDbLine
 10
284.0000012365349
 20
45.99999940819088
 30
0.0
 11
299.0000012365349
 21
45.99999940819088
 31
0.0
  0
LINE
  5
11C88
330
1F
100
AcDbEntity
  8
PV0001_1
  6
PHANTOM2
 48
0.5
370
    25
100
AcDbLine
 10
284.0000012365349
 20
55.99999940819088
 30
0.0
 11
284.0000012365349
 21
45.99999940819088
 31
0.0
  0
LINE
  5
11C89
330
1F
100
AcDbEntity
  8
PV0001_1
  6
PHANTOM2
 48
0.5
370
    25
100
AcDbLine
 10
284.0000012365349
 20
55.99999940819088
 30
0.0
 11
299.0000012365349
 21
55.99999940819088
 31
0.0
  0
LINE
  5
11C8A
330
1F
100
AcDbEntity
  8
PV0001_1
  6
PHANTOM2
370
    25
100
AcDbLine
 10
344.0000012365349
 20
58.49999940819088
 30
0.0
 11
384.0000012365349
 21
58.49999940819088
 31
0.0
  0
LINE
  5
11C8B
330
1F
100
AcDbEntity
  8
PV0001_1
  6
PHANTOM2
370
    25
100
AcDbLine
 10
344.0000012365349
 20
127.2499994081909
 30
0.0
 11
384.0000012365349
 21
127.2499994081909
 31
0.0
  0
LINE
  5
11C8C
330
1F
100
AcDbEntity
  8
PV0001_1
  6
PHANTOM2
370
    25
100
AcDbLine
 10
344.0000012365349
 20
114.7499994081909
 30
0.0
 11
384.0000012365349
 21
114.7499994081909
 31
0.0
  0
LINE
  5
11C8D
330
1F
100
AcDbEntity
  8
PV0001_1
  6
PHANTOM2
 48
0.5
370
    25
100
AcDbLine
 10
339.0000012365349
 20
114.7499994081909
 30
0.0
 11
344.0000012365349
 21
114.7499994081909
 31
0.0
  0
LINE
  5
11C8E
330
1F
100
AcDbEntity
  8
PV0001_1
  6
PHANTOM2
 48
0.5
370
    25
100
AcDbLine
 10
339.0000012365349
 20
127.2499994081909
 30
0.0
 11
344.0000012365349
 21
127.2499994081909
 31
0.0
  0
LINE
  5
11C8F
330
1F
100
AcDbEntity
  8
PV0001_1
  6
CENTER2
370
    25
100
AcDbLine
 10
276.8026745763749
 20
120.9999994081909
 30
0.0
 11
389.1820385900449
 21
120.9999994081909
 31
0.0
  0
LINE
  5
11C90
330
1F
100
AcDbEntity
  8
PV0001_1
  6
PHANTOM2
370
    25
100
AcDbLine
 10
344.0000012365349
 20
113.4999994081909
 30
0.0
 11
384.0000012365349
 21
113.4999994081909
 31
0.0
  0
LINE
  5
11C91
330
1F
100
AcDbEntity
  8
PV0001_1
  6
PHANTOM2
 48
0.5
370
    25
100
AcDbLine
 10
344.0000012365349
 20
128.4999994081909
 30
0.0
 11
344.0000012365349
 21
113.4999994081909
 31
0.0
  0
LINE
  5
11C92
330
1F
100
AcDbEntity
  8
PV0001_1
  6
PHANTOM2
 48
0.5
370
    25
100
AcDbLine
 10
309.0000012365349
 20
115.6290277285109
 30
0.0
 11
310.0894482580149
 21
114.9999994081909
 31
0.0
  0
LINE
  5
11C93
330
1F
100
AcDbEntity
  8
PV0001_1
  6
PHANTOM2
 48
0.5
370
    25
100
AcDbLine
 10
339.0000012365349
 20
128.4999994081909
 30
0.0
 11
339.0000012365349
 21
113.4999994081909
 31
0.0
  0
LINE
  5
11C94
330
1F
100
AcDbEntity
  8
PV0001_1
  6
PHANTOM2
 48
0.5
370
    25
100
AcDbLine
 10
309.0000012365349
 20
126.3710321230409
 30
0.0
 11
310.0894482580149
 21
126.9999994081909
 31
0.0
  0
LINE
  5
11C95
330
1F
100
AcDbEntity
  8
PV0001_1
  6
PHANTOM2
 48
0.5
370
    25
100
AcDbLine
 10
299.0000012365349
 20
126.3709710878809
 30
0.0
 11
309.0000012365349
 21
126.3709710878809
 31
0.0
  0
LINE
  5
11C96
330
1F
100
AcDbEntity
  8
PV0001_1
  6
PHANTOM2
 48
0.5
370
    25
100
AcDbLine
 10
299.0000012365349
 20
115.6290277285109
 30
0.0
 11
309.0000012365349
 21
115.6290277285109
 31
0.0
  0
LINE
  5
11C97
330
1F
100
AcDbEntity
  8
PV0001_1
  6
PHANTOM2
 48
0.5
370
    25
100
AcDbLine
 10
329.0000012365349
 20
128.4999994081909
 30
0.0
 11
339.0000012365349
 21
128.4999994081909
 31
0.0
  0
LINE
  5
11C98
330
1F
100
AcDbEntity
  8
PV0001_1
  6
PHANTOM2
370
    25
100
AcDbLine
 10
299.0000012365349
 20
126.9999994081909
 30
0.0
 11
329.0000012365349
 21
126.9999994081909
 31
0.0
  0
LINE
  5
11C99
330
1F
100
AcDbEntity
  8
PV0001_1
  6
PHANTOM2
 48
0.5
370
    25
100
AcDbLine
 10
329.0000012365349
 20
113.4999994081909
 30
0.0
 11
339.0000012365349
 21
113.4999994081909
 31
0.0
  0
LINE
  5
11C9A
330
1F
100
AcDbEntity
  8
PV0001_1
  6
PHANTOM2
 48
0.5
370
    25
100
AcDbLine
 10
309.0000012365349
 20
126.9999994081909
 30
0.0
 11
309.0000012365349
 21
114.9999994081909
 31
0.0
  0
LINE
  5
11C9B
330
1F
100
AcDbEntity
  8
PV0001_1
  6
PHANTOM2
370
    25
100
AcDbLine
 10
299.0000012365349
 20
114.9999994081909
 30
0.0
 11
329.0000012365349
 21
114.9999994081909
 31
0.0
  0
LINE
  5
11C9C
330
1F
100
AcDbEntity
  8
PV0001_1
  6
PHANTOM2
 48
0.5
370
    25
100
AcDbLine
 10
299.0000012365349
 20
126.9999994081909
 30
0.0
 11
299.0000012365349
 21
114.9999994081909
 31
0.0
  0
LINE
  5
11C9D
330
1F
100
AcDbEntity
  8
PV0001_1
  6
PHANTOM2
 48
0.5
370
    25
100
AcDbLine
 10
284.0000012365349
 20
115.9999994081909
 30
0.0
 11
299.0000012365349
 21
115.9999994081909
 31
0.0
  0
LINE
  5
11C9E
330
1F
100
AcDbEntity
  8
PV0001_1
  6
PHANTOM2
 48
0.5
370
    25
100
AcDbLine
 10
284.0000012365349
 20
125.9999994081909
 30
0.0
 11
284.0000012365349
 21
115.9999994081909
 31
0.0
  0
LINE
  5
11C9F
330
1F
100
AcDbEntity
  8
PV0001_1
  6
PHANTOM2
 48
0.5
370
    25
100
AcDbLine
 10
284.0000012365349
 20
125.9999994081909
 30
0.0
 11
299.0000012365349
 21
125.9999994081909
 31
0.0
  0
LINE
  5
11CA0
330
1F
100
AcDbEntity
  8
PV0001_1
  6
PHANTOM2
370
    25
100
AcDbLine
 10
344.0000012365349
 20
128.4999994081909
 30
0.0
 11
384.0000012365349
 21
128.4999994081909
 31
0.0
  0
LINE
  5
11CA1
330
1F
100
AcDbEntity
  8
PV0001_1
  6
PHANTOM2
370
    25
100
AcDbLine
 10
344.0000012365349
 20
227.2499994081909
 30
0.0
 11
384.0000012365349
 21
227.2499994081909
 31
0.0
  0
LINE
  5
11CA2
330
1F
100
AcDbEntity
  8
PV0001_1
  6
PHANTOM2
370
    25
100
AcDbLine
 10
344.0000012365349
 20
214.7499994081909
 30
0.0
 11
384.0000012365349
 21
214.7499994081909
 31
0.0
  0
LINE
  5
11CA3
330
1F
100
AcDbEntity
  8
PV0001_1
  6
PHANTOM2
 48
0.5
370
    25
100
AcDbLine
 10
339.0000012365349
 20
214.7499994081909
 30
0.0
 11
344.0000012365349
 21
214.7499994081909
 31
0.0
  0
LINE
  5
11CA4
330
1F
100
AcDbEntity
  8
PV0001_1
  6
PHANTOM2
 48
0.5
370
    25
100
AcDbLine
 10
339.0000012365349
 20
227.2499994081909
 30
0.0
 11
344.0000012365349
 21
227.2499994081909
 31
0.0
  0
LINE
  5
11CA5
330
1F
100
AcDbEntity
  8
PV0001_1
  6
CENTER2
370
    25
100
AcDbLine
 10
276.8026745763749
 20
220.9999994081909
 30
0.0
 11
389.1820385900449
 21
220.9999994081909
 31
0.0
  0
LINE
  5
11CA6
330
1F
100
AcDbEntity
  8
PV0001_1
  6
PHANTOM2
 48
0.5
370
    25
100
AcDbLine
 10
329.0000012365349
 20
228.4999994081909
 30
0.0
 11
329.0000012365349
 21
213.4999994081909
 31
0.0
  0
LINE
  5
11CA7
330
1F
100
AcDbEntity
  8
PV0001_1
  6
PHANTOM2
370
    25
100
AcDbLine
 10
344.0000012365349
 20
213.4999994081909
 30
0.0
 11
384.0000012365349
 21
213.4999994081909
 31
0.0
  0
LINE
  5
11CA8
330
1F
100
AcDbEntity
  8
PV0001_1
  6
PHANTOM2
 48
0.5
370
    25
100
AcDbLine
 10
344.0000012365349
 20
228.4999994081909
 30
0.0
 11
344.0000012365349
 21
213.4999994081909
 31
0.0
  0
LINE
  5
11CA9
330
1F
100
AcDbEntity
  8
PV0001_1
  6
PHANTOM2
 48
0.5
370
    25
100
AcDbLine
 10
309.0000012365349
 20
215.6290277285109
 30
0.0
 11
310.0894482580149
 21
214.9999994081909
 31
0.0
  0
LINE
  5
11CAA
330
1F
100
AcDbEntity
  8
PV0001_1
  6
PHANTOM2
 48
0.5
370
    25
100
AcDbLine
 10
339.0000012365349
 20
228.4999994081909
 30
0.0
 11
339.0000012365349
 21
213.4999994081909
 31
0.0
  0
LINE
  5
11CAB
330
1F
100
AcDbEntity
  8
PV0001_1
  6
PHANTOM2
 48
0.5
370
    25
100
AcDbLine
 10
309.0000012365349
 20
226.3710321230409
 30
0.0
 11
310.0894482580149
 21
226.9999994081909
 31
0.0
  0
LINE
  5
11CAC
330
1F
100
AcDbEntity
  8
PV0001_1
  6
PHANTOM2
 48
0.5
370
    25
100
AcDbLine
 10
299.0000012365349
 20
226.3709710878809
 30
0.0
 11
309.0000012365349
 21
226.3709710878809
 31
0.0
  0
LINE
  5
11CAD
330
1F
100
AcDbEntity
  8
PV0001_1
  6
PHANTOM2
 48
0.5
370
    25
100
AcDbLine
 10
299.0000012365349
 20
215.6290277285109
 30
0.0
 11
309.0000012365349
 21
215.6290277285109
 31
0.0
  0
LINE
  5
11CAE
330
1F
100
AcDbEntity
  8
PV0001_1
  6
PHANTOM2
 48
0.5
370
    25
100
AcDbLine
 10
329.0000012365349
 20
228.4999994081909
 30
0.0
 11
339.0000012365349
 21
228.4999994081909
 31
0.0
  0
LINE
  5
11CAF
330
1F
100
AcDbEntity
  8
PV0001_1
  6
PHANTOM2
370
    25
100
AcDbLine
 10
299.0000012365349
 20
226.9999994081909
 30
0.0
 11
329.0000012365349
 21
226.9999994081909
 31
0.0
  0
LINE
  5
11CB0
330
1F
100
AcDbEntity
  8
PV0001_1
  6
PHANTOM2
 48
0.5
370
    25
100
AcDbLine
 10
329.0000012365349
 20
213.4999994081909
 30
0.0
 11
339.0000012365349
 21
213.4999994081909
 31
0.0
  0
LINE
  5
11CB1
330
1F
100
AcDbEntity
  8
PV0001_1
  6
PHANTOM2
 48
0.5
370
    25
100
AcDbLine
 10
309.0000012365349
 20
226.9999994081909
 30
0.0
 11
309.0000012365349
 21
214.9999994081909
 31
0.0
  0
LINE
  5
11CB2
330
1F
100
AcDbEntity
  8
PV0001_1
  6
PHANTOM2
370
    25
100
AcDbLine
 10
299.0000012365349
 20
214.9999994081909
 30
0.0
 11
329.0000012365349
 21
214.9999994081909
 31
0.0
  0
LINE
  5
11CB3
330
1F
100
AcDbEntity
  8
PV0001_1
  6
PHANTOM2
 48
0.5
370
    25
100
AcDbLine
 10
299.0000012365349
 20
226.9999994081909
 30
0.0
 11
299.0000012365349
 21
214.9999994081909
 31
0.0
  0
LINE
  5
11CB4
330
1F
100
AcDbEntity
  8
PV0001_1
  6
PHANTOM2
 48
0.5
370
    25
100
AcDbLine
 10
284.0000012365349
 20
215.9999994081909
 30
0.0
 11
299.0000012365349
 21
215.9999994081909
 31
0.0
  0
LINE
  5
11CB5
330
1F
100
AcDbEntity
  8
PV0001_1
  6
PHANTOM2
 48
0.5
370
    25
100
AcDbLine
 10
284.0000012365349
 20
225.9999994081909
 30
0.0
 11
284.0000012365349
 21
215.9999994081909
 31
0.0
  0
LINE
  5
11CB6
330
1F
100
AcDbEntity
  8
PV0001_1
  6
PHANTOM2
 48
0.5
370
    25
100
AcDbLine
 10
284.0000012365349
 20
225.9999994081909
 30
0.0
 11
299.0000012365349
 21
225.9999994081909
 31
0.0
  0
LINE
  5
11CB7
330
1F
100
AcDbEntity
  8
PV0001_1
  6
PHANTOM2
370
    25
100
AcDbLine
 10
344.0000012365349
 20
228.4999994081909
 30
0.0
 11
384.0000012365349
 21
228.4999994081909
 31
0.0
  0
LINE
  5
11CB8
330
1F
100
AcDbEntity
  8
PV0001_1
  6
PHANTOM2
 48
0.5
370
    25
100
AcDbLine
 10
329.0000012365349
 20
58.49999940819088
 30
0.0
 11
329.0000012365349
 21
43.49999940819088
 31
0.0
  0
LINE
  5
11CB9
330
1F
100
AcDbEntity
  8
PV0001_1
  6
PHANTOM2
 48
0.5
370
    25
100
AcDbLine
 10
329.0000012365349
 20
128.4999994081909
 30
0.0
 11
329.0000012365349
 21
113.4999994081909
 31
0.0
  0
LINE
  5
11CBA
330
1F
100
AcDbEntity
  8
PV0001_1
  6
Continuous
 48
0.5
370
    50
100
AcDbLine
 10
308.0000012365349
 20
43.49999940819088
 30
0.0
 11
307.5000012365349
 21
43.49999940819088
 31
0.0
  0
LINE
  5
11CBB
330
1F
100
AcDbEntity
  8
PV0001_1
  6
Continuous
 48
0.5
370
    50
100
AcDbLine
 10
308.0000012365349
 20
58.49999940819088
 30
0.0
 11
307.5000012365349
 21
58.49999940819088
 31
0.0
  0
LINE
  5
11CBC
330
1F
100
AcDbEntity
  8
PV0001_1
  6
Continuous
 48
0.5
370
    50
100
AcDbLine
 10
306.5000012365349
 20
60.49999940819088
 30
0.0
 11
306.5000012365349
 21
41.49999940819088
 31
0.0
  0
LINE
  5
11CBD
330
1F
100
AcDbEntity
  8
PV0001_1
  6
Continuous
 48
0.5
370
    50
100
AcDbLine
 10
307.5000012365349
 20
59.49999940819089
 30
0.0
 11
306.5000012365349
 21
59.49999940819089
 31
0.0
  0
LINE
  5
11CBE
330
1F
100
AcDbEntity
  8
PV0001_1
  6
Continuous
 48
0.5
370
    50
100
AcDbLine
 10
305.0000012365349
 20
60.49999940819088
 30
0.0
 11
305.0000012365349
 21
41.49999940819088
 31
0.0
  0
LINE
  5
11CBF
330
1F
100
AcDbEntity
  8
PV0001_1
  6
Continuous
370
    50
100
AcDbLine
 10
337.0000012365349
 20
28.99999940819089
 30
0.0
 11
337.0000012365349
 21
72.99999940819088
 31
0.0
  0
LINE
  5
11CC0
330
1F
100
AcDbEntity
  8
PV0001_1
  6
Continuous
 48
0.5
370
    50
100
AcDbLine
 10
307.5000012365349
 20
59.49999940819089
 30
0.0
 11
307.5000012365349
 21
42.49999940819089
 31
0.0
  0
LINE
  5
11CC1
330
1F
100
AcDbEntity
  8
PV0001_1
  6
DASHED2
 48
0.5
370
    50
100
AcDbLine
 10
331.0000012365349
 20
62.55633485741089
 30
0.0
 11
337.0000012365349
 21
62.55633485741089
 31
0.0
  0
LINE
  5
11CC2
330
1F
100
AcDbEntity
  8
PV0001_1
  6
DASHED2
 48
0.5
370
    50
100
AcDbLine
 10
331.0000012365349
 20
70.55633485741089
 30
0.0
 11
337.0000012365349
 21
70.55633485741089
 31
0.0
  0
LINE
  5
11CC3
330
1F
100
AcDbEntity
  8
PV0001_1
  6
DASHED2
 48
0.5
370
    50
100
AcDbLine
 10
324.0000012365349
 20
64.30633485741089
 30
0.0
 11
331.0000012365349
 21
64.30633485741089
 31
0.0
  0
LINE
  5
11CC4
330
1F
100
AcDbEntity
  8
PV0001_1
  6
DASHED2
 48
0.5
370
    50
100
AcDbLine
 10
324.0000012365349
 20
68.80633485741089
 30
0.0
 11
331.0000012365349
 21
68.80633485741089
 31
0.0
  0
LINE
  5
11CC5
330
1F
100
AcDbEntity
  8
PV0001_1
  6
CENTER2
 48
0.5
370
    25
100
AcDbLine
 10
321.7918713537149
 20
66.55633485741089
 30
0.0
 11
338.4589856115349
 21
66.55633485741089
 31
0.0
  0
LINE
  5
11CC6
330
1F
100
AcDbEntity
  8
PV0001_1
  6
Continuous
 48
0.5
370
    50
100
AcDbLine
 10
308.0000012365349
 20
68.99999940819089
 30
0.0
 11
324.0000012365349
 21
68.99999940819089
 31
0.0
  0
LINE
  5
11CC7
330
1F
100
AcDbEntity
  8
PV0001_1
  6
Continuous
 48
0.5
370
    50
100
AcDbLine
 10
308.0000012365349
 20
32.99999940819089
 30
0.0
 11
324.0000012365349
 21
32.99999940819089
 31
0.0
  0
LINE
  5
11CC8
330
1F
100
AcDbEntity
  8
PV0001_1
  6
Continuous
 48
0.5
370
    50
100
AcDbLine
 10
306.5000012365349
 20
41.49999940819088
 30
0.0
 11
299.5000012365349
 21
41.49999940819088
 31
0.0
  0
LINE
  5
11CC9
330
1F
100
AcDbEntity
  8
PV0001_1
  6
Continuous
 48
0.5
370
    50
100
AcDbLine
 10
306.5000012365349
 20
60.49999940819088
 30
0.0
 11
299.5000012365349
 21
60.49999940819088
 31
0.0
  0
LINE
  5
11CCA
330
1F
100
AcDbEntity
  8
PV0001_1
  6
Continuous
 48
0.5
370
    50
100
AcDbLine
 10
324.0000012365349
 20
28.99999940819089
 30
0.0
 11
337.0000012365349
 21
28.99999940819089
 31
0.0
  0
LINE
  5
11CCB
330
1F
100
AcDbEntity
  8
PV0001_1
  6
Continuous
 48
0.5
370
    50
100
AcDbLine
 10
324.0000012365349
 20
72.99999940819088
 30
0.0
 11
337.0000012365349
 21
72.99999940819088
 31
0.0
  0
LINE
  5
11CCC
330
1F
100
AcDbEntity
  8
PV0001_1
  6
Continuous
 48
0.5
370
    50
100
AcDbLine
 10
299.5000012365349
 20
60.49999940819088
 30
0.0
 11
299.5000012365349
 21
41.49999940819088
 31
0.0
  0
LINE
  5
11CCD
330
1F
100
AcDbEntity
  8
PV0001_1
  6
Continuous
 48
0.5
370
    50
100
AcDbLine
 10
307.5000012365349
 20
42.49999940819089
 30
0.0
 11
306.5000012365349
 21
42.49999940819089
 31
0.0
  0
LINE
  5
11CCE
330
1F
100
AcDbEntity
  8
PV0001_1
  6
Continuous
370
    50
100
AcDbLine
 10
331.0000012365349
 20
28.99999940819089
 30
0.0
 11
331.0000012365349
 21
72.99999940819088
 31
0.0
  0
LINE
  5
11CCF
330
1F
100
AcDbEntity
  8
PV0001_1
  6
Continuous
370
    50
100
AcDbLine
 10
324.0000012365349
 20
28.99999940819089
 30
0.0
 11
324.0000012365349
 21
72.99999940819088
 31
0.0
  0
LINE
  5
11CD0
330
1F
100
AcDbEntity
  8
PV0001_1
  6
Continuous
370
    50
100
AcDbLine
 10
308.0000012365349
 20
32.99999940819089
 30
0.0
 11
308.0000012365349
 21
68.99999940819089
 31
0.0
  0
LINE
  5
11CD1
330
1F
100
AcDbEntity
  8
PV0001_1
  6
DASHED2
 48
0.5
370
    50
100
AcDbLine
 10
311.0000012365349
 20
109.4436639589809
 30
0.0
 11
305.0000012365349
 21
109.4436639589809
 31
0.0
  0
LINE
  5
11CD2
330
1F
100
AcDbEntity
  8
PV0001_1
  6
DASHED2
 48
0.5
370
    50
100
AcDbLine
 10
311.0000012365349
 20
101.4436639589809
 30
0.0
 11
305.0000012365349
 21
101.4436639589809
 31
0.0
  0
LINE
  5
11CD3
330
1F
100
AcDbEntity
  8
PV0001_1
  6
DASHED2
 48
0.5
370
    50
100
AcDbLine
 10
318.0000012365349
 20
107.6936639589809
 30
0.0
 11
311.0000012365349
 21
107.6936639589809
 31
0.0
  0
LINE
  5
11CD4
330
1F
100
AcDbEntity
  8
PV0001_1
  6
DASHED2
 48
0.5
370
    50
100
AcDbLine
 10
318.0000012365349
 20
103.1936639589809
 30
0.0
 11
311.0000012365349
 21
103.1936639589809
 31
0.0
  0
LINE
  5
11CD5
330
1F
100
AcDbEntity
  8
PV0001_1
  6
CENTER2
 48
0.5
370
    25
100
AcDbLine
 10
320.2081311193449
 20
105.4436639589809
 30
0.0
 11
303.5410168615349
 21
105.4436639589809
 31
0.0
  0
LINE
  5
11CD6
330
1F
100
AcDbEntity
  8
PV0001_1
  6
Continuous
 48
0.5
370
    50
100
AcDbLine
 10
334.0000012365349
 20
102.9999994081909
 30
0.0
 11
318.0000012365349
 21
102.9999994081909
 31
0.0
  0
LINE
  5
11CD7
330
1F
100
AcDbEntity
  8
PV0001_1
  6
Continuous
 48
0.5
370
    50
100
AcDbLine
 10
334.0000012365349
 20
138.9999994081909
 30
0.0
 11
318.0000012365349
 21
138.9999994081909
 31
0.0
  0
LINE
  5
11CD8
330
1F
100
AcDbEntity
  8
PV0001_1
  6
Continuous
 48
0.5
370
    50
100
AcDbLine
 10
305.0000012365349
 20
111.4999994081909
 30
0.0
 11
299.5000012365349
 21
111.4999994081909
 31
0.0
  0
LINE
  5
11CD9
330
1F
100
AcDbEntity
  8
PV0001_1
  6
Continuous
 48
0.5
370
    50
100
AcDbLine
 10
305.0000012365349
 20
130.4999994081909
 30
0.0
 11
299.5000012365349
 21
130.4999994081909
 31
0.0
  0
LINE
  5
11CDA
330
1F
100
AcDbEntity
  8
PV0001_1
  6
Continuous
 48
0.5
370
    50
100
AcDbLine
 10
318.0000012365349
 20
142.9999994081908
 30
0.0
 11
305.0000012365349
 21
142.9999994081908
 31
0.0
  0
LINE
  5
11CDB
330
1F
100
AcDbEntity
  8
PV0001_1
  6
Continuous
 48
0.5
370
    50
100
AcDbLine
 10
318.0000012365349
 20
98.99999940819089
 30
0.0
 11
305.0000012365349
 21
98.99999940819089
 31
0.0
  0
LINE
  5
11CDC
330
1F
100
AcDbEntity
  8
PV0001_1
  6
Continuous
 48
0.5
370
    50
100
AcDbLine
 10
299.5000012365349
 20
130.4999994081909
 30
0.0
 11
299.5000012365349
 21
111.4999994081909
 31
0.0
  0
LINE
  5
11CDD
330
1F
100
AcDbEntity
  8
PV0001_1
  6
Continuous
370
    50
100
AcDbLine
 10
305.0000012365349
 20
142.9999994081908
 30
0.0
 11
305.0000012365349
 21
98.99999940819089
 31
0.0
  0
LINE
  5
11CDE
330
1F
100
AcDbEntity
  8
PV0001_1
  6
Continuous
370
    50
100
AcDbLine
 10
311.0000012365349
 20
142.9999994081908
 30
0.0
 11
311.0000012365349
 21
98.99999940819089
 31
0.0
  0
LINE
  5
11CDF
330
1F
100
AcDbEntity
  8
PV0001_1
  6
Continuous
370
    50
100
AcDbLine
 10
318.0000012365349
 20
142.9999994081908
 30
0.0
 11
318.0000012365349
 21
98.99999940819089
 31
0.0
  0
LINE
  5
11CE0
330
1F
100
AcDbEntity
  8
PV0001_1
  6
Continuous
370
    50
100
AcDbLine
 10
334.0000012365349
 20
138.9999994081909
 30
0.0
 11
334.0000012365349
 21
102.9999994081909
 31
0.0
  0
LINE
  5
11CE1
330
1F
100
AcDbEntity
  8
PV0001_1
  6
CENTER2
 48
0.5
370
    25
100
AcDbLine
 10
193.2225201574249
 20
125.1046136660109
 30
0.0
 11
181.8766949621149
 21
129.2341913027309
 31
0.0
  0
LINE
  5
11CE2
330
1F
100
AcDbEntity
  8
PV0001_1
  6
CENTER2
 48
0.5
370
    25
100
AcDbLine
 10
208.6046307531349
 20
132.2774652285109
 30
0.0
 11
212.7341778722749
 21
143.6232904238209
 31
0.0
  0
LINE
  5
11CE3
330
1F
100
AcDbEntity
  8
PV0001_1
  6
CENTER2
 48
0.5
370
    25
100
AcDbLine
 10
215.7774517980549
 20
116.8953851503809
 30
0.0
 11
227.1232769933649
 21
112.7658075136609
 31
0.0
  0
LINE
  5
11CE4
330
1F
100
AcDbEntity
  8
PV0001_1
  6
CENTER2
 48
0.5
370
    25
100
AcDbLine
 10
200.3953412023549
 20
109.7225335878809
 30
0.0
 11
196.2657940832049
 21
98.37670839257089
 31
0.0
  0
LINE
  5
11CE5
330
1F
100
AcDbEntity
  8
PV0001_1
  6
CENTER2
370
    25
100
AcDbLine
 10
183.2868054357449
 20
142.2131952089809
 30
0.0
 11
225.7131970373149
 21
99.78680360741089
 31
0.0
  0
LINE
  5
11CE6
330
1F
100
AcDbEntity
  8
PV0001_1
  6
CENTER2
370
    25
100
AcDbLine
 10
183.2868054357449
 20
99.78680360741089
 30
0.0
 11
225.7132122961049
 21
142.2131952089809
 31
0.0
  0
LINE
  5
11CE7
330
1F
100
AcDbEntity
  8
PV0001_1
  6
CENTER2
370
    25
100
AcDbLine
 10
179.4999859777449
 20
120.9999994081909
 30
0.0
 11
229.4999859777449
 21
120.9999994081909
 31
0.0
  0
LINE
  5
11CE8
330
1F
100
AcDbEntity
  8
PV0001_1
  6
CENTER2
370
    25
100
AcDbLine
 10
204.4999859777449
 20
145.9999994081909
 30
0.0
 11
204.4999859777449
 21
95.99999940819088
 31
0.0
  0
LINE
  5
11CE9
330
1F
100
AcDbEntity
  8
PV0001_1
  6
Continuous
 48
0.5
370
    50
100
AcDbLine
 10
213.9999859777449
 20
126.5452874941309
 30
0.0
 11
213.9999859777449
 21
115.4547113222609
 31
0.0
  0
LINE
  5
11CEA
330
1F
100
AcDbEntity
  8
PV0001_1
  6
Continuous
 48
0.5
370
    50
100
AcDbLine
 10
194.9999859777449
 20
126.5452874941309
 30
0.0
 11
194.9999859777449
 21
115.4547113222609
 31
0.0
  0
LINE
  5
11CEB
330
1F
100
AcDbEntity
  8
PV0001_1
  6
Continuous
 48
0.5
370
    50
100
AcDbLine
 10
198.9547131505949
 20
111.4999994081909
 30
0.0
 11
210.0452588048849
 21
111.4999994081909
 31
0.0
  0
LINE
  5
11CEC
330
1F
100
AcDbEntity
  8
PV0001_1
  6
Continuous
 48
0.5
370
    50
100
AcDbLine
 10
311.0000012365349
 20
238.7499994081909
 30
0.0
 11
335.0000317541049
 21
238.7499994081909
 31
0.0
  0
LINE
  5
11CED
330
1F
100
AcDbEntity
  8
PV0001_1
  6
Continuous
 48
0.5
370
    50
100
AcDbLine
 10
311.0000012365349
 20
203.2499994081909
 30
0.0
 11
335.0000317541049
 21
203.2499994081909
 31
0.0
  0
LINE
  5
11CEE
330
1F
100
AcDbEntity
  8
PV0001_1
  6
Continuous
 48
0.5
370
    50
100
AcDbLine
 10
222.5000012365349
 20
238.7499994081909
 30
0.0
 11
214.4999859777449
 21
238.7499994081909
 31
0.0
  0
LINE
  5
11CEF
330
1F
100
AcDbEntity
  8
PV0001_1
  6
Continuous
 48
0.5
370
    50
100
AcDbLine
 10
222.5000012365349
 20
203.2499994081909
 30
0.0
 11
214.4999859777449
 21
203.2499994081909
 31
0.0
  0
LINE
  5
11CF0
330
1F
100
AcDbEntity
  8
PV0001_1
  6
Continuous
 48
0.5
370
    50
100
AcDbLine
 10
305.0000317541049
 20
230.4999994081909
 30
0.0
 11
299.5000317541049
 21
230.4999994081909
 31
0.0
  0
LINE
  5
11CF1
330
1F
100
AcDbEntity
  8
PV0001_1
  6
Continuous
 48
0.5
370
    50
100
AcDbLine
 10
305.0000317541049
 20
211.4999994081909
 30
0.0
 11
299.5000317541049
 21
211.4999994081909
 31
0.0
  0
LINE
  5
11CF2
330
1F
100
AcDbEntity
  8
PV0001_1
  6
Continuous
 48
0.5
370
    50
100
AcDbLine
 10
311.0000012365349
 20
203.4999994081909
 30
0.0
 11
305.0000317541049
 21
203.4999994081909
 31
0.0
  0
LINE
  5
11CF3
330
1F
100
AcDbEntity
  8
PV0001_1
  6
Continuous
 48
0.5
370
    50
100
AcDbLine
 10
311.0000012365349
 20
238.4999994081909
 30
0.0
 11
305.0000317541049
 21
238.4999994081909
 31
0.0
  0
LINE
  5
11CF4
330
1F
100
AcDbEntity
  8
PV0001_1
  6
CENTER2
 48
0.5
370
    25
100
AcDbLine
 10
313.5000012365349
 20
246.9999994081909
 30
0.0
 11
332.5000317541049
 21
246.9999994081909
 31
0.0
  0
LINE
  5
11CF5
330
1F
100
AcDbEntity
  8
PV0001_1
  6
CENTER2
 48
0.5
370
    25
100
AcDbLine
 10
323.0000317541049
 20
256.4999994081909
 30
0.0
 11
323.0000317541049
 21
237.4999994081909
 31
0.0
  0
LINE
  5
11CF6
330
1F
100
AcDbEntity
  8
PV0001_1
  6
CENTER2
 48
0.5
370
    25
100
AcDbLine
 10
323.0000317541049
 20
185.4999994081909
 30
0.0
 11
323.0000317541049
 21
204.4999994081909
 31
0.0
  0
LINE
  5
11CF7
330
1F
100
AcDbEntity
  8
PV0001_1
  6
CENTER2
 48
0.5
370
    25
100
AcDbLine
 10
313.5000012365349
 20
194.9999994081909
 30
0.0
 11
332.5000317541049
 21
194.9999994081909
 31
0.0
  0
LINE
  5
11CF8
330
1F
100
AcDbEntity
  8
PV0001_1
  6
Continuous
 48
0.5
370
    50
100
AcDbLine
 10
299.5000012365349
 20
211.4999994081909
 30
0.0
 11
299.5000012365349
 21
230.4999994081909
 31
0.0
  0
LINE
  5
11CF9
330
1F
100
AcDbEntity
  8
PV0001_1
  6
Continuous
370
    50
100
AcDbLine
 10
305.0000317541049
 20
203.4999994081909
 30
0.0
 11
305.0000317541049
 21
238.4999994081909
 31
0.0
  0
LINE
  5
11CFA
330
1F
100
AcDbEntity
  8
PV0001_1
  6
Continuous
 48
0.5
370
    50
100
AcDbLine
 10
335.0000317541049
 20
255.9999994081909
 30
0.0
 11
311.0000012365349
 21
255.9999994081909
 31
0.0
  0
LINE
  5
11CFB
330
1F
100
AcDbEntity
  8
PV0001_1
  6
Continuous
 48
0.5
370
    50
100
AcDbLine
 10
335.0000317541049
 20
185.9999994081909
 30
0.0
 11
311.0000012365349
 21
185.9999994081909
 31
0.0
  0
LINE
  5
11CFC
330
1F
100
AcDbEntity
  8
PV0001_1
  6
Continuous
370
    50
100
AcDbLine
 10
311.0000012365349
 20
185.9999994081909
 30
0.0
 11
311.0000012365349
 21
255.9999994081909
 31
0.0
  0
LINE
  5
11CFD
330
1F
100
AcDbEntity
  8
PV0001_1
  6
Continuous
370
    50
100
AcDbLine
 10
335.0000317541049
 20
185.9999994081909
 30
0.0
 11
335.0000317541049
 21
255.9999994081909
 31
0.0
  0
LINE
  5
11CFE
330
1F
100
AcDbEntity
  8
PV0001_1
  6
Continuous
 48
0.5
370
    50
100
AcDbLine
 10
195.0000012365349
 20
215.4547113222609
 30
0.0
 11
195.0000012365349
 21
226.5452264589809
 31
0.0
  0
LINE
  5
11CFF
330
1F
100
AcDbEntity
  8
PV0001_1
  6
Continuous
 48
0.5
370
    50
100
AcDbLine
 10
213.9999707189549
 20
215.4547113222609
 30
0.0
 11
213.9999707189549
 21
226.5452264589809
 31
0.0
  0
LINE
  5
11D00
330
1F
100
AcDbEntity
  8
PV0001_1
  6
Continuous
 48
0.5
370
    50
100
AcDbLine
 10
210.0452282873149
 20
230.4999994081909
 30
0.0
 11
198.9547284093849
 21
230.4999994081909
 31
0.0
  0
LINE
  5
11D01
330
1F
100
AcDbEntity
  8
PV0001_1
  6
Continuous
 48
0.5
370
    50
100
AcDbLine
 10
210.0452282873149
 20
211.4999994081909
 30
0.0
 11
198.9547284093849
 21
211.4999994081909
 31
0.0
  0
LINE
  5
11D02
330
1F
100
AcDbEntity
  8
PV0001_1
  6
CENTER2
370
    25
100
AcDbLine
 10
204.4999859777449
 20
182.9999994081909
 30
0.0
 11
204.4999859777449
 21
258.9999994081909
 31
0.0
  0
LINE
  5
11D03
330
1F
100
AcDbEntity
  8
PV0001_1
  6
CENTER2
370
    25
100
AcDbLine
 10
226.9999707189549
 20
220.9999994081909
 30
0.0
 11
175.3181775060649
 21
220.9999994081909
 31
0.0
  0
LINE
  5
11D04
330
1F
100
AcDbEntity
  8
PV0001_1
  6
CENTER2
 48
0.5
370
    25
100
AcDbLine
 10
213.0604565587949
 20
229.5604852480409
 30
0.0
 11
222.2382367101649
 21
238.7382806581909
 31
0.0
  0
LINE
  5
11D05
330
1F
100
AcDbEntity
  8
PV0001_1
  6
CENTER2
 48
0.5
370
    25
100
AcDbLine
 10
195.9394391027449
 20
229.5604852480409
 30
0.0
 11
186.7617199865349
 21
238.7382196230409
 31
0.0
  0
LINE
  5
11D06
330
1F
100
AcDbEntity
  8
PV0001_1
  6
CENTER2
 48
0.5
370
    25
100
AcDbLine
 10
213.0604565587949
 20
212.4395135683509
 30
0.0
 11
222.2381756750049
 21
203.2617791933509
 31
0.0
  0
LINE
  5
11D07
330
1F
100
AcDbEntity
  8
PV0001_1
  6
CENTER2
 48
0.5
370
    25
100
AcDbLine
 10
195.9394848791049
 20
212.4395135683509
 30
0.0
 11
186.7617352453149
 21
203.2617181581909
 31
0.0
  0
LINE
  5
11D08
330
1F
100
AcDbEntity
  8
PV0001_1
  6
Continuous
 48
0.5
370
    50
100
AcDbLine
 10
186.9999859777449
 20
206.0751947206909
 30
0.0
 11
186.9999859777449
 21
235.9248040956909
 31
0.0
  0
LINE
  5
11D09
330
1F
100
AcDbEntity
  8
PV0001_1
  6
Continuous
 48
0.5
370
    50
100
AcDbLine
 10
221.9999859777449
 20
206.0751947206909
 30
0.0
 11
221.9999859777449
 21
235.9248040956909
 31
0.0
  0
LINE
  5
11D0A
330
1F
100
AcDbEntity
  8
PV0001_1
  6
Continuous
 48
0.5
370
    50
100
AcDbLine
 10
219.4247601476649
 20
238.4999994081909
 30
0.0
 11
189.5751812902449
 21
238.4999994081909
 31
0.0
  0
LINE
  5
11D0B
330
1F
100
AcDbEntity
  8
PV0001_1
  6
Continuous
 48
0.5
370
    50
100
AcDbLine
 10
219.4247601476649
 20
203.4999994081909
 30
0.0
 11
189.5751812902449
 21
203.4999994081909
 31
0.0
  0
LINE
  5
11D0C
330
1F
100
AcDbEntity
  8
PV0001_1
  6
DASHED2
 48
0.5
370
    50
100
AcDbLine
 10
214.4999707189549
 20
253.9999994081909
 30
0.0
 11
203.4999402013749
 21
253.9999994081909
 31
0.0
  0
LINE
  5
11D0D
330
1F
100
AcDbEntity
  8
PV0001_1
  6
DASHED2
 48
0.5
370
    50
100
AcDbLine
 10
203.4999402013749
 20
251.4999994081909
 30
0.0
 11
179.4999707189549
 21
251.4999994081909
 31
0.0
  0
LINE
  5
11D0E
330
1F
100
AcDbEntity
  8
PV0001_1
  6
CENTER2
370
    25
100
AcDbLine
 10
217.8965771642649
 20
246.9999994081909
 30
0.0
 11
176.4790051427849
 21
246.9999994081909
 31
0.0
  0
LINE
  5
11D0F
330
1F
100
AcDbEntity
  8
PV0001_1
  6
DASHED2
 48
0.5
370
    50
100
AcDbLine
 10
203.4999402013749
 20
242.4999994081909
 30
0.0
 11
179.4999707189549
 21
242.4999994081909
 31
0.0
  0
LINE
  5
11D10
330
1F
100
AcDbEntity
  8
PV0001_1
  6
DASHED2
 48
0.5
370
    50
100
AcDbLine
 10
203.4999554601649
 20
253.9999994081909
 30
0.0
 11
203.4999554601649
 21
239.9999994081909
 31
0.0
  0
LINE
  5
11D11
330
1F
100
AcDbEntity
  8
PV0001_1
  6
DASHED2
 48
0.5
370
    50
100
AcDbLine
 10
214.4999707189549
 20
239.9999994081909
 30
0.0
 11
203.4999402013749
 21
239.9999994081909
 31
0.0
  0
LINE
  5
11D12
330
1F
100
AcDbEntity
  8
PV0001_1
  6
DASHED2
 48
0.5
370
    50
100
AcDbLine
 10
203.4999402013749
 20
190.4999994081909
 30
0.0
 11
179.4999707189549
 21
190.4999994081909
 31
0.0
  0
LINE
  5
11D13
330
1F
100
AcDbEntity
  8
PV0001_1
  6
DASHED2
 48
0.5
370
    50
100
AcDbLine
 10
203.4999402013749
 20
199.4999994081909
 30
0.0
 11
179.4999707189549
 21
199.4999994081909
 31
0.0
  0
LINE
  5
11D14
330
1F
100
AcDbEntity
  8
PV0001_1
  6
DASHED2
 48
0.5
370
    50
100
AcDbLine
 10
214.4999707189549
 20
201.9999994081909
 30
0.0
 11
203.4999402013749
 21
201.9999994081909
 31
0.0
  0
LINE
  5
11D15
330
1F
100
AcDbEntity
  8
PV0001_1
  6
DASHED2
 48
0.5
370
    50
100
AcDbLine
 10
214.4999707189549
 20
187.9999994081909
 30
0.0
 11
203.4999402013749
 21
187.9999994081909
 31
0.0
  0
LINE
  5
11D16
330
1F
100
AcDbEntity
  8
PV0001_1
  6
DASHED2
 48
0.5
370
    50
100
AcDbLine
 10
203.4999554601649
 20
187.9999994081909
 30
0.0
 11
203.4999554601649
 21
201.9999994081909
 31
0.0
  0
LINE
  5
11D17
330
1F
100
AcDbEntity
  8
PV0001_1
  6
CENTER2
370
    25
100
AcDbLine
 10
217.8965771642649
 20
194.9999994081909
 30
0.0
 11
176.4790051427849
 21
194.9999994081909
 31
0.0
  0
LINE
  5
11D18
330
1F
100
AcDbEntity
  8
PV0001_1
  6
Continuous
370
    50
100
AcDbLine
 10
214.4999707189549
 20
255.9999994081909
 30
0.0
 11
179.4999707189549
 21
255.9999994081909
 31
0.0
  0
LINE
  5
11D19
330
1F
100
AcDbEntity
  8
PV0001_1
  6
Continuous
370
    50
100
AcDbLine
 10
214.4999707189549
 20
185.9999994081909
 30
0.0
 11
179.4999707189549
 21
185.9999994081909
 31
0.0
  0
LINE
  5
11D1A
330
1F
100
AcDbEntity
  8
PV0001_1
  6
Continuous
370
    50
100
AcDbLine
 10
222.5000012365349
 20
203.2499994081909
 30
0.0
 11
222.5000012365349
 21
238.7499994081909
 31
0.0
  0
LINE
  5
11D1B
330
1F
100
AcDbEntity
  8
PV0001_1
  6
Continuous
370
    50
100
AcDbLine
 10
179.4999859777449
 20
185.9999994081909
 30
0.0
 11
179.4999859777449
 21
255.9999994081909
 31
0.0
  0
LINE
  5
11D1C
330
1F
100
AcDbEntity
  8
PV0001_1
  6
Continuous
 48
0.5
370
    50
100
AcDbLine
 10
214.4999859777449
 20
185.9999994081909
 30
0.0
 11
214.4999859777449
 21
203.2499994081909
 31
0.0
  0
LINE
  5
11D1D
330
1F
100
AcDbEntity
  8
PV0001_1
  6
Continuous
 48
0.5
370
    50
100
AcDbLine
 10
214.4999859777449
 20
238.7499994081909
 30
0.0
 11
214.4999859777449
 21
255.9999994081909
 31
0.0
  0
LINE
  5
11D1E
330
1F
100
AcDbEntity
  8
PV0001_1
  6
Continuous
370
    50
100
AcDbLine
 10
188.8475048986349
 20
98.99999940819089
 30
0.0
 11
220.1524670568449
 21
98.99999940819089
 31
0.0
  0
LINE
  5
11D1F
330
1F
100
AcDbEntity
  8
PV0001_1
  6
Continuous
370
    50
100
AcDbLine
 10
188.8475048986349
 20
142.9999994081908
 30
0.0
 11
220.1524670568449
 21
142.9999994081908
 31
0.0
  0
LINE
  5
11D20
330
1F
100
AcDbEntity
  8
PV0001_1
  6
Continuous
370
    50
100
AcDbLine
 10
182.4999859777449
 20
136.6524652285109
 30
0.0
 11
182.4999859777449
 21
105.3475335878809
 31
0.0
  0
LINE
  5
11D21
330
1F
100
AcDbEntity
  8
PV0001_1
  6
Continuous
370
    50
100
AcDbLine
 10
226.4999859777449
 20
136.6524652285109
 30
0.0
 11
226.4999859777449
 21
105.3475335878809
 31
0.0
  0
LINE
  5
11D22
330
1F
100
AcDbEntity
  8
PV0001_1
  6
Continuous
 48
0.5
370
    50
100
AcDbLine
 10
198.9547131505949
 20
130.4999994081909
 30
0.0
 11
210.0452588048849
 21
130.4999994081909
 31
0.0
  0
LINE
  5
11E05
330
1F
100
AcDbEntity
  8
PV0001_1
 48
0.5
370
    25
100
AcDbLine
 10
881.1500256505949
 20
375.9999994081909
 30
0.0
 11
884.0000012365349
 21
375.9999994081909
 31
0.0
  0
LINE
  5
11E06
330
1F
100
AcDbEntity
  8
PV0001_1
 48
0.5
370
    25
100
AcDbLine
 10
880.0000012365348
 20
375.7999872011609
 30
0.0
 11
881.1500256505949
 21
375.7999872011609
 31
0.0
  0
LINE
  5
11E07
330
1F
100
AcDbEntity
  8
PV0001_1
 48
0.5
370
    25
100
AcDbLine
 10
881.1500256505949
 20
365.9999994081909
 30
0.0
 11
884.0000012365349
 21
365.9999994081909
 31
0.0
  0
LINE
  5
11E08
330
1F
100
AcDbEntity
  8
PV0001_1
 48
0.5
370
    25
100
AcDbLine
 10
881.1500256505949
 20
375.9999994081909
 30
0.0
 11
881.1500256505949
 21
365.9999994081909
 31
0.0
  0
LINE
  5
11E09
330
1F
100
AcDbEntity
  8
PV0001_1
 48
0.5
370
    25
100
AcDbLine
 10
880.0000012365348
 20
375.9999994081909
 30
0.0
 11
880.0000012365348
 21
365.9999994081909
 31
0.0
  0
LINE
  5
11E0A
330
1F
100
AcDbEntity
  8
PV0001_1
 48
0.5
370
    25
100
AcDbLine
 10
880.0000012365348
 20
366.2000116152309
 30
0.0
 11
881.1500256505949
 21
366.2000116152309
 31
0.0
  0
LINE
  5
11E0B
330
1F
100
AcDbEntity
  8
PV0001_1
 48
0.5
370
    25
100
AcDbLine
 10
872.0000012365348
 20
375.9999994081909
 30
0.0
 11
880.0000012365348
 21
375.9999994081909
 31
0.0
  0
LINE
  5
11E0C
330
1F
100
AcDbEntity
  8
PV0001_1
 48
0.5
370
    25
100
AcDbLine
 10
872.0000012365348
 20
365.9999994081909
 30
0.0
 11
880.0000012365348
 21
365.9999994081909
 31
0.0
  0
LINE
  5
11E0D
330
1F
100
AcDbEntity
  8
PV0001_1
  6
PHANTOM2
 48
0.5
370
    25
100
AcDbLine
 10
872.0000012365348
 20
378.4999994081909
 30
0.0
 11
872.0000012365348
 21
363.4999994081909
 31
0.0
  0
LINE
  5
11E0E
330
1F
100
AcDbEntity
  8
PV0001_1
 48
0.5
370
    25
100
AcDbLine
 10
884.0000012365349
 20
375.9999994081909
 30
0.0
 11
884.0000012365349
 21
365.9999994081909
 31
0.0
  0
LINE
  5
11E0F
330
1F
100
AcDbEntity
  8
PV0001_1
 48
0.5
370
    50
100
AcDbLine
 10
881.0000012365348
 20
375.7999872011609
 30
0.0
 11
880.0000622716849
 21
375.7999872011609
 31
0.0
  0
LINE
  5
11E10
330
1F
100
AcDbEntity
  8
PV0001_1
 48
0.5
370
    50
100
AcDbLine
 10
881.0000012365348
 20
366.2000116152309
 30
0.0
 11
880.0000622716849
 21
366.2000116152309
 31
0.0
  0
LINE
  5
11E11
330
1F
100
AcDbEntity
  8
PV0001_1
 48
0.5
370
    50
100
AcDbLine
 10
880.0000012365348
 20
365.9999994081909
 30
0.0
 11
872.0000012365348
 21
365.9999994081909
 31
0.0
  0
LINE
  5
11E12
330
1F
100
AcDbEntity
  8
PV0001_1
 48
0.5
370
    50
100
AcDbLine
 10
880.0000012365348
 20
375.9999994081909
 30
0.0
 11
872.0000012365348
 21
375.9999994081909
 31
0.0
  0
LINE
  5
11E13
330
1F
100
AcDbEntity
  8
PV0001_1
 48
0.5
370
    50
100
AcDbLine
 10
881.0000012365348
 20
375.7999872011609
 30
0.0
 11
880.0000622716849
 21
375.7999872011609
 31
0.0
  0
LINE
  5
11E14
330
1F
100
AcDbEntity
  8
PV0001_1
 48
0.5
370
    50
100
AcDbLine
 10
881.0000012365348
 20
366.2000116152309
 30
0.0
 11
880.0000622716849
 21
366.2000116152309
 31
0.0
  0
LINE
  5
11E15
330
1F
100
AcDbEntity
  8
PV0001_1
  6
Continuous
370
    25
100
AcDbLine
 10
804.0000012365348
 20
364.7499994081909
 30
0.0
 11
872.0000012365348
 21
364.7499994081909
 31
0.0
  0
LINE
  5
11E16
330
1F
100
AcDbEntity
  8
PV0001_1
  6
Continuous
370
    50
100
AcDbLine
 10
804.0000012365348
 20
378.4999994081909
 30
0.0
 11
872.0000012365348
 21
378.4999994081909
 31
0.0
  0
LINE
  5
11E17
330
1F
100
AcDbEntity
  8
PV0001_1
  6
Continuous
370
    25
100
AcDbLine
 10
804.0000012365348
 20
377.2499994081909
 30
0.0
 11
872.0000012365348
 21
377.2499994081909
 31
0.0
  0
LINE
  5
11E18
330
1F
100
AcDbEntity
  8
PV0001_1
  6
Continuous
370
    50
100
AcDbLine
 10
804.0000012365348
 20
363.4999994081909
 30
0.0
 11
872.0000012365348
 21
363.4999994081909
 31
0.0
  0
LINE
  5
11E19
330
1F
100
AcDbEntity
  8
PV0001_1
  6
CENTER2
370
    25
100
AcDbLine
 10
799.0496838537149
 20
370.9999994081909
 30
0.0
 11
891.1826184240348
 21
370.9999994081909
 31
0.0
  0
MTEXT
  5
11E1A
330
1F
100
AcDbEntity
  8
PV0001_1
 62
     7
370
    25
100
AcDbMText
 10
874.9971762234496
 20
32.64765533533489
 30
0.0
 40
3.2
 41
0.0
 71
     4
 72
     5
  1
\T1.4;\W0.61;6000ZZ
 73
     1
 44
1.0
1001
ACAD
1000
MTEXTBEGIN
1070
    73
1070
     1
1070
    44
1040
1.0
1070
    74
1070
     0
1000
MTEXTEND
  0
LINE
  5
11E1B
330
1F
100
AcDbEntity
  8
PV0001_1
  6
PHANTOM2
 48
0.5
370
    25
100
AcDbLine
 10
881.1500256505949
 20
55.99999940819088
 30
0.0
 11
884.0000012365349
 21
55.99999940819088
 31
0.0
  0
LINE
  5
11E1C
330
1F
100
AcDbEntity
  8
PV0001_1
  6
PHANTOM2
 48
0.5
370
    25
100
AcDbLine
 10
880.0000012365348
 20
55.79998720116089
 30
0.0
 11
881.1500256505949
 21
55.79998720116089
 31
0.0
  0
LINE
  5
11E1D
330
1F
100
AcDbEntity
  8
PV0001_1
  6
PHANTOM2
 48
0.5
370
    25
100
AcDbLine
 10
881.1500256505949
 20
45.99999940819088
 30
0.0
 11
884.0000012365349
 21
45.99999940819088
 31
0.0
  0
LINE
  5
11E1E
330
1F
100
AcDbEntity
  8
PV0001_1
  6
PHANTOM2
 48
0.5
370
    25
100
AcDbLine
 10
881.1500256505949
 20
55.99999940819088
 30
0.0
 11
881.1500256505949
 21
45.99999940819088
 31
0.0
  0
LINE
  5
11E1F
330
1F
100
AcDbEntity
  8
PV0001_1
  6
PHANTOM2
 48
0.5
370
    25
100
AcDbLine
 10
880.0000012365348
 20
55.99999940819088
 30
0.0
 11
880.0000012365348
 21
45.99999940819088
 31
0.0
  0
LINE
  5
11E20
330
1F
100
AcDbEntity
  8
PV0001_1
  6
PHANTOM2
 48
0.5
370
    25
100
AcDbLine
 10
880.0000012365348
 20
46.20001161523089
 30
0.0
 11
881.1500256505949
 21
46.20001161523089
 31
0.0
  0
LINE
  5
11E21
330
1F
100
AcDbEntity
  8
PV0001_1
  6
PHANTOM2
 48
0.5
370
    25
100
AcDbLine
 10
872.0000012365348
 20
55.99999940819088
 30
0.0
 11
880.0000012365348
 21
55.99999940819088
 31
0.0
  0
LINE
  5
11E22
330
1F
100
AcDbEntity
  8
PV0001_1
  6
PHANTOM2
 48
0.5
370
    25
100
AcDbLine
 10
872.0000012365348
 20
45.99999940819088
 30
0.0
 11
880.0000012365348
 21
45.99999940819088
 31
0.0
  0
LINE
  5
11E23
330
1F
100
AcDbEntity
  8
PV0001_1
  6
PHANTOM2
 48
0.5
370
    25
100
AcDbLine
 10
872.0000012365348
 20
58.49999940819088
 30
0.0
 11
872.0000012365348
 21
43.49999940819088
 31
0.0
  0
LINE
  5
11E24
330
1F
100
AcDbEntity
  8
PV0001_1
  6
PHANTOM2
 48
0.5
370
    25
100
AcDbLine
 10
884.0000012365349
 20
55.99999940819088
 30
0.0
 11
884.0000012365349
 21
45.99999940819088
 31
0.0
  0
LINE
  5
11E25
330
1F
100
AcDbEntity
  8
PV0001_1
 48
0.5
370
    50
100
AcDbLine
 10
881.0000012365348
 20
42.49999940819089
 30
0.0
 11
881.0000012365348
 21
59.49999940819089
 31
0.0
  0
LINE
  5
11E26
330
1F
100
AcDbEntity
  8
PV0001_1
 48
0.5
370
    50
100
AcDbLine
 10
881.0000012365348
 20
59.49999940819089
 30
0.0
 11
880.0000622716849
 21
59.49999940819089
 31
0.0
  0
LINE
  5
11E27
330
1F
100
AcDbEntity
  8
PV0001_1
 48
0.5
370
    50
100
AcDbLine
 10
881.0000012365348
 20
42.49999940819089
 30
0.0
 11
880.0000622716849
 21
42.49999940819089
 31
0.0
  0
LINE
  5
11E28
330
1F
100
AcDbEntity
  8
PV0001_1
  6
DASHED2
 48
0.5
370
    50
100
AcDbLine
 10
881.0000012365348
 20
55.79998720116089
 30
0.0
 11
880.0000622716849
 21
55.79998720116089
 31
0.0
  0
LINE
  5
11E29
330
1F
100
AcDbEntity
  8
PV0001_1
  6
DASHED2
 48
0.5
370
    50
100
AcDbLine
 10
881.0000012365348
 20
46.20001161523089
 30
0.0
 11
880.0000622716849
 21
46.20001161523089
 31
0.0
  0
LINE
  5
11E2A
330
1F
100
AcDbEntity
  8
PV0001_1
 48
0.5
370
    50
100
AcDbLine
 10
872.0000012365348
 20
37.99999940819089
 30
0.0
 11
872.0000012365348
 21
63.99999940819089
 31
0.0
  0
LINE
  5
11E2B
330
1F
100
AcDbEntity
  8
PV0001_1
 48
0.5
370
    50
100
AcDbLine
 10
880.0000012365348
 20
37.99999940819089
 30
0.0
 11
880.0000012365348
 21
63.99999940819089
 31
0.0
  0
LINE
  5
11E2C
330
1F
100
AcDbEntity
  8
PV0001_1
 48
0.5
370
    50
100
AcDbLine
 10
880.0000012365348
 20
37.99999940819089
 30
0.0
 11
872.0000012365348
 21
37.99999940819089
 31
0.0
  0
LINE
  5
11E2D
330
1F
100
AcDbEntity
  8
PV0001_1
 48
0.5
370
    50
100
AcDbLine
 10
880.0000012365348
 20
63.99999940819089
 30
0.0
 11
872.0000012365348
 21
63.99999940819089
 31
0.0
  0
LINE
  5
11E2E
330
1F
100
AcDbEntity
  8
PV0001_1
  6
DASHED2
 48
0.5
370
    50
100
AcDbLine
 10
880.0000012365348
 20
45.99999940819088
 30
0.0
 11
872.0000012365348
 21
45.99999940819088
 31
0.0
  0
LINE
  5
11E2F
330
1F
100
AcDbEntity
  8
PV0001_1
  6
DASHED2
 48
0.5
370
    50
100
AcDbLine
 10
880.0000012365348
 20
55.99999940819088
 30
0.0
 11
872.0000012365348
 21
55.99999940819088
 31
0.0
  0
LINE
  5
11E30
330
1F
100
AcDbEntity
  8
PV0001_1
  6
DASHED2
 48
0.5
370
    50
100
AcDbLine
 10
881.0000012365348
 20
55.79998720116089
 30
0.0
 11
880.0000622716849
 21
55.79998720116089
 31
0.0
  0
LINE
  5
11E31
330
1F
100
AcDbEntity
  8
PV0001_1
  6
DASHED2
 48
0.5
370
    50
100
AcDbLine
 10
881.0000012365348
 20
46.20001161523089
 30
0.0
 11
880.0000622716849
 21
46.20001161523089
 31
0.0
  0
LINE
  5
11E32
330
1F
100
AcDbEntity
  8
PV0001_1
  6
PHANTOM2
 48
0.5
370
    25
100
AcDbLine
 10
881.1500256505949
 20
125.9999994081909
 30
0.0
 11
884.0000012365349
 21
125.9999994081909
 31
0.0
  0
LINE
  5
11E33
330
1F
100
AcDbEntity
  8
PV0001_1
  6
PHANTOM2
 48
0.5
370
    25
100
AcDbLine
 10
880.0000012365348
 20
125.7999872011609
 30
0.0
 11
881.1500256505949
 21
125.7999872011609
 31
0.0
  0
LINE
  5
11E34
330
1F
100
AcDbEntity
  8
PV0001_1
  6
PHANTOM2
 48
0.5
370
    25
100
AcDbLine
 10
881.1500256505949
 20
115.9999994081909
 30
0.0
 11
884.0000012365349
 21
115.9999994081909
 31
0.0
  0
LINE
  5
11E35
330
1F
100
AcDbEntity
  8
PV0001_1
  6
PHANTOM2
 48
0.5
370
    25
100
AcDbLine
 10
881.1500256505949
 20
125.9999994081909
 30
0.0
 11
881.1500256505949
 21
115.9999994081909
 31
0.0
  0
LINE
  5
11E36
330
1F
100
AcDbEntity
  8
PV0001_1
  6
PHANTOM2
 48
0.5
370
    25
100
AcDbLine
 10
880.0000012365348
 20
125.9999994081909
 30
0.0
 11
880.0000012365348
 21
115.9999994081909
 31
0.0
  0
LINE
  5
11E37
330
1F
100
AcDbEntity
  8
PV0001_1
  6
PHANTOM2
 48
0.5
370
    25
100
AcDbLine
 10
880.0000012365348
 20
116.2000116152309
 30
0.0
 11
881.1500256505949
 21
116.2000116152309
 31
0.0
  0
LINE
  5
11E38
330
1F
100
AcDbEntity
  8
PV0001_1
  6
PHANTOM2
 48
0.5
370
    25
100
AcDbLine
 10
872.0000012365348
 20
125.9999994081909
 30
0.0
 11
880.0000012365348
 21
125.9999994081909
 31
0.0
  0
LINE
  5
11E39
330
1F
100
AcDbEntity
  8
PV0001_1
  6
PHANTOM2
 48
0.5
370
    25
100
AcDbLine
 10
872.0000012365348
 20
115.9999994081909
 30
0.0
 11
880.0000012365348
 21
115.9999994081909
 31
0.0
  0
LINE
  5
11E3A
330
1F
100
AcDbEntity
  8
PV0001_1
  6
PHANTOM2
 48
0.5
370
    25
100
AcDbLine
 10
872.0000012365348
 20
128.4999994081909
 30
0.0
 11
872.0000012365348
 21
113.4999994081909
 31
0.0
  0
LINE
  5
11E3B
330
1F
100
AcDbEntity
  8
PV0001_1
  6
PHANTOM2
 48
0.5
370
    25
100
AcDbLine
 10
884.0000012365349
 20
125.9999994081909
 30
0.0
 11
884.0000012365349
 21
115.9999994081909
 31
0.0
  0
LINE
  5
11E3C
330
1F
100
AcDbEntity
  8
PV0001_1
  6
DASHED2
 48
0.5
370
    50
100
AcDbLine
 10
881.0000012365348
 20
112.4999994081909
 30
0.0
 11
881.0000012365348
 21
129.4999994081909
 31
0.0
  0
LINE
  5
11E3D
330
1F
100
AcDbEntity
  8
PV0001_1
  6
DASHED2
 48
0.5
370
    50
100
AcDbLine
 10
881.0000012365348
 20
129.4999994081909
 30
0.0
 11
880.0000622716849
 21
129.4999994081909
 31
0.0
  0
LINE
  5
11E3E
330
1F
100
AcDbEntity
  8
PV0001_1
  6
DASHED2
 48
0.5
370
    50
100
AcDbLine
 10
881.0000012365348
 20
112.4999994081909
 30
0.0
 11
880.0000622716849
 21
112.4999994081909
 31
0.0
  0
LINE
  5
11E3F
330
1F
100
AcDbEntity
  8
PV0001_1
  6
DASHED2
 48
0.5
370
    50
100
AcDbLine
 10
881.0000012365348
 20
125.7999872011609
 30
0.0
 11
880.0000622716849
 21
125.7999872011609
 31
0.0
  0
LINE
  5
11E40
330
1F
100
AcDbEntity
  8
PV0001_1
  6
DASHED2
 48
0.5
370
    50
100
AcDbLine
 10
881.0000012365348
 20
116.2000116152309
 30
0.0
 11
880.0000622716849
 21
116.2000116152309
 31
0.0
  0
LINE
  5
11E41
330
1F
100
AcDbEntity
  8
PV0001_1
  6
DASHED2
 48
0.5
370
    50
100
AcDbLine
 10
872.0000012365348
 20
107.9999994081909
 30
0.0
 11
872.0000012365348
 21
133.9999994081909
 31
0.0
  0
LINE
  5
11E42
330
1F
100
AcDbEntity
  8
PV0001_1
  6
DASHED2
 48
0.5
370
    50
100
AcDbLine
 10
880.0000012365348
 20
107.9999994081909
 30
0.0
 11
880.0000012365348
 21
133.9999994081909
 31
0.0
  0
LINE
  5
11E43
330
1F
100
AcDbEntity
  8
PV0001_1
  6
DASHED2
 48
0.5
370
    50
100
AcDbLine
 10
880.0000012365348
 20
107.9999994081909
 30
0.0
 11
872.0000012365348
 21
107.9999994081909
 31
0.0
  0
LINE
  5
11E44
330
1F
100
AcDbEntity
  8
PV0001_1
  6
DASHED2
 48
0.5
370
    50
100
AcDbLine
 10
880.0000012365348
 20
133.9999994081909
 30
0.0
 11
872.0000012365348
 21
133.9999994081909
 31
0.0
  0
LINE
  5
11E45
330
1F
100
AcDbEntity
  8
PV0001_1
  6
DASHED2
 48
0.5
370
    50
100
AcDbLine
 10
880.0000012365348
 20
115.9999994081909
 30
0.0
 11
872.0000012365348
 21
115.9999994081909
 31
0.0
  0
LINE
  5
11E46
330
1F
100
AcDbEntity
  8
PV0001_1
  6
DASHED2
 48
0.5
370
    50
100
AcDbLine
 10
880.0000012365348
 20
125.9999994081909
 30
0.0
 11
872.0000012365348
 21
125.9999994081909
 31
0.0
  0
LINE
  5
11E47
330
1F
100
AcDbEntity
  8
PV0001_1
  6
DASHED2
 48
0.5
370
    50
100
AcDbLine
 10
881.0000012365348
 20
125.7999872011609
 30
0.0
 11
880.0000622716849
 21
125.7999872011609
 31
0.0
  0
LINE
  5
11E48
330
1F
100
AcDbEntity
  8
PV0001_1
  6
DASHED2
 48
0.5
370
    50
100
AcDbLine
 10
881.0000012365348
 20
116.2000116152309
 30
0.0
 11
880.0000622716849
 21
116.2000116152309
 31
0.0
  0
LINE
  5
11E49
330
1F
100
AcDbEntity
  8
PV0001_1
  6
DASHED2
 48
0.5
370
    50
100
AcDbLine
 10
881.0000012365348
 20
216.2000116152309
 30
0.0
 11
880.0000622716849
 21
216.2000116152309
 31
0.0
  0
LINE
  5
11E4A
330
1F
100
AcDbEntity
  8
PV0001_1
  6
DASHED2
 48
0.5
370
    50
100
AcDbLine
 10
881.0000012365348
 20
225.7999872011609
 30
0.0
 11
880.0000622716849
 21
225.7999872011609
 31
0.0
  0
LINE
  5
11E4B
330
1F
100
AcDbEntity
  8
PV0001_1
  6
Continuous
 48
0.5
370
    50
100
AcDbLine
 10
962.0000012365348
 20
238.7499994081909
 30
0.0
 11
970.0000012365348
 21
238.7499994081909
 31
0.0
  0
LINE
  5
11E4C
330
1F
100
AcDbEntity
  8
PV0001_1
  6
Continuous
 48
0.5
370
    50
100
AcDbLine
 10
962.0000012365348
 20
203.2499994081909
 30
0.0
 11
970.0000012365348
 21
203.2499994081909
 31
0.0
  0
LINE
  5
11E4D
330
1F
100
AcDbEntity
  8
PV0001_1
  6
DASHED2
 48
0.5
370
    50
100
AcDbLine
 10
880.0000012365348
 20
225.9999994081909
 30
0.0
 11
872.0000012365348
 21
225.9999994081909
 31
0.0
  0
LINE
  5
11E4E
330
1F
100
AcDbEntity
  8
PV0001_1
  6
DASHED2
 48
0.5
370
    50
100
AcDbLine
 10
880.0000012365348
 20
215.9999994081909
 30
0.0
 11
872.0000012365348
 21
215.9999994081909
 31
0.0
  0
LINE
  5
11E4F
330
1F
100
AcDbEntity
  8
PV0001_1
  6
DASHED2
 48
0.5
370
    50
100
AcDbLine
 10
880.0000012365348
 20
233.9999994081909
 30
0.0
 11
872.0000012365348
 21
233.9999994081909
 31
0.0
  0
LINE
  5
11E50
330
1F
100
AcDbEntity
  8
PV0001_1
  6
DASHED2
 48
0.5
370
    50
100
AcDbLine
 10
880.0000012365348
 20
207.9999994081909
 30
0.0
 11
872.0000012365348
 21
207.9999994081909
 31
0.0
  0
LINE
  5
11E51
330
1F
100
AcDbEntity
  8
PV0001_1
  6
DASHED2
 48
0.5
370
    50
100
AcDbLine
 10
880.0000012365348
 20
207.9999994081909
 30
0.0
 11
880.0000012365348
 21
233.9999994081909
 31
0.0
  0
LINE
  5
11E52
330
1F
100
AcDbEntity
  8
PV0001_1
  6
DASHED2
 48
0.5
370
    50
100
AcDbLine
 10
872.0000012365348
 20
207.9999994081909
 30
0.0
 11
872.0000012365348
 21
233.9999994081909
 31
0.0
  0
LINE
  5
11E53
330
1F
100
AcDbEntity
  8
PV0001_1
  6
DASHED2
 48
0.5
370
    50
100
AcDbLine
 10
881.0000012365348
 20
216.2000116152309
 30
0.0
 11
880.0000622716849
 21
216.2000116152309
 31
0.0
  0
LINE
  5
11E54
330
1F
100
AcDbEntity
  8
PV0001_1
  6
DASHED2
 48
0.5
370
    50
100
AcDbLine
 10
881.0000012365348
 20
225.7999872011609
 30
0.0
 11
880.0000622716849
 21
225.7999872011609
 31
0.0
  0
LINE
  5
11E55
330
1F
100
AcDbEntity
  8
PV0001_1
  6
DASHED2
 48
0.5
370
    50
100
AcDbLine
 10
881.0000012365348
 20
212.4999994081909
 30
0.0
 11
880.0000622716849
 21
212.4999994081909
 31
0.0
  0
LINE
  5
11E56
330
1F
100
AcDbEntity
  8
PV0001_1
  6
DASHED2
 48
0.5
370
    50
100
AcDbLine
 10
881.0000012365348
 20
229.4999994081909
 30
0.0
 11
880.0000622716849
 21
229.4999994081909
 31
0.0
  0
LINE
  5
11E57
330
1F
100
AcDbEntity
  8
PV0001_1
  6
DASHED2
 48
0.5
370
    50
100
AcDbLine
 10
881.0000012365348
 20
212.4999994081909
 30
0.0
 11
881.0000012365348
 21
229.4999994081909
 31
0.0
  0
LINE
  5
11E58
330
1F
100
AcDbEntity
  8
PV0001_1
  6
Continuous
370
    50
100
AcDbLine
 10
866.0000012365349
 20
255.9999994081909
 30
0.0
 11
866.0000012365349
 21
185.9999994081909
 31
0.0
  0
LINE
  5
11E59
330
1F
100
AcDbEntity
  8
PV0001_1
  6
Continuous
370
    50
100
AcDbLine
 10
886.0000012365349
 20
255.9999994081909
 30
0.0
 11
886.0000012365349
 21
185.9999994081909
 31
0.0
  0
LINE
  5
11E5A
330
1F
100
AcDbEntity
  8
PV0001_1
  6
Continuous
 48
0.5
370
    50
100
AcDbLine
 10
866.0000012365349
 20
255.9999994081909
 30
0.0
 11
886.0000012365349
 21
255.9999994081909
 31
0.0
  0
LINE
  5
11E5B
330
1F
100
AcDbEntity
  8
PV0001_1
  6
Continuous
 48
0.5
370
    50
100
AcDbLine
 10
866.0000012365349
 20
185.9999994081909
 30
0.0
 11
886.0000012365349
 21
185.9999994081909
 31
0.0
  0
LINE
  5
11E5C
330
1F
100
AcDbEntity
  8
PV0001_1
  6
CENTER2
 48
0.5
370
    25
100
AcDbLine
 10
886.5000012365349
 20
246.9999994081909
 30
0.0
 11
865.5000012365348
 21
246.9999994081909
 31
0.0
  0
LINE
  5
11E5D
330
1F
100
AcDbEntity
  8
PV0001_1
  6
CENTER2
 48
0.5
370
    25
100
AcDbLine
 10
876.0000012365349
 20
257.4999994081909
 30
0.0
 11
876.0000012365349
 21
236.4999994081909
 31
0.0
  0
LINE
  5
11E5E
330
1F
100
AcDbEntity
  8
PV0001_1
  6
CENTER2
 48
0.5
370
    25
100
AcDbLine
 10
886.5000012365349
 20
194.9999994081909
 30
0.0
 11
865.5000012365348
 21
194.9999994081909
 31
0.0
  0
LINE
  5
11E5F
330
1F
100
AcDbEntity
  8
PV0001_1
  6
CENTER2
 48
0.5
370
    25
100
AcDbLine
 10
876.0000012365349
 20
205.4999994081909
 30
0.0
 11
876.0000012365349
 21
184.4999994081909
 31
0.0
  0
LINE
  5
11E60
330
1F
100
AcDbEntity
  8
PV0001_1
  6
CENTER2
370
    25
100
AcDbLine
 10
959.0396740880949
 20
220.9999994081909
 30
0.0
 11
1007.733765884965
 21
220.9999994081909
 31
0.0
  0
LINE
  5
11E61
330
1F
100
AcDbEntity
  8
PV0001_1
  6
CENTER2
370
    25
100
AcDbLine
 10
980.0000012365348
 20
258.9856561464809
 30
0.0
 11
980.0000012365348
 21
183.1279901308509
 31
0.0
  0
LINE
  5
11E62
330
1F
100
AcDbEntity
  8
PV0001_1
  6
Continuous
370
    50
100
AcDbLine
 10
1005.000001236535
 20
255.9999994081909
 30
0.0
 11
1005.000001236535
 21
185.9999994081909
 31
0.0
  0
LINE
  5
11E63
330
1F
100
AcDbEntity
  8
PV0001_1
  6
Continuous
370
    50
100
AcDbLine
 10
962.0000012365348
 20
238.7499994081909
 30
0.0
 11
962.0000012365348
 21
203.2499994081909
 31
0.0
  0
LINE
  5
11E64
330
1F
100
AcDbEntity
  8
PV0001_1
  6
Continuous
370
    50
100
AcDbLine
 10
970.0000012365348
 20
185.9999994081909
 30
0.0
 11
1005.000001236535
 21
185.9999994081909
 31
0.0
  0
LINE
  5
11E65
330
1F
100
AcDbEntity
  8
PV0001_1
  6
Continuous
370
    50
100
AcDbLine
 10
970.0000012365348
 20
255.9999994081909
 30
0.0
 11
1005.000001236535
 21
255.9999994081909
 31
0.0
  0
LINE
  5
11E66
330
1F
100
AcDbEntity
  8
PV0001_1
  6
Continuous
 48
0.5
370
    50
100
AcDbLine
 10
970.0000012365348
 20
255.9999994081909
 30
0.0
 11
970.0000012365348
 21
238.7499994081909
 31
0.0
  0
LINE
  5
11E67
330
1F
100
AcDbEntity
  8
PV0001_1
  6
Continuous
 48
0.5
370
    50
100
AcDbLine
 10
970.0000012365348
 20
203.2499994081909
 30
0.0
 11
970.0000012365348
 21
185.9999994081909
 31
0.0
  0
LINE
  5
11E68
330
1F
100
AcDbEntity
  8
PV0001_1
  6
CENTER2
370
    25
100
AcDbLine
 10
966.5502942052849
 20
194.9999994081909
 30
0.0
 11
1007.733765884965
 21
194.9999994081909
 31
0.0
  0
LINE
  5
11E69
330
1F
100
AcDbEntity
  8
PV0001_1
  6
CENTER2
370
    25
100
AcDbLine
 10
966.6755383459049
 20
246.9999994081909
 30
0.0
 11
1007.733765884965
 21
246.9999994081909
 31
0.0
  0
LINE
  5
11E6A
330
1F
100
AcDbEntity
  8
PV0001_1
  6
DASHED2
 48
0.5
370
    50
100
AcDbLine
 10
981.0000012365348
 20
242.4999994081909
 30
0.0
 11
1005.000001236535
 21
242.4999994081909
 31
0.0
  0
LINE
  5
11E6B
330
1F
100
AcDbEntity
  8
PV0001_1
  6
DASHED2
 48
0.5
370
    50
100
AcDbLine
 10
981.0000012365348
 20
251.4999994081909
 30
0.0
 11
1005.000001236535
 21
251.4999994081909
 31
0.0
  0
LINE
  5
11E6C
330
1F
100
AcDbEntity
  8
PV0001_1
  6
DASHED2
 48
0.5
370
    50
100
AcDbLine
 10
981.0000012365348
 20
190.4999994081909
 30
0.0
 11
1005.000001236535
 21
190.4999994081909
 31
0.0
  0
LINE
  5
11E6D
330
1F
100
AcDbEntity
  8
PV0001_1
  6
DASHED2
 48
0.5
370
    50
100
AcDbLine
 10
981.0000012365348
 20
199.4999994081909
 30
0.0
 11
1005.000001236535
 21
199.4999994081909
 31
0.0
  0
LINE
  5
11E6E
330
1F
100
AcDbEntity
  8
PV0001_1
  6
DASHED2
 48
0.5
370
    50
100
AcDbLine
 10
970.0000012365348
 20
201.9999994081909
 30
0.0
 11
981.0000012365348
 21
201.9999994081909
 31
0.0
  0
LINE
  5
11E6F
330
1F
100
AcDbEntity
  8
PV0001_1
  6
DASHED2
 48
0.5
370
    50
100
AcDbLine
 10
970.0000012365348
 20
187.9999994081909
 30
0.0
 11
981.0000012365348
 21
187.9999994081909
 31
0.0
  0
LINE
  5
11E70
330
1F
100
AcDbEntity
  8
PV0001_1
  6
DASHED2
 48
0.5
370
    50
100
AcDbLine
 10
970.0000012365348
 20
253.9999994081909
 30
0.0
 11
981.0000012365348
 21
253.9999994081909
 31
0.0
  0
LINE
  5
11E71
330
1F
100
AcDbEntity
  8
PV0001_1
  6
DASHED2
 48
0.5
370
    50
100
AcDbLine
 10
970.0000012365348
 20
239.9999994081909
 30
0.0
 11
981.0000012365348
 21
239.9999994081909
 31
0.0
  0
LINE
  5
11E72
330
1F
100
AcDbEntity
  8
PV0001_1
  6
DASHED2
 48
0.5
370
    50
100
AcDbLine
 10
981.0000012365348
 20
253.9999994081909
 30
0.0
 11
981.0000012365348
 21
239.9999994081909
 31
0.0
  0
LINE
  5
11E73
330
1F
100
AcDbEntity
  8
PV0001_1
  6
DASHED2
 48
0.5
370
    50
100
AcDbLine
 10
981.0000012365348
 20
201.9999994081909
 30
0.0
 11
981.0000012365348
 21
187.9999994081909
 31
0.0
  0
LINE
  5
11E74
330
1F
100
AcDbEntity
  8
PV0001_1
  6
Continuous
 48
0.5
370
    50
100
AcDbLine
 10
866.0000012365349
 20
203.2499994081909
 30
0.0
 11
886.0000012365349
 21
203.2499994081909
 31
0.0
  0
LINE
  5
11E75
330
1F
100
AcDbEntity
  8
PV0001_1
  6
Continuous
 48
0.5
370
    50
100
AcDbLine
 10
866.0000012365349
 20
238.7499994081909
 30
0.0
 11
886.0000012365349
 21
238.7499994081909
 31
0.0
  0
LINE
  5
11E76
330
1F
100
AcDbEntity
  8
PV0001_1
  6
PHANTOM2
 48
0.5
370
    25
100
AcDbLine
 10
884.0000012365349
 20
225.9999994081909
 30
0.0
 11
884.0000012365349
 21
215.9999994081909
 31
0.0
  0
LINE
  5
11E77
330
1F
100
AcDbEntity
  8
PV0001_1
  6
PHANTOM2
 48
0.5
370
    25
100
AcDbLine
 10
872.0000012365348
 20
228.4999994081909
 30
0.0
 11
872.0000012365348
 21
213.4999994081909
 31
0.0
  0
LINE
  5
11E78
330
1F
100
AcDbEntity
  8
PV0001_1
  6
PHANTOM2
 48
0.5
370
    25
100
AcDbLine
 10
872.0000012365348
 20
215.9999994081909
 30
0.0
 11
880.0000012365348
 21
215.9999994081909
 31
0.0
  0
LINE
  5
11E79
330
1F
100
AcDbEntity
  8
PV0001_1
  6
PHANTOM2
 48
0.5
370
    25
100
AcDbLine
 10
872.0000012365348
 20
225.9999994081909
 30
0.0
 11
880.0000012365348
 21
225.9999994081909
 31
0.0
  0
LINE
  5
11E7A
330
1F
100
AcDbEntity
  8
PV0001_1
  6
PHANTOM2
 48
0.5
370
    25
100
AcDbLine
 10
880.0000012365348
 20
216.2000116152309
 30
0.0
 11
881.1500256505949
 21
216.2000116152309
 31
0.0
  0
LINE
  5
11E7B
330
1F
100
AcDbEntity
  8
PV0001_1
  6
PHANTOM2
 48
0.5
370
    25
100
AcDbLine
 10
880.0000012365348
 20
225.9999994081909
 30
0.0
 11
880.0000012365348
 21
215.9999994081909
 31
0.0
  0
LINE
  5
11E7C
330
1F
100
AcDbEntity
  8
PV0001_1
  6
PHANTOM2
 48
0.5
370
    25
100
AcDbLine
 10
881.1500256505949
 20
225.9999994081909
 30
0.0
 11
881.1500256505949
 21
215.9999994081909
 31
0.0
  0
LINE
  5
11E7D
330
1F
100
AcDbEntity
  8
PV0001_1
  6
PHANTOM2
 48
0.5
370
    25
100
AcDbLine
 10
881.1500256505949
 20
215.9999994081909
 30
0.0
 11
884.0000012365349
 21
215.9999994081909
 31
0.0
  0
LINE
  5
11E7E
330
1F
100
AcDbEntity
  8
PV0001_1
  6
PHANTOM2
 48
0.5
370
    25
100
AcDbLine
 10
880.0000012365348
 20
225.7999872011609
 30
0.0
 11
881.1500256505949
 21
225.7999872011609
 31
0.0
  0
LINE
  5
11E7F
330
1F
100
AcDbEntity
  8
PV0001_1
  6
PHANTOM2
 48
0.5
370
    25
100
AcDbLine
 10
881.1500256505949
 20
225.9999994081909
 30
0.0
 11
884.0000012365349
 21
225.9999994081909
 31
0.0
  0
CIRCLE
  5
11E80
330
1F
100
AcDbEntity
  8
PV0001_1
  6
Continuous
 48
0.5
370
    50
100
AcDbCircle
 10
876.0000012365349
 20
246.9999994081909
 30
0.0
 40
4.5
  0
CIRCLE
  5
11E81
330
1F
100
AcDbEntity
  8
PV0001_1
  6
Continuous
 48
0.5
370
    50
100
AcDbCircle
 10
876.0000012365349
 20
194.9999994081909
 30
0.0
 40
4.5
  0
CIRCLE
  5
11E82
330
1F
100
AcDbEntity
  8
PV0001_1
  6
Continuous
370
    50
100
AcDbCircle
 10
876.0000012365349
 20
194.9999994081909
 30
0.0
 40
7.0
  0
CIRCLE
  5
11E83
330
1F
100
AcDbEntity
  8
PV0001_1
  6
Continuous
370
    50
100
AcDbCircle
 10
876.0000012365349
 20
246.9999994081909
 30
0.0
 40
7.0
  0
CIRCLE
  5
11E84
330
1F
100
AcDbEntity
  8
PV0001_1
  6
Continuous
370
    50
100
AcDbCircle
 10
980.0000012365348
 20
220.9999994081909
 30
0.0
 40
13.0
  0
MTEXT
  5
11E85
330
1F
100
AcDbEntity
  8
PV0001_1
 62
     7
370
    25
100
AcDbMText
 10
868.0983620730371
 20
181.0055536074109
 30
0.0
 40
3.2
 41
0.0
 71
     4
 72
     5
  1
\T1.40;\W0.61;BUK-10S
 73
     1
 44
1.0
1001
ACAD
1000
MTEXTBEGIN
1070
    73
1070
     1
1070
    44
1040
1.0
1070
    74
1070
     0
1000
MTEXTEND
  0
LINE
  5
11E86
330
1F
100
AcDbEntity
  8
0
370
    -2
100
AcDbLine
 10
880.0000012365348
 20
102.9999994081909
 30
0.0
 11
880.0000012365348
 21
93.99999940819089
 31
0.0
  0
LINE
  5
11E87
330
1F
100
AcDbEntity
  8
0
  6
AM_ISO08W050
370
    -2
100
AcDbLine
 10
989.2075499614
 20
150.9999994081909
 30
0.0
 11
989.2075499614
 21
90.99999940819094
 31
0.0
  0
LINE
  5
11E88
330
1F
100
AcDbEntity
  8
0
370
    -2
100
AcDbLine
 10
887.000001236535
 20
142.9999994081908
 30
0.0
 11
887.000001236535
 21
93.99999940819089
 31
0.0
  0
LINE
  5
11E89
330
1F
100
AcDbEntity
  8
0
370
    -2
100
AcDbLine
 10
1004.860025803898
 20
98.99999940819094
 30
0.0
 11
973.5550741189012
 21
98.99999940819094
 31
0.0
  0
LINE
  5
11E8A
330
1F
100
AcDbEntity
  8
0
  6
AM_ISO08W050
370
    -2
100
AcDbLine
 10
1019.207549961399
 20
120.9999994081909
 30
0.0
 11
959.2075499613999
 21
120.9999994081909
 31
0.0
  0
LINE
  5
11E8B
330
1F
100
AcDbEntity
  8
0
370
    -2
100
AcDbLine
 10
973.555074118901
 20
142.9999994081909
 30
0.0
 11
1004.860025803898
 21
142.9999994081909
 31
0.0
  0
LINE
  5
11E8C
330
1F
100
AcDbEntity
  8
0
  6
AM_ISO08W050
370
    -2
100
AcDbLine
 10
1010.420753396996
 20
142.2132028437875
 30
0.0
 11
967.9943465258034
 21
99.78679597259452
 31
0.0
  0
LINE
  5
11E8D
330
1F
100
AcDbEntity
  8
0
  6
AM_ISO08W050
370
    -2
100
AcDbLine
 10
1010.420753396996
 20
99.78679597259452
 30
0.0
 11
967.9943465258032
 21
142.2132028437875
 31
0.0
  0
CIRCLE
  5
11E8E
330
1F
100
AcDbEntity
  8
0
  6
AM_ISO08W050
370
    -2
100
AcDbCircle
 10
989.2075499613994
 20
120.999999408191
 30
0.0
 40
22.0
  0
CIRCLE
  5
11E8F
330
1F
100
AcDbEntity
  8
0
370
    -2
100
AcDbCircle
 10
989.2075499614
 20
120.999999408191
 30
0.0
 40
13.0
  0
CIRCLE
  5
11E90
330
1F
100
AcDbEntity
  8
0
  6
DASHED2
370
    -2
100
AcDbCircle
 10
989.2075499614
 20
120.999999408191
 30
0.0
 40
18.0
  0
CIRCLE
  5
11E91
330
1F
100
AcDbEntity
  8
0
370
    -2
100
AcDbCircle
 10
1004.763899147504
 20
136.5563485942948
 30
0.0
 40
4.0
  0
CIRCLE
  5
11E92
330
1F
100
AcDbEntity
  8
0
370
    -2
100
AcDbCircle
 10
1004.763899147504
 20
136.5563485942949
 30
0.0
 40
2.25
  0
ARC
  5
11E93
330
1F
100
AcDbEntity
  8
0
370
    -2
100
AcDbCircle
 10
989.2075499613994
 20
120.999999408191
 30
0.0
 40
27.0
100
AcDbArc
 50
35.43094468733995
 51
54.56905531266006
  0
LINE
  5
11E94
330
1F
100
AcDbEntity
  8
0
370
    -2
100
AcDbLine
 10
1011.207549961399
 20
136.6524752506893
 30
0.0
 11
1011.207549961399
 21
105.3475235656928
 31
0.0
  0
CIRCLE
  5
11E95
330
1F
100
AcDbEntity
  8
0
370
    -2
100
AcDbCircle
 10
1004.763899147504
 20
105.443650222087
 30
0.0
 40
2.25
  0
CIRCLE
  5
11E96
330
1F
100
AcDbEntity
  8
0
370
    -2
100
AcDbCircle
 10
1004.763899147504
 20
105.4436502220869
 30
0.0
 40
4.0
  0
ARC
  5
11E97
330
1F
100
AcDbEntity
  8
0
370
    -2
100
AcDbCircle
 10
989.2075499613994
 20
120.999999408191
 30
0.0
 40
27.0
100
AcDbArc
 50
305.43094468734
 51
324.5690553126601
  0
LINE
  5
11E98
330
1F
100
AcDbEntity
  8
0
370
    -2
100
AcDbLine
 10
872.0000012365348
 20
138.9999994081909
 30
0.0
 11
872.0000012365348
 21
102.9999994081909
 31
0.0
  0
CIRCLE
  5
11E99
330
1F
100
AcDbEntity
  8
0
370
    -2
100
AcDbCircle
 10
973.6512007752956
 20
136.556348594295
 30
0.0
 40
4.0
  0
CIRCLE
  5
11E9A
330
1F
100
AcDbEntity
  8
0
370
    -2
100
AcDbCircle
 10
973.6512007752956
 20
136.5563485942951
 30
0.0
 40
2.25
  0
ARC
  5
11E9B
330
1F
100
AcDbEntity
  8
0
370
    -2
100
AcDbCircle
 10
989.2075499613994
 20
120.999999408191
 30
0.0
 40
27.0
100
AcDbArc
 50
125.4309446873399
 51
144.56905531266
  0
LINE
  5
11E9C
330
1F
100
AcDbEntity
  8
0
370
    -2
100
AcDbLine
 10
880.0000012365348
 20
138.9999994081909
 30
0.0
 11
880.0000012365348
 21
142.9999994081908
 31
0.0
  0
LINE
  5
11E9D
330
1F
100
AcDbEntity
  8
0
370
    -2
100
AcDbLine
 10
880.0000012365348
 20
142.9999994081908
 30
0.0
 11
887.000001236535
 21
142.9999994081908
 31
0.0
  0
LINE
  5
11E9E
330
1F
100
AcDbEntity
  8
0
370
    -2
100
AcDbLine
 10
880.0000012365348
 20
138.9999994081909
 30
0.0
 11
872.0000012365348
 21
138.9999994081909
 31
0.0
  0
LINE
  5
11E9F
330
1F
100
AcDbEntity
  8
0
370
    -2
100
AcDbLine
 10
967.2075499613999
 20
105.3475235656922
 30
0.0
 11
967.2075499613999
 21
136.6524752506899
 31
0.0
  0
CIRCLE
  5
11EA0
330
1F
100
AcDbEntity
  8
0
370
    -2
100
AcDbCircle
 10
973.6512007752956
 20
105.4436502220867
 30
0.0
 40
2.25
  0
CIRCLE
  5
11EA1
330
1F
100
AcDbEntity
  8
0
370
    -2
100
AcDbCircle
 10
973.6512007752956
 20
105.4436502220867
 30
0.0
 40
4.0
  0
ARC
  5
11EA2
330
1F
100
AcDbEntity
  8
0
370
    -2
100
AcDbCircle
 10
989.2075499613994
 20
120.999999408191
 30
0.0
 40
27.0
100
AcDbArc
 50
215.43094468734
 51
234.5690553126601
  0
LINE
  5
11EA3
330
1F
100
AcDbEntity
  8
0
370
    -2
100
AcDbLine
 10
886.5000012365349
 20
133.9999994081909
 30
0.0
 11
872.5000012365349
 21
133.9999994081909
 31
0.0
  0
LINE
  5
11EA4
330
1F
100
AcDbEntity
  8
0
370
    -2
100
AcDbLine
 10
886.5000012365349
 20
107.9999994081909
 30
0.0
 11
872.5000012365349
 21
107.9999994081909
 31
0.0
  0
LINE
  5
11EA5
330
1F
100
AcDbEntity
  8
0
370
    -2
100
AcDbLine
 10
880.0000012365348
 20
102.9999994081909
 30
0.0
 11
872.0000012365348
 21
102.9999994081909
 31
0.0
  0
LINE
  5
11EA6
330
1F
100
AcDbEntity
  8
0
370
    -2
100
AcDbLine
 10
880.0000012365348
 20
93.99999940819089
 30
0.0
 11
887.000001236535
 21
93.99999940819089
 31
0.0
  0
CIRCLE
  5
11EA7
330
1F
100
AcDbEntity
  8
0
370
    -2
100
AcDbCircle
 10
989.2075499614
 20
120.999999408191
 30
0.0
 40
13.5
  0
LINE
  5
11EA8
330
1F
100
AcDbEntity
  8
0
100
AcDbLine
 10
887.000001236535
 20
107.4999994081909
 30
0.0
 11
886.5000012365349
 21
107.9999994081909
 31
0.0
  0
LINE
  5
11EA9
330
1F
100
AcDbEntity
  8
0
100
AcDbLine
 10
886.5000012365349
 20
107.9999994081909
 30
0.0
 11
886.5000012365349
 21
133.9999994081909
 31
0.0
  0
LINE
  5
11EAA
330
1F
100
AcDbEntity
  8
0
100
AcDbLine
 10
886.5000012365349
 20
133.9999994081909
 30
0.0
 11
887.000001236535
 21
134.4999994081909
 31
0.0
  0
LINE
  5
11EAB
330
1F
100
AcDbEntity
  8
0
100
AcDbLine
 10
872.0000012365348
 20
134.4999994081909
 30
0.0
 11
872.5000012365349
 21
133.9999994081909
 31
0.0
  0
LINE
  5
11EAC
330
1F
100
AcDbEntity
  8
0
100
AcDbLine
 10
872.5000012365349
 20
133.9999994081909
 30
0.0
 11
872.5000012365349
 21
107.9999994081909
 31
0.0
  0
LINE
  5
11EAD
330
1F
100
AcDbEntity
  8
0
100
AcDbLine
 10
872.5000012365349
 20
107.9999994081909
 30
0.0
 11
872.0000012365348
 21
107.4999994081909
 31
0.0
  0
MTEXT
  5
11EAE
330
1F
100
AcDbEntity
  8
PV0001_1
 62
     7
370
    25
100
AcDbMText
 10
872.9971762234496
 20
85.54714498114652
 30
0.0
 40
3.2
 41
0.0
 71
     4
 72
     5
  1
\T1.4;\W0.61;BUM-10S
 73
     1
 44
1.0
1001
ACAD
1000
MTEXTBEGIN
1070
    73
1070
     1
1070
    44
1040
1.0
1070
    74
1070
     0
1000
MTEXTEND
  0
LINE
  5
11EAF
330
1F
100
AcDbEntity
  8
PV0001_1
  6
PHANTOM2
370
    25
100
AcDbLine
 10
804.0000012365348
 20
213.4999994081909
 30
0.0
 11
872.0000012365348
 21
213.4999994081909
 31
0.0
  0
LINE
  5
11EB0
330
1F
100
AcDbEntity
  8
PV0001_1
  6
PHANTOM2
370
    25
100
AcDbLine
 10
804.0000012365348
 20
227.2499994081909
 30
0.0
 11
872.0000012365348
 21
227.2499994081909
 31
0.0
  0
LINE
  5
11EB1
330
1F
100
AcDbEntity
  8
PV0001_1
  6
PHANTOM2
370
    25
100
AcDbLine
 10
804.0000012365348
 20
214.7499994081909
 30
0.0
 11
872.0000012365348
 21
214.7499994081909
 31
0.0
  0
LINE
  5
11EB2
330
1F
100
AcDbEntity
  8
PV0001_1
  6
PHANTOM2
370
    25
100
AcDbLine
 10
804.0000012365348
 20
228.4999994081909
 30
0.0
 11
872.0000012365348
 21
228.4999994081909
 31
0.0
  0
LINE
  5
11EB3
330
1F
100
AcDbEntity
  8
PV0001_1
  6
CENTER2
370
    25
100
AcDbLine
 10
801.1989758459048
 20
220.9999994081909
 30
0.0
 11
891.1826184240348
 21
220.9999994081909
 31
0.0
  0
LINE
  5
11EB4
330
1F
100
AcDbEntity
  8
PV0001_1
  6
CENTER2
370
    25
100
AcDbLine
 10
799.049683853715
 20
120.9999994081909
 30
0.0
 11
891.182618424035
 21
120.9999994081909
 31
0.0
  0
LINE
  5
11EB5
330
1F
100
AcDbEntity
  8
PV0001_1
  6
PHANTOM2
370
    50
100
AcDbLine
 10
804.000001236535
 20
113.4999994081909
 30
0.0
 11
872.0000012365348
 21
113.4999994081909
 31
0.0
  0
LINE
  5
11EB6
330
1F
100
AcDbEntity
  8
PV0001_1
  6
PHANTOM2
370
    25
100
AcDbLine
 10
804.000001236535
 20
127.2499994081909
 30
0.0
 11
872.0000012365348
 21
127.2499994081909
 31
0.0
  0
LINE
  5
11EB7
330
1F
100
AcDbEntity
  8
PV0001_1
  6
PHANTOM2
370
    50
100
AcDbLine
 10
804.000001236535
 20
128.4999994081909
 30
0.0
 11
872.0000012365348
 21
128.4999994081909
 31
0.0
  0
LINE
  5
11EB8
330
1F
100
AcDbEntity
  8
PV0001_1
  6
PHANTOM2
370
    25
100
AcDbLine
 10
804.000001236535
 20
114.7499994081909
 30
0.0
 11
872.0000012365348
 21
114.7499994081909
 31
0.0
  0
LINE
  5
11EB9
330
1F
100
AcDbEntity
  8
PV0001_1
  6
CENTER2
370
    25
100
AcDbLine
 10
799.049683853715
 20
50.99999940819088
 30
0.0
 11
891.182618424035
 21
50.99999940819088
 31
0.0
  0
LINE
  5
11EBA
330
1F
100
AcDbEntity
  8
PV0001_1
  6
PHANTOM2
370
    25
100
AcDbLine
 10
804.000001236535
 20
44.74999940819088
 30
0.0
 11
872.0000012365348
 21
44.74999940819088
 31
0.0
  0
LINE
  5
11EBB
330
1F
100
AcDbEntity
  8
PV0001_1
  6
PHANTOM2
370
    25
100
AcDbLine
 10
804.000001236535
 20
57.24999940819088
 30
0.0
 11
872.0000012365348
 21
57.24999940819088
 31
0.0
  0
LINE
  5
11EBC
330
1F
100
AcDbEntity
  8
PV0001_1
  6
PHANTOM2
370
    25
100
AcDbLine
 10
804.000001236535
 20
58.49999940819088
 30
0.0
 11
872.0000012365348
 21
58.49999940819088
 31
0.0
  0
LINE
  5
11EBD
330
1F
100
AcDbEntity
  8
PV0001_1
  6
PHANTOM2
370
    25
100
AcDbLine
 10
804.000001236535
 20
43.49999940819088
 30
0.0
 11
872.0000012365348
 21
43.49999940819088
 31
0.0
  0
ARC
  5
11F4E
330
1F
100
AcDbEntity
  8
PV0001_1
  6
Continuous
 48
0.5
370
    50
100
AcDbCircle
 10
336.5000012365349
 20
420.9999994081909
 30
0.0
 40
7.5
100
AcDbArc
 50
36.86989730957555
 51
143.1300974540931
  0
ARC
  5
11F4F
330
1F
100
AcDbEntity
  8
PV0001_1
  6
Continuous
 48
0.5
370
    50
100
AcDbCircle
 10
336.5000012365349
 20
420.9999994081909
 30
0.0
 40
7.5
100
AcDbArc
 50
216.8699025459069
 51
323.1301026904244
  0
LINE
  5
11F50
330
1F
100
AcDbEntity
  8
PV0001_1
  6
Continuous
 48
0.5
370
    50
100
AcDbLine
 10
330.5000012365349
 20
425.4999994081908
 30
0.0
 11
330.5000012365349
 21
416.4999994081909
 31
0.0
  0
LINE
  5
11F51
330
1F
100
AcDbEntity
  8
PV0001_1
  6
Continuous
 48
0.5
370
    50
100
AcDbLine
 10
342.5000012365349
 20
425.4999994081908
 30
0.0
 11
342.5000012365349
 21
416.4999994081909
 31
0.0
  0
LINE
  5
11F52
330
1F
100
AcDbEntity
  8
PV0001_1
  6
CENTER2
 48
0.5
370
    25
100
AcDbLine
 10
336.5000012365349
 20
428.9999994081909
 30
0.0
 11
336.5000012365349
 21
412.9999994081908
 31
0.0
  0
LINE
  5
11F53
330
1F
100
AcDbEntity
  8
PV0001_1
  6
CENTER2
 48
0.5
370
    25
100
AcDbLine
 10
344.5000012365349
 20
420.9999994081909
 30
0.0
 11
328.5000012365349
 21
420.9999994081909
 31
0.0
  0
ARC
  5
11F54
330
1F
100
AcDbEntity
  8
PV0001_1
  6
Continuous
 48
0.5
370
    50
100
AcDbCircle
 10
328.7000134435649
 20
377.2999872011599
 30
0.0
 40
0.3000000119209
100
AcDbArc
 50
269.9999974955215
 51
0.0
  0
ARC
  5
11F55
330
1F
100
AcDbEntity
  8
PV0001_1
  6
Continuous
 48
0.5
370
    50
100
AcDbCircle
 10
328.7000134435649
 20
364.7000116152229
 30
0.0
 40
0.3000000119209
100
AcDbArc
 50
0.0
 51
90.00000250447845
  0
LINE
  5
11F56
330
1F
100
AcDbEntity
  8
PV0001_1
  6
Continuous
 48
0.5
370
    50
100
AcDbLine
 10
334.0000012365349
 20
366.4999994081909
 30
0.0
 11
339.0000012365349
 21
366.4999994081909
 31
0.0
  0
LINE
  5
11F57
330
1F
100
AcDbEntity
  8
PV0001_1
  6
Continuous
 48
0.5
370
    50
100
AcDbLine
 10
334.0000012365349
 20
375.4999994081909
 30
0.0
 11
339.0000012365349
 21
375.4999994081909
 31
0.0
  0
LINE
  5
11F58
330
1F
100
AcDbEntity
  8
PV0001_1
  6
Continuous
 48
0.5
370
    50
100
AcDbLine
 10
329.0000012365349
 20
378.4999994081909
 30
0.0
 11
329.0000012365349
 21
363.4999994081909
 31
0.0
  0
LINE
  5
11F59
330
1F
100
AcDbEntity
  8
PV0001_1
  6
Continuous
 48
0.5
370
    25
100
AcDbLine
 10
334.0000012365349
 20
366.4999841494019
 30
0.0
 11
339.0000012365349
 21
375.4999841494019
 31
0.0
  0
LINE
  5
11F5A
330
1F
100
AcDbEntity
  8
PV0001_1
  6
Continuous
 48
0.5
370
    25
100
AcDbLine
 10
309.0000012365349
 20
365.6290048403199
 30
0.0
 11
310.0894787755949
 21
365.0000070375859
 31
0.0
  0
LINE
  5
11F5B
330
1F
100
AcDbEntity
  8
PV0001_1
  6
Continuous
 48
0.5
370
    50
100
AcDbLine
 10
339.0000012365349
 20
378.4999994081909
 30
0.0
 11
339.0000012365349
 21
363.4999994081909
 31
0.0
  0
LINE
  5
11F5C
330
1F
100
AcDbEntity
  8
PV0001_1
  6
Continuous
 48
0.5
370
    25
100
AcDbLine
 10
308.9999707189549
 20
376.3710168642459
 30
0.0
 11
310.0894482580149
 21
377.0000222963749
 31
0.0
  0
LINE
  5
11F5D
330
1F
100
AcDbEntity
  8
PV0001_1
  6
Continuous
 48
0.5
370
    25
100
AcDbLine
 10
299.0000012365349
 20
376.3709710878789
 30
0.0
 11
309.0000012365349
 21
376.3709710878789
 31
0.0
  0
LINE
  5
11F5E
330
1F
100
AcDbEntity
  8
PV0001_1
  6
Continuous
 48
0.5
370
    25
100
AcDbLine
 10
299.0000012365349
 20
365.6290277285039
 30
0.0
 11
309.0000012365349
 21
365.6290277285039
 31
0.0
  0
LINE
  5
11F5F
330
1F
100
AcDbEntity
  8
PV0001_1
  6
Continuous
 48
0.5
370
    50
100
AcDbLine
 10
329.0000012365349
 20
378.4999994081909
 30
0.0
 11
339.0000012365349
 21
378.4999994081909
 31
0.0
  0
LINE
  5
11F60
330
1F
100
AcDbEntity
  8
PV0001_1
  6
Continuous
 48
0.5
370
    50
100
AcDbLine
 10
299.0000012365349
 20
376.9999994081909
 30
0.0
 11
328.7000134435649
 21
376.9999994081909
 31
0.0
  0
LINE
  5
11F61
330
1F
100
AcDbEntity
  8
PV0001_1
  6
Continuous
 48
0.5
370
    50
100
AcDbLine
 10
334.0000012365349
 20
375.4999994081909
 30
0.0
 11
334.0000012365349
 21
366.4999994081909
 31
0.0
  0
LINE
  5
11F62
330
1F
100
AcDbEntity
  8
PV0001_1
  6
Continuous
 48
0.5
370
    50
100
AcDbLine
 10
329.0000012365349
 20
363.4999994081909
 30
0.0
 11
339.0000012365349
 21
363.4999994081909
 31
0.0
  0
LINE
  5
11F63
330
1F
100
AcDbEntity
  8
PV0001_1
  6
Continuous
 48
0.5
370
    50
100
AcDbLine
 10
309.0000012365349
 20
376.9999994081909
 30
0.0
 11
309.0000012365349
 21
364.9999994081909
 31
0.0
  0
LINE
  5
11F64
330
1F
100
AcDbEntity
  8
PV0001_1
  6
Continuous
 48
0.5
370
    50
100
AcDbLine
 10
299.0000012365349
 20
364.9999994081909
 30
0.0
 11
328.7000134435649
 21
364.9999994081909
 31
0.0
  0
LINE
  5
11F65
330
1F
100
AcDbEntity
  8
PV0001_1
  6
Continuous
 48
0.5
370
    50
100
AcDbLine
 10
299.0000012365349
 20
376.9999994081909
 30
0.0
 11
299.0000012365349
 21
364.9999994081909
 31
0.0
  0
LINE
  5
11F66
330
1F
100
AcDbEntity
  8
PV0001_1
  6
Continuous
 48
0.5
370
    50
100
AcDbLine
 10
284.0000012365349
 20
365.9999994081909
 30
0.0
 11
299.0000012365349
 21
365.9999994081909
 31
0.0
  0
LINE
  5
11F67
330
1F
100
AcDbEntity
  8
PV0001_1
  6
Continuous
 48
0.5
370
    50
100
AcDbLine
 10
284.0000012365349
 20
375.9999994081909
 30
0.0
 11
284.0000012365349
 21
365.9999994081909
 31
0.0
  0
LINE
  5
11F68
330
1F
100
AcDbEntity
  8
PV0001_1
  6
Continuous
 48
0.5
370
    50
100
AcDbLine
 10
284.0000012365349
 20
375.9999994081909
 30
0.0
 11
299.0000012365349
 21
375.9999994081909
 31
0.0
  0
LINE
  5
11F69
330
1F
100
AcDbEntity
  8
PV0001_1
  6
Continuous
 48
0.5
370
    25
100
AcDbLine
 10
334.0000012365349
 20
375.5000146669809
 30
0.0
 11
339.0000012365349
 21
366.4999917787969
 31
0.0
  0
LINE
  5
11F6A
330
1F
100
AcDbEntity
  8
PV0001_1
  6
CENTER2
 48
0.5
370
    25
100
AcDbLine
 10
336.5000012365349
 20
380.7286371035039
 30
0.0
 11
336.5000012365349
 21
360.9887079042849
 31
0.0
  0
VIEWPORT
  5
D3CE
102
{ACAD_XDICTIONARY
360
12181
102
}
330
1B
100
AcDbEntity
 67
     1
  8
AM_VIEWS
100
AcDbViewport
 10
215.1777795007807
 20
147.7062500119209
 30
0.0
 40
530.0247208387942
 41
314.226
 68
     1
 69
     1
 12
215.1777795007807
 22
147.7062500119209
 13
0.0
 23
0.0
 14
10.0
 24
10.0
 15
10.0
 25
10.0
 16
0.0
 26
0.0
 36
1.0
 17
0.0
 27
0.0
 37
0.0
 42
50.0
 43
0.0
 44
0.0
 45
314.226
 50
0.0
 51
0.0
 72
   100
 90
    32800
  1

281
     0
 71
     1
 74
     0
110
0.0
120
0.0
130
0.0
111
1.0
121
0.0
131
0.0
112
0.0
122
1.0
132
0.0
 79
     0
146
0.0
1001
GENIUS_GENODEF_13
1002
{
1000
HIER
1070
     0
1002
}
1002
{
1000
MANEDIT
1070
     0
1002
}
1002
{
1000
NOSEL
1070
     0
1002
}
1002
{
1000
BEHIND
1070
     0
1002
}
1002
{
1000
OTHER
1070
     0
1002
}
1002
{
1000
REACTOR
1002
}
1001
GENIUS_GENOBJ-N-SDF_13
1002
{
1000
OWNER
1000
GEN
1002
}
1001
GENIUS_GENSCREG_15
1000
PF
1040
1.0
1000
DF
1040
1.0
1000
MIN
1011
-49.83458091861644
1021
-9.40674998807907
1031
0.0
1000
MAX
1011
480.1901399201778
1021
304.8192500119209
1031
0.0
1000
FLAGS
1070
     2
  0
ENDSEC
  0
SECTION
  2
OBJECTS
  0
DICTIONARY
  5
C
330
0
100
AcDbDictionary
281
     1
  3
ACAD_COLOR
350
113E5
  3
ACAD_GROUP
350
D
  3
ACAD_LAYOUT
350
1A
  3
ACAD_MATERIAL
350
113E4
  3
ACAD_MLINESTYLE
350
17
  3
ACAD_PLOTSETTINGS
350
19
  3
ACAD_PLOTSTYLENAME
350
E
  3
ACAD_TABLESTYLE
350
11F79
  3
ACDBHEADERROUNDTRIPXREC
350
1216E
  3
AcDbVariableDictionary
350
30
  3
AcmDictionary
350
43
  3
AMG
350
3F
  3
AMGSNAPSETTINGS
350
5D
  3
DWGPROPS
350
1216D
  0
DICTIONARY
  5
11468
330
2
100
AcDbDictionary
280
     1
281
     1
  3
AMLAYER_GROUPCOLORS
360
11469
  0
DICTIONARY
  5
218
330
1F
100
AcDbDictionary
280
     1
281
     1
  0
DICTIONARY
  5
12183
330
D3D3
100
AcDbDictionary
280
     1
281
     1
  3
ACAD_XREC_ROUNDTRIP
360
12184
  0
DICTIONARY
  5
12181
330
D3CE
100
AcDbDictionary
280
     1
281
     1
  3
ACAD_XREC_ROUNDTRIP
360
12182
  0
DICTIONARY
  5
113E5
102
{ACAD_REACTORS
330
C
102
}
330
C
100
AcDbDictionary
281
     1
  0
DICTIONARY
  5
D
102
{ACAD_REACTORS
330
C
102
}
330
C
100
AcDbDictionary
281
     1
  0
DICTIONARY
  5
1A
102
{ACAD_REACTORS
330
C
102
}
330
C
100
AcDbDictionary
281
     1
  3
Model
350
22
  3
ﾚｲｱｳﾄ1
350
1E
  3
ﾚｲｱｳﾄ2
350
26
  0
DICTIONARY
  5
113E4
102
{ACAD_REACTORS
330
C
102
}
330
C
100
AcDbDictionary
281
     1
  0
DICTIONARY
  5
17
102
{ACAD_REACTORS
330
C
102
}
330
C
100
AcDbDictionary
281
     1
  3
Standard
350
18
  0
DICTIONARY
  5
19
102
{ACAD_REACTORS
330
C
102
}
330
C
100
AcDbDictionary
281
     1
  3
4024II(Printer_A1)
350
2B8
  3
4024II(Printer_A2)
350
2B9
  3
4024II(Printer_A3)
350
2BA
  3
4024II(Printer_A4_TATE)
350
2BB
  3
4024II(Printer_A4_YOKO)
350
2BC
  3
TEST
350
2F3
  0
ACDBDICTIONARYWDFLT
  5
E
102
{ACAD_REACTORS
330
C
102
}
330
C
100
AcDbDictionary
281
     1
  3
Normal
350
F
100
AcDbDictionaryWithDefault
340
F
  0
DICTIONARY
  5
11F79
102
{ACAD_REACTORS
330
C
102
}
330
C
100
AcDbDictionary
281
     1
  3
Standard
350
11F7A
  0
DICTIONARY
  5
1216E
102
{ACAD_REACTORS
330
C
102
}
330
C
100
AcDbDictionary
281
     1
  0
DICTIONARY
  5
30
102
{ACAD_REACTORS
330
C
102
}
330
C
100
AcDbDictionary
281
     1
  3
CTABLESTYLE
350
11FE0
  3
DIMASSOC
350
1136E
  3
INDEXCTL
350
31
  3
PROJECTNAME
350
11FE1
  0
DICTIONARY
  5
43
102
{ACAD_REACTORS
330
C
102
}
330
C
100
AcDbDictionary
281
     1
  3
AcmStdDictionary
350
313
  3
AMDTSECTSYM_ARROWCOLOR
350
11F95
  0
DICTIONARY
  5
3F
102
{ACAD_REACTORS
330
C
102
}
330
C
100
AcDbDictionary
281
     1
  0
DICTIONARY
  5
5D
102
{ACAD_REACTORS
330
C
102
}
330
C
100
AcDbDictionary
281
     1
  0
XRECORD
  5
1216D
102
{ACAD_REACTORS
330
C
102
}
330
C
100
AcDbXrecord
280
     1
  1
DWGPROPS COOKIE
  2

  3

  4

  6

  7

  8
6841
  9

300
AmdtFileType=84
301
=
302
=
303
=
304
=
305
=
306
=
307
=
308
=
309
=
 40
0.2293165972222222
 41
2453223.549611447
 42
2454174.425519989
  1

 90
        1
  0
DICTIONARY
  5
11469
102
{ACAD_REACTORS
330
11468
102
}
330
11468
100
AcDbDictionary
280
     1
281
     1
  0
XRECORD
  5
12184
102
{ACAD_REACTORS
330
12183
102
}
330
12183
100
AcDbXrecord
280
     1
102
SHADEPLOT
 70
     0
  0
XRECORD
  5
12182
102
{ACAD_REACTORS
330
12181
102
}
330
12181
100
AcDbXrecord
280
     1
102
SHADEPLOT
 70
     0
  0
LAYOUT
  5
22
102
{ACAD_XDICTIONARY
360
12171
102
}
102
{ACAD_REACTORS
330
1A
102
}
330
1A
100
AcDbPlotSettings
  1

  2
BT8050.pc3
  4
A3_(420.00_x_297.00_MM)
  6
AM_VIEW1
 40
0.7937499880790711
 41
0.7937499880790711
 42
0.79376220703125
 43
0.79376220703125
 44
420.0
 45
297.0
 46
11.64
 47
25.17
 48
0.0
 49
0.0
140
0.0
141
0.0
142
1.0
143
1.0
 70
 11956
 72
     1
 73
     0
 74
     0
  7
kuroda-monochrome.ctb
 75
    16
147
1.0
148
-862.7981621032484
149
-148.588115050855
100
AcDbLayout
  1
Model
 70
     1
 71
     0
 10
0.0
 20
0.0
 11
12.0
 21
9.0
 12
0.0
 22
0.0
 32
0.0
 14
0.0
 24
0.0
 34
0.0
 15
0.0
 25
0.0
 35
0.0
146
0.0
 13
0.0
 23
0.0
 33
0.0
 16
1.0
 26
0.0
 36
0.0
 17
0.0
 27
1.0
 37
0.0
 76
     0
330
1F
  0
LAYOUT
  5
1E
102
{ACAD_XDICTIONARY
360
1216F
102
}
102
{ACAD_REACTORS
330
1A
102
}
330
1A
100
AcDbPlotSettings
  1

  2
BT8050.pc3
  4
A3_(420.00_x_297.00_MM)
  6

 40
0.7937499880790711
 41
0.7937499880790711
 42
0.79376220703125
 43
0.79376220703125
 44
420.0
 45
297.0
 46
0.0
 47
0.0
 48
0.0
 49
0.0
140
0.0
141
0.0
142
1.0
143
1.0
 70
   688
 72
     1
 73
     0
 74
     5
  7
kuroda-monochrome.ctb
 75
    16
147
1.0
148
0.0
149
0.0
100
AcDbLayout
  1
ﾚｲｱｳﾄ1
 70
     1
 71
     1
 10
-0.7937499880790711
 20
-0.7937499880790711
 11
419.2062500119209
 21
296.2062500119209
 12
0.0
 22
0.0
 32
0.0
 14
1.000000000000000E+20
 24
1.000000000000000E+20
 34
1.000000000000000E+20
 15
-1.000000000000000E+20
 25
-1.000000000000000E+20
 35
-1.000000000000000E+20
146
0.0
 13
0.0
 23
0.0
 33
0.0
 16
1.0
 26
0.0
 36
0.0
 17
0.0
 27
1.0
 37
0.0
 76
     0
330
1B
331
D3CE
  0
LAYOUT
  5
26
102
{ACAD_XDICTIONARY
360
12173
102
}
102
{ACAD_REACTORS
330
1A
102
}
330
1A
100
AcDbPlotSettings
  1

  2
Symantec Fax Starter Edition
  4

  6

 40
0.0
 41
0.0
 42
0.0
 43
0.0
 44
0.0
 45
0.0
 46
0.0
 47
0.0
 48
0.0
 49
0.0
140
0.0
141
0.0
142
1.0
143
1.0
 70
   688
 72
     0
 73
     1
 74
     5
  7
kuroda-monochrome.ctb
 75
    16
147
1.0
148
0.0
149
0.0
100
AcDbLayout
  1
ﾚｲｱｳﾄ2
 70
     1
 71
     2
 10
0.0
 20
0.0
 11
0.0
 21
0.0
 12
0.0
 22
0.0
 32
0.0
 14
1.000000000000000E+20
 24
1.000000000000000E+20
 34
1.000000000000000E+20
 15
-1.000000000000000E+20
 25
-1.000000000000000E+20
 35
-1.000000000000000E+20
146
0.0
 13
0.0
 23
0.0
 33
0.0
 16
1.0
 26
0.0
 36
0.0
 17
0.0
 27
1.0
 37
0.0
 76
     0
330
23
331
D3D3
  0
MLINESTYLE
  5
18
102
{ACAD_REACTORS
330
17
102
}
330
17
100
AcDbMlineStyle
  2
STANDARD
 70
     0
  3

 62
   256
 51
90.0
 52
90.0
 71
     2
 49
0.5
 62
   256
  6
BYLAYER
 49
-0.5
 62
   256
  6
BYLAYER
  0
PLOTSETTINGS
  5
2B8
102
{ACAD_XDICTIONARY
360
12175
102
}
102
{ACAD_REACTORS
330
19
102
}
330
19
100
AcDbPlotSettings
  1
4024II(Printer_A1)
  2
4024II(Printer).pc3
  4
User117
  6

 40
3.174999952316284
 41
3.174999952316284
 42
3.17498779296875
 43
3.17498779296875
 44
593.7249755859375
 45
840.6129760742187
 46
0.0
 47
0.0
 48
0.0
 49
0.0
140
0.0
141
0.0
142
1.0
143
0.5056395082328096
 70
  1712
 72
     1
 73
     1
 74
     2
  7
monochrome.ctb
 75
     0
147
1.977693561753038
148
0.0
149
0.0
  0
PLOTSETTINGS
  5
2B9
102
{ACAD_XDICTIONARY
360
12177
102
}
102
{ACAD_REACTORS
330
19
102
}
330
19
100
AcDbPlotSettings
  1
4024II(Printer_A2)
  2
4024II(Printer).pc3
  4
User118
  6

 40
3.174999952316284
 41
3.174999952316284
 42
3.17498779296875
 43
3.17498779296875
 44
420.0
 45
594.0
 46
0.0
 47
0.0
 48
0.0
 49
0.0
140
0.0
141
0.0
142
1.0
143
0.7179982864768178
 70
  1712
 72
     1
 73
     1
 74
     2
  7
monochrome.ctb
 75
     0
147
1.392760984022609
148
0.0
149
0.0
  0
PLOTSETTINGS
  5
2BA
102
{ACAD_XDICTIONARY
360
12179
102
}
102
{ACAD_REACTORS
330
19
102
}
330
19
100
AcDbPlotSettings
  1
4024II(Printer_A3)
  2
4024II(Printer).pc3
  4
User119
  6

 40
3.174999952316284
 41
3.174999952316284
 42
3.17498779296875
 43
3.17498779296875
 44
297.0
 45
420.0
 46
0.0
 47
0.0
 48
0.0
 49
0.0
140
0.0
141
0.0
142
1.0
143
1.021847539919317
 70
  1712
 72
     1
 73
     1
 74
     2
  7
monochrome.ctb
 75
     0
147
0.9786195698811951
148
0.0
149
0.0
  0
PLOTSETTINGS
  5
2BB
102
{ACAD_XDICTIONARY
360
1217B
102
}
102
{ACAD_REACTORS
330
19
102
}
330
19
100
AcDbPlotSettings
  1
4024II(Printer_A4_TATE)
  2
4024II(Printer).pc3
  4
User120
  6

 40
3.174999952316284
 41
3.174999952316284
 42
3.175003051757812
 43
3.17498779296875
 44
210.0
 45
297.0
 46
0.0
 47
0.0
 48
0.0
 49
0.0
140
0.0
141
0.0
142
1.0
143
2.062361925831023
 70
  1712
 72
     1
 73
     0
 74
     2
  7
monochrome.ctb
 75
     0
147
0.484880945228395
148
0.0
149
0.0
  0
PLOTSETTINGS
  5
2BC
102
{ACAD_XDICTIONARY
360
1217D
102
}
102
{ACAD_REACTORS
330
19
102
}
330
19
100
AcDbPlotSettings
  1
4024II(Printer_A4_YOKO)
  2
4024II(Printer).pc3
  4
User120
  6

 40
3.174999952316284
 41
3.174999952316284
 42
3.175003051757812
 43
3.17498779296875
 44
210.0
 45
297.0
 46
0.0
 47
0.0
 48
0.0
 49
0.0
140
0.0
141
0.0
142
1.0
143
1.458384504694795
 70
  1712
 72
     1
 73
     1
 74
     2
  7
monochrome.ctb
 75
     0
147
0.6856902255755081
148
0.0
149
0.0
  0
PLOTSETTINGS
  5
2F3
102
{ACAD_XDICTIONARY
360
1217F
102
}
102
{ACAD_REACTORS
330
19
102
}
330
19
100
AcDbPlotSettings
  1
TEST
  2
4024II(Printer).pc3
  4
User119
  6

 40
3.174999952316284
 41
3.174999952316284
 42
3.17498779296875
 43
3.17498779296875
 44
297.0
 45
420.0
 46
4.0
 47
4.0
 48
0.0
 49
0.0
140
0.0
141
0.0
142
1.0
143
1.0
 70
  1712
 72
     1
 73
     1
 74
     0
  7
monochrome.ctb
 75
    16
147
1.0
148
0.0
149
0.0
  0
ACDBPLACEHOLDER
  5
F
102
{ACAD_REACTORS
330
E
102
}
330
E
  0
TABLESTYLE
  5
11F7A
102
{ACAD_REACTORS
330
11F79
102
}
330
11F79
100
AcDbTableStyle
  3
Standard
 70
     0
 71
     0
 40
1.5
 41
1.5
280
     0
281
     0
  7
STANDARD
140
4.5
170
     2
 62
     0
 63
     7
283
     0
274
    -2
284
     1
 64
     0
275
    -2
285
     1
 65
     0
276
    -2
286
     1
 66
     0
277
    -2
287
     1
 67
     0
278
    -2
288
     1
 68
     0
279
    -2
289
     1
 69
     0
  7
STANDARD
140
6.0
170
     5
 62
     0
 63
     7
283
     0
274
    -2
284
     1
 64
     0
275
    -2
285
     1
 65
     0
276
    -2
286
     1
 66
     0
277
    -2
287
     1
 67
     0
278
    -2
288
     1
 68
     0
279
    -2
289
     1
 69
     0
  7
STANDARD
140
4.5
170
     5
 62
     0
 63
     7
283
     0
274
    -2
284
     1
 64
     0
275
    -2
285
     1
 65
     0
276
    -2
286
     1
 66
     0
277
    -2
287
     1
 67
     0
278
    -2
288
     1
 68
     0
279
    -2
289
     1
 69
     0
  0
DICTIONARYVAR
  5
11FE0
102
{ACAD_REACTORS
330
30
102
}
330
30
100
DictionaryVariables
280
     0
  1
STANDARD
  0
DICTIONARYVAR
  5
1136E
102
{ACAD_REACTORS
330
30
102
}
330
30
100
DictionaryVariables
280
     0
  1
1
  0
DICTIONARYVAR
  5
31
102
{ACAD_REACTORS
330
30
102
}
330
30
100
DictionaryVariables
280
     0
  1
0
  0
DICTIONARYVAR
  5
11FE1
102
{ACAD_REACTORS
330
30
102
}
330
30
100
DictionaryVariables
280
     0
  1

  0
DICTIONARY
  5
313
102
{ACAD_REACTORS
330
43
102
}
330
43
100
AcDbDictionary
281
     1
  0
XRECORD
  5
11F95
102
{ACAD_REACTORS
330
43
102
}
330
43
100
AcDbXrecord
280
     1
 90
-1023410169
  0
DICTIONARY
  5
12171
330
22
100
AcDbDictionary
280
     1
281
     1
  3
ACAD_XREC_ROUNDTRIP
360
12172
  0
DICTIONARY
  5
1216F
330
1E
100
AcDbDictionary
280
     1
281
     1
  3
ACAD_XREC_ROUNDTRIP
360
12170
  0
DICTIONARY
  5
12173
330
26
100
AcDbDictionary
280
     1
281
     1
  3
ACAD_XREC_ROUNDTRIP
360
12174
  0
DICTIONARY
  5
12175
330
2B8
100
AcDbDictionary
280
     1
281
     1
  3
ACAD_XREC_ROUNDTRIP
360
12176
  0
DICTIONARY
  5
12177
330
2B9
100
AcDbDictionary
280
     1
281
     1
  3
ACAD_XREC_ROUNDTRIP
360
12178
  0
DICTIONARY
  5
12179
330
2BA
100
AcDbDictionary
280
     1
281
     1
  3
ACAD_XREC_ROUNDTRIP
360
1217A
  0
DICTIONARY
  5
1217B
330
2BB
100
AcDbDictionary
280
     1
281
     1
  3
ACAD_XREC_ROUNDTRIP
360
1217C
  0
DICTIONARY
  5
1217D
330
2BC
100
AcDbDictionary
280
     1
281
     1
  3
ACAD_XREC_ROUNDTRIP
360
1217E
  0
DICTIONARY
  5
1217F
330
2F3
100
AcDbDictionary
280
     1
281
     1
  3
ACAD_XREC_ROUNDTRIP
360
12180
  0
XRECORD
  5
12172
102
{ACAD_REACTORS
330
12171
102
}
330
12171
100
AcDbXrecord
280
     1
102
SHADEPLOT
 70
     0
102
SHADEPLOTRESLEVEL
 70
     2
102
SHADEPLOTCUSTOMDPI
 70
   300
  0
XRECORD
  5
12170
102
{ACAD_REACTORS
330
1216F
102
}
330
1216F
100
AcDbXrecord
280
     1
102
SHADEPLOT
 70
     0
102
SHADEPLOTRESLEVEL
 70
     2
102
SHADEPLOTCUSTOMDPI
 70
   300
  0
XRECORD
  5
12174
102
{ACAD_REACTORS
330
12173
102
}
330
12173
100
AcDbXrecord
280
     1
102
SHADEPLOT
 70
     0
102
SHADEPLOTRESLEVEL
 70
     2
102
SHADEPLOTCUSTOMDPI
 70
   300
  0
XRECORD
  5
12176
102
{ACAD_REACTORS
330
12175
102
}
330
12175
100
AcDbXrecord
280
     1
102
SHADEPLOT
 70
     0
102
SHADEPLOTRESLEVEL
 70
     2
102
SHADEPLOTCUSTOMDPI
 70
   300
  0
XRECORD
  5
12178
102
{ACAD_REACTORS
330
12177
102
}
330
12177
100
AcDbXrecord
280
     1
102
SHADEPLOT
 70
     0
102
SHADEPLOTRESLEVEL
 70
     2
102
SHADEPLOTCUSTOMDPI
 70
   300
  0
XRECORD
  5
1217A
102
{ACAD_REACTORS
330
12179
102
}
330
12179
100
AcDbXrecord
280
     1
102
SHADEPLOT
 70
     0
102
SHADEPLOTRESLEVEL
 70
     2
102
SHADEPLOTCUSTOMDPI
 70
   300
  0
XRECORD
  5
1217C
102
{ACAD_REACTORS
330
1217B
102
}
330
1217B
100
AcDbXrecord
280
     1
102
SHADEPLOT
 70
     0
102
SHADEPLOTRESLEVEL
 70
     2
102
SHADEPLOTCUSTOMDPI
 70
   300
  0
XRECORD
  5
1217E
102
{ACAD_REACTORS
330
1217D
102
}
330
1217D
100
AcDbXrecord
280
     1
102
SHADEPLOT
 70
     0
102
SHADEPLOTRESLEVEL
 70
     2
102
SHADEPLOTCUSTOMDPI
 70
   300
  0
XRECORD
  5
12180
102
{ACAD_REACTORS
330
1217F
102
}
330
1217F
100
AcDbXrecord
280
     1
102
SHADEPLOT
 70
     0
102
SHADEPLOTRESLEVEL
 70
     2
102
SHADEPLOTCUSTOMDPI
 70
   300
  0
ENDSEC
  0
EOF
