  0
SECTION
  2
HEADER
  9
$ACADVER
  1
AC1015
  9
$ACADMAINTVER
 70
    20
  9
$DWGCODEPAGE
  3
ANSI_932
  9
$INSBASE
 10
0.0
 20
0.0
 30
0.0
  9
$EXTMIN
 10
0.0
 20
-386.0
 30
0.0
  9
$EXTMAX
 10
688.0
 20
0.0
 30
0.0
  9
$LIMMIN
 10
0.0
 20
0.0
  9
$LIMMAX
 10
0.0
 20
0.0
  9
$ORTHOMODE
 70
     0
  9
$REGENMODE
 70
     1
  9
$FILLMODE
 70
     1
  9
$QTEXTMODE
 70
     0
  9
$MIRRTEXT
 70
     1
  9
$LTSCALE
 40
1.0
  9
$ATTMODE
 70
     1
  9
$TEXTSIZE
 40
2.5
  9
$TRACEWID
 40
1.0
  9
$TEXTSTYLE
  7
CONVERT
  9
$CLAYER
  8
0
  9
$CELTYPE
  6
BYLAYER
  9
$CECOLOR
 62
   256
  9
$CELTSCALE
 40
1.0
  9
$DISPSILH
 70
     0
  9
$DIMSCALE
 40
1.0
  9
$DIMASZ
 40
3.0
  9
$DIMEXO
 40
1.0
  9
$DIMDLI
 40
7.0
  9
$DIMRND
 40
0.0
  9
$DIMDLE
 40
0.0
  9
$DIMEXE
 40
2.0
  9
$DIMTP
 40
0.0
  9
$DIMTM
 40
0.0
  9
$DIMTXT
 40
2.799999999999999
  9
$DIMCEN
 40
0.0
  9
$DIMTSZ
 40
0.0
  9
$DIMTOL
 70
     0
  9
$DIMLIM
 70
     0
  9
$DIMTIH
 70
     0
  9
$DIMTOH
 70
     0
  9
$DIMSE1
 70
     0
  9
$DIMSE2
 70
     0
  9
$DIMTAD
 70
     1
  9
$DIMZIN
 70
     0
  9
$DIMBLK
  1

  9
$DIMASO
 70
     1
  9
$DIMSHO
 70
     1
  9
$DIMPOST
  1

  9
$DIMAPOST
  1

  9
$DIMALT
 70
     0
  9
$DIMALTD
 70
     4
  9
$DIMALTF
 40
0.0394
  9
$DIMLFAC
 40
1.0
  9
$DIMTOFL
 70
     1
  9
$DIMTVP
 40
0.0
  9
$DIMTIX
 70
     0
  9
$DIMSOXD
 70
     0
  9
$DIMSAH
 70
     1
  9
$DIMBLK1
  1
Open30
  9
$DIMBLK2
  1
Open30
  9
$DIMSTYLE
  2
STANDARD
  9
$DIMCLRD
 70
    44
  9
$DIMCLRE
 70
    44
  9
$DIMCLRT
 70
    44
  9
$DIMTFAC
 40
1.0
  9
$DIMGAP
 40
0.7
  9
$DIMJUST
 70
     0
  9
$DIMSD1
 70
     0
  9
$DIMSD2
 70
     0
  9
$DIMTOLJ
 70
     1
  9
$DIMTZIN
 70
     0
  9
$DIMALTZ
 70
     0
  9
$DIMALTTZ
 70
     0
  9
$DIMUPT
 70
     0
  9
$DIMDEC
 70
     3
  9
$DIMTDEC
 70
     3
  9
$DIMALTU
 70
     8
  9
$DIMALTTD
 70
     4
  9
$DIMTXSTY
  7
STANDARD
  9
$DIMAUNIT
 70
     0
  9
$DIMADEC
 70
     0
  9
$DIMALTRND
 40
0.0
  9
$DIMAZIN
 70
     0
  9
$DIMDSEP
 70
    46
  9
$DIMATFIT
 70
     0
  9
$DIMFRAC
 70
     0
  9
$DIMLDRBLK
  1
Open30
  9
$DIMLUNIT
 70
     2
  9
$DIMLWD
 70
    -2
  9
$DIMLWE
 70
    -2
  9
$DIMTMOVE
 70
     0
  9
$LUNITS
 70
     2
  9
$LUPREC
 70
     4
  9
$SKETCHINC
 40
1.0
  9
$FILLETRAD
 40
10.0
  9
$AUNITS
 70
     0
  9
$AUPREC
 70
     0
  9
$MENU
  1
.
  9
$ELEVATION
 40
0.0
  9
$PELEVATION
 40
0.0
  9
$THICKNESS
 40
0.0
  9
$LIMCHECK
 70
     0
  9
$CHAMFERA
 40
10.0
  9
$CHAMFERB
 40
10.0
  9
$CHAMFERC
 40
20.0
  9
$CHAMFERD
 40
0.0
  9
$SKPOLY
 70
     0
  9
$TDCREATE
 40
2451067.751276933
  9
$TDUCREATE
 40
2451067.376276933
  9
$TDUPDATE
 40
2454174.424733831
  9
$TDUUPDATE
 40
2454174.049733831
  9
$TDINDWG
 40
0.1500851968
  9
$TDUSRTIMER
 40
0.1500851968
  9
$USRTIMER
 70
     1
  9
$ANGBASE
 50
0.0
  9
$ANGDIR
 70
     0
  9
$PDMODE
 70
     1
  9
$PDSIZE
 40
0.0
  9
$PLINEWID
 40
0.0
  9
$SPLFRAME
 70
     0
  9
$SPLINETYPE
 70
     6
  9
$SPLINESEGS
 70
     8
  9
$HANDSEED
  5
AA3
  9
$SURFTAB1
 70
     6
  9
$SURFTAB2
 70
     6
  9
$SURFTYPE
 70
     6
  9
$SURFU
 70
     6
  9
$SURFV
 70
     6
  9
$UCSBASE
  2

  9
$UCSNAME
  2

  9
$UCSORG
 10
0.0
 20
0.0
 30
0.0
  9
$UCSXDIR
 10
1.0
 20
0.0
 30
0.0
  9
$UCSYDIR
 10
0.0
 20
1.0
 30
0.0
  9
$UCSORTHOREF
  2

  9
$UCSORTHOVIEW
 70
     0
  9
$UCSORGTOP
 10
0.0
 20
0.0
 30
0.0
  9
$UCSORGBOTTOM
 10
0.0
 20
0.0
 30
0.0
  9
$UCSORGLEFT
 10
0.0
 20
0.0
 30
0.0
  9
$UCSORGRIGHT
 10
0.0
 20
0.0
 30
0.0
  9
$UCSORGFRONT
 10
0.0
 20
0.0
 30
0.0
  9
$UCSORGBACK
 10
0.0
 20
0.0
 30
0.0
  9
$PUCSBASE
  2

  9
$PUCSNAME
  2

  9
$PUCSORG
 10
0.0
 20
0.0
 30
0.0
  9
$PUCSXDIR
 10
1.0
 20
0.0
 30
0.0
  9
$PUCSYDIR
 10
0.0
 20
1.0
 30
0.0
  9
$PUCSORTHOREF
  2

  9
$PUCSORTHOVIEW
 70
     0
  9
$PUCSORGTOP
 10
0.0
 20
0.0
 30
0.0
  9
$PUCSORGBOTTOM
 10
0.0
 20
0.0
 30
0.0
  9
$PUCSORGLEFT
 10
0.0
 20
0.0
 30
0.0
  9
$PUCSORGRIGHT
 10
0.0
 20
0.0
 30
0.0
  9
$PUCSORGFRONT
 10
0.0
 20
0.0
 30
0.0
  9
$PUCSORGBACK
 10
0.0
 20
0.0
 30
0.0
  9
$USERI1
 70
     0
  9
$USERI2
 70
     0
  9
$USERI3
 70
     0
  9
$USERI4
 70
     0
  9
$USERI5
 70
     0
  9
$USERR1
 40
0.0
  9
$USERR2
 40
0.0
  9
$USERR3
 40
0.0
  9
$USERR4
 40
0.0
  9
$USERR5
 40
0.0
  9
$WORLDVIEW
 70
     1
  9
$SHADEDGE
 70
     3
  9
$SHADEDIF
 70
    70
  9
$TILEMODE
 70
     1
  9
$MAXACTVP
 70
    48
  9
$PINSBASE
 10
0.0
 20
0.0
 30
0.0
  9
$PLIMCHECK
 70
     0
  9
$PEXTMIN
 10
1.000000000000000E+20
 20
1.000000000000000E+20
 30
1.000000000000000E+20
  9
$PEXTMAX
 10
-1.000000000000000E+20
 20
-1.000000000000000E+20
 30
-1.000000000000000E+20
  9
$PLIMMIN
 10
0.0
 20
0.0
  9
$PLIMMAX
 10
420.0
 20
297.0
  9
$UNITMODE
 70
     0
  9
$VISRETAIN
 70
     1
  9
$PLINEGEN
 70
     0
  9
$PSLTSCALE
 70
     1
  9
$TREEDEPTH
 70
  3020
  9
$CMLSTYLE
  2
STANDARD
  9
$CMLJUST
 70
     0
  9
$CMLSCALE
 40
20.0
  9
$PROXYGRAPHICS
 70
     1
  9
$MEASUREMENT
 70
     1
  9
$CELWEIGHT
370
    -1
  9
$ENDCAPS
280
     0
  9
$JOINSTYLE
280
     0
  9
$LWDISPLAY
290
     0
  9
$INSUNITS
 70
     0
  9
$HYPERLINKBASE
  1

  9
$STYLESHEET
  1
kuroda-monochrome.ctb
  9
$XEDIT
290
     1
  9
$CEPSNTYPE
380
     0
  9
$PSTYLEMODE
290
     1
  9
$FINGERPRINTGUID
  2
{881B1582-4BC7-11D3-AB9D-00805F8B7187}
  9
$VERSIONGUID
  2
{975B393B-4EF7-4134-92EE-BCD6CBF82965}
  9
$EXTNAMES
290
     1
  9
$PSVPSCALE
 40
0.0
  9
$OLESTARTUP
290
     0
  0
ENDSEC
  0
SECTION
  2
CLASSES
  0
CLASS
  1
ACDBDICTIONARYWDFLT
  2
AcDbDictionaryWithDefault
  3
ObjectDBX Classes
 90
        0
280
     0
281
     0
  0
CLASS
  1
ACDBPLACEHOLDER
  2
AcDbPlaceHolder
  3
ObjectDBX Classes
 90
        0
280
     0
281
     0
  0
CLASS
  1
LAYOUT
  2
AcDbLayout
  3
ObjectDBX Classes
 90
        0
280
     0
281
     0
  0
CLASS
  1
ACME_DOCUMENT
  2
AcMeDbDoc
  3
AcMeServices
 90
        0
280
     0
281
     0
  0
CLASS
  1
AMGSETTINGSOBJ
  2
AmgSettingsObj
  3
"AcadM|Product Description: AutoCAD Mechanical 2000|Company: Autodesk"
 90
        0
280
     0
281
     0
  0
CLASS
  1
AMGOBJPROPCFG
  2
AmgObjPropCfg
  3
"AmgLay|Product Description: AutoCAD Mechanical 2000|Company: Autodesk"
 90
        1
280
     0
281
     0
  0
CLASS
  1
ACMESCOPE
  2
AcMeScope
  3
AcMeServices
 90
        0
280
     0
281
     0
  0
CLASS
  1
ACMECOMMANDHISTORY
  2
AcMeCommandHistory
  3
AcMeServices
 90
        0
280
     0
281
     0
  0
CLASS
  1
DICTIONARYVAR
  2
AcDbDictionaryVar
  3
ObjectDBX Classes
 90
        0
280
     0
281
     0
  0
CLASS
  1
ACIMSYSVARMAN
  2
AcImSysVarManager
  3
AcMeServices
 90
        0
280
     0
281
     0
  0
CLASS
  1
ACIMREALSYSVAR
  2
AcImRealSysVar
  3
AcMeServices
 90
        0
280
     0
281
     0
  0
CLASS
  1
ACIMINTSYSVAR
  2
AcImIntSysVar
  3
AcMeServices
 90
        0
280
     0
281
     0
  0
CLASS
  1
ACMEDRAWINGMAN
  2
AcMeDrawingMan
  3
AcMeServices
 90
        0
280
     0
281
     0
  0
CLASS
  1
ACMEVIEW
  2
AcMeView
  3
AcMeServices
 90
        0
280
     0
281
     0
  0
CLASS
  1
ACDBENTITYCACHE
  2
AcMeEntityCache
  3
AcMeServices
 90
        0
280
     0
281
     0
  0
CLASS
  1
GSMANAGER
  2
AcMeGSManager
  3
AcMeServices
 90
        0
280
     0
281
     0
  0
CLASS
  1
AMDTINTERNALREACTOR
  2
AmdtInternalReactor
  3
AcMeServices
 90
        0
280
     0
281
     0
  0
CLASS
  1
ACMESTATEMGR
  2
AcMeStateMgr
  3
AcMeServices
 90
        0
280
     0
281
     0
  0
CLASS
  1
ACGREFMASTER
  2
AcGrefMaster
  3
AcAttribServices
 90
        0
280
     0
281
     0
  0
CLASS
  1
ACME_DATABASE
  2
AcMeDbDatabase
  3
AcMeServices
 90
        0
280
     0
281
     0
  0
CLASS
  1
ACRFINSADJUSTERMGR
  2
AcRfInsAdjusterMgr
  3
AcMeServices
 90
        0
280
     0
281
     0
  0
CLASS
  1
ACGREFACADMASTER
  2
AcGrefacadMaster
  3
AcGrefServices
 90
        0
280
     0
281
     0
  0
CLASS
  1
AMIMASTER
  2
AmiMaster
  3
AmiServices
 90
        0
280
     0
281
     0
  0
CLASS
  1
ACMDATADICTIONARY
  2
AcmDataDictionary
  3
"AcmSymBB|Product Description: AutoCAD Mechanical 2004 DX|Company: Autodesk"
 90
        0
280
     0
281
     0
  0
CLASS
  1
ACMDATAENTRYBLOCK
  2
AcmDataEntryBlock
  3
"AcmSymBB|Product Description: AutoCAD Mechanical 2004 DX|Company: Autodesk"
 90
    32768
280
     0
281
     0
  0
CLASS
  1
ACMSTANDARDANSI
  2
AcmStandardANSI
  3
"Amdt_StdImp|Product Description: AutoCAD Mechanical 2004 DX|Company: Autodesk"
 90
        0
280
     0
281
     0
  0
CLASS
  1
ACMSURFSTANDARDANSI
  2
AcmSurfTextStdANSI
  3
"Amdt_StdImp|Product Description: AutoCAD Mechanical 2004 DX|Company: Autodesk"
 90
        0
280
     0
281
     0
  0
CLASS
  1
ACMFCFSTANDARDANSI
  2
AcmFCFStdANSI
  3
"Amdt_StdImp|Product Description: AutoCAD Mechanical 2004 DX|Company: Autodesk"
 90
        0
280
     0
281
     0
  0
CLASS
  1
ACMWELDSTANDARDANSI
  2
AcmWeldingStdANSI
  3
"Amdt_StdImp|Product Description: AutoCAD Mechanical 2004 DX|Company: Autodesk"
 90
        0
280
     0
281
     0
  0
CLASS
  1
ACMIDSTANDARDANSI
  2
AcmIdStdANSI
  3
"Amdt_StdImp|Product Description: AutoCAD Mechanical 2004 DX|Company: Autodesk"
 90
        0
280
     0
281
     0
  0
CLASS
  1
ACMDATUMSTANDARDANSI
  2
AcmDatumStdANSI
  3
"Amdt_StdImp|Product Description: AutoCAD Mechanical 2004 DX|Company: Autodesk"
 90
        0
280
     0
281
     0
  0
CLASS
  1
ACMBOMSTANDARDANSI
  2
AcmBOMStdANSI
  3
"Amdt_StdImp|Product Description: AutoCAD Mechanical 2004 DX|Company: Autodesk"
 90
        0
280
     0
281
     0
  0
CLASS
  1
ACMDETAILSTANDARDANSI
  2
AmdtDetailSymStdANSI
  3
"Amdt_StdImp|Product Description: AutoCAD Mechanical 2004 DX|Company: Autodesk"
 90
        0
280
     0
281
     0
  0
CLASS
  1
ACMSECTIONSTANDARDANSI
  2
AmdtSectionSymStdANSI
  3
"Amdt_StdImp|Product Description: AutoCAD Mechanical 2004 DX|Company: Autodesk"
 90
        0
280
     0
281
     0
  0
CLASS
  1
ACMCENTERLINESTANDARDANSI
  2
AmdtCenterLineStdANSI
  3
"Amdt_StdImp|Product Description: AutoCAD Mechanical 2004 DX|Company: Autodesk"
 90
        0
280
     0
281
     0
  0
CLASS
  1
ACAMGLAYSTD
  2
AcAmgLayStd
  3
"AcAmgLayStd|Product Description: AutoCAD Mechanical 2000|Company: Autodesk"
 90
        0
280
     0
281
     0
  0
CLASS
  1
ACAMGDIMSTD
  2
AcAmgDimStd
  3
"AcAmgDimStd|Product Description: AutoCAD Mechanical 2000|Company: Autodesk"
 90
        0
280
     0
281
     0
  0
CLASS
  1
ACAMGTITLESTD
  2
AcAmgTitleStd
  3
"TITLEAPP"
 90
        0
280
     0
281
     0
  0
CLASS
  1
ACMSTANDARDISO
  2
AcmStandardISO
  3
"Amdt_StdImp|Product Description: AutoCAD Mechanical 2004 DX|Company: Autodesk"
 90
        0
280
     0
281
     0
  0
CLASS
  1
AMDTEDGESTANDARDISO
  2
AmdtEdgeStdISO
  3
"Amdt_StdImp|Product Description: AutoCAD Mechanical 2004 DX|Company: Autodesk"
 90
        0
280
     0
281
     0
  0
CLASS
  1
ACMSURFSTANDARDISO
  2
AcmSurfTextStdISO
  3
"Amdt_StdImp|Product Description: AutoCAD Mechanical 2004 DX|Company: Autodesk"
 90
        0
280
     0
281
     0
  0
CLASS
  1
ACMFCFSTANDARDISO
  2
AcmFCFStdISO
  3
"Amdt_StdImp|Product Description: AutoCAD Mechanical 2004 DX|Company: Autodesk"
 90
        0
280
     0
281
     0
  0
CLASS
  1
ACMWELDSTANDARDISO
  2
AcmWeldingStdISO
  3
"Amdt_StdImp|Product Description: AutoCAD Mechanical 2004 DX|Company: Autodesk"
 90
        0
280
     0
281
     0
  0
CLASS
  1
ACMIDSTANDARDISO
  2
AcmIdStdISO
  3
"Amdt_StdImp|Product Description: AutoCAD Mechanical 2004 DX|Company: Autodesk"
 90
        0
280
     0
281
     0
  0
CLASS
  1
ACMDATUMSTANDARDISO
  2
AcmDatumStdISO
  3
"Amdt_StdImp|Product Description: AutoCAD Mechanical 2004 DX|Company: Autodesk"
 90
        0
280
     0
281
     0
  0
CLASS
  1
ACMBOMSTANDARDISO
  2
AcmBOMStdISO
  3
"Amdt_StdImp|Product Description: AutoCAD Mechanical 2004 DX|Company: Autodesk"
 90
        0
280
     0
281
     0
  0
CLASS
  1
ACMDETAILSTANDARDISO
  2
AmdtDetailSymStdISO
  3
"Amdt_StdImp|Product Description: AutoCAD Mechanical 2004 DX|Company: Autodesk"
 90
        0
280
     0
281
     0
  0
CLASS
  1
ACMSECTIONSTANDARDISO
  2
AmdtSectionSymStdISO
  3
"Amdt_StdImp|Product Description: AutoCAD Mechanical 2004 DX|Company: Autodesk"
 90
        0
280
     0
281
     0
  0
CLASS
  1
ACMCENTERLINESTANDARDISO
  2
AmdtCenterLineStdISO
  3
"Amdt_StdImp|Product Description: AutoCAD Mechanical 2004 DX|Company: Autodesk"
 90
        0
280
     0
281
     0
  0
CLASS
  1
ACMSTANDARDJIS
  2
AcmStandardJIS
  3
"Amdt_StdImp|Product Description: AutoCAD Mechanical 2004 DX|Company: Autodesk"
 90
        0
280
     0
281
     0
  0
CLASS
  1
ACMSURFSTANDARDJIS
  2
AcmSurfTextStdJIS
  3
"Amdt_StdImp|Product Description: AutoCAD Mechanical 2004 DX|Company: Autodesk"
 90
        0
280
     0
281
     0
  0
CLASS
  1
ACMFCFSTANDARDJIS
  2
AcmFCFStdJIS
  3
"Amdt_StdImp|Product Description: AutoCAD Mechanical 2004 DX|Company: Autodesk"
 90
        0
280
     0
281
     0
  0
CLASS
  1
ACMWELDSTANDARDJIS
  2
AcmWeldingStdJIS
  3
"Amdt_StdImp|Product Description: AutoCAD Mechanical 2004 DX|Company: Autodesk"
 90
        0
280
     0
281
     0
  0
CLASS
  1
ACMIDSTANDARDJIS
  2
AcmIdStdJIS
  3
"Amdt_StdImp|Product Description: AutoCAD Mechanical 2004 DX|Company: Autodesk"
 90
        0
280
     0
281
     0
  0
CLASS
  1
ACMDATUMSTANDARDJIS
  2
AcmDatumStdJIS
  3
"Amdt_StdImp|Product Description: AutoCAD Mechanical 2004 DX|Company: Autodesk"
 90
        0
280
     0
281
     0
  0
CLASS
  1
ACMBOMSTANDARDJIS
  2
AcmBOMStdJIS
  3
"Amdt_StdImp|Product Description: AutoCAD Mechanical 2004 DX|Company: Autodesk"
 90
        0
280
     0
281
     0
  0
CLASS
  1
ACMDETAILSTANDARDJIS
  2
AmdtDetailSymStdJIS
  3
"Amdt_StdImp|Product Description: AutoCAD Mechanical 2004 DX|Company: Autodesk"
 90
        0
280
     0
281
     0
  0
CLASS
  1
ACMSECTIONSTANDARDJIS
  2
AmdtSectionSymStdJIS
  3
"Amdt_StdImp|Product Description: AutoCAD Mechanical 2004 DX|Company: Autodesk"
 90
        0
280
     0
281
     0
  0
CLASS
  1
ACMCENTERLINESTANDARDJIS
  2
AmdtCenterLineStdJIS
  3
"Amdt_StdImp|Product Description: AutoCAD Mechanical 2004 DX|Company: Autodesk"
 90
        0
280
     0
281
     0
  0
CLASS
  1
ACMTHREADLINESTANDARDJIS
  2
AmdtThreadLineStdJIS
  3
"Amdt_StdImp|Product Description: AutoCAD Mechanical 2004 DX|Company: Autodesk"
 90
        0
280
     0
281
     0
  0
CLASS
  1
ACIMSTRSYSVAR
  2
AcImStrSysVar
  3
AcMeServices
 90
        0
280
     0
281
     0
  0
CLASS
  1
ACAMGFILTERDAT
  2
AcAmgFilterDat
  3
"AcadM|Product Description: AutoCAD Mechanical 2000|Company: Autodesk"
 90
    32768
280
     0
281
     0
  0
CLASS
  1
AMDTFORMULAUPDATEDISPATCHER
  2
AmdtFormulaUpdateDispatcher
  3
AcMeServices
 90
    32768
280
     0
281
     0
  0
CLASS
  1
LAYER_INDEX
  2
AcDbLayerIndex
  3
ObjectDBX Classes
 90
    32768
280
     0
281
     0
  0
CLASS
  1
IDBUFFER
  2
AcDbIdBuffer
  3
ObjectDBX Classes
 90
    32768
280
     0
281
     0
  0
CLASS
  1
AM_DRAWING_MGR
  2
AcDmDwgMgr
  3
AcMechDwgViewMgmt
 90
        0
280
     0
281
     0
  0
CLASS
  1
AM_DWG_DOCUMENT
  2
AcDmDwgDocument
  3
AcMechDwgViewMgmt
 90
        0
280
     0
281
     0
  0
CLASS
  1
AM_DWG_SHEET
  2
AcDmSheet
  3
AcMechDwgViewMgmt
 90
        0
280
     0
281
     0
  0
CLASS
  1
AM_VIEWDIMPARMAP
  2
AcDmViewDimParMap
  3
AcMechDwgViewMgmt
 90
        0
280
     0
281
     0
  0
CLASS
  1
AM_DWGMGR_NAME
  2
AcDmDwgMgrName
  3
AcMechDwgViewMgmt
 90
        0
280
     0
281
     0
  0
CLASS
  1
AMDTMENUSTATEMGR
  2
AmdtMenuStateMgr
  3
McadcomServices
 90
        0
280
     0
281
     0
  0
CLASS
  1
AMDTMCOMMENUSTATE
  2
AmdtMcomMenuState
  3
McadcomServices
 90
        0
280
     0
281
     0
  0
CLASS
  1
MAPIAMMOUDLE
  2
MApiAmModule
  3
MApiAmServices
 90
        0
280
     0
281
     0
  0
CLASS
  1
AMDTADMENUSTATE
  2
AmdtAdMenuState
  3
DesignerServices
 90
        0
280
     0
281
     0
  0
CLASS
  1
ADAPPL
  2
AcAdAppl
  3
DesignerServices
 90
        0
280
     0
281
     0
  0
CLASS
  1
DEPMGR
  2
AcAdDepMgr
  3
DesignerServices
 90
        0
280
     0
281
     0
  0
CLASS
  1
PARAMMGR
  2
AcAdParamMgr
  3
DesignerServices
 90
        0
280
     0
281
     0
  0
CLASS
  1
PARAMSCOPE
  2
AcAdParamScope
  3
DesignerServices
 90
        0
280
     0
281
     0
  0
CLASS
  1
NAMEDAPPL
  2
AcAdNamedAppl
  3
DesignerServices
 90
        0
280
     0
281
     0
  0
CLASS
  1
AMDTDMMENUSTATE
  2
AmdtDmMenuState
  3
AcMechDwgViewMgmt
 90
        0
280
     0
281
     0
  0
CLASS
  1
AMDTAMMENUSTATE
  2
AmdtAmMenuState
  3
DesignerAssemblies
 90
        0
280
     0
281
     0
  0
CLASS
  1
ACAMPROJECT
  2
AcAmProject
  3
DesignerAssemblies
 90
        0
280
     0
281
     0
  0
CLASS
  1
ACAMGRCOMPDEF
  2
AcAmGrCompDef
  3
DesignerAssemblies
 90
        0
280
     0
281
     0
  0
CLASS
  1
ACCMCONTEXT
  2
AcCmContext
  3
DesignerAssemblies
 90
        0
280
     0
281
     0
  0
CLASS
  1
ACAMCOMPDEF
  2
AcAmCompDef
  3
DesignerAssemblies
 90
        0
280
     0
281
     0
  0
CLASS
  1
ACAMCOMPDEFMGR
  2
AcAmCompDefMgr
  3
DesignerAssemblies
 90
        0
280
     0
281
     0
  0
CLASS
  1
AMCONTEXTMGR
  2
AcAmContextMgr
  3
DesignerAssemblies
 90
        0
280
     0
281
     0
  0
CLASS
  1
ACAMCONTEXTMODELER
  2
AcAmContextModeler
  3
DesignerAssemblies
 90
        0
280
     0
281
     0
  0
CLASS
  1
CATALOGSTATE
  2
AcAmCatalogState
  3
DesignerAssemblies
 90
        0
280
     0
281
     0
  0
CLASS
  1
ACAMGRCOMPDEFSET
  2
AcAmGrCompDefSet
  3
DesignerAssemblies
 90
        0
280
     0
281
     0
  0
CLASS
  1
AMDTBROWSERDBTAB
  2
AmdtBrowserDbTab
  3
McadcomServices
 90
        0
280
     0
281
     0
  0
CLASS
  1
CBROWSERAPPOBJECT
  2
CBrowserAppObject
  3
McadcomServices
 90
        0
280
     0
281
     0
  0
CLASS
  1
DM_PLACEHOLDER
  2
AcDmSelsetPlaceholder
  3
AcMechDwgViewMgmt
 90
        0
280
     0
281
     0
  0
CLASS
  1
ACMNOTESTANDARDANSI
  2
AmdtNoteStdANSI
  3
"Amdt_StdImp|Product Description: AutoCAD Mechanical 2004 DX|Company: Autodesk"
 90
        0
280
     0
281
     0
  0
CLASS
  1
ACMTHREADLINESTANDARDANSI
  2
AmdtThreadLineStdANSI
  3
"Amdt_StdImp|Product Description: AutoCAD Mechanical 2004 DX|Company: Autodesk"
 90
        0
280
     0
281
     0
  0
CLASS
  1
ACMNOTESTANDARDISO
  2
AmdtNoteStdISO
  3
"Amdt_StdImp|Product Description: AutoCAD Mechanical 2004 DX|Company: Autodesk"
 90
        0
280
     0
281
     0
  0
CLASS
  1
ACMTHREADLINESTANDARDISO
  2
AmdtThreadLineStdISO
  3
"Amdt_StdImp|Product Description: AutoCAD Mechanical 2004 DX|Company: Autodesk"
 90
        0
280
     0
281
     0
  0
CLASS
  1
ACMNOTESTANDARDJIS
  2
AmdtNoteStdJIS
  3
"Amdt_StdImp|Product Description: AutoCAD Mechanical 2004 DX|Company: Autodesk"
 90
        0
280
     0
281
     0
  0
CLASS
  1
TABLESTYLE
  2
AcDbTableStyle
  3
ObjectDBX Classes
 90
     2047
280
     0
281
     0
  0
ENDSEC
  0
SECTION
  2
TABLES
  0
TABLE
  2
VPORT
  5
8
330
0
100
AcDbSymbolTable
 70
     3
  0
VPORT
  5
A9C
330
8
100
AcDbSymbolTableRecord
100
AcDbViewportTableRecord
  2
*Active
 70
     0
 10
0.0
 20
0.0
 11
1.0
 21
1.0
 12
364.1540273720023
 22
-192.9999991012737
 13
0.0
 23
0.0
 14
10.0
 24
10.0
 15
10.0
 25
10.0
 16
0.0
 26
0.0
 36
1.0
 17
0.0
 27
0.0
 37
0.0
 40
569.5300476501963
 41
1.285904255319148
 42
50.0
 43
0.0
 44
0.0
 50
0.0
 51
0.0
 71
     0
 72
   100
 73
     1
 74
     1
 75
     0
 76
     0
 77
     0
 78
     0
281
     0
 65
     1
110
0.0
120
0.0
130
0.0
111
1.0
121
0.0
131
0.0
112
0.0
122
1.0
132
0.0
 79
     0
146
0.0
  0
ENDTAB
  0
TABLE
  2
LTYPE
  5
5
330
0
100
AcDbSymbolTable
 70
    22
  0
LTYPE
  5
12
330
5
100
AcDbSymbolTableRecord
100
AcDbLinetypeTableRecord
  2
BYBLOCK
 70
     0
  3

 72
    65
 73
     0
 40
0.0
  0
LTYPE
  5
13
330
5
100
AcDbSymbolTableRecord
100
AcDbLinetypeTableRecord
  2
BYLAYER
 70
     0
  3

 72
    65
 73
     0
 40
0.0
  0
LTYPE
  5
14
330
5
100
AcDbSymbolTableRecord
100
AcDbLinetypeTableRecord
  2
CONTINUOUS
 70
     0
  3
Solid line
 72
    65
 73
     0
 40
0.0
  0
LTYPE
  5
22
330
5
100
AcDbSymbolTableRecord
100
AcDbLinetypeTableRecord
  2
CENTER
 70
     0
  3
__ . __
 72
    65
 73
     4
 40
7.0
 49
4.0
 74
     0
 49
-1.0
 74
     0
 49
1.0
 74
     0
 49
-1.0
 74
     0
  0
LTYPE
  5
23
330
5
100
AcDbSymbolTableRecord
100
AcDbLinetypeTableRecord
  2
CENTER2
 70
     0
  3
Center (.5x) ___ _ ___ _ ___ _ ___ _ ___ _ ___
 72
    65
 73
     4
 40
28.575
 49
19.05
 74
     0
 49
-3.174999999999999
 74
     0
 49
3.174999999999999
 74
     0
 49
-3.174999999999999
 74
     0
  0
LTYPE
  5
24
330
5
100
AcDbSymbolTableRecord
100
AcDbLinetypeTableRecord
  2
PHANTOM
 70
     0
  3
Phantom ______  __  __  ______  __  __  ______
 72
    65
 73
     6
 40
63.5
 49
31.75
 74
     0
 49
-6.349999999999999
 74
     0
 49
6.349999999999999
 74
     0
 49
-6.349999999999999
 74
     0
 49
6.349999999999999
 74
     0
 49
-6.349999999999999
 74
     0
  0
LTYPE
  5
25
330
5
100
AcDbSymbolTableRecord
100
AcDbLinetypeTableRecord
  2
PHANTOM2
 70
     0
  3
Phantom (.5x) ___ _ _ ___ _ _ ___ _ _ ___ _ _
 72
    65
 73
     6
 40
31.75
 49
15.875
 74
     0
 49
-3.174999999999999
 74
     0
 49
3.174999999999999
 74
     0
 49
-3.174999999999999
 74
     0
 49
3.174999999999999
 74
     0
 49
-3.174999999999999
 74
     0
  0
LTYPE
  5
26
330
5
100
AcDbSymbolTableRecord
100
AcDbLinetypeTableRecord
  2
DASHED
 70
     0
  3
Dashed __ __ __ __ __ __ __ __ __ __ __ __ __ _
 72
    65
 73
     2
 40
19.05
 49
12.7
 74
     0
 49
-6.349999999999999
 74
     0
  0
LTYPE
  5
27
330
5
100
AcDbSymbolTableRecord
100
AcDbLinetypeTableRecord
  2
DASHED2
 70
     0
  3
Dashed (.5x) _ _ _ _ _ _ _ _ _ _ _ _ _ _ _ _ _
 72
    65
 73
     2
 40
9.524999999999998
 49
6.349999999999999
 74
     0
 49
-3.174999999999999
 74
     0
  0
LTYPE
  5
378
330
5
100
AcDbSymbolTableRecord
100
AcDbLinetypeTableRecord
  2
AM_ISO02W050
 70
     0
  3
__ __ __ __ __ __ __ __ __ __ __ __ __ __ __
 72
    65
 73
     2
 40
7.5
 49
6.0
 74
     0
 49
-1.5
 74
     0
  0
LTYPE
  5
379
330
5
100
AcDbSymbolTableRecord
100
AcDbLinetypeTableRecord
  2
AM_ISO08W050
 70
     0
  3
____ . ____ . ____ . ____ . ____ . ____ . ____
 72
    65
 73
     4
 40
18.0
 49
12.0
 74
     0
 49
-1.5
 74
     0
 49
3.0
 74
     0
 49
-1.5
 74
     0
  0
LTYPE
  5
37A
330
5
100
AcDbSymbolTableRecord
100
AcDbLinetypeTableRecord
  2
AM_ISO09W050
 70
     0
  3
_____ . . _____ . . _____ . . ____ .. ____
 72
    65
 73
     6
 40
22.5
 49
12.0
 74
     0
 49
-1.5
 74
     0
 49
3.0
 74
     0
 49
-1.5
 74
     0
 49
3.0
 74
     0
 49
-1.5
 74
     0
  0
LTYPE
  5
37B
330
5
100
AcDbSymbolTableRecord
100
AcDbLinetypeTableRecord
  2
Amconstr
 70
     0
  3
_______________________
 72
    65
 73
     2
 40
9999.0
 49
9999.0
 74
     0
 49
0.0
 74
     0
  0
LTYPE
  5
37C
330
5
100
AcDbSymbolTableRecord
100
AcDbLinetypeTableRecord
  2
AM_ISO02W050x2
 70
     0
  3
 _ _ _ _ _ _ _ _ _ _ _ _
 72
    65
 73
     2
 40
3.75
 49
3.0
 74
     0
 49
-0.75
 74
     0
  0
LTYPE
  5
37D
330
5
100
AcDbSymbolTableRecord
100
AcDbLinetypeTableRecord
  2
AM_ISO08W050x2
 70
     0
  3
__ . __ . __ . __ . __ . __
 72
    65
 73
     4
 40
9.0
 49
6.0
 74
     0
 49
-0.75
 74
     0
 49
1.5
 74
     0
 49
-0.75
 74
     0
  0
LTYPE
  5
37E
330
5
100
AcDbSymbolTableRecord
100
AcDbLinetypeTableRecord
  2
Amzigzag
 70
     0
  3
/\/-/\/-/\/-/\/-/\/-/\/
 72
    65
 73
     2
 40
11.0001
 49
0.0001
 74
     4
 75
   135
340
21
 46
0.04
 50
0.0
 44
0.0
 45
0.0
 49
-11.0
 74
     0
  0
LTYPE
  5
3A7
330
5
100
AcDbSymbolTableRecord
100
AcDbLinetypeTableRecord
  2
ACANSTGB
 70
     0
  3
__ . . __ . .
 72
    65
 73
     6
 40
0.35433070866
 49
0.15748031496
 74
     0
 49
-0.03937007874
 74
     0
 49
0.03937007874
 74
     0
 49
-0.03937007874
 74
     0
 49
0.03937007874
 74
     0
 49
-0.03937007874
 74
     0
  0
LTYPE
  5
3A8
330
5
100
AcDbSymbolTableRecord
100
AcDbLinetypeTableRecord
  2
ACANSTGL
 70
     0
  3
_ _ _ _ _
 72
    65
 73
     2
 40
0.11811023622
 49
0.07874015748
 74
     0
 49
-0.03937007874
 74
     0
  0
LTYPE
  5
3C2
330
5
100
AcDbSymbolTableRecord
100
AcDbLinetypeTableRecord
  2
ACISOWELD
 70
     0
  3
_ _ _ _ _
 72
    65
 73
     2
 40
2.0
 49
2.0
 74
     0
 49
-1.0
 74
     0
  0
LTYPE
  5
3C5
330
5
100
AcDbSymbolTableRecord
100
AcDbLinetypeTableRecord
  2
ACISOTGB
 70
     0
  3
__ . . __ . .
 72
    65
 73
     6
 40
9.0
 49
4.0
 74
     0
 49
-1.0
 74
     0
 49
1.0
 74
     0
 49
-1.0
 74
     0
 49
1.0
 74
     0
 49
-1.0
 74
     0
  0
LTYPE
  5
3C6
330
5
100
AcDbSymbolTableRecord
100
AcDbLinetypeTableRecord
  2
ACISOTGL
 70
     0
  3
_ _ _ _ _
 72
    65
 73
     2
 40
3.0
 49
2.0
 74
     0
 49
-1.0
 74
     0
  0
LTYPE
  5
3DE
330
5
100
AcDbSymbolTableRecord
100
AcDbLinetypeTableRecord
  2
ACJISTGB
 70
     0
  3
__ . . __ . .
 72
    65
 73
     6
 40
9.0
 49
4.0
 74
     0
 49
-1.0
 74
     0
 49
1.0
 74
     0
 49
-1.0
 74
     0
 49
1.0
 74
     0
 49
-1.0
 74
     0
  0
LTYPE
  5
3DF
330
5
100
AcDbSymbolTableRecord
100
AcDbLinetypeTableRecord
  2
ACJISTGL
 70
     0
  3
_ _ _ _ _
 72
    65
 73
     2
 40
3.0
 49
2.0
 74
     0
 49
-1.0
 74
     0
  0
LTYPE
  5
66C
330
5
100
AcDbSymbolTableRecord
100
AcDbLinetypeTableRecord
  2
HIDDEN
 70
     0
  3
Hidden __ __ __ __ __ __ __ __ __ __ __ __ __ _
 72
    65
 73
     2
 40
9.524999999999998
 49
6.349999999999999
 74
     0
 49
-3.174999999999999
 74
     0
  0
ENDTAB
  0
TABLE
  2
LAYER
  5
2
330
0
100
AcDbSymbolTable
 70
     6
  0
LAYER
  5
E
330
2
100
AcDbSymbolTableRecord
100
AcDbLayerTableRecord
  2
0
 70
     0
 62
     7
  6
CONTINUOUS
370
    -3
390
5D
  0
LAYER
  5
74
330
2
100
AcDbSymbolTableRecord
100
AcDbLayerTableRecord
  2
Defpoints
 70
     0
 62
     7
  6
CONTINUOUS
290
     0
370
    -3
390
5D
  0
LAYER
  5
75
330
2
100
AcDbSymbolTableRecord
100
AcDbLayerTableRecord
  2
PV0001_1
 70
     0
 62
     7
  6
CONTINUOUS
370
    -3
390
5D
  0
LAYER
  5
3F0
330
2
100
AcDbSymbolTableRecord
100
AcDbLayerTableRecord
  2
outline
 70
     0
 62
     4
  6
CONTINUOUS
370
    50
390
5D
  0
LAYER
  5
800
330
2
100
AcDbSymbolTableRecord
100
AcDbLayerTableRecord
  2
AM_CL
 70
     0
 62
     1
  6
Amconstr
370
    25
390
5D
  0
LAYER
  5
806
330
2
100
AcDbSymbolTableRecord
100
AcDbLayerTableRecord
  2
dimension
 70
     0
 62
     7
  6
CONTINUOUS
370
    25
390
5D
  0
ENDTAB
  0
TABLE
  2
STYLE
  5
3
330
0
100
AcDbSymbolTable
 70
    10
  0
STYLE
  5
F
330
3
100
AcDbSymbolTableRecord
100
AcDbTextStyleTableRecord
  2
STANDARD
 70
     0
 40
0.0
 41
1.0
 50
0.0
 71
     0
 42
2.5
  3
monotxt.shx
  4
extfont.shx
  0
STYLE
  5
21
330
3
100
AcDbSymbolTableRecord
100
AcDbTextStyleTableRecord
  2

 70
     1
 40
0.0
 41
1.0
 50
0.0
 71
     0
 42
2.5
  3
ltypeshp.shx
  4

  0
STYLE
  5
30
330
3
100
AcDbSymbolTableRecord
100
AcDbTextStyleTableRecord
  2
DIM
 70
     0
 40
0.0
 41
1.0
 50
0.0
 71
     0
 42
2.5
  3
monotxt.shx
  4
extfont.shx
  0
STYLE
  5
31
330
3
100
AcDbSymbolTableRecord
100
AcDbTextStyleTableRecord
  2
CONVERT
 70
     0
 40
0.0
 41
1.0
 50
0.0
 71
     0
 42
2.5
  3
monotxt.shx
  4
extfont.shx
  0
STYLE
  5
3A0
330
3
100
AcDbSymbolTableRecord
100
AcDbTextStyleTableRecord
  2
ACANSTS
 70
     0
 40
1.0
 41
1.0
 50
0.0
 71
     0
 42
5.0
  3
romans.shx
  4
extfont.shx
  0
STYLE
  5
3A3
330
3
100
AcDbSymbolTableRecord
100
AcDbTextStyleTableRecord
  2
ACANSGDT
 70
     0
 40
0.0
 41
1.0
 50
0.0
 71
     0
 42
5.0
  3
amgdtans.shx
  4

  0
STYLE
  5
3BC
330
3
100
AcDbSymbolTableRecord
100
AcDbTextStyleTableRecord
  2
ACISOTS
 70
     0
 40
1.0
 41
1.0
 50
0.0
 71
     0
 42
2.5
  3
isocp.shx
  4
extfont.shx
  0
STYLE
  5
3C0
330
3
100
AcDbSymbolTableRecord
100
AcDbTextStyleTableRecord
  2
ACISOGDT
 70
     0
 40
0.0
 41
1.0
 50
0.0
 71
     0
 42
2.5
  3
amgdt.shx
  4

  0
STYLE
  5
3D7
330
3
100
AcDbSymbolTableRecord
100
AcDbTextStyleTableRecord
  2
ACJISTS
 70
     0
 40
1.0
 41
1.0
 50
0.0
 71
     0
 42
2.5
  3
isocp.shx
  4
bigfont.shx
  0
STYLE
  5
3DA
330
3
100
AcDbSymbolTableRecord
100
AcDbTextStyleTableRecord
  2
ACJISGDT
 70
     0
 40
0.0
 41
1.0
 50
0.0
 71
     0
 42
2.5
  3
amgdt.shx
  4

  0
ENDTAB
  0
TABLE
  2
VIEW
  5
6
330
0
100
AcDbSymbolTable
 70
     0
  0
ENDTAB
  0
TABLE
  2
UCS
  5
7
330
0
100
AcDbSymbolTable
 70
     0
  0
ENDTAB
  0
TABLE
  2
APPID
  5
9
330
0
100
AcDbSymbolTable
 70
    28
  0
APPID
  5
10
330
9
100
AcDbSymbolTableRecord
100
AcDbRegAppTableRecord
  2
ACAD
 70
     0
  0
APPID
  5
35E
330
9
100
AcDbSymbolTableRecord
100
AcDbRegAppTableRecord
  2
MCAD_NO_VIS
 70
     0
  0
APPID
  5
35F
330
9
100
AcDbSymbolTableRecord
100
AcDbRegAppTableRecord
  2
ACAD_TEMP_GRAPHIC
 70
     0
  0
APPID
  5
360
330
9
100
AcDbSymbolTableRecord
100
AcDbRegAppTableRecord
  2
GENIUS_GENREC_14
 70
     0
  0
APPID
  5
361
330
9
100
AcDbSymbolTableRecord
100
AcDbRegAppTableRecord
  2
GENIUS_GENODEF_13
 70
     0
  0
APPID
  5
362
330
9
100
AcDbSymbolTableRecord
100
AcDbRegAppTableRecord
  2
GENIUS_GENOBJ-N-REC_13
 70
     0
  0
APPID
  5
363
330
9
100
AcDbSymbolTableRecord
100
AcDbRegAppTableRecord
  2
GENIUS_GENOBJ-N-CEN_13
 70
     0
  0
APPID
  5
364
330
9
100
AcDbSymbolTableRecord
100
AcDbRegAppTableRecord
  2
GENIUS_GENDTOL_13
 70
     0
  0
APPID
  5
365
330
9
100
AcDbSymbolTableRecord
100
AcDbRegAppTableRecord
  2
GENIUS_GENDIMSH_14
 70
     0
  0
APPID
  5
366
330
9
100
AcDbSymbolTableRecord
100
AcDbRegAppTableRecord
  2
ACATTRIBSERVICES
 70
     0
  0
APPID
  5
367
330
9
100
AcDbSymbolTableRecord
100
AcDbRegAppTableRecord
  2
GENIUS_GENFIL_13
 70
     0
  0
APPID
  5
368
330
9
100
AcDbSymbolTableRecord
100
AcDbRegAppTableRecord
  2
GENIUS_GENOBJ-N-CHA_13
 70
     0
  0
APPID
  5
369
330
9
100
AcDbSymbolTableRecord
100
AcDbRegAppTableRecord
  2
GENIUS_GENOLIS_13
 70
     0
  0
APPID
  5
36A
330
9
100
AcDbSymbolTableRecord
100
AcDbRegAppTableRecord
  2
GENIUS_GENOENT_13
 70
     0
  0
APPID
  5
36B
330
9
100
AcDbSymbolTableRecord
100
AcDbRegAppTableRecord
  2
GENIUS_GENOREF_13
 70
     0
  0
APPID
  5
36C
330
9
100
AcDbSymbolTableRecord
100
AcDbRegAppTableRecord
  2
GENIUS_GENOBJ-N-CRS_13
 70
     0
  0
APPID
  5
36D
330
9
100
AcDbSymbolTableRecord
100
AcDbRegAppTableRecord
  2
GENIUS_GENOBJ-N-TIT_13
 70
     0
  0
APPID
  5
36E
330
9
100
AcDbSymbolTableRecord
100
AcDbRegAppTableRecord
  2
GENIUS_GENTITLE_13
 70
     0
  0
APPID
  5
36F
330
9
100
AcDbSymbolTableRecord
100
AcDbRegAppTableRecord
  2
GENIUS_GENSCREG_15
 70
     0
  0
APPID
  5
370
330
9
100
AcDbSymbolTableRecord
100
AcDbRegAppTableRecord
  2
GENIUS_GENOBJ-N-SDF_13
 70
     0
  0
APPID
  5
371
330
9
100
AcDbSymbolTableRecord
100
AcDbRegAppTableRecord
  2
GENIUS_GENTRA_14
 70
     0
  0
APPID
  5
372
330
9
100
AcDbSymbolTableRecord
100
AcDbRegAppTableRecord
  2
GENIUS_GENOBJ-N-FIL_13
 70
     0
  0
APPID
  5
64C
330
9
100
AcDbSymbolTableRecord
100
AcDbRegAppTableRecord
  2
AD_DRAW
 70
     0
  0
APPID
  5
64D
330
9
100
AcDbSymbolTableRecord
100
AcDbRegAppTableRecord
  2
DESIGNERASSEMBLIES
 70
     0
  0
APPID
  5
64E
330
9
100
AcDbSymbolTableRecord
100
AcDbRegAppTableRecord
  2
ACADM_DIM_EDIT
 70
     0
  0
APPID
  5
64F
330
9
100
AcDbSymbolTableRecord
100
AcDbRegAppTableRecord
  2
AMDT_DM_ADJ
 70
     0
  0
APPID
  5
90D
330
9
100
AcDbSymbolTableRecord
100
AcDbRegAppTableRecord
  2
ACAD_DSTYLE_DIMARC_LENGTH_SYMBOL
 70
     0
  0
APPID
  5
90E
330
9
100
AcDbSymbolTableRecord
100
AcDbRegAppTableRecord
  2
ACAD_DSTYLE_DIMJOGGED_JOGANGLE_SYMBOL
 70
     0
  0
ENDTAB
  0
TABLE
  2
DIMSTYLE
  5
A
330
0
100
AcDbSymbolTable
 70
    28
100
AcDbDimStyleTable
 71
     0
  0
DIMSTYLE
105
1D
102
{ACAD_REACTORS
330
76
102
}
330
A
100
AcDbSymbolTableRecord
100
AcDbDimStyleTableRecord
  2
STANDARD
 70
     0
 41
3.0
 42
1.0
 43
7.0
 44
2.0
 73
     0
 74
     0
 77
     1
140
2.799999999999999
141
0.0
143
0.0394
147
0.7
171
     4
172
     1
173
     1
176
    44
177
    44
178
    44
271
     3
272
     3
273
     8
274
     4
289
     0
340
F
341
32
343
32
344
32
  0
DIMSTYLE
105
3B0
330
A
100
AcDbSymbolTableRecord
100
AcDbDimStyleTableRecord
  2
AM_ANSI
 70
     0
  4
mm
 41
0.1
 42
0.05
 43
0.5
 44
0.1
 47
0.1
 48
0.1
 78
     7
 79
     2
140
0.12
141
0.0
146
0.71
147
0.06
176
   256
177
   256
178
     2
274
     4
340
F
371
    -1
372
    -1
1001
ACAD_DSTYLE_DIMARC_LENGTH_SYMBOL
1070
   379
1070
     1
1001
ACAD_DSTYLE_DIMJOGGED_JOGANGLE_SYMBOL
1070
   384
1040
0.7853981633974483
  0
DIMSTYLE
105
3B1
330
A
100
AcDbSymbolTableRecord
100
AcDbDimStyleTableRecord
  2
AM_ANSI$3
 70
     0
  4
mm
 41
0.1
 42
0.05
 43
0.5
 44
0.1
 47
0.1
 48
0.1
 78
     7
 79
     2
140
0.12
141
0.0
146
0.71
147
0.06
176
   256
177
   256
178
     2
274
     4
288
     1
289
     0
340
F
371
    -1
372
    -1
1001
ACAD_DSTYLE_DIMARC_LENGTH_SYMBOL
1070
   379
1070
     1
1001
ACAD_DSTYLE_DIMJOGGED_JOGANGLE_SYMBOL
1070
   384
1040
0.7853981633974483
  0
DIMSTYLE
105
3B2
330
A
100
AcDbSymbolTableRecord
100
AcDbDimStyleTableRecord
  2
AM_ANSI$4
 70
     0
  4
mm
 41
0.1
 42
0.05
 43
0.5
 44
0.1
 47
0.1
 48
0.1
 78
     7
 79
     2
140
0.12
141
0.0
146
0.71
147
0.06
176
   256
177
   256
178
     2
274
     4
288
     1
289
     0
340
F
371
    -1
372
    -1
1001
ACAD_DSTYLE_DIMARC_LENGTH_SYMBOL
1070
   379
1070
     1
1001
ACAD_DSTYLE_DIMJOGGED_JOGANGLE_SYMBOL
1070
   384
1040
0.7853981633974483
  0
DIMSTYLE
105
3B3
330
A
100
AcDbSymbolTableRecord
100
AcDbDimStyleTableRecord
  2
AM_ANSI$7
 70
     0
  4
mm
 41
0.1
 42
0.05
 43
0.5
 44
0.1
 47
0.1
 48
0.1
 78
     7
 79
     2
140
0.24
141
0.0
146
0.71
147
0.06
176
   256
177
   256
178
     2
274
     4
340
F
371
    -1
372
    -1
1001
ACAD_DSTYLE_DIMARC_LENGTH_SYMBOL
1070
   379
1070
     1
1001
ACAD_DSTYLE_DIMJOGGED_JOGANGLE_SYMBOL
1070
   384
1040
0.7853981633974483
  0
DIMSTYLE
105
3B4
330
A
100
AcDbSymbolTableRecord
100
AcDbDimStyleTableRecord
  2
AM_ANSI$SF
 70
     0
  4
mm
 41
0.1
 42
0.05
 43
0.5
 44
0.1
 47
0.1
 48
0.1
 75
     1
 76
     1
 78
     7
 79
     2
140
0.12
141
0.0
146
0.71
147
0.06
176
   256
177
   256
178
     2
274
     4
340
F
371
    -1
372
    -1
1001
ACAD_DSTYLE_DIMARC_LENGTH_SYMBOL
1070
   379
1070
     1
1001
ACAD_DSTYLE_DIMJOGGED_JOGANGLE_SYMBOL
1070
   384
1040
0.7853981633974483
  0
DIMSTYLE
105
3B5
330
A
100
AcDbSymbolTableRecord
100
AcDbDimStyleTableRecord
  2
AM_ANSI$SH
 70
     0
  4
mm
 41
0.1
 42
0.05
 43
0.5
 44
0.1
 47
0.1
 48
0.1
 75
     1
 76
     1
 78
     7
 79
     2
140
0.12
141
0.0
146
0.71
147
0.06
173
     1
176
   256
177
   256
178
     2
274
     4
340
F
343
3B6
371
    -1
372
    -1
1001
ACAD_DSTYLE_DIMARC_LENGTH_SYMBOL
1070
   379
1070
     1
1001
ACAD_DSTYLE_DIMJOGGED_JOGANGLE_SYMBOL
1070
   384
1040
0.7853981633974483
  0
DIMSTYLE
105
3CE
330
A
100
AcDbSymbolTableRecord
100
AcDbDimStyleTableRecord
  2
AM_ISO
 70
     0
  4
"
 41
2.5
 42
1.0
 43
10.0
 44
1.0
 47
0.1
 48
0.1
 73
     0
 74
     0
 77
     1
 78
     8
 79
     2
140
3.5
141
0.0
143
0.0393701
146
0.71
147
1.5
172
     1
176
   256
177
   256
178
     2
271
     2
272
     3
274
     4
283
     0
284
     8
340
F
371
    -1
372
    -1
1001
ACAD_DSTYLE_DIMARC_LENGTH_SYMBOL
1070
   379
1070
     1
1001
ACAD_DSTYLE_DIMJOGGED_JOGANGLE_SYMBOL
1070
   384
1040
0.7853981633974483
  0
DIMSTYLE
105
3CF
330
A
100
AcDbSymbolTableRecord
100
AcDbDimStyleTableRecord
  2
AM_ISO$3
 70
     0
  4
"
 41
2.5
 42
1.0
 43
10.0
 44
1.0
 47
0.1
 48
0.1
 73
     0
 77
     1
 78
     8
 79
     2
140
3.5
141
0.0
143
0.0393701
146
0.71
147
1.5
176
   256
177
   256
178
     2
271
     2
272
     3
274
     4
283
     0
284
     8
288
     1
289
     0
340
F
371
    -1
372
    -1
1001
ACAD_DSTYLE_DIMARC_LENGTH_SYMBOL
1070
   379
1070
     1
1001
ACAD_DSTYLE_DIMJOGGED_JOGANGLE_SYMBOL
1070
   384
1040
0.7853981633974483
  0
DIMSTYLE
105
3D0
330
A
100
AcDbSymbolTableRecord
100
AcDbDimStyleTableRecord
  2
AM_ISO$4
 70
     0
  4
"
 41
2.5
 42
1.0
 43
10.0
 44
1.0
 47
0.1
 48
0.1
 73
     0
 77
     1
 78
     8
 79
     2
140
3.5
141
0.0
143
0.0393701
146
0.71
147
1.5
176
   256
177
   256
178
     2
271
     2
272
     3
274
     4
283
     0
284
     8
288
     1
289
     0
340
F
371
    -1
372
    -1
1001
ACAD_DSTYLE_DIMARC_LENGTH_SYMBOL
1070
   379
1070
     1
1001
ACAD_DSTYLE_DIMJOGGED_JOGANGLE_SYMBOL
1070
   384
1040
0.7853981633974483
  0
DIMSTYLE
105
3D1
330
A
100
AcDbSymbolTableRecord
100
AcDbDimStyleTableRecord
  2
AM_ISO$6
 70
     0
  4
"
 41
2.5
 42
1.0
 43
10.0
 44
1.0
 47
0.1
 48
0.1
 73
     0
 74
     0
 78
     8
 79
     2
140
3.5
141
0.0
143
0.0393701
146
0.71
147
1.5
172
     1
176
   256
177
   256
178
     2
271
     2
272
     3
274
     4
283
     0
284
     8
340
F
371
    -1
372
    -1
1001
ACAD_DSTYLE_DIMARC_LENGTH_SYMBOL
1070
   379
1070
     1
1001
ACAD_DSTYLE_DIMJOGGED_JOGANGLE_SYMBOL
1070
   384
1040
0.7853981633974483
  0
DIMSTYLE
105
3D2
330
A
100
AcDbSymbolTableRecord
100
AcDbDimStyleTableRecord
  2
AM_ISO$7
 70
     0
  4
"
 41
2.5
 42
1.0
 43
10.0
 44
1.0
 47
0.1
 48
0.1
 73
     0
 74
     0
 77
     1
 78
     8
 79
     2
140
5.0
141
0.0
143
0.0393701
146
0.71
147
1.5
172
     1
176
   256
177
   256
178
     2
271
     2
272
     3
274
     4
283
     0
284
     8
340
F
371
    -1
372
    -1
1001
ACAD_DSTYLE_DIMARC_LENGTH_SYMBOL
1070
   379
1070
     1
1001
ACAD_DSTYLE_DIMJOGGED_JOGANGLE_SYMBOL
1070
   384
1040
0.7853981633974483
  0
DIMSTYLE
105
3D3
330
A
100
AcDbSymbolTableRecord
100
AcDbDimStyleTableRecord
  2
AM_ISO$SF
 70
     0
  4
"
 41
2.5
 42
1.0
 43
10.0
 44
1.0
 47
0.1
 48
0.1
 73
     0
 74
     0
 75
     1
 76
     1
 77
     1
 78
     8
 79
     2
140
3.5
141
0.0
143
0.0393701
146
0.71
147
1.5
172
     1
176
   256
177
   256
178
     2
271
     2
272
     3
274
     4
283
     0
284
     8
340
F
371
    -1
372
    -1
1001
ACAD_DSTYLE_DIMARC_LENGTH_SYMBOL
1070
   379
1070
     1
1001
ACAD_DSTYLE_DIMJOGGED_JOGANGLE_SYMBOL
1070
   384
1040
0.7853981633974483
  0
DIMSTYLE
105
3D4
330
A
100
AcDbSymbolTableRecord
100
AcDbDimStyleTableRecord
  2
AM_ISO$SH
 70
     0
  4
"
 41
2.5
 42
1.0
 43
10.0
 44
1.0
 47
0.1
 48
0.1
 73
     0
 74
     0
 75
     1
 76
     1
 77
     1
 78
     8
 79
     2
140
3.5
141
0.0
143
0.0393701
144
2.0
146
0.71
147
1.5
172
     1
173
     1
176
   256
177
   256
178
     2
271
     2
272
     3
274
     4
283
     0
284
     8
340
F
343
3B6
371
    -1
372
    -1
1001
ACAD_DSTYLE_DIMARC_LENGTH_SYMBOL
1070
   379
1070
     1
1001
ACAD_DSTYLE_DIMJOGGED_JOGANGLE_SYMBOL
1070
   384
1040
0.7853981633974483
  0
DIMSTYLE
105
3ED
330
A
100
AcDbSymbolTableRecord
100
AcDbDimStyleTableRecord
  2
kuroda_sunpo
 70
     0
  4
"
 41
2.5
 42
1.0
 43
8.0
 44
1.0
 47
0.1
 48
0.1
 73
     0
 74
     0
 77
     3
 78
     8
 79
     2
140
3.2
141
0.0
143
0.0393701
146
0.71
147
1.5
172
     1
176
     7
177
     7
178
     7
179
     2
271
     3
272
     3
275
     1
283
     0
340
F
341
A7
342
A7
371
    -1
372
    -1
  0
DIMSTYLE
105
3F5
330
A
100
AcDbSymbolTableRecord
100
AcDbDimStyleTableRecord
  2
kuroda_sunpo$3
 70
     0
  4
"
 41
2.5
 42
1.0
 43
8.0
 44
1.0
 47
0.1
 48
0.1
 73
     0
 77
     3
 78
     8
 79
     2
140
3.2
141
0.0
143
0.0393701
146
0.71
147
1.5
176
     7
177
     7
178
     7
179
     2
271
     3
272
     3
275
     1
283
     0
288
     1
289
     0
340
F
341
A7
342
A7
371
    -1
372
    -1
  0
DIMSTYLE
105
3F6
330
A
100
AcDbSymbolTableRecord
100
AcDbDimStyleTableRecord
  2
kuroda_sunpo$4
 70
     0
  4
"
 41
2.5
 42
1.0
 43
8.0
 44
1.0
 47
0.1
 48
0.1
 73
     0
 77
     3
 78
     8
 79
     2
140
3.2
141
0.0
143
0.0393701
146
0.71
147
1.5
176
     7
177
     7
178
     7
179
     2
271
     3
272
     3
275
     1
283
     0
288
     1
289
     0
340
F
341
A7
342
A7
371
    -1
372
    -1
  0
DIMSTYLE
105
3F7
330
A
100
AcDbSymbolTableRecord
100
AcDbDimStyleTableRecord
  2
kuroda_sunpo$6
 70
     0
  4
"
 41
2.5
 42
1.0
 43
8.0
 44
1.0
 47
0.1
 48
0.1
 73
     0
 74
     0
 78
     8
 79
     2
140
3.2
141
0.0
143
0.0393701
146
0.71
147
1.5
172
     1
176
     7
177
     7
178
     7
179
     2
271
     3
272
     3
275
     1
283
     0
340
F
341
A7
342
A7
371
    -1
372
    -1
  0
DIMSTYLE
105
3F8
330
A
100
AcDbSymbolTableRecord
100
AcDbDimStyleTableRecord
  2
kuroda_sunpo$SF
 70
     0
  4
"
 41
2.5
 42
1.0
 43
8.0
 44
1.0
 47
0.1
 48
0.1
 73
     0
 74
     0
 75
     1
 76
     1
 77
     3
 78
     8
 79
     2
140
5.0
141
0.0
143
0.0393701
146
0.71
147
1.5
172
     1
176
   256
177
   256
178
     7
179
     2
271
     3
272
     3
275
     1
283
     0
340
F
341
32
342
32
371
    -1
372
    -1
  0
DIMSTYLE
105
3FF
330
A
100
AcDbSymbolTableRecord
100
AcDbDimStyleTableRecord
  2
kuroda_sunpo$SH
 70
     0
  4
"
 41
2.5
 42
1.0
 43
8.0
 44
1.0
 47
0.1
 48
0.1
 73
     0
 74
     0
 75
     1
 76
     1
 77
     3
 78
     8
 79
     2
140
5.0
141
0.0
143
0.0393701
144
2.0
146
0.71
147
1.5
172
     1
173
     1
176
   256
177
   256
178
     7
179
     2
271
     3
272
     3
275
     1
283
     0
340
F
341
32
342
32
343
3B6
371
    -1
372
    -1
  0
DIMSTYLE
105
411
330
A
100
AcDbSymbolTableRecord
100
AcDbDimStyleTableRecord
  2
JIS-KURODA
 70
     0
  4
"
 41
2.5
 42
1.0
 43
10.0
 44
1.0
 47
0.1
 48
0.1
 73
     0
 74
     0
 77
     3
 78
     8
 79
     2
140
3.2
141
0.0
143
0.0393701
146
0.71
147
1.5
172
     1
174
     1
176
     7
177
     7
178
     7
271
     2
272
     2
283
     0
284
     8
340
F
341
A7
342
A7
371
    -1
372
    -1
1001
ACAD_DSTYLE_DIMARC_LENGTH_SYMBOL
1070
   379
1070
     1
1001
ACAD_DSTYLE_DIMJOGGED_JOGANGLE_SYMBOL
1070
   384
1040
0.7853981633974483
  0
DIMSTYLE
105
412
330
A
100
AcDbSymbolTableRecord
100
AcDbDimStyleTableRecord
  2
JIS-KURODA$2
 70
     0
  4
"
 41
2.5
 42
1.0
 43
10.0
 44
1.0
 47
0.1
 48
0.1
 73
     0
 74
     0
 77
     3
 78
     8
 79
     2
140
3.2
141
0.0
143
0.0393701
146
0.71
147
1.5
172
     1
174
     1
176
     7
177
     7
178
     7
271
     2
272
     2
283
     0
284
     8
340
F
341
A7
342
A7
371
    -1
372
    -1
1001
ACAD_DSTYLE_DIMARC_LENGTH_SYMBOL
1070
   379
1070
     1
1001
ACAD_DSTYLE_DIMJOGGED_JOGANGLE_SYMBOL
1070
   384
1040
0.7853981633974483
  0
DIMSTYLE
105
413
330
A
100
AcDbSymbolTableRecord
100
AcDbDimStyleTableRecord
  2
JIS-KURODA$3
 70
     0
  4
"
 41
2.5
 42
1.0
 43
10.0
 44
1.0
 47
0.1
 48
0.1
 73
     0
 74
     0
 77
     3
 78
     8
 79
     2
140
3.2
141
0.0
143
0.0393701
146
0.71
147
1.5
172
     1
176
     7
177
     7
178
     7
271
     2
272
     2
283
     0
284
     8
288
     1
289
     2
340
F
341
32
342
A7
371
    -1
372
    -1
1001
ACAD_DSTYLE_DIMARC_LENGTH_SYMBOL
1070
   379
1070
     1
1001
ACAD_DSTYLE_DIMJOGGED_JOGANGLE_SYMBOL
1070
   384
1040
0.7853981633974483
  0
DIMSTYLE
105
414
330
A
100
AcDbSymbolTableRecord
100
AcDbDimStyleTableRecord
  2
JIS-KURODA$4
 70
     0
  4
"
 41
2.5
 42
1.0
 43
10.0
 44
1.0
 47
0.1
 48
0.1
 73
     0
 77
     3
 78
     8
 79
     2
140
3.2
141
0.0
143
0.0393701
146
0.71
147
1.5
173
     1
176
     7
177
     7
178
     7
271
     2
272
     2
279
     1
283
     0
284
     8
288
     1
289
     0
340
F
341
32
343
32
344
A7
371
    -1
372
    -1
1001
ACAD_DSTYLE_DIMARC_LENGTH_SYMBOL
1070
   379
1070
     1
1001
ACAD_DSTYLE_DIMJOGGED_JOGANGLE_SYMBOL
1070
   384
1040
0.7853981633974483
  0
DIMSTYLE
105
415
330
A
100
AcDbSymbolTableRecord
100
AcDbDimStyleTableRecord
  2
JIS-KURODA$6
 70
     0
  4
"
 41
2.5
 42
1.0
 43
10.0
 44
1.0
 47
0.1
 48
0.1
 73
     0
 74
     0
 78
     8
 79
     2
140
3.2
141
0.0
143
0.0393701
146
0.71
147
1.5
172
     1
176
     7
177
     7
178
     7
271
     2
272
     2
279
     1
283
     0
284
     8
340
F
341
32
342
32
371
    -1
372
    -1
1001
ACAD_DSTYLE_DIMARC_LENGTH_SYMBOL
1070
   379
1070
     1
1001
ACAD_DSTYLE_DIMJOGGED_JOGANGLE_SYMBOL
1070
   384
1040
0.7853981633974483
  0
DIMSTYLE
105
416
330
A
100
AcDbSymbolTableRecord
100
AcDbDimStyleTableRecord
  2
JIS-KURODA$7
 70
     0
  4
"
 41
2.5
 42
1.0
 43
10.0
 44
1.0
 47
0.1
 48
0.1
 73
     0
 74
     0
 77
     3
 78
     8
 79
     2
140
4.000000000000003
141
0.0
143
0.0393701
146
0.71
147
1.5
172
     1
176
     7
177
     7
178
     7
271
     2
272
     2
279
     1
283
     0
284
     8
340
F
341
A7
342
32
371
    -1
372
    -1
1001
ACAD_DSTYLE_DIMARC_LENGTH_SYMBOL
1070
   379
1070
     1
1001
ACAD_DSTYLE_DIMJOGGED_JOGANGLE_SYMBOL
1070
   384
1040
0.7853981633974483
  0
DIMSTYLE
105
417
330
A
100
AcDbSymbolTableRecord
100
AcDbDimStyleTableRecord
  2
JIS-KURODA$SF
 70
     0
  4
"
 41
2.5
 42
1.0
 43
10.0
 44
1.0
 47
0.1
 48
0.1
 73
     0
 74
     0
 75
     1
 76
     1
 77
     3
 78
     8
 79
     2
140
3.5
141
0.0
143
0.0393701
146
0.71
147
1.5
172
     1
176
   256
177
   256
178
     7
271
     2
272
     3
274
     4
283
     0
284
     8
340
F
341
32
342
32
343
32
344
32
371
    -1
372
    -1
1001
ACAD_DSTYLE_DIMARC_LENGTH_SYMBOL
1070
   379
1070
     1
1001
ACAD_DSTYLE_DIMJOGGED_JOGANGLE_SYMBOL
1070
   384
1040
0.7853981633974483
  0
DIMSTYLE
105
418
330
A
100
AcDbSymbolTableRecord
100
AcDbDimStyleTableRecord
  2
JIS-KURODA$SH
 70
     0
  4
"
 41
2.5
 42
1.0
 43
10.0
 44
1.0
 47
0.1
 48
0.1
 73
     0
 74
     0
 75
     1
 76
     1
 77
     3
 78
     8
 79
     2
140
3.5
141
0.0
143
0.0393701
144
2.0
146
0.71
147
1.5
172
     1
173
     1
176
   256
177
   256
178
     7
271
     2
272
     3
274
     4
283
     0
284
     8
340
F
341
32
342
32
343
3B6
344
32
371
    -1
372
    -1
1001
ACAD_DSTYLE_DIMARC_LENGTH_SYMBOL
1070
   379
1070
     1
1001
ACAD_DSTYLE_DIMJOGGED_JOGANGLE_SYMBOL
1070
   384
1040
0.7853981633974483
  0
ENDTAB
  0
TABLE
  2
BLOCK_RECORD
  5
1
330
0
100
AcDbSymbolTable
 70
     6
  0
BLOCK_RECORD
  5
18
102
{ACAD_XDICTIONARY
360
33E
102
}
330
1
100
AcDbSymbolTableRecord
100
AcDbBlockTableRecord
  2
*MODEL_SPACE
340
60
  0
BLOCK_RECORD
  5
15
102
{ACAD_XDICTIONARY
360
33C
102
}
330
1
100
AcDbSymbolTableRecord
100
AcDbBlockTableRecord
  2
*PAPER_SPACE
340
61
  0
BLOCK_RECORD
  5
32
330
1
100
AcDbSymbolTableRecord
100
AcDbBlockTableRecord
  2
_Open30
340
0
  0
BLOCK_RECORD
  5
77
330
1
100
AcDbSymbolTableRecord
100
AcDbBlockTableRecord
  2
*D1
340
0
  0
BLOCK_RECORD
  5
A7
330
1
100
AcDbSymbolTableRecord
100
AcDbBlockTableRecord
  2
_Open
340
0
  0
BLOCK_RECORD
  5
3B6
330
1
100
AcDbSymbolTableRecord
100
AcDbBlockTableRecord
  2
GENAXEH
340
0
  0
BLOCK_RECORD
  5
602
330
1
100
AcDbSymbolTableRecord
100
AcDbBlockTableRecord
  2
*U4
340
0
102
{BLKREFS
331
2D6
102
}
  0
ENDTAB
  0
ENDSEC
  0
SECTION
  2
BLOCKS
  0
BLOCK
  5
19
330
18
100
AcDbEntity
  8
0
100
AcDbBlockBegin
  2
*MODEL_SPACE
 70
     0
 10
0.0
 20
0.0
 30
0.0
  3
*MODEL_SPACE
  1

  0
ENDBLK
  5
1A
330
18
100
AcDbEntity
  8
0
100
AcDbBlockEnd
  0
BLOCK
  5
16
330
15
100
AcDbEntity
 67
     1
  8
0
100
AcDbBlockBegin
  2
*PAPER_SPACE
 70
     0
 10
0.0
 20
0.0
 30
0.0
  3
*PAPER_SPACE
  1

  0
ENDBLK
  5
17
330
15
100
AcDbEntity
 67
     1
  8
0
100
AcDbBlockEnd
  0
BLOCK
  5
A57
330
32
100
AcDbEntity
  8
0
100
AcDbBlockBegin
  2
_Open30
 70
     0
 10
0.0
 20
0.0
 30
0.0
  3
_Open30
  1

  0
LINE
  5
A58
330
32
100
AcDbEntity
  8
0
 62
     0
370
    -2
100
AcDbLine
 10
-1.0
 20
0.26794919
 30
0.0
 11
0.0
 21
0.0
 31
0.0
  0
LINE
  5
A59
330
32
100
AcDbEntity
  8
0
 62
     0
370
    -2
100
AcDbLine
 10
0.0
 20
0.0
 30
0.0
 11
-1.0
 21
-0.26794919
 31
0.0
  0
LINE
  5
A5A
330
32
100
AcDbEntity
  8
0
 62
     0
370
    -2
100
AcDbLine
 10
0.0
 20
0.0
 30
0.0
 11
-1.0
 21
0.0
 31
0.0
  0
ENDBLK
  5
A5B
330
32
100
AcDbEntity
  8
0
100
AcDbBlockEnd
  0
BLOCK
  5
81
330
77
100
AcDbEntity
  8
0
100
AcDbBlockBegin
  2
*D1
 70
     1
 10
0.0
 20
0.0
 30
0.0
  3
*D1
  1

  0
LINE
  5
72A
330
77
100
AcDbEntity
  8
PV0001_1
 62
    44
370
    -2
100
AcDbLine
 10
230.3207677790484
 20
-145.35000610351
 30
0.0
 11
230.3207677790484
 21
-159.7465667724599
 31
0.0
  0
LINE
  5
72B
330
77
100
AcDbEntity
  8
PV0001_1
 62
    44
370
    -2
100
AcDbLine
 10
445.3207677790484
 20
-143.5
 30
0.0
 11
445.3207677790484
 21
-159.7465667724599
 31
0.0
  0
LINE
  5
72C
330
77
100
AcDbEntity
  8
PV0001_1
 62
    44
370
    -2
100
AcDbLine
 10
233.3207677790484
 20
-157.7465667724599
 30
0.0
 11
442.3207677790484
 21
-157.7465667724599
 31
0.0
  0
INSERT
  5
72D
330
77
100
AcDbEntity
  8
PV0001_1
 62
    44
370
    -2
100
AcDbBlockReference
  2
_Open
 10
230.3207677790484
 20
-157.7465667724599
 30
0.0
 41
3.0
 42
3.0
 43
3.0
 50
180.0
  0
INSERT
  5
72E
330
77
100
AcDbEntity
  8
PV0001_1
 62
    44
370
    -2
100
AcDbBlockReference
  2
_Open
 10
445.3207677790484
 20
-157.7465667724599
 30
0.0
 41
3.0
 42
3.0
 43
3.0
  0
MTEXT
  5
72F
330
77
100
AcDbEntity
  8
PV0001_1
 62
    44
100
AcDbMText
 10
337.8207677790484
 20
-155.4465667724599
 30
0.0
 40
3.2
 41
0.0
 71
     5
 72
     1
  1
\A1;L
 73
     1
 44
1.0
1001
ACAD
1000
MTEXTBEGIN
1070
    73
1070
     1
1070
    44
1040
1.0
1070
    74
1070
     0
1000
MTEXTEND
  0
POINT
  5
730
330
77
100
AcDbEntity
  8
Defpoints
 62
     0
100
AcDbPoint
 10
230.3207677790484
 20
-144.35000610351
 30
0.0
  0
POINT
  5
731
330
77
100
AcDbEntity
  8
Defpoints
 62
     0
100
AcDbPoint
 10
445.3207677790484
 20
-142.5
 30
0.0
  0
POINT
  5
732
330
77
100
AcDbEntity
  8
Defpoints
 62
     0
100
AcDbPoint
 10
445.3207677790484
 20
-157.7465667724599
 30
0.0
  0
ENDBLK
  5
82
330
77
100
AcDbEntity
  8
0
100
AcDbBlockEnd
  0
BLOCK
  5
A4C
330
A7
100
AcDbEntity
  8
0
100
AcDbBlockBegin
  2
_Open
 70
     0
 10
0.0
 20
0.0
 30
0.0
  3
_Open
  1

  0
LINE
  5
A4D
330
A7
100
AcDbEntity
  8
outline
 62
     0
370
    -2
100
AcDbLine
 10
-1.0
 20
0.1666666666666666
 30
0.0
 11
0.0
 21
0.0
 31
0.0
  0
LINE
  5
A4F
330
A7
100
AcDbEntity
  8
outline
 62
     0
370
    -2
100
AcDbLine
 10
-1.0
 20
-0.1666666666666666
 30
0.0
 11
0.0
 21
0.0
 31
0.0
  0
LINE
  5
A50
330
A7
100
AcDbEntity
  8
outline
 62
     0
370
    -2
100
AcDbLine
 10
0.0
 20
0.0
 30
0.0
 11
-1.0
 21
0.0
 31
0.0
  0
ENDBLK
  5
A51
330
A7
100
AcDbEntity
  8
0
100
AcDbBlockEnd
  0
BLOCK
  5
A11
330
3B6
100
AcDbEntity
  8
0
100
AcDbBlockBegin
  2
GENAXEH
 70
     0
 10
0.0
 20
0.0
 30
0.0
  3
GENAXEH
  1

  0
LINE
  5
A12
330
3B6
100
AcDbEntity
  8
0
100
AcDbLine
 10
-1.0
 20
0.0
 30
0.0
 11
1.0
 21
0.0
 31
0.0
  0
ENDBLK
  5
A13
330
3B6
100
AcDbEntity
  8
0
100
AcDbBlockEnd
  0
BLOCK
  5
609
330
602
100
AcDbEntity
  8
0
100
AcDbBlockBegin
  2
*U4
 70
     1
 10
0.0
 20
0.0
 30
0.0
  3
*U4
  1

  0
SOLID
  5
603
330
602
100
AcDbEntity
  8
PV0001_1
  6
Continuous
100
AcDbTrace
 10
194.1999847441902
 20
-278.5
 30
0.0
 11
194.1414060995546
 21
-278.3585786416554
 31
0.0
 12
194.1414060995546
 22
-278.6414213583447
 32
0.0
 13
194.1414060995546
 23
-278.6414213583447
 33
0.0
  0
SOLID
  5
604
330
602
100
AcDbEntity
  8
PV0001_1
  6
Continuous
100
AcDbTrace
 10
193.99998474121
 20
-278.2999999970198
 30
0.0
 11
194.1414060995546
 21
-278.6414213583447
 31
0.0
 12
194.1414060995546
 22
-278.3585786416554
 32
0.0
 13
194.1414060995546
 23
-278.3585786416554
 33
0.0
  0
SOLID
  5
605
330
602
100
AcDbEntity
  8
PV0001_1
  6
Continuous
100
AcDbTrace
 10
194.1414060995546
 20
-278.6414213583447
 30
0.0
 11
193.99998474121
 21
-278.2999999970198
 31
0.0
 12
193.99998474121
 22
-278.7000000029802
 32
0.0
 13
193.99998474121
 23
-278.7000000029802
 33
0.0
  0
SOLID
  5
606
330
602
100
AcDbEntity
  8
PV0001_1
  6
Continuous
100
AcDbTrace
 10
193.8585633828654
 20
-278.3585786416554
 30
0.0
 11
193.99998474121
 21
-278.7000000029802
 31
0.0
 12
193.99998474121
 22
-278.2999999970198
 32
0.0
 13
193.99998474121
 23
-278.2999999970198
 33
0.0
  0
SOLID
  5
607
330
602
100
AcDbEntity
  8
PV0001_1
  6
Continuous
100
AcDbTrace
 10
193.99998474121
 20
-278.7000000029802
 30
0.0
 11
193.8585633828654
 21
-278.3585786416554
 31
0.0
 12
193.8585633828654
 22
-278.6414213583447
 32
0.0
 13
193.8585633828654
 23
-278.6414213583447
 33
0.0
  0
SOLID
  5
608
330
602
100
AcDbEntity
  8
PV0001_1
  6
Continuous
100
AcDbTrace
 10
193.7999847382298
 20
-278.5
 30
0.0
 11
193.8585633828654
 21
-278.6414213583447
 31
0.0
 12
193.8585633828654
 22
-278.3585786416554
 32
0.0
 13
193.8585633828654
 23
-278.3585786416554
 33
0.0
  0
ENDBLK
  5
60A
330
602
100
AcDbEntity
  8
0
100
AcDbBlockEnd
  0
ENDSEC
  0
SECTION
  2
ENTITIES
  0
DIMENSION
  5
76
330
18
100
AcDbEntity
  8
PV0001_1
100
AcDbDimension
  2
*D1
 10
445.3207677790484
 20
-157.7465667724599
 30
0.0
 11
337.8207677790484
 21
-157.7465667724599
 31
0.0
 70
   160
  1
L
 71
     5
 42
215.0
  3
STANDARD
100
AcDbAlignedDimension
 13
230.3207677790484
 23
-144.35000610351
 33
0.0
 14
445.3207677790484
 24
-142.5
 34
0.0
100
AcDbRotatedDimension
1001
ACAD
1000
DSTYLE
1002
{
1070
   284
1070
     8
1070
   140
1040
3.2
1070
   271
1070
     0
1070
    45
1040
0.1
1070
   173
1070
     1
1070
     6
1000
OPEN
1070
     7
1000
OPEN
1002
}
  0
LINE
  5
C8
330
18
100
AcDbEntity
  8
PV0001_1
  6
Continuous
370
    50
100
AcDbLine
 10
0.0
 20
0.0
 30
0.0
 11
688.0
 21
0.0
 31
0.0
  0
LINE
  5
C9
330
18
100
AcDbEntity
  8
PV0001_1
  6
Continuous
370
    50
100
AcDbLine
 10
0.0
 20
0.0
 30
0.0
 11
0.0
 21
-386.0
 31
0.0
  0
LINE
  5
CA
330
18
100
AcDbEntity
  8
PV0001_1
  6
Continuous
 48
0.5
370
    50
100
AcDbLine
 10
3.0
 20
-8.399993896484399
 30
0.0
 11
4.6000061035156
 21
-8.399993896484399
 31
0.0
  0
LINE
  5
CB
330
18
100
AcDbEntity
  8
PV0001_1
  6
Continuous
 48
0.5
370
    50
100
AcDbLine
 10
3.0
 20
-3.6000061035156
 30
0.0
 11
3.0
 21
-8.399993896484399
 31
0.0
  0
LINE
  5
CC
330
18
100
AcDbEntity
  8
PV0001_1
  6
Continuous
 48
0.5
370
    50
100
AcDbLine
 10
3.0
 20
-3.6000061035156
 30
0.0
 11
4.6000061035156
 21
-3.6000061035156
 31
0.0
  0
LINE
  5
CD
330
18
100
AcDbEntity
  8
PV0001_1
  6
Continuous
 48
0.5
370
    50
100
AcDbLine
 10
4.6000061035156
 20
-3.6000061035156
 30
0.0
 11
4.6000061035156
 21
-5.199996948242199
 31
0.0
  0
LINE
  5
CE
330
18
100
AcDbEntity
  8
PV0001_1
  6
Continuous
 48
0.5
370
    50
100
AcDbLine
 10
9.6000061035156
 20
-3.6000061035156
 30
0.0
 11
9.6000061035156
 21
-7.199996948242199
 31
0.0
  0
LINE
  5
CF
330
18
100
AcDbEntity
  8
PV0001_1
  6
Continuous
 48
0.5
370
    50
100
AcDbLine
 10
10.800003051757
 20
-8.399993896484399
 30
0.0
 11
14.600006103515
 21
-8.399993896484399
 31
0.0
  0
LINE
  5
D0
330
18
100
AcDbEntity
  8
PV0001_1
  6
Continuous
 48
0.5
370
    50
100
AcDbLine
 10
9.6000061035156
 20
-3.6000061035156
 30
0.0
 11
11.0
 21
-3.6000061035156
 31
0.0
  0
LINE
  5
D1
330
18
100
AcDbEntity
  8
PV0001_1
  6
Continuous
 48
0.5
370
    50
100
AcDbLine
 10
4.8000030517578
 20
-6.0
 30
0.0
 11
5.699996948242199
 21
-6.0
 31
0.0
  0
LINE
  5
D2
330
18
100
AcDbEntity
  8
PV0001_1
  6
Continuous
 48
0.5
370
    50
100
AcDbLine
 10
4.8000030517578
 20
-5.399993896484399
 30
0.0
 11
5.7021789550781
 21
-5.399993896484399
 31
0.0
  0
LINE
  5
D3
330
18
100
AcDbEntity
  8
PV0001_1
  6
Continuous
 48
0.5
370
    50
100
AcDbLine
 10
5.8599557876587
 20
-6.080016613006599
 30
0.0
 11
7.5999612808228
 21
-8.400023460388199
 31
0.0
  0
LINE
  5
D4
330
18
100
AcDbEntity
  8
PV0001_1
  6
Continuous
 48
0.5
370
    50
100
AcDbLine
 10
7.320546627044699
 20
-5.7405757904053
 30
0.0
 11
9.600024223327599
 21
-8.399967193603499
 31
0.0
  0
LINE
  5
D5
330
18
100
AcDbEntity
  8
PV0001_1
  6
Continuous
 48
0.5
370
    50
100
AcDbLine
 10
5.8600549697876
 20
-5.3227796554565
 30
0.0
 11
7.1999959945679
 21
-3.599998474121099
 31
0.0
  0
LINE
  5
D6
330
18
100
AcDbEntity
  8
PV0001_1
  6
Continuous
 48
0.5
370
    50
100
AcDbLine
 10
7.330977916717499
 20
-5.469062805175799
 30
0.0
 11
9.2000274658203
 21
-3.600013971328699
 31
0.0
  0
LINE
  5
D7
330
18
100
AcDbEntity
  8
PV0001_1
  6
Continuous
 48
0.5
370
    50
100
AcDbLine
 10
7.6000061035156
 20
-8.399993896484399
 30
0.0
 11
9.6000061035156
 21
-8.399993896484399
 31
0.0
  0
LINE
  5
D8
330
18
100
AcDbEntity
  8
PV0001_1
  6
Continuous
 48
0.5
370
    50
100
AcDbLine
 10
7.199996948242199
 20
-3.6000061035156
 30
0.0
 11
9.199996948242199
 21
-3.6000061035156
 31
0.0
  0
LINE
  5
D9
330
18
100
AcDbEntity
  8
PV0001_1
  6
Continuous
 48
0.5
370
    50
100
AcDbLine
 10
4.6000061035156
 20
-6.199996948242199
 30
0.0
 11
4.6000061035156
 21
-8.399993896484399
 31
0.0
  0
LINE
  5
DA
330
18
100
AcDbEntity
  8
PV0001_1
  6
Continuous
 48
0.5
370
    50
100
AcDbLine
 10
15.800003051757
 20
-3.599990844726599
 30
0.0
 11
15.800003051757
 21
-7.199996948242199
 31
0.0
  0
LINE
  5
DB
330
18
100
AcDbEntity
  8
PV0001_1
  6
Continuous
 48
0.5
370
    50
100
AcDbLine
 10
11.0
 20
-3.6000061035156
 30
0.0
 11
11.0
 21
-7.0
 31
0.0
  0
LINE
  5
DC
330
18
100
AcDbEntity
  8
PV0001_1
  6
Continuous
 48
0.5
370
    50
100
AcDbLine
 10
14.399993896484
 20
-3.599990844726599
 30
0.0
 11
14.399993896484
 21
-7.0
 31
0.0
  0
LINE
  5
DD
330
18
100
AcDbEntity
  8
PV0001_1
  6
Continuous
 48
0.5
370
    50
100
AcDbLine
 10
11.600006103515
 20
-7.6000061035156
 30
0.0
 11
13.800003051757
 21
-7.6000061035156
 31
0.0
  0
LINE
  5
DE
330
18
100
AcDbEntity
  8
PV0001_1
  6
Continuous
 48
0.5
370
    50
100
AcDbLine
 10
14.399993896484
 20
-3.6000061035156
 30
0.0
 11
15.800003051757
 21
-3.6000061035156
 31
0.0
  0
LINE
  5
DF
330
18
100
AcDbEntity
  8
PV0001_1
  6
Continuous
 48
0.5
370
    50
100
AcDbLine
 10
16.300003051757
 20
-3.6000061035156
 30
0.0
 11
21.0
 21
-3.6000061035156
 31
0.0
  0
LINE
  5
E0
330
18
100
AcDbEntity
  8
PV0001_1
  6
Continuous
 48
0.5
370
    50
100
AcDbLine
 10
16.300003051757
 20
-8.399993896484399
 30
0.0
 11
17.899993896484
 21
-8.399993896484399
 31
0.0
  0
LINE
  5
E1
330
18
100
AcDbEntity
  8
PV0001_1
  6
Continuous
 48
0.5
370
    50
100
AcDbLine
 10
16.300003051757
 20
-3.599990844726599
 30
0.0
 11
16.300003051757
 21
-8.399993896484399
 31
0.0
  0
LINE
  5
E2
330
18
100
AcDbEntity
  8
PV0001_1
  6
Continuous
 48
0.5
370
    50
100
AcDbLine
 10
20.800003051757
 20
-4.799987792968799
 30
0.0
 11
20.800003051757
 21
-5.5
 31
0.0
  0
LINE
  5
E3
330
18
100
AcDbEntity
  8
PV0001_1
  6
Continuous
 48
0.5
370
    50
100
AcDbLine
 10
17.899993896484
 20
-4.399993896484399
 30
0.0
 11
17.899993896484
 21
-5.899993896484399
 31
0.0
  0
LINE
  5
E4
330
18
100
AcDbEntity
  8
PV0001_1
  6
Continuous
 48
0.5
370
    50
100
AcDbLine
 10
18.300003051757
 20
-6.8000030517578
 30
0.0
 11
20.199996948242
 21
-6.8000030517578
 31
0.0
  0
LINE
  5
E5
330
18
100
AcDbEntity
  8
PV0001_1
  6
Continuous
 48
0.5
370
    50
100
AcDbLine
 10
18.100006103515
 20
-4.199996948242199
 30
0.0
 11
20.199996948242
 21
-4.199996948242199
 31
0.0
  0
LINE
  5
E6
330
18
100
AcDbEntity
  8
PV0001_1
  6
Continuous
 48
0.5
370
    50
100
AcDbLine
 10
18.100006103515
 20
-6.1000061035156
 30
0.0
 11
20.199996948242
 21
-6.1000061035156
 31
0.0
  0
LINE
  5
E7
330
18
100
AcDbEntity
  8
PV0001_1
  6
Continuous
 48
0.5
370
    50
100
AcDbLine
 10
20.800003051757
 20
-8.399993896484399
 30
0.0
 11
22.5
 21
-8.399993896484399
 31
0.0
  0
LINE
  5
E8
330
18
100
AcDbEntity
  8
PV0001_1
  6
Continuous
 48
0.5
370
    50
100
AcDbLine
 10
17.899993896484
 20
-7.199996948242199
 30
0.0
 11
17.899993896484
 21
-8.399993896484399
 31
0.0
  0
LINE
  5
E9
330
18
100
AcDbEntity
  8
PV0001_1
  6
Continuous
 48
0.5
370
    50
100
AcDbLine
 10
24.199996948242
 20
-8.399993896484399
 30
0.0
 11
28.0
 21
-8.399993896484399
 31
0.0
  0
LINE
  5
EA
330
18
100
AcDbEntity
  8
PV0001_1
  6
Continuous
 48
0.5
370
    50
100
AcDbLine
 10
25.199996948242
 20
-4.199996948242199
 30
0.0
 11
27.0
 21
-4.199996948242199
 31
0.0
  0
LINE
  5
EB
330
18
100
AcDbEntity
  8
PV0001_1
  6
Continuous
 48
0.5
370
    50
100
AcDbLine
 10
24.199996948242
 20
-3.6000061035156
 30
0.0
 11
28.0
 21
-3.6000061035156
 31
0.0
  0
LINE
  5
EC
330
18
100
AcDbEntity
  8
PV0001_1
  6
Continuous
 48
0.5
370
    50
100
AcDbLine
 10
20.800003051757
 20
-7.399993896484399
 30
0.0
 11
20.800003051757
 21
-8.399993896484399
 31
0.0
  0
LINE
  5
ED
330
18
100
AcDbEntity
  8
PV0001_1
  6
Continuous
 48
0.5
370
    50
100
AcDbLine
 10
22.800003051757
 20
-5.0
 30
0.0
 11
22.800003051757
 21
-7.0
 31
0.0
  0
LINE
  5
EE
330
18
100
AcDbEntity
  8
PV0001_1
  6
Continuous
 48
0.5
370
    50
100
AcDbLine
 10
29.399993896484
 20
-5.0
 30
0.0
 11
29.399993896484
 21
-7.0
 31
0.0
  0
LINE
  5
EF
330
18
100
AcDbEntity
  8
PV0001_1
  6
Continuous
 48
0.5
370
    50
100
AcDbLine
 10
29.793655395507
 20
-8.399993896484399
 30
0.0
 11
34.800003051757
 21
-8.399993896484399
 31
0.0
  0
LINE
  5
F0
330
18
100
AcDbEntity
  8
PV0001_1
  6
Continuous
 48
0.5
370
    50
100
AcDbLine
 10
31.600006103515
 20
-4.199996948242199
 30
0.0
 11
33.80000305175701
 21
-4.199996948242199
 31
0.0
  0
LINE
  5
F1
330
18
100
AcDbEntity
  8
PV0001_1
  6
Continuous
 48
0.5
370
    50
100
AcDbLine
 10
29.800003051757
 20
-3.6000061035156
 30
0.0
 11
34.800003051757
 21
-3.6000061035156
 31
0.0
  0
LINE
  5
F2
330
18
100
AcDbEntity
  8
PV0001_1
  6
Continuous
 48
0.5
370
    50
100
AcDbLine
 10
25.199996948242
 20
-7.6000061035156
 30
0.0
 11
27.0
 21
-7.6000061035156
 31
0.0
  0
LINE
  5
F3
330
18
100
AcDbEntity
  8
PV0001_1
  6
Continuous
 48
0.5
370
    50
100
AcDbLine
 10
24.399993896484
 20
-5.0
 30
0.0
 11
24.399993896484
 21
-6.799987792968799
 31
0.0
  0
LINE
  5
F4
330
18
100
AcDbEntity
  8
PV0001_1
  6
Continuous
 48
0.5
370
    50
100
AcDbLine
 10
27.800003051757
 20
-5.0
 30
0.0
 11
27.800003051757
 21
-6.799987792968799
 31
0.0
  0
LINE
  5
F5
330
18
100
AcDbEntity
  8
PV0001_1
  6
Continuous
 48
0.5
370
    50
100
AcDbLine
 10
36.199996948242
 20
-4.9999847412109
 30
0.0
 11
36.199996948242
 21
-6.9999847412109
 31
0.0
  0
LINE
  5
F6
330
18
100
AcDbEntity
  8
PV0001_1
  6
Continuous
 48
0.5
370
    50
100
AcDbLine
 10
29.800003051757
 20
-3.599990844726599
 30
0.0
 11
29.800003051757
 21
-8.399993896484399
 31
0.0
  0
LINE
  5
F7
330
18
100
AcDbEntity
  8
PV0001_1
  6
Continuous
 48
0.5
370
    50
100
AcDbLine
 10
31.399993896484
 20
-4.399993896484399
 30
0.0
 11
31.399993896484
 21
-7.399993896484399
 31
0.0
  0
LINE
  5
F8
330
18
100
AcDbEntity
  8
PV0001_1
  6
Continuous
 48
0.5
370
    50
100
AcDbLine
 10
34.600006103515
 20
-4.9999847412109
 30
0.0
 11
34.600006103515
 21
-6.799987792968799
 31
0.0
  0
LINE
  5
F9
330
18
100
AcDbEntity
  8
PV0001_1
  6
Continuous
 48
0.5
370
    50
100
AcDbLine
 10
31.600006103515
 20
-7.6000061035156
 30
0.0
 11
33.80000305175701
 21
-7.6000061035156
 31
0.0
  0
LINE
  5
FA
330
18
100
AcDbEntity
  8
PV0001_1
  6
Continuous
 48
0.5
370
    50
100
AcDbLine
 10
36.199996948242
 20
-8.399993896484399
 30
0.0
 11
37.800003051757
 21
-8.399993896484399
 31
0.0
  0
LINE
  5
FB
330
18
100
AcDbEntity
  8
PV0001_1
  6
Continuous
 48
0.5
370
    50
100
AcDbLine
 10
39.344146728515
 20
-4.199996948242199
 30
0.0
 11
40.25585937499999
 21
-4.199996948242199
 31
0.0
  0
LINE
  5
FC
330
18
100
AcDbEntity
  8
PV0001_1
  6
Continuous
 48
0.5
370
    50
100
AcDbLine
 10
38.199996948242
 20
-3.6000061035156
 30
0.0
 11
41.399993896484
 21
-3.6000061035156
 31
0.0
  0
LINE
  5
FD
330
18
100
AcDbEntity
  8
PV0001_1
  6
Continuous
 48
0.5
370
    50
100
AcDbLine
 10
38.27749633789
 20
-7.399993896484399
 30
0.0
 11
41.322509765625
 21
-7.399993896484399
 31
0.0
  0
LINE
  5
FE
330
18
100
AcDbEntity
  8
PV0001_1
  6
Continuous
 48
0.5
370
    50
100
AcDbLine
 10
38.677490234375
 20
-6.6000061035156
 30
0.0
 11
39.671600341796
 21
-6.6000061035156
 31
0.0
  0
LINE
  5
FF
330
18
100
AcDbEntity
  8
PV0001_1
  6
Continuous
 48
0.5
370
    50
100
AcDbLine
 10
37.800079345703
 20
-8.4000158309937
 30
0.0
 11
38.087825775146
 21
-7.536767959594699
 31
0.0
  0
LINE
  5
100
330
18
100
AcDbEntity
  8
PV0001_1
  6
Continuous
 48
0.5
370
    50
100
AcDbLine
 10
40.445644378662
 20
-4.336717605590799
 30
0.0
 11
41.112312316894
 21
-6.3367171287537
 31
0.0
  0
LINE
  5
101
330
18
100
AcDbEntity
  8
PV0001_1
  6
Continuous
 48
0.5
370
    50
100
AcDbLine
 10
38.199989318847
 20
-3.599988698959399
 30
0.0
 11
36.199989318847
 21
-8.399992942810099
 31
0.0
  0
LINE
  5
102
330
18
100
AcDbEntity
  8
PV0001_1
  6
Continuous
 48
0.5
370
    50
100
AcDbLine
 10
41.399993896484
 20
-3.600009202957199
 30
0.0
 11
43.399993896484
 21
-8.4000062942505
 31
0.0
  0
LINE
  5
103
330
18
100
AcDbEntity
  8
PV0001_1
  6
Continuous
 48
0.5
370
    50
100
AcDbLine
 10
38.487827301025
 20
-6.336763858795199
 30
0.0
 11
39.15449142456
 21
-4.336771965026899
 31
0.0
  0
LINE
  5
104
330
18
100
AcDbEntity
  8
PV0001_1
  6
Continuous
 48
0.5
370
    50
100
AcDbLine
 10
41.51231765747
 20
-7.5367283821106
 30
0.0
 11
41.800060272216
 21
-8.399961471557599
 31
0.0
  0
LINE
  5
105
330
18
100
AcDbEntity
  8
PV0001_1
  6
Continuous
 48
0.5
370
    50
100
AcDbLine
 10
41.800003051757
 20
-8.399993896484399
 30
0.0
 11
43.399993896484
 21
-8.399993896484399
 31
0.0
  0
LINE
  5
106
330
18
100
AcDbEntity
  8
PV0001_1
  6
Continuous
 48
0.5
370
    50
100
AcDbLine
 10
39.671600341796
 20
-6.6000061035156
 30
0.0
 11
40.92251586914
 21
-6.6000061035156
 31
0.0
  0
LINE
  5
107
330
18
100
AcDbEntity
  8
PV0001_1
  6
Continuous
 48
0.5
370
    50
100
AcDbLine
 10
46.399993896484
 20
0.0
 30
0.0
 11
46.399993896484
 21
-12.0
 31
0.0
  0
LINE
  5
108
330
18
100
AcDbEntity
  8
PV0001_1
  6
Continuous
370
    50
100
AcDbLine
 10
0.0
 20
-12.0
 30
0.0
 11
289.30798339843
 21
-12.0
 31
0.0
  0
LINE
  5
109
330
18
100
AcDbEntity
  8
PV0001_1
  6
Continuous
 48
0.5
370
    50
100
AcDbLine
 10
108.39999389648
 20
0.0
 30
0.0
 11
108.39999389648
 21
-12.0
 31
0.0
  0
LINE
  5
10A
330
18
100
AcDbEntity
  8
PV0001_1
  6
Continuous
 48
0.5
370
    50
100
AcDbLine
 10
232.39999389648
 20
0.0
 30
0.0
 11
232.39999389648
 21
-12.0
 31
0.0
  0
LINE
  5
10B
330
18
100
AcDbEntity
  8
PV0001_1
  6
Continuous
 48
0.5
370
    50
100
AcDbLine
 10
154.8207525202584
 20
-127.18629455566
 30
0.0
 11
154.8207525202584
 21
-149.8137054443299
 31
0.0
  0
LINE
  5
10C
330
18
100
AcDbEntity
  8
PV0001_1
  6
Continuous
 48
0.5
370
    50
100
AcDbLine
 10
129.5070470759184
 20
-152.5
 30
0.0
 11
152.1344579645884
 21
-152.5
 31
0.0
  0
LINE
  5
10D
330
18
100
AcDbEntity
  8
PV0001_1
  6
Continuous
 48
0.5
370
    50
100
AcDbLine
 10
129.5070470759184
 20
-124.5
 30
0.0
 11
152.1344579645884
 21
-124.5
 31
0.0
  0
LINE
  5
10E
330
18
100
AcDbEntity
  8
PV0001_1
  6
CENTER2
 48
0.5
370
    25
100
AcDbLine
 10
146.8311590143984
 20
-132.4895782470699
 30
0.0
 11
153.9022344538484
 21
-125.41851043701
 31
0.0
  0
LINE
  5
10F
330
18
100
AcDbEntity
  8
PV0001_1
  6
CENTER2
 48
0.5
370
    25
100
AcDbLine
 10
127.7392705866584
 20
-151.5814666747999
 30
0.0
 11
134.8103307673284
 21
-144.51040649414
 31
0.0
  0
LINE
  5
110
330
18
100
AcDbEntity
  8
PV0001_1
  6
CENTER2
 48
0.5
370
    25
100
AcDbLine
 10
127.7392705866584
 20
-125.41853332519
 30
0.0
 11
134.8103307673284
 21
-132.4896087646399
 31
0.0
  0
LINE
  5
111
330
18
100
AcDbEntity
  8
PV0001_1
  6
CENTER2
 48
0.5
370
    25
100
AcDbLine
 10
146.8311437556084
 20
-144.5104217529199
 30
0.0
 11
153.9022191950584
 21
-151.58148193359
 31
0.0
  0
LINE
  5
112
330
18
100
AcDbEntity
  8
PV0001_1
  6
CENTER2
 48
0.5
370
    25
100
AcDbLine
 10
125.9365514704484
 20
-138.5
 30
0.0
 11
155.7824682184984
 21
-138.5
 31
0.0
  0
LINE
  5
113
330
18
100
AcDbEntity
  8
PV0001_1
  6
CENTER2
 48
0.5
370
    25
100
AcDbLine
 10
140.8207525202584
 20
-123.50279998779
 30
0.0
 11
140.8207525202584
 21
-153.4878540039
 31
0.0
  0
LINE
  5
114
330
18
100
AcDbEntity
  8
PV0001_1
  6
Continuous
 48
0.5
370
    50
100
AcDbLine
 10
126.8207525202584
 20
-127.18629455566
 30
0.0
 11
126.8207525202584
 21
-149.8137054443299
 31
0.0
  0
LINE
  5
115
330
18
100
AcDbEntity
  8
PV0001_1
  6
Continuous
 48
0.5
370
    50
100
AcDbLine
 10
299.3207677790484
 20
-124.5
 30
0.0
 11
299.3207677790484
 21
-152.5
 31
0.0
  0
LINE
  5
116
330
18
100
AcDbEntity
  8
PV0001_1
  6
Continuous
 48
0.5
370
    50
100
AcDbLine
 10
294.3207677790484
 20
-124.5
 30
0.0
 11
294.3207677790484
 21
-152.5
 31
0.0
  0
LINE
  5
117
330
18
100
AcDbEntity
  8
PV0001_1
  6
Continuous
 48
0.5
370
    50
100
AcDbLine
 10
324.3207677790484
 20
-128.5
 30
0.0
 11
324.3207677790484
 21
-148.5
 31
0.0
  0
LINE
  5
118
330
18
100
AcDbEntity
  8
PV0001_1
  6
Continuous
 48
0.5
370
    50
100
AcDbLine
 10
278.3207677790484
 20
-134.5
 30
0.0
 11
278.3207677790484
 21
-142.5
 31
0.0
  0
LINE
  5
119
330
18
100
AcDbEntity
  8
PV0001_1
  6
Continuous
 48
0.5
370
    50
100
AcDbLine
 10
275.3207677790484
 20
-132.5
 30
0.0
 11
275.3207677790484
 21
-144.5
 31
0.0
  0
LINE
  5
11A
330
18
100
AcDbEntity
  8
PV0001_1
  6
Continuous
 48
0.5
370
    50
100
AcDbLine
 10
230.3207677790484
 20
-132.64999389648
 30
0.0
 11
230.3207677790484
 21
-144.35000610351
 31
0.0
  0
LINE
  5
11B
330
18
100
AcDbEntity
  8
PV0001_1
  6
Continuous
 48
0.5
370
    50
100
AcDbLine
 10
445.3207677790484
 20
-134.5
 30
0.0
 11
445.3207677790484
 21
-142.5
 31
0.0
  0
LINE
  5
11C
330
18
100
AcDbEntity
  8
PV0001_1
  6
Continuous
 48
0.5
370
    50
100
AcDbLine
 10
299.3207677790484
 20
-128.5
 30
0.0
 11
324.3207677790484
 21
-128.5
 31
0.0
  0
LINE
  5
11D
330
18
100
AcDbEntity
  8
PV0001_1
  6
Continuous
 48
0.5
370
    50
100
AcDbLine
 10
299.3207677790484
 20
-148.5
 30
0.0
 11
324.3207677790484
 21
-148.5
 31
0.0
  0
LINE
  5
11E
330
18
100
AcDbEntity
  8
PV0001_1
  6
Continuous
 48
0.5
370
    50
100
AcDbLine
 10
294.3207677790484
 20
-152.5
 30
0.0
 11
299.3207677790484
 21
-152.5
 31
0.0
  0
LINE
  5
11F
330
18
100
AcDbEntity
  8
PV0001_1
  6
Continuous
 48
0.5
370
    50
100
AcDbLine
 10
294.3207677790484
 20
-124.5
 30
0.0
 11
299.3207677790484
 21
-124.5
 31
0.0
  0
LINE
  5
120
330
18
100
AcDbEntity
  8
PV0001_1
  6
Continuous
 48
0.5
370
    50
100
AcDbLine
 10
278.3207677790484
 20
-142.5
 30
0.0
 11
294.3207677790484
 21
-142.5
 31
0.0
  0
LINE
  5
121
330
18
100
AcDbEntity
  8
PV0001_1
  6
Continuous
 48
0.5
370
    50
100
AcDbLine
 10
278.3207677790484
 20
-134.5
 30
0.0
 11
294.3207677790484
 21
-134.5
 31
0.0
  0
LINE
  5
122
330
18
100
AcDbEntity
  8
PV0001_1
  6
Continuous
370
    50
100
AcDbLine
 10
324.3207677790484
 20
-134.5
 30
0.0
 11
445.3207677790484
 21
-134.5
 31
0.0
  0
LINE
  5
123
330
18
100
AcDbEntity
  8
PV0001_1
  6
Continuous
370
    50
100
AcDbLine
 10
324.3207677790484
 20
-142.5
 30
0.0
 11
445.3207677790484
 21
-142.5
 31
0.0
  0
LINE
  5
124
330
18
100
AcDbEntity
  8
PV0001_1
  6
Continuous
 48
0.5
370
    50
100
AcDbLine
 10
250.3207677790484
 20
-132.5
 30
0.0
 11
275.3207677790484
 21
-132.5
 31
0.0
  0
LINE
  5
125
330
18
100
AcDbEntity
  8
PV0001_1
  6
Continuous
 48
0.5
370
    50
100
AcDbLine
 10
250.3207677790484
 20
-144.5
 30
0.0
 11
275.3207677790484
 21
-144.5
 31
0.0
  0
LINE
  5
126
330
18
100
AcDbEntity
  8
PV0001_1
  6
CENTER2
370
    25
100
AcDbLine
 10
226.2088293024784
 20
-138.5
 30
0.0
 11
451.5934728571684
 21
-138.5
 31
0.0
  0
LINE
  5
127
330
18
100
AcDbEntity
  8
PV0001_1
  6
Continuous
 48
0.5
370
    25
100
AcDbLine
 10
278.3207677790484
 20
-135.1894989013599
 30
0.0
 11
294.3207677790484
 21
-135.1894989013599
 31
0.0
  0
LINE
  5
128
330
18
100
AcDbEntity
  8
PV0001_1
  6
Continuous
 48
0.5
370
    25
100
AcDbLine
 10
278.3207677790484
 20
-141.81050109863
 30
0.0
 11
294.3207677790484
 21
-141.81050109863
 31
0.0
  0
LINE
  5
129
330
18
100
AcDbEntity
  8
PV0001_1
  6
Continuous
370
    25
100
AcDbLine
 10
324.3207677790484
 20
-135.1894989013599
 30
0.0
 11
445.3207677790484
 21
-135.1894989013599
 31
0.0
  0
LINE
  5
12A
330
18
100
AcDbEntity
  8
PV0001_1
  6
Continuous
370
    25
100
AcDbLine
 10
324.3207677790484
 20
-141.81050109863
 30
0.0
 11
445.3207677790484
 21
-141.81050109863
 31
0.0
  0
LINE
  5
12B
330
18
100
AcDbEntity
  8
PV0001_1
  6
Continuous
 48
0.5
370
    50
100
AcDbLine
 10
299.3207677790484
 20
-131.16787719726
 30
0.0
 11
319.3207677790484
 21
-131.16787719726
 31
0.0
  0
LINE
  5
12C
330
18
100
AcDbEntity
  8
PV0001_1
  6
Continuous
 48
0.5
370
    50
100
AcDbLine
 10
299.3207677790484
 20
-145.83212280273
 30
0.0
 11
319.3207677790484
 21
-145.83212280273
 31
0.0
  0
LINE
  5
12D
330
18
100
AcDbEntity
  8
PV0001_1
  6
Continuous
 48
0.5
370
    50
100
AcDbLine
 10
319.3207677790484
 20
-131.16787719726
 30
0.0
 11
319.3207677790484
 21
-145.83212280273
 31
0.0
  0
LINE
  5
12E
330
18
100
AcDbEntity
  8
PV0001_1
  6
CENTER2
 48
0.5
370
    25
100
AcDbLine
 10
305.6149572321684
 20
-144.1226196289
 30
0.0
 11
313.3789953181084
 21
-132.34269714355
 31
0.0
  0
LINE
  5
12F
330
18
100
AcDbEntity
  8
PV0001_1
  6
Continuous
 48
0.5
370
    50
100
AcDbLine
 10
275.3207677790484
 20
-141.8000030517499
 30
0.0
 11
278.3207677790484
 21
-141.8000030517499
 31
0.0
  0
LINE
  5
130
330
18
100
AcDbEntity
  8
PV0001_1
  6
Continuous
 48
0.5
370
    50
100
AcDbLine
 10
275.3207677790484
 20
-135.1999969482399
 30
0.0
 11
278.3207677790484
 21
-135.1999969482399
 31
0.0
  0
LINE
  5
131
330
18
100
AcDbEntity
  8
PV0001_1
  6
Continuous
 48
0.5
370
    50
100
AcDbLine
 10
250.3207677790484
 20
-132.5
 30
0.0
 11
250.3207677790484
 21
-144.5
 31
0.0
  0
LINE
  5
132
330
18
100
AcDbEntity
  8
PV0001_1
  6
Continuous
 48
0.5
370
    50
100
AcDbLine
 10
230.3207677790484
 20
-132.64999389648
 30
0.0
 11
250.3207677790484
 21
-132.64999389648
 31
0.0
  0
LINE
  5
133
330
18
100
AcDbEntity
  8
PV0001_1
  6
Continuous
 48
0.5
370
    50
100
AcDbLine
 10
230.3207677790484
 20
-144.35000610351
 30
0.0
 11
250.3207677790484
 21
-144.35000610351
 31
0.0
  0
LINE
  5
134
330
18
100
AcDbEntity
  8
PV0001_1
  6
Continuous
 48
0.5
370
    50
100
AcDbLine
 10
275.3207677790484
 20
-91.80000305175699
 30
0.0
 11
278.3207677790484
 21
-91.80000305175699
 31
0.0
  0
LINE
  5
135
330
18
100
AcDbEntity
  8
PV0001_1
  6
Continuous
370
    25
100
AcDbLine
 10
395.3207677790484
 20
-91.80000305175699
 30
0.0
 11
436.3207677790484
 21
-91.80000305175699
 31
0.0
  0
LINE
  5
136
330
18
100
AcDbEntity
  8
PV0001_1
  6
Continuous
370
    50
100
AcDbLine
 10
395.3207677790484
 20
-84.49999999999999
 30
0.0
 11
436.3207677790484
 21
-84.49999999999999
 31
0.0
  0
LINE
  5
137
330
18
100
AcDbEntity
  8
PV0001_1
  6
Continuous
370
    50
100
AcDbLine
 10
395.3207677790484
 20
-92.49999999999998
 30
0.0
 11
436.3207677790484
 21
-92.49999999999998
 31
0.0
  0
LINE
  5
138
330
18
100
AcDbEntity
  8
PV0001_1
  6
Continuous
370
    25
100
AcDbLine
 10
395.3207677790484
 20
-85.19999694824198
 30
0.0
 11
436.3207677790484
 21
-85.19999694824198
 31
0.0
  0
LINE
  5
139
330
18
100
AcDbEntity
  8
PV0001_1
  6
Continuous
 48
0.5
370
    50
100
AcDbLine
 10
275.3207677790484
 20
-85.19999694824198
 30
0.0
 11
278.3207677790484
 21
-85.19999694824198
 31
0.0
  0
LINE
  5
13A
330
18
100
AcDbEntity
  8
PV0001_1
  6
Continuous
 48
0.5
370
    50
100
AcDbLine
 10
278.3207677790484
 20
-84.49999999999999
 30
0.0
 11
278.3207677790484
 21
-92.49999999999998
 31
0.0
  0
LINE
  5
13B
330
18
100
AcDbEntity
  8
PV0001_1
  6
Continuous
 48
0.5
370
    50
100
AcDbLine
 10
278.3207677790484
 20
-92.49999999999998
 30
0.0
 11
294.3207677790484
 21
-92.49999999999998
 31
0.0
  0
LINE
  5
13C
330
18
100
AcDbEntity
  8
PV0001_1
  6
Continuous
 48
0.5
370
    25
100
AcDbLine
 10
278.3207677790484
 20
-91.80000305175699
 30
0.0
 11
294.3207677790484
 21
-91.80000305175699
 31
0.0
  0
LINE
  5
13D
330
18
100
AcDbEntity
  8
PV0001_1
  6
Continuous
 48
0.5
370
    25
100
AcDbLine
 10
278.3207677790484
 20
-85.19999694824198
 30
0.0
 11
294.3207677790484
 21
-85.19999694824198
 31
0.0
  0
LINE
  5
13E
330
18
100
AcDbEntity
  8
PV0001_1
  6
Continuous
 48
0.5
370
    50
100
AcDbLine
 10
230.3207677790484
 20
-85.49999999999998
 30
0.0
 11
230.3207677790484
 21
-91.49999999999998
 31
0.0
  0
LINE
  5
13F
330
18
100
AcDbEntity
  8
PV0001_1
  6
Continuous
 48
0.5
370
    50
100
AcDbLine
 10
278.3207677790484
 20
-84.49999999999999
 30
0.0
 11
294.3207677790484
 21
-84.49999999999999
 31
0.0
  0
LINE
  5
140
330
18
100
AcDbEntity
  8
PV0001_1
  6
Continuous
 48
0.5
370
    50
100
AcDbLine
 10
230.3207677790484
 20
-85.49999999999998
 30
0.0
 11
240.3207677790484
 21
-85.49999999999998
 31
0.0
  0
LINE
  5
141
330
18
100
AcDbEntity
  8
PV0001_1
  6
Continuous
 48
0.5
370
    25
100
AcDbLine
 10
249.3207677790484
 20
-91.87100219726499
 30
0.0
 11
250.4102148005284
 21
-92.49999999999998
 31
0.0
  0
LINE
  5
142
330
18
100
AcDbEntity
  8
PV0001_1
  6
Continuous
 48
0.5
370
    50
100
AcDbLine
 10
267.3207677790484
 20
-94.24999999999998
 30
0.0
 11
275.3207677790484
 21
-94.24999999999998
 31
0.0
  0
LINE
  5
143
330
18
100
AcDbEntity
  8
PV0001_1
  6
CENTER2
 48
0.5
370
    25
100
AcDbLine
 10
273.3207677790484
 20
-80.92678070068298
 30
0.0
 11
273.3207677790484
 21
-95.94140624999999
 31
0.0
  0
LINE
  5
144
330
18
100
AcDbEntity
  8
PV0001_1
  6
Continuous
 48
0.5
370
    50
100
AcDbLine
 10
249.3207677790484
 20
-84.49999999999999
 30
0.0
 11
249.3207677790484
 21
-92.49999999999998
 31
0.0
  0
LINE
  5
145
330
18
100
AcDbEntity
  8
PV0001_1
  6
Continuous
 48
0.5
370
    50
100
AcDbLine
 10
275.3207677790484
 20
-82.74999999999998
 30
0.0
 11
275.3207677790484
 21
-94.24999999999998
 31
0.0
  0
LINE
  5
146
330
18
100
AcDbEntity
  8
PV0001_1
  6
Continuous
 48
0.5
370
    25
100
AcDbLine
 10
240.3207677790484
 20
-85.12899780273398
 30
0.0
 11
249.3207677790484
 21
-85.12899780273398
 31
0.0
  0
LINE
  5
147
330
18
100
AcDbEntity
  8
PV0001_1
  6
Continuous
 48
0.5
370
    50
100
AcDbLine
 10
267.3207677790484
 20
-82.74999999999998
 30
0.0
 11
275.3207677790484
 21
-82.74999999999998
 31
0.0
  0
LINE
  5
148
330
18
100
AcDbEntity
  8
PV0001_1
  6
Continuous
 48
0.5
370
    25
100
AcDbLine
 10
240.3207677790484
 20
-91.87100219726499
 30
0.0
 11
249.3207677790484
 21
-91.87100219726499
 31
0.0
  0
LINE
  5
149
330
18
100
AcDbEntity
  8
PV0001_1
  6
Continuous
 48
0.5
370
    50
100
AcDbLine
 10
240.3207677790484
 20
-84.49999999999999
 30
0.0
 11
240.3207677790484
 21
-92.49999999999998
 31
0.0
  0
LINE
  5
14A
330
18
100
AcDbEntity
  8
PV0001_1
  6
Continuous
 48
0.5
370
    50
100
AcDbLine
 10
230.3207677790484
 20
-91.49999999999998
 30
0.0
 11
240.3207677790484
 21
-91.49999999999998
 31
0.0
  0
LINE
  5
14B
330
18
100
AcDbEntity
  8
PV0001_1
  6
Continuous
 48
0.5
370
    50
100
AcDbLine
 10
271.3207677790484
 20
-85.66054534912098
 30
0.0
 11
271.3207677790484
 21
-91.33945465087798
 31
0.0
  0
LINE
  5
14C
330
18
100
AcDbEntity
  8
PV0001_1
  6
Continuous
 48
0.5
370
    25
100
AcDbLine
 10
249.3207677790484
 20
-85.12899780273398
 30
0.0
 11
250.4102453181084
 21
-84.49999237060499
 31
0.0
  0
LINE
  5
14D
330
18
100
AcDbEntity
  8
PV0001_1
  6
Continuous
 48
0.5
370
    50
100
AcDbLine
 10
267.3207677790484
 20
-82.74999999999998
 30
0.0
 11
267.3207677790484
 21
-94.24999999999998
 31
0.0
  0
LINE
  5
14E
330
18
100
AcDbEntity
  8
PV0001_1
  6
Continuous
 48
0.5
370
    25
100
AcDbLine
 10
271.3207677790484
 20
-85.66053771972597
 30
0.0
 11
275.3207677790484
 21
-91.33945465087798
 31
0.0
  0
LINE
  5
14F
330
18
100
AcDbEntity
  8
PV0001_1
  6
Continuous
 48
0.5
370
    25
100
AcDbLine
 10
271.3207677790484
 20
-91.33943939208899
 30
0.0
 11
275.3207372614684
 21
-85.66053771972597
 31
0.0
  0
LINE
  5
150
330
18
100
AcDbEntity
  8
PV0001_1
  6
Continuous
 48
0.5
370
    50
100
AcDbLine
 10
271.3207677790484
 20
-91.33945465087798
 30
0.0
 11
275.3207677790484
 21
-91.33945465087798
 31
0.0
  0
LINE
  5
151
330
18
100
AcDbEntity
  8
PV0001_1
  6
Continuous
 48
0.5
370
    50
100
AcDbLine
 10
271.3207677790484
 20
-85.66054534912098
 30
0.0
 11
275.3207677790484
 21
-85.66054534912098
 31
0.0
  0
LINE
  5
152
330
18
100
AcDbEntity
  8
PV0001_1
  6
Continuous
 48
0.5
370
    50
100
AcDbLine
 10
443.1207555720084
 20
-85.49999999999998
 30
0.0
 11
445.3207677790484
 21
-85.49999999999998
 31
0.0
  0
LINE
  5
153
330
18
100
AcDbEntity
  8
PV0001_1
  6
Continuous
 48
0.5
370
    50
100
AcDbLine
 10
442.3207677790484
 20
-91.34999847412098
 30
0.0
 11
443.1207555720084
 21
-91.34999847412098
 31
0.0
  0
LINE
  5
154
330
18
100
AcDbEntity
  8
PV0001_1
  6
Continuous
 48
0.5
370
    50
100
AcDbLine
 10
442.3207677790484
 20
-85.49999999999998
 30
0.0
 11
442.3207677790484
 21
-91.49999999999998
 31
0.0
  0
LINE
  5
155
330
18
100
AcDbEntity
  8
PV0001_1
  6
Continuous
 48
0.5
370
    50
100
AcDbLine
 10
443.1207555720084
 20
-85.49999999999998
 30
0.0
 11
443.1207555720084
 21
-91.49999999999998
 31
0.0
  0
LINE
  5
156
330
18
100
AcDbEntity
  8
PV0001_1
  6
Continuous
 48
0.5
370
    50
100
AcDbLine
 10
442.3207677790484
 20
-85.65000152587797
 30
0.0
 11
443.1207555720084
 21
-85.65000152587797
 31
0.0
  0
LINE
  5
157
330
18
100
AcDbEntity
  8
PV0001_1
  6
Continuous
 48
0.5
370
    50
100
AcDbLine
 10
443.1207555720084
 20
-91.49999999999998
 30
0.0
 11
445.3207677790484
 21
-91.49999999999998
 31
0.0
  0
LINE
  5
158
330
18
100
AcDbEntity
  8
PV0001_1
  6
Continuous
 48
0.5
370
    50
100
AcDbLine
 10
445.3207677790484
 20
-85.49999999999998
 30
0.0
 11
445.3207677790484
 21
-91.49999999999998
 31
0.0
  0
LINE
  5
159
330
18
100
AcDbEntity
  8
PV0001_1
  6
Continuous
 48
0.5
370
    50
100
AcDbLine
 10
240.3207677790484
 20
-92.49999999999998
 30
0.0
 11
267.1207555720084
 21
-92.49999999999998
 31
0.0
  0
LINE
  5
15A
330
18
100
AcDbEntity
  8
PV0001_1
  6
Continuous
 48
0.5
370
    50
100
AcDbLine
 10
436.3207677790484
 20
-84.49999999999999
 30
0.0
 11
436.3207677790484
 21
-92.49999999999998
 31
0.0
  0
LINE
  5
15B
330
18
100
AcDbEntity
  8
PV0001_1
  6
Continuous
 48
0.5
370
    50
100
AcDbLine
 10
240.3207677790484
 20
-84.49999999999999
 30
0.0
 11
267.1207555720084
 21
-84.49999999999999
 31
0.0
  0
LINE
  5
15C
330
18
100
AcDbEntity
  8
PV0001_1
  6
Continuous
 48
0.5
370
    50
100
AcDbLine
 10
436.5207799860784
 20
-85.49999999999998
 30
0.0
 11
442.3207677790484
 21
-85.49999999999998
 31
0.0
  0
LINE
  5
15D
330
18
100
AcDbEntity
  8
PV0001_1
  6
Continuous
 48
0.5
370
    50
100
AcDbLine
 10
436.5207799860784
 20
-91.49999999999998
 30
0.0
 11
442.3207677790484
 21
-91.49999999999998
 31
0.0
  0
LINE
  5
15E
330
18
100
AcDbEntity
  8
PV0001_1
  6
CENTER2
370
    25
100
AcDbLine
 10
223.2872594782584
 20
-88.49999999999999
 30
0.0
 11
298.0330480524784
 21
-88.49999999999999
 31
0.0
  0
LINE
  5
15F
330
18
100
AcDbEntity
  8
PV0001_1
  6
CENTER2
370
    25
100
AcDbLine
 10
394.0505346247484
 20
-88.49999999999999
 30
0.0
 11
447.8778356501384
 21
-88.49999999999999
 31
0.0
  0
LINE
  5
160
330
18
100
AcDbEntity
  8
PV0001_1
  6
Continuous
 48
0.5
370
    50
100
AcDbLine
 10
278.3207677790484
 20
-35.66054534912099
 30
0.0
 11
278.3207677790484
 21
-41.33945465087798
 31
0.0
  0
LINE
  5
161
330
18
100
AcDbEntity
  8
PV0001_1
  6
Continuous
 48
0.5
370
    50
100
AcDbLine
 10
268.3207677790484
 20
-35.66054534912099
 30
0.0
 11
268.3207677790484
 21
-41.33945465087798
 31
0.0
  0
LINE
  5
162
330
18
100
AcDbEntity
  8
PV0001_1
  6
CENTER2
 48
0.5
370
    25
100
AcDbLine
 10
280.0707677790484
 20
-38.49999999999999
 30
0.0
 11
266.5707677790484
 21
-38.49999999999999
 31
0.0
  0
LINE
  5
163
330
18
100
AcDbEntity
  8
PV0001_1
  6
CENTER2
 48
0.5
370
    25
100
AcDbLine
 10
273.3207677790484
 20
-31.74999999999999
 30
0.0
 11
273.3207677790484
 21
-45.24999999999998
 31
0.0
  0
LINE
  5
164
330
18
100
AcDbEntity
  8
PV0001_1
  6
PHANTOM2
 48
0.5
370
    25
100
AcDbLine
 10
240.3207677790484
 20
-202.5
 30
0.0
 11
267.3207677790484
 21
-202.5
 31
0.0
  0
LINE
  5
165
330
18
100
AcDbEntity
  8
PV0001_1
  6
PHANTOM2
 48
0.5
370
    25
100
AcDbLine
 10
249.3207067438884
 20
-202.0
 30
0.0
 11
250.1866735407584
 21
-202.49996948242
 31
0.0
  0
LINE
  5
166
330
18
100
AcDbEntity
  8
PV0001_1
  6
PHANTOM2
 48
0.5
370
    25
100
AcDbLine
 10
240.3207677790484
 20
-202.0
 30
0.0
 11
249.3207677790484
 21
-202.0
 31
0.0
  0
LINE
  5
167
330
18
100
AcDbEntity
  8
PV0001_1
  6
PHANTOM2
 48
0.5
370
    25
100
AcDbLine
 10
267.3207677790484
 20
-204.24996948242
 30
0.0
 11
267.3207677790484
 21
-192.7499847412099
 31
0.0
  0
LINE
  5
169
330
18
100
AcDbEntity
  8
PV0001_1
  6
PHANTOM2
 48
0.5
370
    25
100
AcDbLine
 10
240.3207677790484
 20
-195.0
 30
0.0
 11
249.3207677790484
 21
-195.0
 31
0.0
  0
LINE
  5
16A
330
18
100
AcDbEntity
  8
PV0001_1
  6
PHANTOM2
 48
0.5
370
    25
100
AcDbLine
 10
240.3207677790484
 20
-194.5
 30
0.0
 11
267.3207677790484
 21
-194.5
 31
0.0
  0
LINE
  5
16B
330
18
100
AcDbEntity
  8
PV0001_1
  6
PHANTOM2
 48
0.5
370
    25
100
AcDbLine
 10
267.3207677790484
 20
-204.25
 30
0.0
 11
275.3207677790484
 21
-204.25
 31
0.0
  0
LINE
  5
16C
330
18
100
AcDbEntity
  8
PV0001_1
  6
PHANTOM2
 48
0.5
370
    25
100
AcDbLine
 10
267.3207677790484
 20
-192.75
 30
0.0
 11
275.3207677790484
 21
-192.75
 31
0.0
  0
LINE
  5
16D
330
18
100
AcDbEntity
  8
PV0001_1
  6
PHANTOM2
 48
0.5
370
    25
100
AcDbLine
 10
230.3207677790484
 20
-201.5
 30
0.0
 11
240.3207677790484
 21
-201.5
 31
0.0
  0
LINE
  5
16E
330
18
100
AcDbEntity
  8
PV0001_1
  6
PHANTOM2
 48
0.5
370
    25
100
AcDbLine
 10
230.3207677790484
 20
-195.5
 30
0.0
 11
240.3207677790484
 21
-195.5
 31
0.0
  0
LINE
  5
16F
330
18
100
AcDbEntity
  8
PV0001_1
  6
PHANTOM2
 48
0.5
370
    25
100
AcDbLine
 10
249.3207067438884
 20
-194.9999237060499
 30
0.0
 11
250.1866125056084
 21
-194.4999847412099
 31
0.0
  0
LINE
  5
170
330
18
100
AcDbEntity
  8
PV0001_1
  6
PHANTOM2
 48
0.5
370
    25
100
AcDbLine
 10
249.3207372614684
 20
-202.49996948242
 30
0.0
 11
249.3207372614684
 21
-194.4999847412099
 31
0.0
  0
LINE
  5
171
330
18
100
AcDbEntity
  8
PV0001_1
  6
PHANTOM2
 48
0.5
370
    25
100
AcDbLine
 10
275.3207372614684
 20
-204.24996948242
 30
0.0
 11
275.3207372614684
 21
-192.7499847412099
 31
0.0
  0
LINE
  5
172
330
18
100
AcDbEntity
  8
PV0001_1
  6
PHANTOM2
 48
0.5
370
    25
100
AcDbLine
 10
240.3207372614684
 20
-202.49996948242
 30
0.0
 11
240.3207372614684
 21
-194.4999847412099
 31
0.0
  0
LINE
  5
173
330
18
100
AcDbEntity
  8
PV0001_1
  6
PHANTOM2
 48
0.5
370
    25
100
AcDbLine
 10
230.3207677790484
 20
-201.49998474121
 30
0.0
 11
230.3207677790484
 21
-195.49996948242
 31
0.0
  0
LINE
  5
174
330
18
100
AcDbEntity
  8
PV0001_1
  6
Continuous
 48
0.5
370
    50
100
AcDbLine
 10
155.8207677790484
 20
-186.0
 30
0.0
 11
149.8207525202584
 21
-186.0
 31
0.0
  0
LINE
  5
175
330
18
100
AcDbEntity
  8
PV0001_1
  6
Continuous
 48
0.5
370
    50
100
AcDbLine
 10
155.8207677790484
 20
-211.0
 30
0.0
 11
149.8207525202584
 21
-211.0
 31
0.0
  0
LINE
  5
176
330
18
100
AcDbEntity
  8
PV0001_1
  6
Continuous
 48
0.5
370
    50
100
AcDbLine
 10
149.8207372614684
 20
-186.0
 30
0.0
 11
149.8207372614684
 21
-172.4999847412099
 31
0.0
  0
LINE
  5
177
330
18
100
AcDbEntity
  8
PV0001_1
  6
Continuous
370
    50
100
AcDbLine
 10
123.8207372614684
 20
-224.5
 30
0.0
 11
123.8207372614684
 21
-172.4999847412099
 31
0.0
  0
LINE
  5
178
330
18
100
AcDbEntity
  8
PV0001_1
  6
Continuous
 48
0.5
370
    50
100
AcDbLine
 10
155.8207525202584
 20
-211.0
 30
0.0
 11
155.8207525202584
 21
-186.0
 31
0.0
  0
LINE
  5
179
330
18
100
AcDbEntity
  8
PV0001_1
  6
Continuous
 48
0.5
370
    50
100
AcDbLine
 10
149.8207372614684
 20
-224.5
 30
0.0
 11
149.8207372614684
 21
-211.0
 31
0.0
  0
LINE
  5
17A
330
18
100
AcDbEntity
  8
PV0001_1
  6
Continuous
 48
0.5
370
    50
100
AcDbLine
 10
149.8207525202584
 20
-172.5
 30
0.0
 11
123.8207525202584
 21
-172.5
 31
0.0
  0
LINE
  5
17B
330
18
100
AcDbEntity
  8
PV0001_1
  6
Continuous
 48
0.5
370
    50
100
AcDbLine
 10
149.8207525202584
 20
-224.5
 30
0.0
 11
123.8207525202584
 21
-224.5
 31
0.0
  0
LINE
  5
17C
330
18
100
AcDbEntity
  8
PV0001_1
  6
CENTER2
370
    25
100
AcDbLine
 10
152.2914098688884
 20
-217.49998474121
 30
0.0
 11
121.5034460016984
 21
-217.49998474121
 31
0.0
  0
LINE
  5
17D
330
18
100
AcDbEntity
  8
PV0001_1
  6
DASHED2
 48
0.5
370
    50
100
AcDbLine
 10
149.8207525202584
 20
-212.0
 30
0.0
 11
137.8207830378284
 21
-212.0
 31
0.0
  0
LINE
  5
17E
330
18
100
AcDbEntity
  8
PV0001_1
  6
DASHED2
 48
0.5
370
    50
100
AcDbLine
 10
137.8207830378284
 20
-214.19999694824
 30
0.0
 11
123.8207525202584
 21
-214.19999694824
 31
0.0
  0
LINE
  5
17F
330
18
100
AcDbEntity
  8
PV0001_1
  6
DASHED2
 48
0.5
370
    50
100
AcDbLine
 10
149.8207525202584
 20
-223.0
 30
0.0
 11
137.8207830378284
 21
-223.0
 31
0.0
  0
LINE
  5
180
330
18
100
AcDbEntity
  8
PV0001_1
  6
DASHED2
 48
0.5
370
    50
100
AcDbLine
 10
137.8207830378284
 20
-220.80000305175
 30
0.0
 11
123.8207525202584
 21
-220.80000305175
 31
0.0
  0
LINE
  5
181
330
18
100
AcDbEntity
  8
PV0001_1
  6
DASHED2
 48
0.5
370
    50
100
AcDbLine
 10
137.8207677790484
 20
-222.99998474121
 30
0.0
 11
137.8207677790484
 21
-212.0
 31
0.0
  0
LINE
  5
182
330
18
100
AcDbEntity
  8
PV0001_1
  6
DASHED2
 48
0.5
370
    50
100
AcDbLine
 10
149.8207525202584
 20
-174.0
 30
0.0
 11
137.8207830378284
 21
-174.0
 31
0.0
  0
LINE
  5
183
330
18
100
AcDbEntity
  8
PV0001_1
  6
DASHED2
 48
0.5
370
    50
100
AcDbLine
 10
137.8207677790484
 20
-174.0
 30
0.0
 11
137.8207677790484
 21
-184.9999847412099
 31
0.0
  0
LINE
  5
184
330
18
100
AcDbEntity
  8
PV0001_1
  6
DASHED2
 48
0.5
370
    50
100
AcDbLine
 10
137.8207830378284
 20
-176.19999694824
 30
0.0
 11
123.8207525202584
 21
-176.19999694824
 31
0.0
  0
LINE
  5
185
330
18
100
AcDbEntity
  8
PV0001_1
  6
CENTER2
370
    25
100
AcDbLine
 10
152.2914098688884
 20
-179.5000152587799
 30
0.0
 11
121.5034460016984
 21
-179.5000152587799
 31
0.0
  0
LINE
  5
186
330
18
100
AcDbEntity
  8
PV0001_1
  6
DASHED2
 48
0.5
370
    50
100
AcDbLine
 10
137.8207830378284
 20
-182.8000030517499
 30
0.0
 11
123.8207525202584
 21
-182.8000030517499
 31
0.0
  0
LINE
  5
187
330
18
100
AcDbEntity
  8
PV0001_1
  6
DASHED2
 48
0.5
370
    50
100
AcDbLine
 10
149.8207525202584
 20
-185.0
 30
0.0
 11
137.8207830378284
 21
-185.0
 31
0.0
  0
LINE
  5
188
330
18
100
AcDbEntity
  8
PV0001_1
  6
CENTER2
 48
0.5
370
    25
100
AcDbLine
 10
144.8207372614684
 20
-221.5
 30
0.0
 11
144.8207372614684
 21
-213.5
 31
0.0
  0
LINE
  5
189
330
18
100
AcDbEntity
  8
PV0001_1
  6
CENTER2
 48
0.5
370
    25
100
AcDbLine
 10
130.8207525202584
 20
-221.5
 30
0.0
 11
130.8207525202584
 21
-213.5
 31
0.0
  0
LINE
  5
18A
330
18
100
AcDbEntity
  8
PV0001_1
  6
CENTER2
 48
0.5
370
    25
100
AcDbLine
 10
144.8207372614684
 20
-175.49998474121
 30
0.0
 11
144.8207372614684
 21
-183.5
 31
0.0
  0
LINE
  5
18B
330
18
100
AcDbEntity
  8
PV0001_1
  6
CENTER2
 48
0.5
370
    25
100
AcDbLine
 10
130.8207525202584
 20
-175.49998474121
 30
0.0
 11
130.8207525202584
 21
-183.5
 31
0.0
  0
LINE
  5
18C
330
18
100
AcDbEntity
  8
PV0001_1
  6
Continuous
 48
0.5
370
    50
100
AcDbLine
 10
145.6425908991584
 20
-191.5
 30
0.0
 11
135.9989446589284
 21
-191.5
 31
0.0
  0
LINE
  5
18D
330
18
100
AcDbEntity
  8
PV0001_1
  6
Continuous
 48
0.5
370
    50
100
AcDbLine
 10
145.6425908991584
 20
-205.5
 30
0.0
 11
135.9989446589284
 21
-205.5
 31
0.0
  0
LINE
  5
18E
330
18
100
AcDbEntity
  8
PV0001_1
  6
Continuous
 48
0.5
370
    50
100
AcDbLine
 10
147.8207677790484
 20
-203.32182312011
 30
0.0
 11
147.8207677790484
 21
-193.67816162109
 31
0.0
  0
LINE
  5
18F
330
18
100
AcDbEntity
  8
PV0001_1
  6
Continuous
 48
0.5
370
    50
100
AcDbLine
 10
133.8207372614684
 20
-203.32182312011
 30
0.0
 11
133.8207372614684
 21
-193.67816162109
 31
0.0
  0
LINE
  5
190
330
18
100
AcDbEntity
  8
PV0001_1
  6
CENTER2
370
    25
100
AcDbLine
 10
140.8207525202584
 20
-227.49998474121
 30
0.0
 11
140.8207525202584
 21
-169.5
 31
0.0
  0
LINE
  5
191
330
18
100
AcDbEntity
  8
PV0001_1
  6
CENTER2
370
    25
100
AcDbLine
 10
157.6683019587284
 20
-198.5
 30
0.0
 11
122.3194555231884
 21
-198.5
 31
0.0
  0
LINE
  5
192
330
18
100
AcDbEntity
  8
PV0001_1
  6
Continuous
370
    50
100
AcDbLine
 10
271.3207677790484
 20
-224.5
 30
0.0
 11
271.3207677790484
 21
-172.4999847412099
 31
0.0
  0
LINE
  5
193
330
18
100
AcDbEntity
  8
PV0001_1
  6
Continuous
370
    50
100
AcDbLine
 10
248.3207677790484
 20
-224.5
 30
0.0
 11
248.3207677790484
 21
-172.4999847412099
 31
0.0
  0
LINE
  5
194
330
18
100
AcDbEntity
  8
PV0001_1
  6
Continuous
 48
0.5
370
    50
100
AcDbLine
 10
241.3207677790484
 20
-205.49998474121
 30
0.0
 11
241.3207677790484
 21
-191.5
 31
0.0
  0
LINE
  5
195
330
18
100
AcDbEntity
  8
PV0001_1
  6
Continuous
 48
0.5
370
    50
100
AcDbLine
 10
271.3207677790484
 20
-172.5
 30
0.0
 11
248.3207982966184
 21
-172.5
 31
0.0
  0
LINE
  5
196
330
18
100
AcDbEntity
  8
PV0001_1
  6
Continuous
 48
0.5
370
    50
100
AcDbLine
 10
271.3207677790484
 20
-224.5
 30
0.0
 11
248.3207982966184
 21
-224.5
 31
0.0
  0
LINE
  5
197
330
18
100
AcDbEntity
  8
PV0001_1
  6
Continuous
 48
0.5
370
    50
100
AcDbLine
 10
271.3207677790484
 20
-211.0
 30
0.0
 11
248.3207982966184
 21
-211.0
 31
0.0
  0
LINE
  5
198
330
18
100
AcDbEntity
  8
PV0001_1
  6
Continuous
 48
0.5
370
    50
100
AcDbLine
 10
271.3207677790484
 20
-186.0
 30
0.0
 11
248.3207982966184
 21
-186.0
 31
0.0
  0
LINE
  5
199
330
18
100
AcDbEntity
  8
PV0001_1
  6
CENTER2
 48
0.5
370
    25
100
AcDbLine
 10
252.3207677790484
 20
-217.49998474121
 30
0.0
 11
267.3207677790484
 21
-217.49998474121
 31
0.0
  0
LINE
  5
19A
330
18
100
AcDbEntity
  8
PV0001_1
  6
CENTER2
 48
0.5
370
    25
100
AcDbLine
 10
259.8207677790484
 20
-224.99998474121
 30
0.0
 11
259.8207677790484
 21
-209.9999847412099
 31
0.0
  0
LINE
  5
19B
330
18
100
AcDbEntity
  8
PV0001_1
  6
CENTER2
 48
0.5
370
    25
100
AcDbLine
 10
259.8207677790484
 20
-172.0
 30
0.0
 11
259.8207677790484
 21
-187.0
 31
0.0
  0
LINE
  5
19C
330
18
100
AcDbEntity
  8
PV0001_1
  6
CENTER2
 48
0.5
370
    25
100
AcDbLine
 10
252.3207677790484
 20
-179.5000152587799
 30
0.0
 11
267.3207677790484
 21
-179.5000152587799
 31
0.0
  0
LINE
  5
19D
330
18
100
AcDbEntity
  8
PV0001_1
  6
Continuous
 48
0.5
370
    50
100
AcDbLine
 10
247.8207372614684
 20
-204.5
 30
0.0
 11
247.8207372614684
 21
-192.4999847412099
 31
0.0
  0
LINE
  5
19E
330
18
100
AcDbEntity
  8
PV0001_1
  6
Continuous
 48
0.5
370
    50
100
AcDbLine
 10
247.3207677790484
 20
-191.5
 30
0.0
 11
241.3207677790484
 21
-191.5
 31
0.0
  0
LINE
  5
19F
330
18
100
AcDbEntity
  8
PV0001_1
  6
Continuous
 48
0.5
370
    50
100
AcDbLine
 10
247.3207677790484
 20
-205.5
 30
0.0
 11
241.3207677790484
 21
-205.5
 31
0.0
  0
LINE
  5
1A0
330
18
100
AcDbEntity
  8
PV0001_1
  6
Continuous
 48
0.5
370
    50
100
AcDbLine
 10
248.3207982966184
 20
-192.4999847412099
 30
0.0
 11
247.3207677790484
 21
-192.4999847412099
 31
0.0
  0
LINE
  5
1A1
330
18
100
AcDbEntity
  8
PV0001_1
  6
Continuous
 48
0.5
370
    50
100
AcDbLine
 10
248.3207982966184
 20
-204.50001525878
 30
0.0
 11
247.3207677790484
 21
-204.50001525878
 31
0.0
  0
LINE
  5
1A2
330
18
100
AcDbEntity
  8
PV0001_1
  6
Continuous
 48
0.5
370
    50
100
AcDbLine
 10
247.3207677790484
 20
-205.49998474121
 30
0.0
 11
247.3207677790484
 21
-191.5
 31
0.0
  0
LINE
  5
1A5
330
18
100
AcDbEntity
  8
PV0001_1
  6
PHANTOM2
 48
0.5
370
    25
100
AcDbLine
 10
442.3207067438884
 20
-195.64999389648
 30
0.0
 11
443.1206945368584
 21
-195.64999389648
 31
0.0
  0
LINE
  5
1A6
330
18
100
AcDbEntity
  8
PV0001_1
  6
PHANTOM2
 48
0.5
370
    25
100
AcDbLine
 10
442.3207067438884
 20
-201.35000610351
 30
0.0
 11
443.1206945368584
 21
-201.35000610351
 31
0.0
  0
LINE
  5
1A7
330
18
100
AcDbEntity
  8
PV0001_1
  6
PHANTOM2
 48
0.5
370
    25
100
AcDbLine
 10
443.1206945368584
 20
-201.5
 30
0.0
 11
445.3207067438884
 21
-201.5
 31
0.0
  0
LINE
  5
1A8
330
18
100
AcDbEntity
  8
PV0001_1
  6
PHANTOM2
 48
0.5
370
    25
100
AcDbLine
 10
443.1206945368584
 20
-195.5
 30
0.0
 11
445.3207067438884
 21
-195.5
 31
0.0
  0
LINE
  5
1A9
330
18
100
AcDbEntity
  8
PV0001_1
  6
PHANTOM2
 48
0.5
370
    25
100
AcDbLine
 10
442.3207067438884
 20
-195.49998474121
 30
0.0
 11
442.3207067438884
 21
-201.5
 31
0.0
  0
LINE
  5
1AA
330
18
100
AcDbEntity
  8
PV0001_1
  6
PHANTOM2
 48
0.5
370
    25
100
AcDbLine
 10
443.1207555720084
 20
-195.49998474121
 30
0.0
 11
443.1207555720084
 21
-201.5
 31
0.0
  0
LINE
  5
1AB
330
18
100
AcDbEntity
  8
PV0001_1
  6
PHANTOM2
 48
0.5
370
    25
100
AcDbLine
 10
445.3207677790484
 20
-195.49998474121
 30
0.0
 11
445.3207677790484
 21
-201.5
 31
0.0
  0
LINE
  5
1AE
330
18
100
AcDbEntity
  8
PV0001_1
  6
PHANTOM2
 48
0.5
370
    25
100
AcDbLine
 10
436.3207677790484
 20
-194.5
 30
0.0
 11
436.3207677790484
 21
-202.49998474121
 31
0.0
  0
LINE
  5
1AF
330
18
100
AcDbEntity
  8
PV0001_1
  6
PHANTOM2
 48
0.5
370
    25
100
AcDbLine
 10
436.3207677790484
 20
-195.5
 30
0.0
 11
442.3207067438884
 21
-195.5
 31
0.0
  0
LINE
  5
1B0
330
18
100
AcDbEntity
  8
PV0001_1
  6
PHANTOM2
 48
0.5
370
    25
100
AcDbLine
 10
436.3207677790484
 20
-201.5
 30
0.0
 11
442.3207067438884
 21
-201.5
 31
0.0
  0
LINE
  5
1B2
330
18
100
AcDbEntity
  8
PV0001_1
  6
DASHED2
 48
0.5
370
    50
100
AcDbLine
 10
436.3207677790484
 20
-207.00001525878
 30
0.0
 11
436.3207677790484
 21
-201.50001525878
 31
0.0
  0
LINE
  5
1B3
330
18
100
AcDbEntity
  8
PV0001_1
  6
DASHED2
 48
0.5
370
    50
100
AcDbLine
 10
442.3207677790484
 20
-207.00001525878
 30
0.0
 11
442.3207677790484
 21
-201.35000610351
 31
0.0
  0
LINE
  5
1B4
330
18
100
AcDbEntity
  8
PV0001_1
  6
DASHED2
 48
0.5
370
    50
100
AcDbLine
 10
442.3207677790484
 20
-207.00001525878
 30
0.0
 11
436.3207677790484
 21
-207.00001525878
 31
0.0
  0
LINE
  5
1B5
330
18
100
AcDbEntity
  8
PV0001_1
  6
DASHED2
 48
0.5
370
    50
100
AcDbLine
 10
442.3207677790484
 20
-190.0
 30
0.0
 11
436.3207677790484
 21
-190.0
 31
0.0
  0
LINE
  5
1B6
330
18
100
AcDbEntity
  8
PV0001_1
  6
DASHED2
 48
0.5
370
    50
100
AcDbLine
 10
442.3207677790484
 20
-201.50001525878
 30
0.0
 11
436.3207677790484
 21
-201.50001525878
 31
0.0
  0
LINE
  5
1B7
330
18
100
AcDbEntity
  8
PV0001_1
  6
DASHED2
 48
0.5
370
    50
100
AcDbLine
 10
442.3207677790484
 20
-195.5
 30
0.0
 11
436.3207677790484
 21
-195.5
 31
0.0
  0
LINE
  5
1B8
330
18
100
AcDbEntity
  8
PV0001_1
  6
DASHED2
 48
0.5
370
    50
100
AcDbLine
 10
442.3207677790484
 20
-195.64999389648
 30
0.0
 11
442.3207677790484
 21
-190.0
 31
0.0
  0
LINE
  5
1B9
330
18
100
AcDbEntity
  8
PV0001_1
  6
DASHED2
 48
0.5
370
    50
100
AcDbLine
 10
436.3207677790484
 20
-195.5
 30
0.0
 11
436.3207677790484
 21
-190.0
 31
0.0
  0
LINE
  5
1BA
330
18
100
AcDbEntity
  8
PV0001_1
  6
DASHED2
 48
0.5
370
    50
100
AcDbLine
 10
443.1206945368584
 20
-201.3500213623
 30
0.0
 11
442.3207677790484
 21
-201.3500213623
 31
0.0
  0
LINE
  5
1BB
330
18
100
AcDbEntity
  8
PV0001_1
  6
DASHED2
 48
0.5
370
    50
100
AcDbLine
 10
443.1206945368584
 20
-195.64999389648
 30
0.0
 11
442.3207677790484
 21
-195.64999389648
 31
0.0
  0
LINE
  5
1BC
330
18
100
AcDbEntity
  8
PV0001_1
  6
DASHED2
 48
0.5
370
    50
100
AcDbLine
 10
443.1206945368584
 20
-204.50001525878
 30
0.0
 11
442.3207677790484
 21
-204.50001525878
 31
0.0
  0
LINE
  5
1BD
330
18
100
AcDbEntity
  8
PV0001_1
  6
DASHED2
 48
0.5
370
    50
100
AcDbLine
 10
443.1206945368584
 20
-192.5
 30
0.0
 11
442.3207677790484
 21
-192.5
 31
0.0
  0
LINE
  5
1BE
330
18
100
AcDbEntity
  8
PV0001_1
  6
DASHED2
 48
0.5
370
    50
100
AcDbLine
 10
443.1207555720084
 20
-195.64999389648
 30
0.0
 11
443.1207555720084
 21
-192.4999847412099
 31
0.0
  0
LINE
  5
1BF
330
18
100
AcDbEntity
  8
PV0001_1
  6
DASHED2
 48
0.5
370
    50
100
AcDbLine
 10
443.1207555720084
 20
-204.5
 30
0.0
 11
443.1207555720084
 21
-201.35000610351
 31
0.0
  0
LINE
  5
1C0
330
18
100
AcDbEntity
  8
PV0001_1
  6
Continuous
370
    50
100
AcDbLine
 10
431.8207982966184
 20
-224.50001525878
 30
0.0
 11
431.8207982966184
 21
-172.5
 31
0.0
  0
LINE
  5
1C1
330
18
100
AcDbEntity
  8
PV0001_1
  6
Continuous
 48
0.5
370
    50
100
AcDbLine
 10
446.8207677790484
 20
-172.5
 30
0.0
 11
431.8207982966184
 21
-172.5
 31
0.0
  0
LINE
  5
1C2
330
18
100
AcDbEntity
  8
PV0001_1
  6
Continuous
 48
0.5
370
    50
100
AcDbLine
 10
446.8207677790484
 20
-224.50001525878
 30
0.0
 11
431.8207982966184
 21
-224.50001525878
 31
0.0
  0
LINE
  5
1C3
330
18
100
AcDbEntity
  8
PV0001_1
  6
Continuous
370
    50
100
AcDbLine
 10
446.8207677790484
 20
-224.50001525878
 30
0.0
 11
446.8207677790484
 21
-172.5
 31
0.0
  0
LINE
  5
1C4
330
18
100
AcDbEntity
  8
PV0001_1
  6
CENTER2
 48
0.5
370
    25
100
AcDbLine
 10
430.0310338923284
 20
-179.5000152587799
 30
0.0
 11
448.5926794001384
 21
-179.5000152587799
 31
0.0
  0
LINE
  5
1C5
330
18
100
AcDbEntity
  8
PV0001_1
  6
CENTER2
 48
0.5
370
    25
100
AcDbLine
 10
430.2431920954484
 20
-217.5
 30
0.0
 11
448.5926794001384
 21
-217.5
 31
0.0
  0
LINE
  5
1C6
330
18
100
AcDbEntity
  8
PV0001_1
  6
CENTER2
 48
0.5
370
    25
100
AcDbLine
 10
439.3207982966184
 20
-224.99998474121
 30
0.0
 11
439.3207982966184
 21
-209.9999847412099
 31
0.0
  0
LINE
  5
1C7
330
18
100
AcDbEntity
  8
PV0001_1
  6
CENTER2
 48
0.5
370
    25
100
AcDbLine
 10
439.3207982966184
 20
-187.0
 30
0.0
 11
439.3207982966184
 21
-172.0
 31
0.0
  0
LINE
  5
1C8
330
18
100
AcDbEntity
  8
PV0001_1
  6
Continuous
 48
0.5
370
    50
100
AcDbLine
 10
431.8207677790484
 20
-186.0
 30
0.0
 11
446.8207677790484
 21
-186.0
 31
0.0
  0
LINE
  5
1C9
330
18
100
AcDbEntity
  8
PV0001_1
  6
Continuous
 48
0.5
370
    50
100
AcDbLine
 10
431.8207677790484
 20
-211.0
 30
0.0
 11
446.8207677790484
 21
-211.0
 31
0.0
  0
LINE
  5
1CA
330
18
100
AcDbEntity
  8
PV0001_1
  6
CENTER2
370
    25
100
AcDbLine
 10
532.7122472712284
 20
-198.5
 30
0.0
 11
569.5832799860784
 21
-198.5
 31
0.0
  0
LINE
  5
1CB
330
18
100
AcDbEntity
  8
PV0001_1
  6
CENTER2
370
    25
100
AcDbLine
 10
550.3207677790483
 20
-169.36608886718
 30
0.0
 11
550.3207677790483
 21
-227.32859802246
 31
0.0
  0
LINE
  5
1CC
330
18
100
AcDbEntity
  8
PV0001_1
  6
Continuous
 48
0.5
370
    50
100
AcDbLine
 10
541.3207677790484
 20
-224.5
 30
0.0
 11
567.3207677790484
 21
-224.5
 31
0.0
  0
LINE
  5
1CD
330
18
100
AcDbEntity
  8
PV0001_1
  6
Continuous
 48
0.5
370
    50
100
AcDbLine
 10
541.3207677790484
 20
-172.5
 30
0.0
 11
567.3207677790484
 21
-172.5
 31
0.0
  0
LINE
  5
1CE
330
18
100
AcDbEntity
  8
PV0001_1
  6
Continuous
370
    50
100
AcDbLine
 10
567.3207677790484
 20
-172.5
 30
0.0
 11
567.3207677790484
 21
-224.5
 31
0.0
  0
LINE
  5
1CF
330
18
100
AcDbEntity
  8
PV0001_1
  6
Continuous
 48
0.5
370
    50
100
AcDbLine
 10
535.3207677790484
 20
-186.0
 30
0.0
 11
535.3207677790484
 21
-211.0
 31
0.0
  0
LINE
  5
1D0
330
18
100
AcDbEntity
  8
PV0001_1
  6
Continuous
 48
0.5
370
    50
100
AcDbLine
 10
535.3207677790484
 20
-211.0
 30
0.0
 11
541.3207677790484
 21
-211.0
 31
0.0
  0
LINE
  5
1D1
330
18
100
AcDbEntity
  8
PV0001_1
  6
Continuous
 48
0.5
370
    50
100
AcDbLine
 10
535.3207677790484
 20
-186.0
 30
0.0
 11
541.3207677790484
 21
-186.0
 31
0.0
  0
LINE
  5
1D2
330
18
100
AcDbEntity
  8
PV0001_1
  6
Continuous
 48
0.5
370
    50
100
AcDbLine
 10
541.3207677790484
 20
-172.5
 30
0.0
 11
541.3207677790484
 21
-186.0
 31
0.0
  0
LINE
  5
1D3
330
18
100
AcDbEntity
  8
PV0001_1
  6
Continuous
 48
0.5
370
    50
100
AcDbLine
 10
541.3207677790484
 20
-211.0
 30
0.0
 11
541.3207677790484
 21
-224.5
 31
0.0
  0
LINE
  5
1D4
330
18
100
AcDbEntity
  8
PV0001_1
  6
CENTER2
370
    25
100
AcDbLine
 10
538.6491369196684
 20
-179.5000152587799
 30
0.0
 11
569.7395299860784
 21
-179.5000152587799
 31
0.0
  0
LINE
  5
1D5
330
18
100
AcDbEntity
  8
PV0001_1
  6
CENTER2
370
    25
100
AcDbLine
 10
538.8053869196684
 20
-217.49998474121
 30
0.0
 11
569.7395299860784
 21
-217.49998474121
 31
0.0
  0
LINE
  5
1D6
330
18
100
AcDbEntity
  8
PV0001_1
  6
DASHED2
 48
0.5
370
    50
100
AcDbLine
 10
553.3207677790484
 20
-182.8000030517499
 30
0.0
 11
567.3207677790484
 21
-182.8000030517499
 31
0.0
  0
LINE
  5
1D7
330
18
100
AcDbEntity
  8
PV0001_1
  6
DASHED2
 48
0.5
370
    50
100
AcDbLine
 10
553.3207677790484
 20
-176.19999694824
 30
0.0
 11
567.3207677790484
 21
-176.19999694824
 31
0.0
  0
LINE
  5
1D8
330
18
100
AcDbEntity
  8
PV0001_1
  6
DASHED2
 48
0.5
370
    50
100
AcDbLine
 10
553.3207677790484
 20
-220.80000305175
 30
0.0
 11
567.3207677790484
 21
-220.80000305175
 31
0.0
  0
LINE
  5
1D9
330
18
100
AcDbEntity
  8
PV0001_1
  6
DASHED2
 48
0.5
370
    50
100
AcDbLine
 10
553.3207677790484
 20
-214.19999694824
 30
0.0
 11
567.3207677790484
 21
-214.19999694824
 31
0.0
  0
LINE
  5
1DA
330
18
100
AcDbEntity
  8
PV0001_1
  6
DASHED2
 48
0.5
370
    50
100
AcDbLine
 10
541.3207677790484
 20
-223.0
 30
0.0
 11
553.3207677790484
 21
-223.0
 31
0.0
  0
LINE
  5
1DB
330
18
100
AcDbEntity
  8
PV0001_1
  6
DASHED2
 48
0.5
370
    50
100
AcDbLine
 10
541.3207677790484
 20
-212.0
 30
0.0
 11
553.3207677790484
 21
-212.0
 31
0.0
  0
LINE
  5
1DC
330
18
100
AcDbEntity
  8
PV0001_1
  6
DASHED2
 48
0.5
370
    50
100
AcDbLine
 10
541.3207677790484
 20
-174.0
 30
0.0
 11
553.3207677790484
 21
-174.0
 31
0.0
  0
LINE
  5
1DD
330
18
100
AcDbEntity
  8
PV0001_1
  6
DASHED2
 48
0.5
370
    50
100
AcDbLine
 10
541.3207677790484
 20
-185.0
 30
0.0
 11
553.3207677790484
 21
-185.0
 31
0.0
  0
LINE
  5
1DE
330
18
100
AcDbEntity
  8
PV0001_1
  6
DASHED2
 48
0.5
370
    50
100
AcDbLine
 10
553.3207677790484
 20
-174.0
 30
0.0
 11
553.3207677790484
 21
-184.9999847412099
 31
0.0
  0
LINE
  5
1DF
330
18
100
AcDbEntity
  8
PV0001_1
  6
DASHED2
 48
0.5
370
    50
100
AcDbLine
 10
553.3207677790484
 20
-212.0
 30
0.0
 11
553.3207677790484
 21
-222.99998474121
 31
0.0
  0
LINE
  5
1E0
330
18
100
AcDbEntity
  8
PV0001_1
  6
PHANTOM2
 48
0.5
370
    25
100
AcDbLine
 10
436.3207677790485
 20
-325.5
 30
0.0
 11
436.3207677790485
 21
-331.5
 31
0.0
  0
LINE
  5
1E1
330
18
100
AcDbEntity
  8
PV0001_1
  6
PHANTOM2
 48
0.5
370
    25
100
AcDbLine
 10
275.3207677790484
 20
-272.75
 30
0.0
 11
267.3207677790484
 21
-272.75
 31
0.0
  0
LINE
  5
1E2
330
18
100
AcDbEntity
  8
PV0001_1
  6
PHANTOM2
 48
0.5
370
    25
100
AcDbLine
 10
275.3207677790484
 20
-284.25
 30
0.0
 11
267.3207677790484
 21
-284.25
 31
0.0
  0
LINE
  5
1E3
330
18
100
AcDbEntity
  8
PV0001_1
  6
PHANTOM2
 48
0.5
370
    25
100
AcDbLine
 10
267.1207555720084
 20
-274.5
 30
0.0
 11
240.3207677790484
 21
-274.5
 31
0.0
  0
LINE
  5
1E4
330
18
100
AcDbEntity
  8
PV0001_1
  6
PHANTOM2
 48
0.5
370
    25
100
AcDbLine
 10
249.3207677790484
 20
-274.5
 30
0.0
 11
249.3207677790484
 21
-282.5
 31
0.0
  0
LINE
  5
1E5
330
18
100
AcDbEntity
  8
PV0001_1
  6
PHANTOM2
 48
0.5
370
    25
100
AcDbLine
 10
240.3207677790484
 20
-274.5
 30
0.0
 11
240.3207677790484
 21
-282.5
 31
0.0
  0
LINE
  5
1E6
330
18
100
AcDbEntity
  8
PV0001_1
  6
PHANTOM2
 48
0.5
370
    25
100
AcDbLine
 10
275.3207677790484
 20
-272.75
 30
0.0
 11
275.3207677790484
 21
-284.25
 31
0.0
  0
LINE
  5
1E7
330
18
100
AcDbEntity
  8
PV0001_1
  6
PHANTOM2
 48
0.5
370
    25
100
AcDbLine
 10
240.3207677790484
 20
-275.5
 30
0.0
 11
230.3207677790484
 21
-275.5
 31
0.0
  0
LINE
  5
1E8
330
18
100
AcDbEntity
  8
PV0001_1
  6
PHANTOM2
 48
0.5
370
    25
100
AcDbLine
 10
240.3207677790484
 20
-281.5
 30
0.0
 11
230.3207677790484
 21
-281.5
 31
0.0
  0
LINE
  5
1E9
330
18
100
AcDbEntity
  8
PV0001_1
  6
PHANTOM2
 48
0.5
370
    25
100
AcDbLine
 10
267.1207555720084
 20
-282.5
 30
0.0
 11
240.3207677790484
 21
-282.5
 31
0.0
  0
LINE
  5
1EA
330
18
100
AcDbEntity
  8
PV0001_1
  6
PHANTOM2
 48
0.5
370
    25
100
AcDbLine
 10
230.3207677790484
 20
-275.5
 30
0.0
 11
230.3207677790484
 21
-281.5
 31
0.0
  0
LINE
  5
1EB
330
18
100
AcDbEntity
  8
PV0001_1
  6
PHANTOM2
 48
0.5
370
    25
100
AcDbLine
 10
267.3207677790484
 20
-272.75
 30
0.0
 11
267.3207677790484
 21
-284.25
 31
0.0
  0
LINE
  5
1ED
330
18
100
AcDbEntity
  8
PV0001_1
  6
PHANTOM2
 48
0.5
370
    25
100
AcDbLine
 10
445.3207677790484
 20
-331.5
 30
0.0
 11
443.1207555720084
 21
-331.5
 31
0.0
  0
LINE
  5
1EE
330
18
100
AcDbEntity
  8
PV0001_1
  6
PHANTOM2
 48
0.5
370
    25
100
AcDbLine
 10
442.3207677790484
 20
-325.5
 30
0.0
 11
442.3207677790484
 21
-331.5
 31
0.0
  0
LINE
  5
1EF
330
18
100
AcDbEntity
  8
PV0001_1
  6
PHANTOM2
 48
0.5
370
    25
100
AcDbLine
 10
445.3207677790484
 20
-325.5
 30
0.0
 11
443.1207555720084
 21
-325.5
 31
0.0
  0
LINE
  5
1F0
330
18
100
AcDbEntity
  8
PV0001_1
  6
PHANTOM2
 48
0.5
370
    25
100
AcDbLine
 10
443.1207555720084
 20
-331.35000610351
 30
0.0
 11
442.3207677790484
 21
-331.35000610351
 31
0.0
  0
LINE
  5
1F1
330
18
100
AcDbEntity
  8
PV0001_1
  6
PHANTOM2
 48
0.5
370
    25
100
AcDbLine
 10
443.1207555720084
 20
-325.5
 30
0.0
 11
443.1207555720084
 21
-331.5
 31
0.0
  0
LINE
  5
1F2
330
18
100
AcDbEntity
  8
PV0001_1
  6
PHANTOM2
 48
0.5
370
    25
100
AcDbLine
 10
442.3207677790484
 20
-325.5
 30
0.0
 11
436.3207677790485
 21
-325.5
 31
0.0
  0
LINE
  5
1F3
330
18
100
AcDbEntity
  8
PV0001_1
  6
PHANTOM2
 48
0.5
370
    25
100
AcDbLine
 10
442.3207677790484
 20
-331.5
 30
0.0
 11
436.3207677790485
 21
-331.5
 31
0.0
  0
LINE
  5
1F4
330
18
100
AcDbEntity
  8
PV0001_1
  6
PHANTOM2
 48
0.5
370
    25
100
AcDbLine
 10
445.3207677790484
 20
-325.5
 30
0.0
 11
445.3207677790484
 21
-331.5
 31
0.0
  0
LINE
  5
1F5
330
18
100
AcDbEntity
  8
PV0001_1
  6
PHANTOM2
 48
0.5
370
    25
100
AcDbLine
 10
443.1207555720084
 20
-325.64999389648
 30
0.0
 11
442.3207677790484
 21
-325.64999389648
 31
0.0
  0
LINE
  5
1F6
330
18
100
AcDbEntity
  8
PV0001_1
  6
PHANTOM2
 48
0.5
370
    25
100
AcDbLine
 10
249.3207677790484
 20
-275.12899780273
 30
0.0
 11
250.4102148005284
 21
-274.5
 31
0.0
  0
LINE
  5
1F7
330
18
100
AcDbEntity
  8
PV0001_1
  6
PHANTOM2
 48
0.5
370
    25
100
AcDbLine
 10
249.3207677790484
 20
-281.87100219726
 30
0.0
 11
250.4102453181084
 21
-282.5
 31
0.0
  0
LINE
  5
1F8
330
18
100
AcDbEntity
  8
PV0001_1
  6
PHANTOM2
 48
0.5
370
    25
100
AcDbLine
 10
249.3207677790484
 20
-281.87100219726
 30
0.0
 11
240.3207677790484
 21
-281.87100219726
 31
0.0
  0
LINE
  5
1F9
330
18
100
AcDbEntity
  8
PV0001_1
  6
PHANTOM2
 48
0.5
370
    25
100
AcDbLine
 10
249.3207677790484
 20
-275.12899780273
 30
0.0
 11
240.3207677790484
 21
-275.12899780273
 31
0.0
  0
LINE
  5
1FA
330
18
100
AcDbEntity
  8
PV0001_1
  6
Continuous
 48
0.5
370
    50
100
AcDbLine
 10
153.3107427546284
 20
-261.0
 30
0.0
 11
128.3307470270884
 21
-261.0
 31
0.0
  0
LINE
  5
1FB
330
18
100
AcDbEntity
  8
PV0001_1
  6
Continuous
 48
0.5
370
    50
100
AcDbLine
 10
153.3107427546284
 20
-296.0
 30
0.0
 11
128.3307470270884
 21
-296.0
 31
0.0
  0
LINE
  5
1FC
330
18
100
AcDbEntity
  8
PV0001_1
  6
Continuous
 48
0.5
370
    50
100
AcDbLine
 10
158.3207525202584
 20
-266.01000976562
 30
0.0
 11
158.3207525202584
 21
-290.98999023437
 31
0.0
  0
LINE
  5
1FD
330
18
100
AcDbEntity
  8
PV0001_1
  6
Continuous
 48
0.5
370
    50
100
AcDbLine
 10
123.3207525202584
 20
-266.01000976562
 30
0.0
 11
123.3207525202584
 21
-290.98999023437
 31
0.0
  0
LINE
  5
1FE
330
18
100
AcDbEntity
  8
PV0001_1
  6
CENTER2
370
    25
100
AcDbLine
 10
120.8207525202584
 20
-278.5
 30
0.0
 11
160.8207525202584
 21
-278.5
 31
0.0
  0
LINE
  5
1FF
330
18
100
AcDbEntity
  8
PV0001_1
  6
CENTER2
370
    25
100
AcDbLine
 10
140.8207525202584
 20
-258.5
 30
0.0
 11
140.8207525202584
 21
-298.5
 31
0.0
  0
LINE
  5
200
330
18
100
AcDbEntity
  8
PV0001_1
  6
CENTER2
370
    25
100
AcDbLine
 10
157.0841955134184
 20
-294.76345825195
 30
0.0
 11
124.5572942682984
 21
-262.23654174804
 31
0.0
  0
LINE
  5
201
330
18
100
AcDbEntity
  8
PV0001_1
  6
CENTER2
370
    25
100
AcDbLine
 10
157.0842107722084
 20
-262.23654174804
 30
0.0
 11
124.5572942682984
 21
-294.76345825195
 31
0.0
  0
LINE
  5
202
330
18
100
AcDbEntity
  8
PV0001_1
  6
Continuous
 48
0.5
370
    50
100
AcDbLine
 10
133.8207525202584
 20
-273.67816162109
 30
0.0
 11
133.8207525202584
 21
-283.3218383789
 31
0.0
  0
LINE
  5
203
330
18
100
AcDbEntity
  8
PV0001_1
  6
Continuous
 48
0.5
370
    50
100
AcDbLine
 10
147.8207525202584
 20
-273.67816162109
 30
0.0
 11
147.8207525202584
 21
-283.3218383789
 31
0.0
  0
LINE
  5
204
330
18
100
AcDbEntity
  8
PV0001_1
  6
Continuous
 48
0.5
370
    50
100
AcDbLine
 10
135.9989294001384
 20
-285.5
 30
0.0
 11
145.6425756403684
 21
-285.5
 31
0.0
  0
LINE
  5
205
330
18
100
AcDbEntity
  8
PV0001_1
  6
Continuous
 48
0.5
370
    50
100
AcDbLine
 10
135.9989294001384
 20
-271.5
 30
0.0
 11
145.6425756403684
 21
-271.5
 31
0.0
  0
LINE
  5
206
330
18
100
AcDbEntity
  8
PV0001_1
  6
Continuous
 48
0.5
370
    50
100
AcDbLine
 10
271.3207677790484
 20
-264.5
 30
0.0
 11
271.3207677790484
 21
-292.5
 31
0.0
  0
LINE
  5
207
330
18
100
AcDbEntity
  8
PV0001_1
  6
Continuous
370
    50
100
AcDbLine
 10
257.3207677790484
 20
-261.0
 30
0.0
 11
257.3207677790484
 21
-296.0
 31
0.0
  0
LINE
  5
208
330
18
100
AcDbEntity
  8
PV0001_1
  6
Continuous
370
    50
100
AcDbLine
 10
248.3207677790484
 20
-261.0
 30
0.0
 11
248.3207677790484
 21
-296.0
 31
0.0
  0
LINE
  5
209
330
18
100
AcDbEntity
  8
PV0001_1
  6
Continuous
 48
0.5
370
    50
100
AcDbLine
 10
241.3207677790484
 20
-271.5
 30
0.0
 11
241.3207677790484
 21
-285.5
 31
0.0
  0
LINE
  5
20A
330
18
100
AcDbEntity
  8
PV0001_1
  6
Continuous
 48
0.5
370
    50
100
AcDbLine
 10
271.3207677790484
 20
-264.5
 30
0.0
 11
257.3207677790484
 21
-264.5
 31
0.0
  0
LINE
  5
20B
330
18
100
AcDbEntity
  8
PV0001_1
  6
Continuous
 48
0.5
370
    50
100
AcDbLine
 10
271.3207677790484
 20
-292.5
 30
0.0
 11
257.3207677790484
 21
-292.5
 31
0.0
  0
LINE
  5
20C
330
18
100
AcDbEntity
  8
PV0001_1
  6
Continuous
 48
0.5
370
    50
100
AcDbLine
 10
257.3207677790484
 20
-296.0
 30
0.0
 11
248.3207677790484
 21
-296.0
 31
0.0
  0
LINE
  5
20D
330
18
100
AcDbEntity
  8
PV0001_1
  6
Continuous
 48
0.5
370
    50
100
AcDbLine
 10
257.3207677790484
 20
-261.0
 30
0.0
 11
248.3207677790484
 21
-261.0
 31
0.0
  0
LINE
  5
20E
330
18
100
AcDbEntity
  8
PV0001_1
  6
Continuous
 48
0.5
370
    50
100
AcDbLine
 10
247.3207677790484
 20
-271.5
 30
0.0
 11
241.3207677790484
 21
-271.5
 31
0.0
  0
LINE
  5
20F
330
18
100
AcDbEntity
  8
PV0001_1
  6
Continuous
 48
0.5
370
    50
100
AcDbLine
 10
247.3207677790484
 20
-285.5
 30
0.0
 11
241.3207677790484
 21
-285.5
 31
0.0
  0
LINE
  5
210
330
18
100
AcDbEntity
  8
PV0001_1
  6
Continuous
 48
0.5
370
    50
100
AcDbLine
 10
247.8207677790484
 20
-272.5
 30
0.0
 11
247.8207677790484
 21
-284.5
 31
0.0
  0
LINE
  5
211
330
18
100
AcDbEntity
  8
PV0001_1
  6
Continuous
 48
0.5
370
    50
100
AcDbLine
 10
247.3207677790484
 20
-271.5
 30
0.0
 11
247.3207677790484
 21
-285.5
 31
0.0
  0
LINE
  5
212
330
18
100
AcDbEntity
  8
PV0001_1
  6
Continuous
 48
0.5
370
    50
100
AcDbLine
 10
248.3207677790484
 20
-272.5
 30
0.0
 11
247.3207677790484
 21
-272.5
 31
0.0
  0
LINE
  5
213
330
18
100
AcDbEntity
  8
PV0001_1
  6
Continuous
 48
0.5
370
    50
100
AcDbLine
 10
248.3207677790484
 20
-284.5
 30
0.0
 11
247.3207677790484
 21
-284.5
 31
0.0
  0
LINE
  5
214
330
18
100
AcDbEntity
  8
PV0001_1
  6
CENTER2
 48
0.5
370
    25
100
AcDbLine
 10
258.9526647516984
 20
-290.87438964843
 30
0.0
 11
246.8234838434984
 21
-290.87438964843
 31
0.0
  0
LINE
  5
215
330
18
100
AcDbEntity
  8
PV0001_1
  6
DASHED2
 48
0.5
370
    50
100
AcDbLine
 10
252.3207677790484
 20
-294.12438964843
 30
0.0
 11
248.3207677790484
 21
-294.12438964843
 31
0.0
  0
LINE
  5
216
330
18
100
AcDbEntity
  8
PV0001_1
  6
DASHED2
 48
0.5
370
    50
100
AcDbLine
 10
252.3207677790484
 20
-287.62438964843
 30
0.0
 11
248.3207677790484
 21
-287.62438964843
 31
0.0
  0
LINE
  5
217
330
18
100
AcDbEntity
  8
PV0001_1
  6
DASHED2
 48
0.5
370
    50
100
AcDbLine
 10
257.3207677790484
 20
-292.57437133789
 30
0.0
 11
252.3207677790484
 21
-292.57437133789
 31
0.0
  0
LINE
  5
218
330
18
100
AcDbEntity
  8
PV0001_1
  6
DASHED2
 48
0.5
370
    50
100
AcDbLine
 10
257.3207677790484
 20
-289.1743774414
 30
0.0
 11
252.3207677790484
 21
-289.1743774414
 31
0.0
  0
LINE
  5
219
330
18
100
AcDbEntity
  8
PV0001_1
  6
DASHED2
 48
0.5
370
    50
100
AcDbLine
 10
252.3207677790484
 20
-287.62438964843
 30
0.0
 11
252.3207677790484
 21
-294.12438964843
 31
0.0
  0
LINE
  5
21A
330
18
100
AcDbEntity
  8
PV0001_1
  6
Continuous
 48
0.5
370
    50
100
AcDbLine
 10
436.3207677790485
 20
-320.0
 30
0.0
 11
436.3207677790485
 21
-325.5
 31
0.0
  0
LINE
  5
21B
330
18
100
AcDbEntity
  8
PV0001_1
  6
Continuous
 48
0.5
370
    50
100
AcDbLine
 10
442.3207677790484
 20
-320.0
 30
0.0
 11
442.3207677790484
 21
-325.64999389648
 31
0.0
  0
LINE
  5
21C
330
18
100
AcDbEntity
  8
PV0001_1
  6
Continuous
 48
0.5
370
    50
100
AcDbLine
 10
442.3207677790484
 20
-320.0
 30
0.0
 11
436.3207677790485
 21
-320.0
 31
0.0
  0
LINE
  5
21D
330
18
100
AcDbEntity
  8
PV0001_1
  6
Continuous
 48
0.5
370
    50
100
AcDbLine
 10
442.3207677790484
 20
-337.0
 30
0.0
 11
436.3207677790485
 21
-337.0
 31
0.0
  0
LINE
  5
21E
330
18
100
AcDbEntity
  8
PV0001_1
  6
Continuous
 48
0.5
370
    50
100
AcDbLine
 10
442.3207677790484
 20
-325.5
 30
0.0
 11
436.3207677790485
 21
-325.5
 31
0.0
  0
LINE
  5
21F
330
18
100
AcDbEntity
  8
PV0001_1
  6
Continuous
 48
0.5
370
    50
100
AcDbLine
 10
442.3207677790484
 20
-331.5
 30
0.0
 11
436.3207677790485
 21
-331.5
 31
0.0
  0
LINE
  5
220
330
18
100
AcDbEntity
  8
PV0001_1
  6
Continuous
 48
0.5
370
    50
100
AcDbLine
 10
442.3207677790484
 20
-331.35000610351
 30
0.0
 11
442.3207677790484
 21
-337.0
 31
0.0
  0
LINE
  5
221
330
18
100
AcDbEntity
  8
PV0001_1
  6
Continuous
 48
0.5
370
    50
100
AcDbLine
 10
436.3207677790485
 20
-331.5
 30
0.0
 11
436.3207677790485
 21
-337.0
 31
0.0
  0
LINE
  5
222
330
18
100
AcDbEntity
  8
PV0001_1
  6
Continuous
 48
0.5
370
    50
100
AcDbLine
 10
443.1207555720084
 20
-325.64999389648
 30
0.0
 11
442.3207677790484
 21
-325.64999389648
 31
0.0
  0
LINE
  5
223
330
18
100
AcDbEntity
  8
PV0001_1
  6
Continuous
 48
0.5
370
    50
100
AcDbLine
 10
443.1207555720084
 20
-331.35000610351
 30
0.0
 11
442.3207677790484
 21
-331.35000610351
 31
0.0
  0
LINE
  5
224
330
18
100
AcDbEntity
  8
PV0001_1
  6
Continuous
 48
0.5
370
    50
100
AcDbLine
 10
443.1207555720084
 20
-322.5
 30
0.0
 11
442.3207677790484
 21
-322.5
 31
0.0
  0
LINE
  5
225
330
18
100
AcDbEntity
  8
PV0001_1
  6
Continuous
 48
0.5
370
    50
100
AcDbLine
 10
443.1207555720084
 20
-334.5
 30
0.0
 11
442.3207677790484
 21
-334.5
 31
0.0
  0
LINE
  5
226
330
18
100
AcDbEntity
  8
PV0001_1
  6
Continuous
 48
0.5
370
    50
100
AcDbLine
 10
443.1207555720084
 20
-331.35000610351
 30
0.0
 11
443.1207555720084
 21
-334.5
 31
0.0
  0
LINE
  5
227
330
18
100
AcDbEntity
  8
PV0001_1
  6
Continuous
 48
0.5
370
    50
100
AcDbLine
 10
443.1207555720084
 20
-322.5
 30
0.0
 11
443.1207555720084
 21
-325.64999389648
 31
0.0
  0
LINE
  5
229
330
18
100
AcDbEntity
  8
PV0001_1
  6
PHANTOM2
 48
0.5
370
    25
100
AcDbLine
 10
275.3207677790484
 20
-322.75
 30
0.0
 11
267.3207677790484
 21
-322.75
 31
0.0
  0
LINE
  5
22A
330
18
100
AcDbEntity
  8
PV0001_1
  6
PHANTOM2
 48
0.5
370
    25
100
AcDbLine
 10
275.3207677790484
 20
-334.25
 30
0.0
 11
267.3207677790484
 21
-334.25
 31
0.0
  0
LINE
  5
22B
330
18
100
AcDbEntity
  8
PV0001_1
  6
PHANTOM2
 48
0.5
370
    25
100
AcDbLine
 10
267.1207555720084
 20
-324.5
 30
0.0
 11
240.3207677790484
 21
-324.5
 31
0.0
  0
LINE
  5
22C
330
18
100
AcDbEntity
  8
PV0001_1
  6
PHANTOM2
 48
0.5
370
    25
100
AcDbLine
 10
249.3207677790484
 20
-324.5
 30
0.0
 11
249.3207677790484
 21
-332.5
 31
0.0
  0
LINE
  5
22D
330
18
100
AcDbEntity
  8
PV0001_1
  6
PHANTOM2
 48
0.5
370
    25
100
AcDbLine
 10
240.3207677790484
 20
-324.5
 30
0.0
 11
240.3207677790484
 21
-332.5
 31
0.0
  0
LINE
  5
22E
330
18
100
AcDbEntity
  8
PV0001_1
  6
PHANTOM2
 48
0.5
370
    25
100
AcDbLine
 10
275.3207677790484
 20
-322.75
 30
0.0
 11
275.3207677790484
 21
-334.25
 31
0.0
  0
LINE
  5
22F
330
18
100
AcDbEntity
  8
PV0001_1
  6
PHANTOM2
 48
0.5
370
    25
100
AcDbLine
 10
240.3207677790484
 20
-325.5
 30
0.0
 11
230.3207677790484
 21
-325.5
 31
0.0
  0
LINE
  5
230
330
18
100
AcDbEntity
  8
PV0001_1
  6
PHANTOM2
 48
0.5
370
    25
100
AcDbLine
 10
240.3207677790484
 20
-331.5
 30
0.0
 11
230.3207677790484
 21
-331.5
 31
0.0
  0
LINE
  5
231
330
18
100
AcDbEntity
  8
PV0001_1
  6
PHANTOM2
 48
0.5
370
    25
100
AcDbLine
 10
267.1207555720084
 20
-332.5
 30
0.0
 11
240.3207677790484
 21
-332.5
 31
0.0
  0
LINE
  5
232
330
18
100
AcDbEntity
  8
PV0001_1
  6
PHANTOM2
 48
0.5
370
    25
100
AcDbLine
 10
230.3207677790484
 20
-325.5
 30
0.0
 11
230.3207677790484
 21
-331.5
 31
0.0
  0
LINE
  5
233
330
18
100
AcDbEntity
  8
PV0001_1
  6
PHANTOM2
 48
0.5
370
    25
100
AcDbLine
 10
267.3207677790484
 20
-322.75
 30
0.0
 11
267.3207677790484
 21
-334.25
 31
0.0
  0
LINE
  5
235
330
18
100
AcDbEntity
  8
PV0001_1
  6
PHANTOM2
 48
0.5
370
    25
100
AcDbLine
 10
249.3207677790484
 20
-325.12899780273
 30
0.0
 11
250.4102148005284
 21
-324.5
 31
0.0
  0
LINE
  5
236
330
18
100
AcDbEntity
  8
PV0001_1
  6
PHANTOM2
 48
0.5
370
    25
100
AcDbLine
 10
249.3207982966184
 20
-331.87100219726
 30
0.0
 11
250.4102453181084
 21
-332.5
 31
0.0
  0
LINE
  5
237
330
18
100
AcDbEntity
  8
PV0001_1
  6
PHANTOM2
 48
0.5
370
    25
100
AcDbLine
 10
249.3207677790484
 20
-331.87100219726
 30
0.0
 11
240.3207677790484
 21
-331.87100219726
 31
0.0
  0
LINE
  5
238
330
18
100
AcDbEntity
  8
PV0001_1
  6
PHANTOM2
 48
0.5
370
    25
100
AcDbLine
 10
249.3207677790484
 20
-325.12899780273
 30
0.0
 11
240.3207677790484
 21
-325.12899780273
 31
0.0
  0
LINE
  5
239
330
18
100
AcDbEntity
  8
PV0001_1
  6
Continuous
 48
0.5
370
    50
100
AcDbLine
 10
249.3207677790484
 20
-342.5
 30
0.0
 11
249.3207677790484
 21
-314.5
 31
0.0
  0
LINE
  5
23A
330
18
100
AcDbEntity
  8
PV0001_1
  6
Continuous
370
    50
100
AcDbLine
 10
263.3207677790484
 20
-346.0
 30
0.0
 11
263.3207677790484
 21
-311.0
 31
0.0
  0
LINE
  5
23B
330
18
100
AcDbEntity
  8
PV0001_1
  6
Continuous
370
    50
100
AcDbLine
 10
272.3207677790484
 20
-346.0
 30
0.0
 11
272.3207677790484
 21
-311.0
 31
0.0
  0
LINE
  5
23C
330
18
100
AcDbEntity
  8
PV0001_1
  6
Continuous
 48
0.5
370
    50
100
AcDbLine
 10
241.3207677790484
 20
-321.5
 30
0.0
 11
241.3207677790484
 21
-335.5
 31
0.0
  0
LINE
  5
23D
330
18
100
AcDbEntity
  8
PV0001_1
  6
Continuous
 48
0.5
370
    50
100
AcDbLine
 10
249.3207677790484
 20
-342.5
 30
0.0
 11
263.3207677790484
 21
-342.5
 31
0.0
  0
LINE
  5
23E
330
18
100
AcDbEntity
  8
PV0001_1
  6
Continuous
 48
0.5
370
    50
100
AcDbLine
 10
249.3207677790484
 20
-314.5
 30
0.0
 11
263.3207677790484
 21
-314.5
 31
0.0
  0
LINE
  5
23F
330
18
100
AcDbEntity
  8
PV0001_1
  6
Continuous
 48
0.5
370
    50
100
AcDbLine
 10
263.3207677790484
 20
-311.0
 30
0.0
 11
272.3207677790484
 21
-311.0
 31
0.0
  0
LINE
  5
240
330
18
100
AcDbEntity
  8
PV0001_1
  6
Continuous
 48
0.5
370
    50
100
AcDbLine
 10
263.3207677790484
 20
-346.0
 30
0.0
 11
272.3207677790484
 21
-346.0
 31
0.0
  0
LINE
  5
241
330
18
100
AcDbEntity
  8
PV0001_1
  6
Continuous
 48
0.5
370
    50
100
AcDbLine
 10
247.3207677790484
 20
-321.5
 30
0.0
 11
241.3207677790484
 21
-321.5
 31
0.0
  0
LINE
  5
242
330
18
100
AcDbEntity
  8
PV0001_1
  6
Continuous
 48
0.5
370
    50
100
AcDbLine
 10
247.3207677790484
 20
-335.5
 30
0.0
 11
241.3207677790484
 21
-335.5
 31
0.0
  0
LINE
  5
243
330
18
100
AcDbEntity
  8
PV0001_1
  6
Continuous
 48
0.5
370
    50
100
AcDbLine
 10
247.8207677790484
 20
-322.5
 30
0.0
 11
247.8207677790484
 21
-334.5
 31
0.0
  0
LINE
  5
244
330
18
100
AcDbEntity
  8
PV0001_1
  6
Continuous
 48
0.5
370
    50
100
AcDbLine
 10
247.3207677790484
 20
-321.5
 30
0.0
 11
247.3207677790484
 21
-335.5
 31
0.0
  0
LINE
  5
245
330
18
100
AcDbEntity
  8
PV0001_1
  6
Continuous
 48
0.5
370
    50
100
AcDbLine
 10
249.3207677790484
 20
-322.5
 30
0.0
 11
247.3207677790484
 21
-322.5
 31
0.0
  0
LINE
  5
246
330
18
100
AcDbEntity
  8
PV0001_1
  6
Continuous
 48
0.5
370
    50
100
AcDbLine
 10
249.3207677790484
 20
-334.5
 30
0.0
 11
247.3207677790484
 21
-334.5
 31
0.0
  0
LINE
  5
247
330
18
100
AcDbEntity
  8
PV0001_1
  6
CENTER2
 48
0.5
370
    25
100
AcDbLine
 10
261.6888708063884
 20
-316.12561035156
 30
0.0
 11
273.8180517145884
 21
-316.12561035156
 31
0.0
  0
LINE
  5
248
330
18
100
AcDbEntity
  8
PV0001_1
  6
DASHED2
 48
0.5
370
    50
100
AcDbLine
 10
268.3207677790484
 20
-312.87561035156
 30
0.0
 11
272.3207677790484
 21
-312.87561035156
 31
0.0
  0
LINE
  5
249
330
18
100
AcDbEntity
  8
PV0001_1
  6
DASHED2
 48
0.5
370
    50
100
AcDbLine
 10
268.3207677790484
 20
-319.37561035156
 30
0.0
 11
272.3207677790484
 21
-319.37561035156
 31
0.0
  0
LINE
  5
24A
330
18
100
AcDbEntity
  8
PV0001_1
  6
DASHED2
 48
0.5
370
    50
100
AcDbLine
 10
263.3207677790484
 20
-314.4256286621
 30
0.0
 11
268.3207677790484
 21
-314.4256286621
 31
0.0
  0
LINE
  5
24B
330
18
100
AcDbEntity
  8
PV0001_1
  6
DASHED2
 48
0.5
370
    50
100
AcDbLine
 10
263.3207677790484
 20
-317.82562255859
 30
0.0
 11
268.3207677790484
 21
-317.82562255859
 31
0.0
  0
LINE
  5
24C
330
18
100
AcDbEntity
  8
PV0001_1
  6
DASHED2
 48
0.5
370
    50
100
AcDbLine
 10
268.3207677790484
 20
-319.37561035156
 30
0.0
 11
268.3207677790484
 21
-312.87561035156
 31
0.0
  0
LINE
  5
24D
330
18
100
AcDbEntity
  8
PV0001_1
  6
Continuous
 48
0.5
370
    50
100
AcDbLine
 10
249.3207677790484
 20
-321.5
 30
0.0
 11
249.3207677790484
 21
-335.5
 31
0.0
  0
LINE
  5
24E
330
18
100
AcDbEntity
  8
PV0001_1
  6
Continuous
370
    50
100
AcDbLine
 10
688.0
 20
0.0
 30
0.0
 11
688.0
 21
-386.0
 31
0.0
  0
LINE
  5
24F
330
18
100
AcDbEntity
  8
PV0001_1
  6
Continuous
370
    50
100
AcDbLine
 10
0.0
 20
-386.0
 30
0.0
 11
688.0
 21
-386.0
 31
0.0
  0
LINE
  5
250
330
18
100
AcDbEntity
  8
PV0001_1
  6
Continuous
 48
0.5
370
    50
100
AcDbLine
 10
289.30798339843
 20
0.0
 30
0.0
 11
289.30798339843
 21
-12.0
 31
0.0
  0
LINE
  5
251
330
18
100
AcDbEntity
  8
PV0001_1
  6
CENTER2
 48
0.5
370
    25
100
AcDbLine
 10
262.46533203125
 20
-6.0
 30
0.0
 11
270.05261230468
 21
-6.0
 31
0.0
  0
LINE
  5
252
330
18
100
AcDbEntity
  8
PV0001_1
  6
CENTER2
 48
0.5
370
    25
100
AcDbLine
 10
266.30798339843
 20
-2.055191040039099
 30
0.0
 11
266.30798339843
 21
-9.732879638671899
 31
0.0
  0
LINE
  5
253
330
18
100
AcDbEntity
  8
PV0001_1
  6
CENTER2
 48
0.5
370
    25
100
AcDbLine
 10
274.3935546875
 20
-6.0
 30
0.0
 11
282.82943725585
 21
-6.0
 31
0.0
  0
LINE
  5
254
330
18
100
AcDbEntity
  8
PV0001_1
  6
Continuous
 48
0.5
370
   100
100
AcDbLine
 10
275.23599243164
 20
-4.380343914032
 30
0.0
 11
281.71600341796
 21
-3.300341606140099
 31
0.0
  0
LINE
  5
255
330
18
100
AcDbEntity
  8
PV0001_1
  6
Continuous
 48
0.5
370
   100
100
AcDbLine
 10
275.23596191406
 20
-4.3800048828125
 30
0.0
 11
275.23596191406
 21
-7.620040893554699
 31
0.0
  0
LINE
  5
256
330
18
100
AcDbEntity
  8
PV0001_1
  6
Continuous
 48
0.5
370
   100
100
AcDbLine
 10
275.23599243164
 20
-7.620386123657199
 30
0.0
 11
281.71597290039
 21
-8.7003831863403
 31
0.0
  0
LINE
  5
257
330
18
100
AcDbEntity
  8
PV0001_1
  6
Continuous
 48
0.5
370
   100
100
AcDbLine
 10
281.71597290039
 20
-3.3000030517578
 30
0.0
 11
281.71597290039
 21
-8.699996948242199
 31
0.0
  0
LINE
  5
258
330
18
100
AcDbEntity
  8
PV0001_1
  6
Continuous
 48
0.5
370
    50
100
AcDbLine
 10
259.30798339843
 20
0.0
 30
0.0
 11
259.30798339843
 21
-12.0
 31
0.0
  0
ARC
  5
259
330
18
100
AcDbEntity
  8
PV0001_1
  6
Continuous
 48
0.5
370
    50
100
AcDbCircle
 10
7.472381591796899
 20
-5.6104583740234
 30
0.0
 40
0.2000000029802
100
AcDbArc
 50
135.0000549831359
 51
220.6012585677736
  0
ARC
  5
25A
330
18
100
AcDbEntity
  8
PV0001_1
  6
Continuous
 48
0.5
370
    50
100
AcDbCircle
 10
5.7021789550781
 20
-5.199996948242199
 30
0.0
 40
0.2000000029802
100
AcDbArc
 50
270.0000179860904
 51
322.1249959578259
  0
ARC
  5
25B
330
18
100
AcDbEntity
  8
PV0001_1
  6
Continuous
 48
0.5
370
    50
100
AcDbCircle
 10
5.699996948242199
 20
-6.199996948242199
 30
0.0
 40
0.2000000029802
100
AcDbArc
 50
36.86990755486351
 51
89.99998201390964
  0
ARC
  5
25C
330
18
100
AcDbEntity
  8
PV0001_1
  6
Continuous
 48
0.5
370
    50
100
AcDbCircle
 10
4.8000030517578
 20
-5.199996948242199
 30
0.0
 40
0.2000000029802
100
AcDbArc
 50
179.9999776881987
 51
270.0000280040004
  0
ARC
  5
25D
330
18
100
AcDbEntity
  8
PV0001_1
  6
Continuous
 48
0.5
370
    50
100
AcDbCircle
 10
4.8000030517578
 20
-6.199996948242199
 30
0.0
 40
0.2000000029802
100
AcDbArc
 50
89.99998201390964
 51
179.9999640278192
  0
ARC
  5
25E
330
18
100
AcDbEntity
  8
PV0001_1
  6
Continuous
 48
0.5
370
    50
100
AcDbCircle
 10
10.800003051757
 20
-7.199996948242199
 30
0.0
 40
1.2000000476837
100
AcDbArc
 50
179.9999776881987
 51
270.0000280040004
  0
ARC
  5
25F
330
18
100
AcDbEntity
  8
PV0001_1
  6
Continuous
 48
0.5
370
    50
100
AcDbCircle
 10
14.600006103515
 20
-7.199996948242199
 30
0.0
 40
1.2000000476837
100
AcDbArc
 50
270.0000179860904
 51
0.0
  0
ARC
  5
260
330
18
100
AcDbEntity
  8
PV0001_1
  6
Continuous
 48
0.5
370
    50
100
AcDbCircle
 10
13.800003051757
 20
-7.0
 30
0.0
 40
0.6000000238419
100
AcDbArc
 50
270.0000179860904
 51
0.0
  0
ARC
  5
261
330
18
100
AcDbEntity
  8
PV0001_1
  6
Continuous
 48
0.5
370
    50
100
AcDbCircle
 10
11.600006103515
 20
-7.0
 30
0.0
 40
0.6000000238419
100
AcDbArc
 50
179.9999776881987
 51
270.0000280040004
  0
ARC
  5
262
330
18
100
AcDbEntity
  8
PV0001_1
  6
Continuous
 48
0.5
370
    50
100
AcDbCircle
 10
20.5
 20
-8.399993896484399
 30
0.0
 40
2.0
100
AcDbArc
 50
0.0
 51
54.42673123145972
  0
ARC
  5
263
330
18
100
AcDbEntity
  8
PV0001_1
  6
Continuous
 48
0.5
370
    50
100
AcDbCircle
 10
21.0
 20
-5.099990844726599
 30
0.0
 40
1.5
100
AcDbArc
 50
0.0
 51
89.99998201390964
  0
ARC
  5
264
330
18
100
AcDbEntity
  8
PV0001_1
  6
Continuous
 48
0.5
370
    50
100
AcDbCircle
 10
21.0
 20
-5.099990844726599
 30
0.0
 40
1.5
100
AcDbArc
 50
297.304990098971
 51
0.0
  0
ARC
  5
265
330
18
100
AcDbEntity
  8
PV0001_1
  6
Continuous
 48
0.5
370
    50
100
AcDbCircle
 10
18.300003051757
 20
-7.199996948242199
 30
0.0
 40
0.4000000059605
100
AcDbArc
 50
89.99998201390964
 51
179.9999640278192
  0
ARC
  5
266
330
18
100
AcDbEntity
  8
PV0001_1
  6
Continuous
 48
0.5
370
    50
100
AcDbCircle
 10
20.199996948242
 20
-7.399993896484399
 30
0.0
 40
0.6000000238419
100
AcDbArc
 50
0.0
 51
89.99998201390964
  0
ARC
  5
267
330
18
100
AcDbEntity
  8
PV0001_1
  6
Continuous
 48
0.5
370
    50
100
AcDbCircle
 10
21.779830932617
 20
-6.6105804443359
 30
0.0
 40
0.2000000029802
100
AcDbArc
 50
117.3049472966005
 51
234.4267362404176
  0
ARC
  5
268
330
18
100
AcDbEntity
  8
PV0001_1
  6
Continuous
 48
0.5
370
    50
100
AcDbCircle
 10
18.100006103515
 20
-4.399993896484399
 30
0.0
 40
0.2000000029802
100
AcDbArc
 50
89.99998201390964
 51
179.9999640278192
  0
ARC
  5
269
330
18
100
AcDbEntity
  8
PV0001_1
  6
Continuous
 48
0.5
370
    50
100
AcDbCircle
 10
18.100006103515
 20
-5.899993896484399
 30
0.0
 40
0.2000000029802
100
AcDbArc
 50
179.9999776881987
 51
270.0000280040004
  0
ARC
  5
26A
330
18
100
AcDbEntity
  8
PV0001_1
  6
Continuous
 48
0.5
370
    50
100
AcDbCircle
 10
20.199996948242
 20
-5.5
 30
0.0
 40
0.6000000238419
100
AcDbArc
 50
270.0000179860904
 51
0.0
  0
ARC
  5
26B
330
18
100
AcDbEntity
  8
PV0001_1
  6
Continuous
 48
0.5
370
    50
100
AcDbCircle
 10
20.199996948242
 20
-4.799987792968799
 30
0.0
 40
0.6000000238419
100
AcDbArc
 50
0.0
 51
89.99998201390964
  0
ARC
  5
26C
330
18
100
AcDbEntity
  8
PV0001_1
  6
Continuous
 48
0.5
370
    50
100
AcDbCircle
 10
24.199996948242
 20
-7.0
 30
0.0
 40
1.399999976158099
100
AcDbArc
 50
179.9999776881987
 51
270.0000280040004
  0
ARC
  5
26D
330
18
100
AcDbEntity
  8
PV0001_1
  6
Continuous
 48
0.5
370
    50
100
AcDbCircle
 10
28.0
 20
-7.0
 30
0.0
 40
1.399999976158099
100
AcDbArc
 50
270.0000179860904
 51
0.0
  0
ARC
  5
26E
330
18
100
AcDbEntity
  8
PV0001_1
  6
Continuous
 48
0.5
370
    50
100
AcDbCircle
 10
28.0
 20
-5.0
 30
0.0
 40
1.399999976158099
100
AcDbArc
 50
0.0
 51
89.99998201390964
  0
ARC
  5
26F
330
18
100
AcDbEntity
  8
PV0001_1
  6
Continuous
 48
0.5
370
    50
100
AcDbCircle
 10
24.199996948242
 20
-5.0
 30
0.0
 40
1.399999976158099
100
AcDbArc
 50
89.99998201390964
 51
179.9999640278192
  0
ARC
  5
270
330
18
100
AcDbEntity
  8
PV0001_1
  6
Continuous
 48
0.5
370
    50
100
AcDbCircle
 10
25.199996948242
 20
-5.0
 30
0.0
 40
0.8000000119209
100
AcDbArc
 50
89.99998201390964
 51
179.9999640278192
  0
ARC
  5
271
330
18
100
AcDbEntity
  8
PV0001_1
  6
Continuous
 48
0.5
370
    50
100
AcDbCircle
 10
25.199996948242
 20
-6.799987792968799
 30
0.0
 40
0.8000000119209
100
AcDbArc
 50
179.9999776881987
 51
270.0000280040004
  0
ARC
  5
272
330
18
100
AcDbEntity
  8
PV0001_1
  6
Continuous
 48
0.5
370
    50
100
AcDbCircle
 10
27.0
 20
-6.799987792968799
 30
0.0
 40
0.8000000119209
100
AcDbArc
 50
270.0000179860904
 51
0.0
  0
ARC
  5
273
330
18
100
AcDbEntity
  8
PV0001_1
  6
Continuous
 48
0.5
370
    50
100
AcDbCircle
 10
27.0
 20
-5.0
 30
0.0
 40
0.8000000119209
100
AcDbArc
 50
0.0
 51
89.99998201390964
  0
ARC
  5
274
330
18
100
AcDbEntity
  8
PV0001_1
  6
Continuous
 48
0.5
370
    50
100
AcDbCircle
 10
31.600006103515
 20
-4.399993896484399
 30
0.0
 40
0.2000000029802
100
AcDbArc
 50
89.99998201390964
 51
179.9999640278192
  0
ARC
  5
275
330
18
100
AcDbEntity
  8
PV0001_1
  6
Continuous
 48
0.5
370
    50
100
AcDbCircle
 10
31.600006103515
 20
-7.399993896484399
 30
0.0
 40
0.2000000029802
100
AcDbArc
 50
179.9999776881987
 51
270.0000280040004
  0
ARC
  5
276
330
18
100
AcDbEntity
  8
PV0001_1
  6
Continuous
 48
0.5
370
    50
100
AcDbCircle
 10
33.80000305175701
 20
-6.799987792968799
 30
0.0
 40
0.8000000119209
100
AcDbArc
 50
270.0000179860904
 51
0.0
  0
ARC
  5
277
330
18
100
AcDbEntity
  8
PV0001_1
  6
Continuous
 48
0.5
370
    50
100
AcDbCircle
 10
33.80000305175701
 20
-5.0
 30
0.0
 40
0.8000000119209
100
AcDbArc
 50
0.0
 51
89.99998201390964
  0
ARC
  5
278
330
18
100
AcDbEntity
  8
PV0001_1
  6
Continuous
 48
0.5
370
    50
100
AcDbCircle
 10
34.800003051757
 20
-6.9999847412109
 30
0.0
 40
1.399999976158099
100
AcDbArc
 50
270.0000179860904
 51
0.0
  0
ARC
  5
279
330
18
100
AcDbEntity
  8
PV0001_1
  6
Continuous
 48
0.5
370
    50
100
AcDbCircle
 10
34.800003051757
 20
-5.0
 30
0.0
 40
1.399999976158099
100
AcDbArc
 50
0.0
 51
89.99998201390964
  0
ARC
  5
27A
330
18
100
AcDbEntity
  8
PV0001_1
  6
Continuous
 48
0.5
370
    50
100
AcDbCircle
 10
38.677490234375
 20
-6.399993896484399
 30
0.0
 40
0.2000000029802
100
AcDbArc
 50
161.5650375711494
 51
270.000000683247
  0
ARC
  5
27B
330
18
100
AcDbEntity
  8
PV0001_1
  6
Continuous
 48
0.5
370
    50
100
AcDbCircle
 10
40.92251586914
 20
-6.399993896484399
 30
0.0
 40
0.2000000029802
100
AcDbArc
 50
270.0000179860904
 51
18.4348803528989
  0
ARC
  5
27C
330
18
100
AcDbEntity
  8
PV0001_1
  6
Continuous
 48
0.5
370
    50
100
AcDbCircle
 10
39.344146728515
 20
-4.399993896484399
 30
0.0
 40
0.2000000029802
100
AcDbArc
 50
89.99998201390964
 51
161.5651331937947
  0
ARC
  5
27D
330
18
100
AcDbEntity
  8
PV0001_1
  6
Continuous
 48
0.5
370
    50
100
AcDbCircle
 10
40.25585937499999
 20
-4.399993896484399
 30
0.0
 40
0.2000000029802
100
AcDbArc
 50
18.43505281517194
 51
89.99998201390964
  0
ARC
  5
27E
330
18
100
AcDbEntity
  8
PV0001_1
  6
Continuous
 48
0.5
370
    50
100
AcDbCircle
 10
38.27749633789
 20
-7.599990844726599
 30
0.0
 40
0.2000000029802
100
AcDbArc
 50
89.99998201390964
 51
161.5650102503904
  0
ARC
  5
27F
330
18
100
AcDbEntity
  8
PV0001_1
  6
Continuous
 48
0.5
370
    50
100
AcDbCircle
 10
41.322509765625
 20
-7.599990844726599
 30
0.0
 40
0.2000000029802
100
AcDbArc
 50
18.4348803528989
 51
89.99998201390964
  0
ARC
  5
280
330
18
100
AcDbEntity
  8
PV0001_1
  6
Continuous
 48
0.5
370
    50
100
AcDbCircle
 10
140.8207525202584
 20
-138.5
 30
0.0
 40
18.0
100
AcDbArc
 50
38.9424396660435
 51
51.05756625352745
  0
ARC
  5
281
330
18
100
AcDbEntity
  8
PV0001_1
  6
Continuous
 48
0.5
370
    50
100
AcDbCircle
 10
140.8207525202584
 20
-138.5
 30
0.0
 40
18.0
100
AcDbArc
 50
128.9424558309019
 51
141.0575858334779
  0
ARC
  5
282
330
18
100
AcDbEntity
  8
PV0001_1
  6
Continuous
 48
0.5
370
    50
100
AcDbCircle
 10
140.8207525202584
 20
-138.5
 30
0.0
 40
18.0
100
AcDbArc
 50
218.9424141665221
 51
231.0575441690981
  0
ARC
  5
283
330
18
100
AcDbEntity
  8
PV0001_1
  6
Continuous
 48
0.5
370
    50
100
AcDbCircle
 10
140.8207525202584
 20
-138.5
 30
0.0
 40
18.0
100
AcDbArc
 50
308.9424337464726
 51
321.0575603339565
  0
CIRCLE
  5
284
330
18
100
AcDbEntity
  8
PV0001_1
  6
Continuous
 48
0.5
370
    50
100
AcDbCircle
 10
140.8207525202584
 20
-138.5
 30
0.0
 40
4.0
  0
CIRCLE
  5
285
330
18
100
AcDbEntity
  8
PV0001_1
  6
CENTER2
370
    25
100
AcDbCircle
 10
140.8207525202584
 20
-138.5
 30
0.0
 40
13.5
  0
CIRCLE
  5
286
330
18
100
AcDbEntity
  8
PV0001_1
  6
Continuous
 48
0.5
370
    50
100
AcDbCircle
 10
150.3666967341184
 20
-128.9540557861299
 30
0.0
 40
1.7000000476837
  0
CIRCLE
  5
287
330
18
100
AcDbEntity
  8
PV0001_1
  6
Continuous
 48
0.5
370
    50
100
AcDbCircle
 10
131.2748083063884
 20
-128.9540557861299
 30
0.0
 40
1.7000000476837
  0
CIRCLE
  5
288
330
18
100
AcDbEntity
  8
PV0001_1
  6
Continuous
 48
0.5
370
    50
100
AcDbCircle
 10
131.2748083063884
 20
-148.0459442138599
 30
0.0
 40
1.7000000476837
  0
CIRCLE
  5
289
330
18
100
AcDbEntity
  8
PV0001_1
  6
Continuous
 48
0.5
370
    50
100
AcDbCircle
 10
150.3666967341184
 20
-148.0459442138599
 30
0.0
 40
1.7000000476837
  0
CIRCLE
  5
28A
330
18
100
AcDbEntity
  8
PV0001_1
  6
Continuous
 48
0.5
370
    50
100
AcDbCircle
 10
150.3666967341184
 20
-128.9540557861299
 30
0.0
 40
3.25
  0
CIRCLE
  5
28B
330
18
100
AcDbEntity
  8
PV0001_1
  6
Continuous
 48
0.5
370
    50
100
AcDbCircle
 10
131.2748083063884
 20
-128.9540557861299
 30
0.0
 40
3.25
  0
CIRCLE
  5
28C
330
18
100
AcDbEntity
  8
PV0001_1
  6
Continuous
 48
0.5
370
    50
100
AcDbCircle
 10
131.2748083063884
 20
-148.0459442138599
 30
0.0
 40
3.25
  0
CIRCLE
  5
28D
330
18
100
AcDbEntity
  8
PV0001_1
  6
Continuous
 48
0.5
370
    50
100
AcDbCircle
 10
150.3666967341184
 20
-148.0459442138599
 30
0.0
 40
3.25
  0
ARC
  5
28E
330
18
100
AcDbEntity
  8
PV0001_1
  6
Continuous
 48
0.5
370
    50
100
AcDbCircle
 10
273.3207677790484
 20
-38.49999999999999
 30
0.0
 40
5.75
100
AcDbArc
 50
209.5918442116371
 51
330.4081541945028
  0
ARC
  5
28F
330
18
100
AcDbEntity
  8
PV0001_1
  6
Continuous
 48
0.5
370
    50
100
AcDbCircle
 10
273.3207677790484
 20
-38.49999999999999
 30
0.0
 40
5.75
100
AcDbArc
 50
29.59184580549722
 51
150.4081557883629
  0
CIRCLE
  5
290
330
18
100
AcDbEntity
  8
PV0001_1
  6
Continuous
 48
0.5
370
    50
100
AcDbCircle
 10
130.8207525202584
 20
-217.5000152587799
 30
0.0
 40
2.75
  0
CIRCLE
  5
291
330
18
100
AcDbEntity
  8
PV0001_1
  6
Continuous
 48
0.5
370
    50
100
AcDbCircle
 10
144.8207372614684
 20
-217.49998474121
 30
0.0
 40
2.75
  0
CIRCLE
  5
292
330
18
100
AcDbEntity
  8
PV0001_1
  6
Continuous
 48
0.5
370
    50
100
AcDbCircle
 10
144.8207372614684
 20
-179.5000152587799
 30
0.0
 40
2.75
  0
CIRCLE
  5
293
330
18
100
AcDbEntity
  8
PV0001_1
  6
Continuous
 48
0.5
370
    50
100
AcDbCircle
 10
130.8207525202584
 20
-179.5000152587799
 30
0.0
 40
2.75
  0
CIRCLE
  5
294
330
18
100
AcDbEntity
  8
PV0001_1
  6
Continuous
370
    50
100
AcDbCircle
 10
140.8207525202584
 20
-198.5
 30
0.0
 40
11.94250011444
  0
CIRCLE
  5
295
330
18
100
AcDbEntity
  8
PV0001_1
  6
Continuous
370
    25
100
AcDbCircle
 10
140.8207525202584
 20
-198.5
 30
0.0
 40
11.36600112915
  0
ARC
  5
296
330
18
100
AcDbEntity
  8
PV0001_1
  6
Continuous
 48
0.5
370
    50
100
AcDbCircle
 10
140.8207525202584
 20
-198.5
 30
0.0
 40
8.5
100
AcDbArc
 50
214.5603150591985
 51
235.4396705971749
  0
ARC
  5
297
330
18
100
AcDbEntity
  8
PV0001_1
  6
Continuous
 48
0.5
370
    50
100
AcDbCircle
 10
140.8207525202584
 20
-198.5
 30
0.0
 40
8.5
100
AcDbArc
 50
304.5603380542468
 51
325.4396935922232
  0
ARC
  5
298
330
18
100
AcDbEntity
  8
PV0001_1
  6
Continuous
 48
0.5
370
    50
100
AcDbCircle
 10
140.8207525202584
 20
-198.5
 30
0.0
 40
8.5
100
AcDbArc
 50
34.56028250211552
 51
55.43962437971237
  0
ARC
  5
299
330
18
100
AcDbEntity
  8
PV0001_1
  6
Continuous
 48
0.5
370
    50
100
AcDbCircle
 10
140.8207525202584
 20
-198.5
 30
0.0
 40
8.5
100
AcDbArc
 50
124.5603157424455
 51
145.4396712804219
  0
CIRCLE
  5
29A
330
18
100
AcDbEntity
  8
PV0001_1
  6
CENTER2
370
    25
100
AcDbCircle
 10
140.8207525202584
 20
-198.5
 30
0.0
 40
9.0
  0
CIRCLE
  5
29B
330
18
100
AcDbEntity
  8
PV0001_1
  6
Continuous
 48
0.5
370
    50
100
AcDbCircle
 10
131.8207677790484
 20
-198.5
 30
0.0
 40
1.399999976158099
  0
CIRCLE
  5
29C
330
18
100
AcDbEntity
  8
PV0001_1
  6
Continuous
 48
0.5
370
    50
100
AcDbCircle
 10
140.8207525202584
 20
-207.49998474121
 30
0.0
 40
1.399999976158099
  0
CIRCLE
  5
29D
330
18
100
AcDbEntity
  8
PV0001_1
  6
Continuous
 48
0.5
370
    50
100
AcDbCircle
 10
149.8207372614684
 20
-198.5
 30
0.0
 40
1.399999976158099
  0
CIRCLE
  5
29E
330
18
100
AcDbEntity
  8
PV0001_1
  6
Continuous
 48
0.5
370
    50
100
AcDbCircle
 10
140.8207525202584
 20
-189.5000152587799
 30
0.0
 40
1.399999976158099
  0
CIRCLE
  5
29F
330
18
100
AcDbEntity
  8
PV0001_1
  6
Continuous
370
    50
100
AcDbCircle
 10
259.8207677790484
 20
-217.49998474121
 30
0.0
 40
5.5
  0
CIRCLE
  5
2A0
330
18
100
AcDbEntity
  8
PV0001_1
  6
Continuous
 48
0.5
370
    50
100
AcDbCircle
 10
259.8207677790484
 20
-217.49998474121
 30
0.0
 40
3.2999999523163
  0
CIRCLE
  5
2A1
330
18
100
AcDbEntity
  8
PV0001_1
  6
Continuous
370
    50
100
AcDbCircle
 10
259.8207677790484
 20
-179.49998474121
 30
0.0
 40
5.5
  0
CIRCLE
  5
2A2
330
18
100
AcDbEntity
  8
PV0001_1
  6
Continuous
 48
0.5
370
    50
100
AcDbCircle
 10
259.8207677790484
 20
-179.49998474121
 30
0.0
 40
3.2999999523163
  0
CIRCLE
  5
2A3
330
18
100
AcDbEntity
  8
PV0001_1
  6
Continuous
 48
0.5
370
    50
100
AcDbCircle
 10
439.3207982966184
 20
-217.50003051757
 30
0.0
 40
3.2999999523163
  0
CIRCLE
  5
2A4
330
18
100
AcDbEntity
  8
PV0001_1
  6
Continuous
 48
0.5
370
    50
100
AcDbCircle
 10
439.3207982966184
 20
-179.5000152587799
 30
0.0
 40
3.2999999523163
  0
CIRCLE
  5
2A5
330
18
100
AcDbEntity
  8
PV0001_1
  6
Continuous
370
    50
100
AcDbCircle
 10
439.3207982966184
 20
-179.5000152587799
 30
0.0
 40
5.5
  0
CIRCLE
  5
2A6
330
18
100
AcDbEntity
  8
PV0001_1
  6
Continuous
370
    50
100
AcDbCircle
 10
439.3207982966184
 20
-217.50003051757
 30
0.0
 40
5.5
  0
CIRCLE
  5
2A7
330
18
100
AcDbEntity
  8
PV0001_1
  6
Continuous
370
    50
100
AcDbCircle
 10
550.3207677790483
 20
-198.5
 30
0.0
 40
8.5
  0
ARC
  5
2A8
330
18
100
AcDbEntity
  8
PV0001_1
  6
PHANTOM2
 48
0.5
370
    25
100
AcDbCircle
 10
267.1207555720084
 20
-282.70001220703
 30
0.0
 40
0.2000000029802
100
AcDbArc
 50
0.0
 51
89.99998201390964
  0
ARC
  5
2A9
330
18
100
AcDbEntity
  8
PV0001_1
  6
PHANTOM2
 48
0.5
370
    25
100
AcDbCircle
 10
267.1207555720084
 20
-274.29998779296
 30
0.0
 40
0.2000000029802
100
AcDbArc
 50
269.999963344578
 51
0.0
  0
ARC
  5
2AA
330
18
100
AcDbEntity
  8
PV0001_1
  6
Continuous
 48
0.5
370
    50
100
AcDbCircle
 10
140.8207525202584
 20
-278.5
 30
0.0
 40
21.5
100
AcDbArc
 50
125.5159548299782
 51
144.4839912117506
  0
CIRCLE
  5
2AB
330
18
100
AcDbEntity
  8
PV0001_1
  6
CENTER2
370
    25
100
AcDbCircle
 10
140.8207525202584
 20
-278.5
 30
0.0
 40
17.5
  0
ARC
  5
2AC
330
18
100
AcDbEntity
  8
PV0001_1
  6
Continuous
 48
0.5
370
    50
100
AcDbCircle
 10
140.8207525202584
 20
-278.5
 30
0.0
 40
21.5
100
AcDbArc
 50
35.51593183493575
 51
54.48396821670812
  0
ARC
  5
2AD
330
18
100
AcDbEntity
  8
PV0001_1
  6
Continuous
 48
0.5
370
    50
100
AcDbCircle
 10
140.8207525202584
 20
-278.5
 30
0.0
 40
21.5
100
AcDbArc
 50
305.5159634813999
 51
324.4840135235519
  0
ARC
  5
2AE
330
18
100
AcDbEntity
  8
PV0001_1
  6
Continuous
 48
0.5
370
    50
100
AcDbCircle
 10
140.8207525202584
 20
-278.5
 30
0.0
 40
21.5
100
AcDbArc
 50
215.5159678071107
 51
234.4840041888831
  0
CIRCLE
  5
2AF
330
18
100
AcDbEntity
  8
PV0001_1
  6
Continuous
 48
0.5
370
    50
100
AcDbCircle
 10
128.4463781306084
 20
-266.12564086914
 30
0.0
 40
3.25
  0
CIRCLE
  5
2B0
330
18
100
AcDbEntity
  8
PV0001_1
  6
Continuous
 48
0.5
370
    50
100
AcDbCircle
 10
128.4463781306084
 20
-266.12564086914
 30
0.0
 40
1.7000000476837
  0
CIRCLE
  5
2B1
330
18
100
AcDbEntity
  8
PV0001_1
  6
Continuous
 48
0.5
370
    50
100
AcDbCircle
 10
153.1951269098984
 20
-266.12564086914
 30
0.0
 40
3.25
  0
CIRCLE
  5
2B2
330
18
100
AcDbEntity
  8
PV0001_1
  6
Continuous
 48
0.5
370
    50
100
AcDbCircle
 10
153.1951269098984
 20
-266.12564086914
 30
0.0
 40
1.7000000476837
  0
CIRCLE
  5
2B3
330
18
100
AcDbEntity
  8
PV0001_1
  6
Continuous
 48
0.5
370
    50
100
AcDbCircle
 10
128.4463781306084
 20
-290.87438964843
 30
0.0
 40
3.25
  0
CIRCLE
  5
2B4
330
18
100
AcDbEntity
  8
PV0001_1
  6
Continuous
 48
0.5
370
    50
100
AcDbCircle
 10
128.4463781306084
 20
-290.87438964843
 30
0.0
 40
1.7000000476837
  0
CIRCLE
  5
2B5
330
18
100
AcDbEntity
  8
PV0001_1
  6
Continuous
 48
0.5
370
    50
100
AcDbCircle
 10
153.1951269098984
 20
-290.87438964843
 30
0.0
 40
3.25
  0
CIRCLE
  5
2B6
330
18
100
AcDbEntity
  8
PV0001_1
  6
Continuous
 48
0.5
370
    50
100
AcDbCircle
 10
153.1951269098984
 20
-290.87438964843
 30
0.0
 40
1.7000000476837
  0
ARC
  5
2B7
330
18
100
AcDbEntity
  8
PV0001_1
  6
Continuous
 48
0.5
370
    50
100
AcDbCircle
 10
140.8207525202584
 20
-278.5
 30
0.0
 40
8.5
100
AcDbArc
 50
124.5602884216922
 51
145.4396439596628
  0
ARC
  5
2B8
330
18
100
AcDbEntity
  8
PV0001_1
  6
Continuous
 48
0.5
370
    50
100
AcDbCircle
 10
140.8207525202584
 20
-278.5
 30
0.0
 40
8.5
100
AcDbArc
 50
34.56026542664397
 51
55.43962096462036
  0
ARC
  5
2B9
330
18
100
AcDbEntity
  8
PV0001_1
  6
Continuous
 48
0.5
370
    50
100
AcDbCircle
 10
140.8207525202584
 20
-278.5
 30
0.0
 40
8.5
100
AcDbArc
 50
304.5603380542468
 51
325.4396799318436
  0
ARC
  5
2BA
330
18
100
AcDbEntity
  8
PV0001_1
  6
Continuous
 48
0.5
370
    50
100
AcDbCircle
 10
140.8207525202584
 20
-278.5
 30
0.0
 40
8.5
100
AcDbArc
 50
214.5603013988247
 51
235.4396569367954
  0
CIRCLE
  5
2BB
330
18
100
AcDbEntity
  8
PV0001_1
  6
Continuous
370
    25
100
AcDbCircle
 10
140.8207525202584
 20
-278.5
 30
0.0
 40
11.366000175476
  0
CIRCLE
  5
2BC
330
18
100
AcDbEntity
  8
PV0001_1
  6
Continuous
370
    50
100
AcDbCircle
 10
140.8207525202584
 20
-278.5
 30
0.0
 40
11.94250011444
  0
CIRCLE
  5
2BD
330
18
100
AcDbEntity
  8
PV0001_1
  6
CENTER2
370
    25
100
AcDbCircle
 10
140.8207525202584
 20
-278.5
 30
0.0
 40
9.0
  0
CIRCLE
  5
2BE
330
18
100
AcDbEntity
  8
PV0001_1
  6
Continuous
 48
0.5
370
    50
100
AcDbCircle
 10
140.8207525202584
 20
-269.5
 30
0.0
 40
1.399999976158099
  0
CIRCLE
  5
2BF
330
18
100
AcDbEntity
  8
PV0001_1
  6
Continuous
 48
0.5
370
    50
100
AcDbCircle
 10
149.8207525202584
 20
-278.5
 30
0.0
 40
1.399999976158099
  0
CIRCLE
  5
2C0
330
18
100
AcDbEntity
  8
PV0001_1
  6
Continuous
 48
0.5
370
    50
100
AcDbCircle
 10
131.8207525202584
 20
-278.5
 30
0.0
 40
1.399999976158099
  0
CIRCLE
  5
2C1
330
18
100
AcDbEntity
  8
PV0001_1
  6
Continuous
 48
0.5
370
    50
100
AcDbCircle
 10
140.8207372614684
 20
-287.5
 30
0.0
 40
1.399999976158099
  0
ARC
  5
2C2
330
18
100
AcDbEntity
  8
PV0001_1
  6
PHANTOM2
 48
0.5
370
    25
100
AcDbCircle
 10
267.1207555720084
 20
-332.70001220703
 30
0.0
 40
0.2000000029802
100
AcDbArc
 50
0.0
 51
89.99998201390964
  0
ARC
  5
2C3
330
18
100
AcDbEntity
  8
PV0001_1
  6
PHANTOM2
 48
0.5
370
    25
100
AcDbCircle
 10
267.1207555720084
 20
-324.29998779296
 30
0.0
 40
0.2000000029802
100
AcDbArc
 50
269.999963344578
 51
0.0
  0
CIRCLE
  5
2C4
330
18
100
AcDbEntity
  8
PV0001_1
  6
Continuous
 48
0.5
370
   100
100
AcDbCircle
 10
266.30798339843
 20
-6.000061035156299
 30
0.0
 40
2.700000047683699
  0
CIRCLE
  5
2C5
330
18
100
AcDbEntity
  8
PV0001_1
  6
Continuous
 48
0.5
370
   100
100
AcDbCircle
 10
266.30798339843
 20
-6.000061035156299
 30
0.0
 40
1.6200001239777
  0
ARC
  5
2C6
330
18
100
AcDbEntity
  8
PV0001_1
  6
Continuous
 48
0.5
370
    50
100
AcDbCircle
 10
267.1207555720084
 20
-92.69999694824198
 30
0.0
 40
0.2000000029802
100
AcDbArc
 50
0.0
 51
90.00000250447893
  0
ARC
  5
2C7
330
18
100
AcDbEntity
  8
PV0001_1
  6
Continuous
 48
0.5
370
    50
100
AcDbCircle
 10
267.1207555720084
 20
-84.30000305175699
 30
0.0
 40
0.2000000029802
100
AcDbArc
 50
269.9999974955211
 51
0.0
  0
ARC
  5
2C8
330
18
100
AcDbEntity
  8
PV0001_1
  6
Continuous
 48
0.5
370
    50
100
AcDbCircle
 10
436.5207799860784
 20
-91.69999694824198
 30
0.0
 40
0.2000000029802
100
AcDbArc
 50
90.00000250447893
 51
180.0000050089578
  0
ARC
  5
2C9
330
18
100
AcDbEntity
  8
PV0001_1
  6
Continuous
 48
0.5
370
    50
100
AcDbCircle
 10
436.5207799860784
 20
-85.30000305175699
 30
0.0
 40
0.2000000029802
100
AcDbArc
 50
179.9999913485783
 51
270.000000683247
  0
MTEXT
  5
2CA
330
18
100
AcDbEntity
  8
PV0001_1
 62
     7
370
    25
100
AcDbMText
 10
49.82849389314615
 20
-2.0
 30
0.0
 40
3.2
 41
0.0
 71
     4
 72
     5
  1
\T1.40;\W0.61;FILE\U+3000NAME
 73
     1
 44
1.0
1001
ACAD
1000
MTEXTBEGIN
1070
    73
1070
     1
1070
    44
1040
1.0
1070
    74
1070
     0
1000
MTEXTEND
  0
MTEXT
  5
2CB
330
18
100
AcDbEntity
  8
PV0001_1
 62
     7
370
    25
100
AcDbMText
 10
65.54274392127952
 20
-7.5
 30
0.0
 40
4.799999999999999
 41
0.0
 71
     4
 72
     5
  1
\T1.4;\W0.61;GG0802DS
 73
     1
 44
1.0
1001
ACAD
1000
MTEXTBEGIN
1070
    73
1070
     1
1070
    44
1040
1.0
1070
    74
1070
     0
1000
MTEXTEND
  0
MTEXT
  5
2CC
330
18
100
AcDbEntity
  8
PV0001_1
 62
     7
370
    25
100
AcDbMText
 10
111.8284938931421
 20
-2.0
 30
0.0
 40
3.2
 41
0.0
 71
     4
 72
     5
  1
\T1.40;\W0.61;MODEL
 73
     1
 44
1.0
1001
ACAD
1000
MTEXTBEGIN
1070
    73
1070
     1
1070
    44
1040
1.0
1070
    74
1070
     0
1000
MTEXTEND
  0
MTEXT
  5
2CD
330
18
100
AcDbEntity
  8
PV0001_1
 62
     7
370
    25
100
AcDbMText
 10
119.5427439212755
 20
-7.5
 30
0.0
 40
4.799999999999999
 41
0.0
 71
     4
 72
     5
  1
\T1.4;\W0.61;GG0802DS-AANR-0215A
 73
     1
 44
1.0
1001
ACAD
1000
MTEXTBEGIN
1070
    73
1070
     1
1070
    44
1040
1.0
1070
    74
1070
     0
1000
MTEXTEND
  0
MTEXT
  5
2CE
330
18
100
AcDbEntity
  8
PV0001_1
 62
     7
370
    25
100
AcDbMText
 10
249.1838991233606
 20
-229.01123046875
 30
0.0
 40
3.2
 41
0.0
 71
     4
 72
     5
  1
\T1.40;\W0.61;BUK-8F
 73
     1
 44
1.0
1001
ACAD
1000
MTEXTBEGIN
1070
    73
1070
     1
1070
    44
1040
1.0
1070
    74
1070
     0
1000
MTEXTEND
  0
MTEXT
  5
2CF
330
18
100
AcDbEntity
  8
PV0001_1
 62
     7
370
    25
100
AcDbMText
 10
431.5944826194606
 20
-229.42355346679
 30
0.0
 40
3.2
 41
0.0
 71
     4
 72
     5
  1
\T1.40;\W0.61;BUK-6S
 73
     1
 44
1.0
1001
ACAD
1000
MTEXTBEGIN
1070
    73
1070
     1
1070
    44
1040
1.0
1070
    74
1070
     0
1000
MTEXTEND
  0
MTEXT
  5
2D0
330
18
100
AcDbEntity
  8
PV0001_1
 62
     7
370
    25
100
AcDbMText
 10
250.0398256370305
 20
-299.6636352539
 30
0.0
 40
3.2
 41
0.0
 71
     4
 72
     5
  1
\T1.40;\W0.61;BUM-8
 73
     1
 44
1.0
1001
ACAD
1000
MTEXTBEGIN
1070
    73
1070
     1
1070
    44
1040
1.0
1070
    74
1070
     0
1000
MTEXTEND
  0
MTEXT
  5
2D1
330
18
100
AcDbEntity
  8
PV0001_1
 62
     7
370
    25
100
AcDbMText
 10
433.7517396995306
 20
-340.24353027343
 30
0.0
 40
3.2
 41
0.0
 71
     4
 72
     5
  1
\T1.40;\W0.61;606ZZ
 73
     1
 44
1.0
1001
ACAD
1000
MTEXTBEGIN
1070
    73
1070
     1
1070
    44
1040
1.0
1070
    74
1070
     0
1000
MTEXTEND
  0
MTEXT
  5
2D2
330
18
100
AcDbEntity
  8
PV0001_1
 62
     7
370
    25
100
AcDbMText
 10
262.2626955100805
 20
-349.86450195312
 30
0.0
 40
3.2
 41
0.0
 71
     4
 72
     5
  1
\T1.40;\W0.61;BUM-8
 73
     1
 44
1.0
1001
ACAD
1000
MTEXTBEGIN
1070
    73
1070
     1
1070
    44
1040
1.0
1070
    74
1070
     0
1000
MTEXTEND
  0
MTEXT
  5
2D3
330
18
100
AcDbEntity
  8
PV0001_1
 62
     7
370
    25
100
AcDbMText
 10
243.5427439212755
 20
-7.5
 30
0.0
 40
4.799999999999999
 41
0.0
 71
     4
 72
     5
  1
\T1.40;\W0.61;215
 73
     1
 44
1.0
1001
ACAD
1000
MTEXTBEGIN
1070
    73
1070
     1
1070
    44
1040
1.0
1070
    74
1070
     0
1000
MTEXTEND
  0
MTEXT
  5
2D4
330
18
100
AcDbEntity
  8
PV0001_1
 62
     7
370
    25
100
AcDbMText
 10
235.8284938931421
 20
-2.0
 30
0.0
 40
3.2
 41
0.0
 71
     4
 72
     5
  1
\T1.40;\W0.61;L
 73
     1
 44
1.0
1001
ACAD
1000
MTEXTBEGIN
1070
    73
1070
     1
1070
    44
1040
1.0
1070
    74
1070
     0
1000
MTEXTEND
  0
CIRCLE
  5
2D5
330
18
100
AcDbEntity
  8
PV0001_1
  6
Continuous
 48
0.5
370
    25
100
AcDbCircle
 10
123.3207525202584
 20
-278.5
 30
0.0
 40
0.2000000029802
  0
INSERT
  5
2D6
330
18
100
AcDbEntity
  8
PV0001_1
  6
Continuous
100
AcDbBlockReference
  2
*U4
 10
-70.67923222095157
 20
0.0000000000000142
 30
0.0
1001
ACAD
1002
{
1000
R14_HATCH_DATA
1000
2D6
1011
-69.67923222095158
1021
0.0000000000000142
1031
0.0
1011
-70.67923222095157
1021
1.000000000000014
1031
0.0
1011
-70.67923222095157
1021
0.0000000000000142
1031
1.0
1040
0.0
1010
0.0
1020
0.0
1030
1.0
1000
SOLID
1070
     1
1070
     0
1071
        1
1071
        1
1071
        1
1070
     2
1040
193.99998474121
1040
-278.5
1040
0.2000000029802
1040
0.0
1040
6.283185307179586
1070
     1
1071
        0
1070
     0
1070
     1
1071
        1
1040
0.0
1040
0.0
1040
0.0
1002
}
  0
LINE
  5
43C
330
18
100
AcDbEntity
  8
PV0001_1
  6
CENTER2
370
    25
100
AcDbLine
 10
223.2872594782584
 20
-198.499977111815
 30
0.0
 11
298.0330480524784
 21
-198.499977111815
 31
0.0
  0
LINE
  5
43D
330
18
100
AcDbEntity
  8
PV0001_1
  6
PHANTOM2
 48
0.5
370
    25
100
AcDbLine
 10
278.3207677790484
 20
-201.799980163572
 30
0.0
 11
294.3207677790484
 21
-201.799980163572
 31
0.0
  0
LINE
  5
43E
330
18
100
AcDbEntity
  8
PV0001_1
  6
PHANTOM2
 48
0.5
370
    50
100
AcDbLine
 10
278.3207677790484
 20
-202.499977111815
 30
0.0
 11
294.3207677790484
 21
-202.499977111815
 31
0.0
  0
LINE
  5
43F
330
18
100
AcDbEntity
  8
PV0001_1
  6
PHANTOM2
 48
0.5
370
    50
100
AcDbLine
 10
278.3207677790484
 20
-194.499977111815
 30
0.0
 11
294.3207677790484
 21
-194.499977111815
 31
0.0
  0
LINE
  5
440
330
18
100
AcDbEntity
  8
PV0001_1
  6
PHANTOM2
 48
0.5
370
    25
100
AcDbLine
 10
278.3207677790484
 20
-195.199974060057
 30
0.0
 11
294.3207677790484
 21
-195.199974060057
 31
0.0
  0
LINE
  5
441
330
18
100
AcDbEntity
  8
PV0001_1
  6
PHANTOM2
 48
0.5
370
    50
100
AcDbLine
 10
278.3207677790484
 20
-194.499977111815
 30
0.0
 11
278.3207677790484
 21
-202.499977111815
 31
0.0
  0
LINE
  5
442
330
18
100
AcDbEntity
  8
PV0001_1
  6
PHANTOM2
 48
0.5
370
    50
100
AcDbLine
 10
275.3207677790484
 20
-201.799980163572
 30
0.0
 11
278.3207677790484
 21
-201.799980163572
 31
0.0
  0
LINE
  5
443
330
18
100
AcDbEntity
  8
PV0001_1
  6
PHANTOM2
 48
0.5
370
    50
100
AcDbLine
 10
275.3207677790484
 20
-195.199974060057
 30
0.0
 11
278.3207677790484
 21
-195.199974060057
 31
0.0
  0
LINE
  5
444
330
18
100
AcDbEntity
  8
PV0001_1
  6
CENTER2
370
    25
100
AcDbLine
 10
394.0505346247484
 20
-198.499977111815
 30
0.0
 11
447.8778356501384
 21
-198.499977111815
 31
0.0
  0
LINE
  5
445
330
18
100
AcDbEntity
  8
PV0001_1
  6
PHANTOM2
 48
0.5
370
    25
100
AcDbLine
 10
395.3207677790484
 20
-195.199974060057
 30
0.0
 11
436.3207677790484
 21
-195.199974060057
 31
0.0
  0
LINE
  5
446
330
18
100
AcDbEntity
  8
PV0001_1
  6
PHANTOM2
 48
0.5
370
    50
100
AcDbLine
 10
395.3207677790484
 20
-202.499977111815
 30
0.0
 11
436.3207677790484
 21
-202.499977111815
 31
0.0
  0
LINE
  5
447
330
18
100
AcDbEntity
  8
PV0001_1
  6
PHANTOM2
 48
0.5
370
    50
100
AcDbLine
 10
395.3207677790484
 20
-194.499977111815
 30
0.0
 11
436.3207677790484
 21
-194.499977111815
 31
0.0
  0
LINE
  5
448
330
18
100
AcDbEntity
  8
PV0001_1
  6
PHANTOM2
 48
0.5
370
    25
100
AcDbLine
 10
395.3207677790484
 20
-201.799980163572
 30
0.0
 11
436.3207677790484
 21
-201.799980163572
 31
0.0
  0
LINE
  5
45F
330
18
100
AcDbEntity
  8
PV0001_1
  6
CENTER2
370
    25
100
AcDbLine
 10
223.2872594782584
 20
-278.5
 30
0.0
 11
298.0330480524784
 21
-278.5
 31
0.0
  0
LINE
  5
460
330
18
100
AcDbEntity
  8
PV0001_1
  6
PHANTOM2
 48
0.5
370
    25
100
AcDbLine
 10
278.3207677790484
 20
-275.199996948242
 30
0.0
 11
294.3207677790484
 21
-275.199996948242
 31
0.0
  0
LINE
  5
461
330
18
100
AcDbEntity
  8
PV0001_1
  6
PHANTOM2
 48
0.5
370
    50
100
AcDbLine
 10
278.3207677790484
 20
-274.5
 30
0.0
 11
294.3207677790484
 21
-274.5
 31
0.0
  0
LINE
  5
462
330
18
100
AcDbEntity
  8
PV0001_1
  6
PHANTOM2
 48
0.5
370
    50
100
AcDbLine
 10
278.3207677790484
 20
-282.5
 30
0.0
 11
294.3207677790484
 21
-282.5
 31
0.0
  0
LINE
  5
463
330
18
100
AcDbEntity
  8
PV0001_1
  6
PHANTOM2
 48
0.5
370
    25
100
AcDbLine
 10
278.3207677790484
 20
-281.800003051757
 30
0.0
 11
294.3207677790484
 21
-281.800003051757
 31
0.0
  0
LINE
  5
464
330
18
100
AcDbEntity
  8
PV0001_1
  6
PHANTOM2
 48
0.5
370
    50
100
AcDbLine
 10
278.3207677790484
 20
-274.5
 30
0.0
 11
278.3207677790484
 21
-282.5
 31
0.0
  0
LINE
  5
465
330
18
100
AcDbEntity
  8
PV0001_1
  6
PHANTOM2
 48
0.5
370
    50
100
AcDbLine
 10
275.3207677790484
 20
-281.800003051757
 30
0.0
 11
278.3207677790484
 21
-281.800003051757
 31
0.0
  0
LINE
  5
466
330
18
100
AcDbEntity
  8
PV0001_1
  6
PHANTOM2
 48
0.5
370
    50
100
AcDbLine
 10
275.3207677790484
 20
-275.199996948242
 30
0.0
 11
278.3207677790484
 21
-275.199996948242
 31
0.0
  0
LINE
  5
467
330
18
100
AcDbEntity
  8
PV0001_1
  6
PHANTOM2
 48
0.5
370
    25
100
AcDbLine
 10
395.3207677790485
 20
-331.800003051757
 30
0.0
 11
436.3207677790485
 21
-331.800003051757
 31
0.0
  0
LINE
  5
468
330
18
100
AcDbEntity
  8
PV0001_1
  6
PHANTOM2
 48
0.5
370
    50
100
AcDbLine
 10
395.3207677790485
 20
-324.5
 30
0.0
 11
436.3207677790485
 21
-324.5
 31
0.0
  0
LINE
  5
469
330
18
100
AcDbEntity
  8
PV0001_1
  6
PHANTOM2
 48
0.5
370
    50
100
AcDbLine
 10
395.3207677790485
 20
-332.5
 30
0.0
 11
436.3207677790485
 21
-332.5
 31
0.0
  0
LINE
  5
46A
330
18
100
AcDbEntity
  8
PV0001_1
  6
PHANTOM2
 48
0.5
370
    25
100
AcDbLine
 10
395.3207677790485
 20
-325.199996948242
 30
0.0
 11
436.3207677790485
 21
-325.199996948242
 31
0.0
  0
LINE
  5
46B
330
18
100
AcDbEntity
  8
PV0001_1
  6
CENTER2
370
    25
100
AcDbLine
 10
394.0505346247485
 20
-328.5
 30
0.0
 11
447.8778356501385
 21
-328.5
 31
0.0
  0
LINE
  5
47C
330
18
100
AcDbEntity
  8
PV0001_1
  6
CENTER2
370
    25
100
AcDbLine
 10
223.2872594782584
 20
-328.5
 30
0.0
 11
298.0330480524784
 21
-328.5
 31
0.0
  0
LINE
  5
47D
330
18
100
AcDbEntity
  8
PV0001_1
  6
PHANTOM2
 48
0.5
370
    25
100
AcDbLine
 10
278.3207677790484
 20
-331.800003051757
 30
0.0
 11
294.3207677790484
 21
-331.800003051757
 31
0.0
  0
LINE
  5
47E
330
18
100
AcDbEntity
  8
PV0001_1
  6
PHANTOM2
 48
0.5
370
    50
100
AcDbLine
 10
278.3207677790484
 20
-332.5
 30
0.0
 11
294.3207677790484
 21
-332.5
 31
0.0
  0
LINE
  5
47F
330
18
100
AcDbEntity
  8
PV0001_1
  6
PHANTOM2
 48
0.5
370
    50
100
AcDbLine
 10
278.3207677790484
 20
-324.5
 30
0.0
 11
294.3207677790484
 21
-324.5
 31
0.0
  0
LINE
  5
480
330
18
100
AcDbEntity
  8
PV0001_1
  6
PHANTOM2
 48
0.5
370
    25
100
AcDbLine
 10
278.3207677790484
 20
-325.199996948242
 30
0.0
 11
294.3207677790484
 21
-325.199996948242
 31
0.0
  0
LINE
  5
481
330
18
100
AcDbEntity
  8
PV0001_1
  6
PHANTOM2
 48
0.5
370
    50
100
AcDbLine
 10
278.3207677790484
 20
-324.5
 30
0.0
 11
278.3207677790484
 21
-332.5
 31
0.0
  0
LINE
  5
482
330
18
100
AcDbEntity
  8
PV0001_1
  6
PHANTOM2
 48
0.5
370
    50
100
AcDbLine
 10
275.3207677790484
 20
-331.800003051757
 30
0.0
 11
278.3207677790484
 21
-331.800003051757
 31
0.0
  0
LINE
  5
483
330
18
100
AcDbEntity
  8
PV0001_1
  6
PHANTOM2
 48
0.5
370
    50
100
AcDbLine
 10
275.3207677790484
 20
-325.199996948242
 30
0.0
 11
278.3207677790484
 21
-325.199996948242
 31
0.0
  0
LINE
  5
76D
330
18
100
AcDbEntity
  8
PV0001_1
  6
CENTER2
370
    25
100
AcDbLine
 10
394.0505346247484
 20
-278.5
 30
0.0
 11
447.8778356501384
 21
-278.5
 31
0.0
  0
LINE
  5
7AB
330
18
100
AcDbEntity
  8
0
370
    -2
100
AcDbLine
 10
440.3207677790482
 20
-300.0
 30
0.0
 11
440.3207677790484
 21
-292.5
 31
0.0
  0
LINE
  5
7AC
330
18
100
AcDbEntity
  8
0
370
    -2
100
AcDbLine
 10
445.8207677790483
 20
-287.0
 30
0.0
 11
436.8207677790484
 21
-287.0
 31
0.0
  0
LINE
  5
7AD
330
18
100
AcDbEntity
  8
0
370
    -2
100
AcDbLine
 10
440.3207677790482
 20
-300.0
 30
0.0
 11
446.3207677790484
 21
-300.0
 31
0.0
  0
LINE
  5
7AE
330
18
100
AcDbEntity
  8
0
370
    -2
100
AcDbLine
 10
440.3207677790484
 20
-292.5
 30
0.0
 11
436.3207677790484
 21
-292.5
 31
0.0
  0
LINE
  5
7AF
330
18
100
AcDbEntity
  8
0
100
AcDbLine
 10
436.3207677790484
 20
-287.5
 30
0.0
 11
436.8207677790484
 21
-287.0
 31
0.0
  0
LINE
  5
7B0
330
18
100
AcDbEntity
  8
0
100
AcDbLine
 10
445.8207677790483
 20
-287.0
 30
0.0
 11
446.3207677790484
 21
-287.5
 31
0.0
  0
MTEXT
  5
7B1
330
18
100
AcDbEntity
  8
PV0001_1
 62
     7
370
    25
100
AcDbMText
 10
434.7223348117592
 20
-305.089140584717
 30
0.0
 40
3.2
 41
0.0
 71
     4
 72
     5
  1
\T1.4;\W0.61;BUM-6S
 73
     1
 44
1.0
1001
ACAD
1000
MTEXTBEGIN
1070
    73
1070
     1
1070
    44
1040
1.0
1070
    74
1070
     0
1000
MTEXTEND
  0
LINE
  5
7B2
330
18
100
AcDbEntity
  8
0
370
    -2
100
AcDbLine
 10
440.3207677790482
 20
-264.5
 30
0.0
 11
440.3207677790482
 21
-261.0000000000001
 31
0.0
  0
LINE
  5
7B3
330
18
100
AcDbEntity
  8
0
370
    -2
100
AcDbLine
 10
446.3207677790484
 20
-300.0
 30
0.0
 11
446.3207677790484
 21
-261.0000000000001
 31
0.0
  0
LINE
  5
7B4
330
18
100
AcDbEntity
  8
0
370
    -2
100
AcDbLine
 10
446.3207677790484
 20
-261.0000000000001
 30
0.0
 11
440.3207677790484
 21
-261.0000000000001
 31
0.0
  0
LINE
  5
7B5
330
18
100
AcDbEntity
  8
0
370
    -2
100
AcDbLine
 10
436.3207677790484
 20
-264.5
 30
0.0
 11
436.3207677790484
 21
-292.5
 31
0.0
  0
LINE
  5
7B6
330
18
100
AcDbEntity
  8
0
370
    -2
100
AcDbLine
 10
445.8207677790483
 20
-270.0000000000001
 30
0.0
 11
436.8207677790484
 21
-270.0000000000001
 31
0.0
  0
LINE
  5
7B7
330
18
100
AcDbEntity
  8
0
370
    -2
100
AcDbLine
 10
440.3207677790482
 20
-264.5
 30
0.0
 11
436.3207677790484
 21
-264.5
 31
0.0
  0
LINE
  5
7B8
330
18
100
AcDbEntity
  8
0
100
AcDbLine
 10
436.8207677790484
 20
-287.0
 30
0.0
 11
436.8207677790484
 21
-270.0000000000001
 31
0.0
  0
LINE
  5
7B9
330
18
100
AcDbEntity
  8
0
100
AcDbLine
 10
436.8207677790484
 20
-270.0000000000001
 30
0.0
 11
436.3207677790484
 21
-269.5000000000001
 31
0.0
  0
LINE
  5
7BA
330
18
100
AcDbEntity
  8
0
100
AcDbLine
 10
446.3207677790484
 20
-269.5000000000001
 30
0.0
 11
445.8207677790483
 21
-270.0000000000001
 31
0.0
  0
LINE
  5
7BB
330
18
100
AcDbEntity
  8
0
100
AcDbLine
 10
445.8207677790483
 20
-270.0000000000001
 30
0.0
 11
445.8207677790483
 21
-287.0
 31
0.0
  0
ARC
  5
7BC
330
18
100
AcDbEntity
  8
0
370
    -2
100
AcDbCircle
 10
553.1286642315059
 20
-278.5000000000001
 30
0.0
 40
21.5
100
AcDbArc
 50
215.5159837645359
 51
234.4840162354596
  0
CIRCLE
  5
7BD
330
18
100
AcDbEntity
  8
0
370
    -2
100
AcDbCircle
 10
540.7542949491807
 20
-290.8743680592039
 30
0.0
 40
3.25
  0
LINE
  5
7BE
330
18
100
AcDbEntity
  8
0
  6
AM_ISO08W050
370
    -2
100
AcDbLine
 10
577.6286642315059
 20
-278.5000000000001
 30
0.0
 11
528.6286642315059
 21
-278.5000000000001
 31
0.0
  0
CIRCLE
  5
7BF
330
18
100
AcDbEntity
  8
0
370
    -2
100
AcDbCircle
 10
540.7542955607413
 20
-266.1256313292355
 30
0.0
 40
3.25
  0
ARC
  5
7C0
330
18
100
AcDbEntity
  8
0
370
    -2
100
AcDbCircle
 10
553.1286642315059
 20
-278.5000000000001
 30
0.0
 40
21.5
100
AcDbArc
 50
125.5159837645404
 51
144.4840162354641
  0
LINE
  5
7C1
330
18
100
AcDbEntity
  8
0
  6
AM_ISO08W050
370
    -2
100
AcDbLine
 10
570.4527803705762
 20
-261.1758838609297
 30
0.0
 11
535.8045480924353
 21
-295.8241161390705
 31
0.0
  0
LINE
  5
7C2
330
18
100
AcDbEntity
  8
0
  6
AM_ISO08W050
370
    -2
100
AcDbLine
 10
570.4527803705762
 20
-295.8241161390704
 30
0.0
 11
535.8045480924355
 21
-261.1758838609297
 31
0.0
  0
CIRCLE
  5
7C3
330
18
100
AcDbEntity
  8
0
  6
AM_ISO08W050
370
    -2
100
AcDbCircle
 10
553.1286642315059
 20
-278.5
 30
0.0
 40
17.5
  0
ARC
  5
7C4
330
18
100
AcDbEntity
  8
0
370
    -2
100
AcDbCircle
 10
553.1286642315059
 20
-278.5000000000001
 30
0.0
 40
21.5
100
AcDbArc
 50
35.51598376453585
 51
54.48401623545962
  0
LINE
  5
7C5
330
18
100
AcDbEntity
  8
0
370
    -2
100
AcDbLine
 10
565.6186602283026
 20
-261.0
 30
0.0
 11
540.6386682347091
 21
-261.0000000000001
 31
0.0
  0
LINE
  5
7C6
330
18
100
AcDbEntity
  8
0
370
    -2
100
AcDbLine
 10
570.6286642315061
 20
-266.0100040032034
 30
0.0
 11
570.6286642315059
 21
-290.9899959967968
 31
0.0
  0
CIRCLE
  5
7C7
330
18
100
AcDbEntity
  8
0
370
    -2
100
AcDbCircle
 10
553.1286642315059
 20
-278.5000000000001
 30
0.0
 40
8.5
  0
CIRCLE
  5
7C8
330
18
100
AcDbEntity
  8
0
  6
DASHED2
370
    -2
100
AcDbCircle
 10
553.1286642315059
 20
-278.5
 30
0.0
 40
14.0
  0
CIRCLE
  5
7C9
330
18
100
AcDbEntity
  8
0
370
    -2
100
AcDbCircle
 10
565.5030329022705
 20
-266.1256313292355
 30
0.0
 40
3.25
  0
CIRCLE
  5
7CA
330
18
100
AcDbEntity
  8
0
370
    -2
100
AcDbCircle
 10
565.5030335138311
 20
-266.1256319407961
 30
0.0
 40
1.7
  0
CIRCLE
  5
7CB
330
18
100
AcDbEntity
  8
0
370
    -2
100
AcDbCircle
 10
540.7542961723018
 20
-266.1256319407962
 30
0.0
 40
1.7
  0
LINE
  5
7CC
330
18
100
AcDbEntity
  8
0
370
    -2
100
AcDbLine
 10
565.6186602283026
 20
-296.0
 30
0.0
 11
540.6386682347091
 21
-296.0
 31
0.0
  0
ARC
  5
7CD
330
18
100
AcDbEntity
  8
0
370
    -2
100
AcDbCircle
 10
553.1286642315059
 20
-278.5000000000001
 30
0.0
 40
21.5
100
AcDbArc
 50
305.5159837645403
 51
324.4840162354642
  0
CIRCLE
  5
7CE
330
18
100
AcDbEntity
  8
0
370
    -2
100
AcDbCircle
 10
565.5030329022705
 20
-290.8743686707647
 30
0.0
 40
3.25
  0
CIRCLE
  5
7CF
330
18
100
AcDbEntity
  8
0
370
    -2
100
AcDbCircle
 10
565.5030335138311
 20
-290.8743692823254
 30
0.0
 40
1.7
  0
CIRCLE
  5
7D0
330
18
100
AcDbEntity
  8
0
370
    -2
100
AcDbCircle
 10
540.7542955607413
 20
-290.8743686707646
 30
0.0
 40
1.7
  0
LINE
  5
7D1
330
18
100
AcDbEntity
  8
0
370
    -2
100
AcDbLine
 10
535.6286642315059
 20
-266.0100040032032
 30
0.0
 11
535.6286642315059
 21
-290.9899959967968
 31
0.0
  0
LINE
  5
7D2
330
18
100
AcDbEntity
  8
0
  6
AM_ISO08W050
100
AcDbLine
 10
553.1286642315059
 20
-303.0000000000001
 30
0.0
 11
553.1286642315059
 21
-254.0
 31
0.0
  0
CIRCLE
  5
7D3
330
18
100
AcDbEntity
  8
0
370
    -2
100
AcDbCircle
 10
553.1286642315059
 20
-278.5000000000001
 30
0.0
 40
9.0
  0
LINE
  5
852
330
18
100
AcDbEntity
  8
PV0001_1
  6
PHANTOM2
 48
0.5
370
    25
100
AcDbLine
 10
395.3207677790484
 20
-281.800003051757
 30
0.0
 11
436.3207677790484
 21
-281.800003051757
 31
0.0
  0
LINE
  5
853
330
18
100
AcDbEntity
  8
PV0001_1
  6
PHANTOM2
 48
0.5
370
    50
100
AcDbLine
 10
395.3207677790484
 20
-274.5
 30
0.0
 11
436.3207677790484
 21
-274.5
 31
0.0
  0
LINE
  5
854
330
18
100
AcDbEntity
  8
PV0001_1
  6
PHANTOM2
 48
0.5
370
    50
100
AcDbLine
 10
395.3207677790484
 20
-282.5
 30
0.0
 11
436.3207677790484
 21
-282.5
 31
0.0
  0
LINE
  5
855
330
18
100
AcDbEntity
  8
PV0001_1
  6
PHANTOM2
 48
0.5
370
    25
100
AcDbLine
 10
395.3207677790484
 20
-275.199996948242
 30
0.0
 11
436.3207677790484
 21
-275.199996948242
 31
0.0
  0
LINE
  5
856
330
18
100
AcDbEntity
  8
PV0001_1
  6
DASHED2
 48
0.5
370
    50
100
AcDbLine
 10
443.1207555720084
 20
-284.500022888185
 30
0.0
 11
443.1207555720084
 21
-281.350028991695
 31
0.0
  0
LINE
  5
857
330
18
100
AcDbEntity
  8
PV0001_1
  6
DASHED2
 48
0.5
370
    50
100
AcDbLine
 10
443.1207555720084
 20
-275.650016784665
 30
0.0
 11
443.1207555720084
 21
-272.500007629395
 31
0.0
  0
LINE
  5
858
330
18
100
AcDbEntity
  8
PV0001_1
  6
DASHED2
 48
0.5
370
    50
100
AcDbLine
 10
443.1206945368584
 20
-272.500022888185
 30
0.0
 11
442.3207677790484
 21
-272.500022888185
 31
0.0
  0
LINE
  5
859
330
18
100
AcDbEntity
  8
PV0001_1
  6
DASHED2
 48
0.5
370
    50
100
AcDbLine
 10
443.1206945368584
 20
-284.500038146965
 30
0.0
 11
442.3207677790484
 21
-284.500038146965
 31
0.0
  0
LINE
  5
85A
330
18
100
AcDbEntity
  8
PV0001_1
  6
DASHED2
 48
0.5
370
    50
100
AcDbLine
 10
443.1206945368584
 20
-275.650016784665
 30
0.0
 11
442.3207677790484
 21
-275.650016784665
 31
0.0
  0
LINE
  5
85B
330
18
100
AcDbEntity
  8
PV0001_1
  6
DASHED2
 48
0.5
370
    50
100
AcDbLine
 10
443.1206945368584
 20
-281.350044250485
 30
0.0
 11
442.3207677790484
 21
-281.350044250485
 31
0.0
  0
LINE
  5
85C
330
18
100
AcDbEntity
  8
PV0001_1
  6
DASHED2
 48
0.5
370
    50
100
AcDbLine
 10
436.3207677790484
 20
-275.500022888185
 30
0.0
 11
436.3207677790484
 21
-270.000022888185
 31
0.0
  0
LINE
  5
85D
330
18
100
AcDbEntity
  8
PV0001_1
  6
DASHED2
 48
0.5
370
    50
100
AcDbLine
 10
442.3207677790484
 20
-275.650016784665
 30
0.0
 11
442.3207677790484
 21
-270.000022888185
 31
0.0
  0
LINE
  5
85E
330
18
100
AcDbEntity
  8
PV0001_1
  6
DASHED2
 48
0.5
370
    50
100
AcDbLine
 10
442.3207677790484
 20
-275.500022888185
 30
0.0
 11
436.3207677790484
 21
-275.500022888185
 31
0.0
  0
LINE
  5
85F
330
18
100
AcDbEntity
  8
PV0001_1
  6
DASHED2
 48
0.5
370
    50
100
AcDbLine
 10
442.3207677790484
 20
-281.500038146965
 30
0.0
 11
436.3207677790484
 21
-281.500038146965
 31
0.0
  0
LINE
  5
860
330
18
100
AcDbEntity
  8
PV0001_1
  6
DASHED2
 48
0.5
370
    50
100
AcDbLine
 10
442.3207677790484
 20
-270.000022888185
 30
0.0
 11
436.3207677790484
 21
-270.000022888185
 31
0.0
  0
LINE
  5
861
330
18
100
AcDbEntity
  8
PV0001_1
  6
DASHED2
 48
0.5
370
    50
100
AcDbLine
 10
442.3207677790484
 20
-287.000038146965
 30
0.0
 11
436.3207677790484
 21
-287.000038146965
 31
0.0
  0
LINE
  5
862
330
18
100
AcDbEntity
  8
PV0001_1
  6
DASHED2
 48
0.5
370
    50
100
AcDbLine
 10
442.3207677790484
 20
-287.000038146965
 30
0.0
 11
442.3207677790484
 21
-281.350028991695
 31
0.0
  0
LINE
  5
863
330
18
100
AcDbEntity
  8
PV0001_1
  6
DASHED2
 48
0.5
370
    50
100
AcDbLine
 10
436.3207677790484
 20
-287.000038146965
 30
0.0
 11
436.3207677790484
 21
-281.500038146965
 31
0.0
  0
LINE
  5
864
330
18
100
AcDbEntity
  8
PV0001_1
  6
PHANTOM2
 48
0.5
370
    25
100
AcDbLine
 10
436.3207677790484
 20
-281.500022888185
 30
0.0
 11
442.3207067438884
 21
-281.500022888185
 31
0.0
  0
LINE
  5
865
330
18
100
AcDbEntity
  8
PV0001_1
  6
PHANTOM2
 48
0.5
370
    25
100
AcDbLine
 10
436.3207677790484
 20
-275.500022888185
 30
0.0
 11
442.3207067438884
 21
-275.500022888185
 31
0.0
  0
LINE
  5
866
330
18
100
AcDbEntity
  8
PV0001_1
  6
PHANTOM2
 48
0.5
370
    25
100
AcDbLine
 10
436.3207677790484
 20
-274.500022888185
 30
0.0
 11
436.3207677790484
 21
-282.500007629395
 31
0.0
  0
LINE
  5
867
330
18
100
AcDbEntity
  8
PV0001_1
  6
PHANTOM2
 48
0.5
370
    25
100
AcDbLine
 10
445.3207677790484
 20
-275.500007629395
 30
0.0
 11
445.3207677790484
 21
-281.500022888185
 31
0.0
  0
LINE
  5
868
330
18
100
AcDbEntity
  8
PV0001_1
  6
PHANTOM2
 48
0.5
370
    25
100
AcDbLine
 10
443.1207555720084
 20
-275.500007629395
 30
0.0
 11
443.1207555720084
 21
-281.500022888185
 31
0.0
  0
LINE
  5
869
330
18
100
AcDbEntity
  8
PV0001_1
  6
PHANTOM2
 48
0.5
370
    25
100
AcDbLine
 10
442.3207067438884
 20
-275.500007629395
 30
0.0
 11
442.3207067438884
 21
-281.500022888185
 31
0.0
  0
LINE
  5
86A
330
18
100
AcDbEntity
  8
PV0001_1
  6
PHANTOM2
 48
0.5
370
    25
100
AcDbLine
 10
443.1206945368584
 20
-275.500022888185
 30
0.0
 11
445.3207067438884
 21
-275.500022888185
 31
0.0
  0
LINE
  5
86B
330
18
100
AcDbEntity
  8
PV0001_1
  6
PHANTOM2
 48
0.5
370
    25
100
AcDbLine
 10
443.1206945368584
 20
-281.500022888185
 30
0.0
 11
445.3207067438884
 21
-281.500022888185
 31
0.0
  0
LINE
  5
86C
330
18
100
AcDbEntity
  8
PV0001_1
  6
PHANTOM2
 48
0.5
370
    25
100
AcDbLine
 10
442.3207067438884
 20
-281.350028991695
 30
0.0
 11
443.1206945368584
 21
-281.350028991695
 31
0.0
  0
LINE
  5
86D
330
18
100
AcDbEntity
  8
PV0001_1
  6
PHANTOM2
 48
0.5
370
    25
100
AcDbLine
 10
442.3207067438884
 20
-275.650016784665
 30
0.0
 11
443.1206945368584
 21
-275.650016784665
 31
0.0
  0
ENDSEC
  0
SECTION
  2
OBJECTS
  0
DICTIONARY
  5
C
330
0
100
AcDbDictionary
281
     1
  3
ACAD_COLOR
350
641
  3
ACAD_GROUP
350
D
  3
ACAD_LAYOUT
350
5E
  3
ACAD_MATERIAL
350
640
  3
ACAD_MLINESTYLE
350
1B
  3
ACAD_PLOTSETTINGS
350
5F
  3
ACAD_PLOTSTYLENAME
350
5C
  3
ACAD_TABLESTYLE
350
8F3
  3
ACDBHEADERROUNDTRIPXREC
350
A9E
  3
AcDbVariableDictionary
350
385
  3
AcmDictionary
350
397
  3
AMG
350
35C
  3
AMGSNAPSETTINGS
350
41C
  3
DWGPROPS
350
A9D
  3
SAKAE_DICT
350
2FB
  0
DICTIONARY
  5
33E
330
18
100
AcDbDictionary
280
     1
281
     1
  3
ACAD_LAYOUTSELFREF
360
5FD
  0
DICTIONARY
  5
33C
330
15
100
AcDbDictionary
280
     1
281
     1
  3
ACAD_LAYOUTSELFREF
360
5FC
  0
DICTIONARY
  5
641
102
{ACAD_REACTORS
330
C
102
}
330
C
100
AcDbDictionary
281
     1
  0
DICTIONARY
  5
D
102
{ACAD_REACTORS
330
C
102
}
330
C
100
AcDbDictionary
281
     1
  0
DICTIONARY
  5
5E
102
{ACAD_REACTORS
330
C
102
}
330
C
100
AcDbDictionary
281
     1
  3
Model
350
60
  3
ﾚｲｱｳﾄ1
350
61
  0
DICTIONARY
  5
640
102
{ACAD_REACTORS
330
C
102
}
330
C
100
AcDbDictionary
281
     1
  0
DICTIONARY
  5
1B
102
{ACAD_REACTORS
330
C
102
}
330
C
100
AcDbDictionary
281
     1
  3
STANDARD
350
1C
  0
DICTIONARY
  5
5F
102
{ACAD_REACTORS
330
C
102
}
330
C
100
AcDbDictionary
281
     1
  0
ACDBDICTIONARYWDFLT
  5
5C
102
{ACAD_REACTORS
330
C
102
}
330
C
100
AcDbDictionary
281
     1
  3
Normal
350
5D
100
AcDbDictionaryWithDefault
340
5D
1001
ACAD
1000
TREAT_AS_HARD
1070
     0
1000
TREAT_AS_HARD
1070
     0
1000
TREAT_AS_HARD
1070
     0
  0
DICTIONARY
  5
8F3
102
{ACAD_REACTORS
330
C
102
}
330
C
100
AcDbDictionary
281
     1
  3
Standard
350
8F4
  0
DICTIONARY
  5
A9E
102
{ACAD_REACTORS
330
C
102
}
330
C
100
AcDbDictionary
281
     1
  0
DICTIONARY
  5
385
102
{ACAD_REACTORS
330
C
102
}
330
C
100
AcDbDictionary
281
     1
  3
CTABLESTYLE
350
93F
  3
DIMASSOC
350
9B2
  3
INDEXCTL
350
386
  3
PROJECTNAME
350
9B3
  0
DICTIONARY
  5
397
102
{ACAD_REACTORS
330
C
102
}
330
C
100
AcDbDictionary
281
     1
  3
AcmStdDictionary
350
39C
  3
AMDTSECTSYM_ARROWCOLOR
350
90C
  0
DICTIONARY
  5
35C
102
{ACAD_REACTORS
330
C
102
}
330
C
100
AcDbDictionary
281
     1
  0
DICTIONARY
  5
41C
102
{ACAD_REACTORS
330
C
102
}
330
C
100
AcDbDictionary
281
     1
  0
XRECORD
  5
A9D
102
{ACAD_REACTORS
330
C
102
}
330
C
100
AcDbXrecord
280
     1
  1
DWGPROPS COOKIE
  2

  3

  4

  6

  7

  8

  9

300
AmdtFileType=84
301
=
302
=
303
=
304
=
305
=
306
=
307
=
308
=
309
=
 40
0.1500850115740741
 41
2451067.751276933
 42
2454174.424733831
  1

 90
        1
  0
DICTIONARY
  5
2FB
102
{ACAD_REACTORS
330
C
102
}
330
C
100
AcDbDictionary
281
     1
  3
XREC1
350
2FC
  0
XRECORD
  5
5FD
102
{ACAD_REACTORS
330
33E
102
}
330
33E
100
AcDbXrecord
280
     1
340
18
  0
XRECORD
  5
5FC
102
{ACAD_REACTORS
330
33C
102
}
330
33C
100
AcDbXrecord
280
     1
340
15
  0
LAYOUT
  5
60
102
{ACAD_XDICTIONARY
360
A9F
102
}
102
{ACAD_REACTORS
330
5E
102
}
330
5E
100
AcDbPlotSettings
  1

  2
BT8050.pc3
  4
A3_(420.00_x_297.00_MM)
  6

 40
0.7937499880790711
 41
0.7937499880790711
 42
0.79376220703125
 43
0.79376220703125
 44
420.0
 45
297.0
 46
0.0
 47
30.33
 48
0.0
 49
0.0
140
0.0
141
0.0
142
1.0
143
1.644449250060736
 70
 11956
 72
     1
 73
     0
 74
     1
  7
kuroda-monochrome.ctb
 75
     0
147
0.6081063310181606
148
0.023307648887112
149
386.0161550451508
100
AcDbLayout
  1
Model
 70
     1
 71
     0
 10
0.0
 20
0.0
 11
12.0
 21
9.0
 12
0.0
 22
0.0
 32
0.0
 14
0.0
 24
0.0
 34
0.0
 15
0.0
 25
0.0
 35
0.0
146
0.0
 13
0.0
 23
0.0
 33
0.0
 16
1.0
 26
0.0
 36
0.0
 17
0.0
 27
1.0
 37
0.0
 76
     0
330
18
  0
LAYOUT
  5
61
102
{ACAD_XDICTIONARY
360
AA1
102
}
102
{ACAD_REACTORS
330
5E
102
}
330
5E
100
AcDbPlotSettings
  1

  2
\\BLUEWAVE2\EPSON LP-9200SX
  4

  6

 40
0.0
 41
0.0
 42
0.0
 43
0.0
 44
0.0
 45
0.0
 46
0.0
 47
0.0
 48
0.0
 49
0.0
140
0.0
141
0.0
142
1.0
143
1.0
 70
   688
 72
     0
 73
     0
 74
     5
  7
kuroda-monochrome.ctb
 75
    16
147
1.0
148
0.0
149
0.0
100
AcDbLayout
  1
ﾚｲｱｳﾄ1
 70
     1
 71
     1
 10
0.0
 20
0.0
 11
420.0
 21
297.0
 12
0.0
 22
0.0
 32
0.0
 14
1.000000000000000E+20
 24
1.000000000000000E+20
 34
1.000000000000000E+20
 15
-1.000000000000000E+20
 25
-1.000000000000000E+20
 35
-1.000000000000000E+20
146
0.0
 13
0.0
 23
0.0
 33
0.0
 16
1.0
 26
0.0
 36
0.0
 17
0.0
 27
1.0
 37
0.0
 76
     0
330
15
  0
MLINESTYLE
  5
1C
102
{ACAD_REACTORS
330
1B
102
}
330
1B
100
AcDbMlineStyle
  2
STANDARD
 70
     0
  3

 62
   256
 51
90.0
 52
90.0
 71
     2
 49
0.5
 62
   256
  6
BYLAYER
 49
-0.5
 62
   256
  6
BYLAYER
  0
ACDBPLACEHOLDER
  5
5D
102
{ACAD_REACTORS
330
5C
102
}
330
5C
  0
TABLESTYLE
  5
8F4
102
{ACAD_REACTORS
330
8F3
102
}
330
8F3
100
AcDbTableStyle
  3
Standard
 70
     0
 71
     0
 40
1.5
 41
1.5
280
     0
281
     0
  7
STANDARD
140
4.5
170
     2
 62
     0
 63
     7
283
     0
274
    -2
284
     1
 64
     0
275
    -2
285
     1
 65
     0
276
    -2
286
     1
 66
     0
277
    -2
287
     1
 67
     0
278
    -2
288
     1
 68
     0
279
    -2
289
     1
 69
     0
  7
STANDARD
140
6.0
170
     5
 62
     0
 63
     7
283
     0
274
    -2
284
     1
 64
     0
275
    -2
285
     1
 65
     0
276
    -2
286
     1
 66
     0
277
    -2
287
     1
 67
     0
278
    -2
288
     1
 68
     0
279
    -2
289
     1
 69
     0
  7
STANDARD
140
4.5
170
     5
 62
     0
 63
     7
283
     0
274
    -2
284
     1
 64
     0
275
    -2
285
     1
 65
     0
276
    -2
286
     1
 66
     0
277
    -2
287
     1
 67
     0
278
    -2
288
     1
 68
     0
279
    -2
289
     1
 69
     0
  0
DICTIONARYVAR
  5
93F
102
{ACAD_REACTORS
330
385
102
}
330
385
100
DictionaryVariables
280
     0
  1
STANDARD
  0
DICTIONARYVAR
  5
9B2
102
{ACAD_REACTORS
330
385
102
}
330
385
100
DictionaryVariables
280
     0
  1
1
  0
DICTIONARYVAR
  5
386
102
{ACAD_REACTORS
330
385
102
}
330
385
100
DictionaryVariables
280
     0
  1
0
  0
DICTIONARYVAR
  5
9B3
102
{ACAD_REACTORS
330
385
102
}
330
385
100
DictionaryVariables
280
     0
  1

  0
DICTIONARY
  5
39C
102
{ACAD_REACTORS
330
397
102
}
330
397
100
AcDbDictionary
281
     1
  0
XRECORD
  5
90C
102
{ACAD_REACTORS
330
397
102
}
330
397
100
AcDbXrecord
280
     1
 90
-1023410169
  0
XRECORD
  5
2FC
102
{ACAD_REACTORS
330
2FB
102
}
330
2FB
100
AcDbXrecord
280
     1
  1
PV
 40
1.0
 50
0.0
 51
0.0
 52
0.0
 53
0.0
  0
DICTIONARY
  5
A9F
330
60
100
AcDbDictionary
280
     1
281
     1
  3
ACAD_XREC_ROUNDTRIP
360
AA0
  0
DICTIONARY
  5
AA1
330
61
100
AcDbDictionary
280
     1
281
     1
  3
ACAD_XREC_ROUNDTRIP
360
AA2
  0
XRECORD
  5
AA0
102
{ACAD_REACTORS
330
A9F
102
}
330
A9F
100
AcDbXrecord
280
     1
102
SHADEPLOT
 70
     0
102
SHADEPLOTRESLEVEL
 70
     2
102
SHADEPLOTCUSTOMDPI
 70
   200
  0
XRECORD
  5
AA2
102
{ACAD_REACTORS
330
AA1
102
}
330
AA1
100
AcDbXrecord
280
     1
102
SHADEPLOT
 70
     0
102
SHADEPLOTRESLEVEL
 70
     2
102
SHADEPLOTCUSTOMDPI
 70
   300
  0
ENDSEC
  0
EOF
