  0
SECTION
  2
HEADER
  9
$ACADVER
  1
AC1015
  9
$ACADMAINTVER
 70
    20
  9
$DWGCODEPAGE
  3
ANSI_932
  9
$INSBASE
 10
0.0
 20
0.0
 30
0.0
  9
$EXTMIN
 10
-0.014664181732087
 20
-459.5170289316012
 30
-0.000000000000013
  9
$EXTMAX
 10
883.5196828974787
 20
0.0136034164518151
 30
0.0000000000000023
  9
$LIMMIN
 10
0.0
 20
0.0
  9
$LIMMAX
 10
0.0
 20
0.0
  9
$ORTHOMODE
 70
     0
  9
$REGENMODE
 70
     1
  9
$FILLMODE
 70
     1
  9
$QTEXTMODE
 70
     0
  9
$MIRRTEXT
 70
     1
  9
$LTSCALE
 40
1.0
  9
$ATTMODE
 70
     1
  9
$TEXTSIZE
 40
2.5
  9
$TRACEWID
 40
1.0
  9
$TEXTSTYLE
  7
CONVERT
  9
$CLAYER
  8
0
  9
$CELTYPE
  6
BYLAYER
  9
$CECOLOR
 62
   256
  9
$CELTSCALE
 40
1.0
  9
$DISPSILH
 70
     0
  9
$DIMSCALE
 40
1.0
  9
$DIMASZ
 40
3.0
  9
$DIMEXO
 40
1.0
  9
$DIMDLI
 40
7.0
  9
$DIMRND
 40
0.0
  9
$DIMDLE
 40
0.0
  9
$DIMEXE
 40
2.0
  9
$DIMTP
 40
0.0
  9
$DIMTM
 40
0.0
  9
$DIMTXT
 40
2.799999999999999
  9
$DIMCEN
 40
0.0
  9
$DIMTSZ
 40
0.0
  9
$DIMTOL
 70
     0
  9
$DIMLIM
 70
     0
  9
$DIMTIH
 70
     0
  9
$DIMTOH
 70
     0
  9
$DIMSE1
 70
     0
  9
$DIMSE2
 70
     0
  9
$DIMTAD
 70
     1
  9
$DIMZIN
 70
     0
  9
$DIMBLK
  1

  9
$DIMASO
 70
     1
  9
$DIMSHO
 70
     1
  9
$DIMPOST
  1

  9
$DIMAPOST
  1

  9
$DIMALT
 70
     0
  9
$DIMALTD
 70
     4
  9
$DIMALTF
 40
0.0394
  9
$DIMLFAC
 40
1.0
  9
$DIMTOFL
 70
     1
  9
$DIMTVP
 40
0.0
  9
$DIMTIX
 70
     0
  9
$DIMSOXD
 70
     0
  9
$DIMSAH
 70
     1
  9
$DIMBLK1
  1
Open30
  9
$DIMBLK2
  1
Open30
  9
$DIMSTYLE
  2
STANDARD
  9
$DIMCLRD
 70
    44
  9
$DIMCLRE
 70
    44
  9
$DIMCLRT
 70
    44
  9
$DIMTFAC
 40
1.0
  9
$DIMGAP
 40
0.7
  9
$DIMJUST
 70
     0
  9
$DIMSD1
 70
     0
  9
$DIMSD2
 70
     0
  9
$DIMTOLJ
 70
     1
  9
$DIMTZIN
 70
     0
  9
$DIMALTZ
 70
     0
  9
$DIMALTTZ
 70
     0
  9
$DIMUPT
 70
     0
  9
$DIMDEC
 70
     3
  9
$DIMTDEC
 70
     3
  9
$DIMALTU
 70
     8
  9
$DIMALTTD
 70
     4
  9
$DIMTXSTY
  7
STANDARD
  9
$DIMAUNIT
 70
     0
  9
$DIMADEC
 70
     0
  9
$DIMALTRND
 40
0.0
  9
$DIMAZIN
 70
     0
  9
$DIMDSEP
 70
    46
  9
$DIMATFIT
 70
     0
  9
$DIMFRAC
 70
     0
  9
$DIMLDRBLK
  1
Open30
  9
$DIMLUNIT
 70
     2
  9
$DIMLWD
 70
    -2
  9
$DIMLWE
 70
    -2
  9
$DIMTMOVE
 70
     0
  9
$LUNITS
 70
     2
  9
$LUPREC
 70
     4
  9
$SKETCHINC
 40
1.0
  9
$FILLETRAD
 40
10.0
  9
$AUNITS
 70
     0
  9
$AUPREC
 70
     0
  9
$MENU
  1
.
  9
$ELEVATION
 40
0.0
  9
$PELEVATION
 40
0.0
  9
$THICKNESS
 40
0.0
  9
$LIMCHECK
 70
     0
  9
$CHAMFERA
 40
10.0
  9
$CHAMFERB
 40
10.0
  9
$CHAMFERC
 40
20.0
  9
$CHAMFERD
 40
0.0
  9
$SKPOLY
 70
     0
  9
$TDCREATE
 40
2451067.751276933
  9
$TDUCREATE
 40
2451067.376276933
  9
$TDUPDATE
 40
2454966.690250556
  9
$TDUUPDATE
 40
2454966.315250556
  9
$TDINDWG
 40
0.3691588657
  9
$TDUSRTIMER
 40
0.3691588657
  9
$USRTIMER
 70
     1
  9
$ANGBASE
 50
0.0
  9
$ANGDIR
 70
     0
  9
$PDMODE
 70
     1
  9
$PDSIZE
 40
0.0
  9
$PLINEWID
 40
0.0
  9
$SPLFRAME
 70
     0
  9
$SPLINETYPE
 70
     6
  9
$SPLINESEGS
 70
     8
  9
$HANDSEED
  5
1447
  9
$SURFTAB1
 70
     6
  9
$SURFTAB2
 70
     6
  9
$SURFTYPE
 70
     6
  9
$SURFU
 70
     6
  9
$SURFV
 70
     6
  9
$UCSBASE
  2

  9
$UCSNAME
  2

  9
$UCSORG
 10
0.0
 20
0.0
 30
0.0
  9
$UCSXDIR
 10
1.0
 20
0.0
 30
0.0
  9
$UCSYDIR
 10
0.0
 20
1.0
 30
0.0
  9
$UCSORTHOREF
  2

  9
$UCSORTHOVIEW
 70
     0
  9
$UCSORGTOP
 10
0.0
 20
0.0
 30
0.0
  9
$UCSORGBOTTOM
 10
0.0
 20
0.0
 30
0.0
  9
$UCSORGLEFT
 10
0.0
 20
0.0
 30
0.0
  9
$UCSORGRIGHT
 10
0.0
 20
0.0
 30
0.0
  9
$UCSORGFRONT
 10
0.0
 20
0.0
 30
0.0
  9
$UCSORGBACK
 10
0.0
 20
0.0
 30
0.0
  9
$PUCSBASE
  2

  9
$PUCSNAME
  2

  9
$PUCSORG
 10
0.0
 20
0.0
 30
0.0
  9
$PUCSXDIR
 10
1.0
 20
0.0
 30
0.0
  9
$PUCSYDIR
 10
0.0
 20
1.0
 30
0.0
  9
$PUCSORTHOREF
  2

  9
$PUCSORTHOVIEW
 70
     0
  9
$PUCSORGTOP
 10
0.0
 20
0.0
 30
0.0
  9
$PUCSORGBOTTOM
 10
0.0
 20
0.0
 30
0.0
  9
$PUCSORGLEFT
 10
0.0
 20
0.0
 30
0.0
  9
$PUCSORGRIGHT
 10
0.0
 20
0.0
 30
0.0
  9
$PUCSORGFRONT
 10
0.0
 20
0.0
 30
0.0
  9
$PUCSORGBACK
 10
0.0
 20
0.0
 30
0.0
  9
$USERI1
 70
     0
  9
$USERI2
 70
     0
  9
$USERI3
 70
     0
  9
$USERI4
 70
     0
  9
$USERI5
 70
     0
  9
$USERR1
 40
0.0
  9
$USERR2
 40
0.0
  9
$USERR3
 40
0.0
  9
$USERR4
 40
0.0
  9
$USERR5
 40
0.0
  9
$WORLDVIEW
 70
     1
  9
$SHADEDGE
 70
     3
  9
$SHADEDIF
 70
    70
  9
$TILEMODE
 70
     1
  9
$MAXACTVP
 70
    48
  9
$PINSBASE
 10
0.0
 20
0.0
 30
0.0
  9
$PLIMCHECK
 70
     0
  9
$PEXTMIN
 10
1.000000000000000E+20
 20
1.000000000000000E+20
 30
1.000000000000000E+20
  9
$PEXTMAX
 10
-1.000000000000000E+20
 20
-1.000000000000000E+20
 30
-1.000000000000000E+20
  9
$PLIMMIN
 10
0.0
 20
0.0
  9
$PLIMMAX
 10
420.0
 20
297.0
  9
$UNITMODE
 70
     0
  9
$VISRETAIN
 70
     1
  9
$PLINEGEN
 70
     0
  9
$PSLTSCALE
 70
     1
  9
$TREEDEPTH
 70
  3020
  9
$CMLSTYLE
  2
STANDARD
  9
$CMLJUST
 70
     0
  9
$CMLSCALE
 40
20.0
  9
$PROXYGRAPHICS
 70
     1
  9
$MEASUREMENT
 70
     1
  9
$CELWEIGHT
370
    -1
  9
$ENDCAPS
280
     0
  9
$JOINSTYLE
280
     0
  9
$LWDISPLAY
290
     0
  9
$INSUNITS
 70
     0
  9
$HYPERLINKBASE
  1

  9
$STYLESHEET
  1
kuroda-monochrome.ctb
  9
$XEDIT
290
     1
  9
$CEPSNTYPE
380
     0
  9
$PSTYLEMODE
290
     1
  9
$FINGERPRINTGUID
  2
{881B1582-4BC7-11D3-AB9D-00805F8B7187}
  9
$VERSIONGUID
  2
{EE6BA28F-7B7B-47B4-BC2B-4785181D2EC1}
  9
$EXTNAMES
290
     1
  9
$PSVPSCALE
 40
0.0
  9
$OLESTARTUP
290
     0
  0
ENDSEC
  0
SECTION
  2
CLASSES
  0
CLASS
  1
ACDBDICTIONARYWDFLT
  2
AcDbDictionaryWithDefault
  3
ObjectDBX Classes
 90
        0
280
     0
281
     0
  0
CLASS
  1
ACDBPLACEHOLDER
  2
AcDbPlaceHolder
  3
ObjectDBX Classes
 90
        0
280
     0
281
     0
  0
CLASS
  1
LAYOUT
  2
AcDbLayout
  3
ObjectDBX Classes
 90
        0
280
     0
281
     0
  0
CLASS
  1
ACME_DOCUMENT
  2
AcMeDbDoc
  3
AcMeServices
 90
     1024
280
     0
281
     0
  0
CLASS
  1
AMGSETTINGSOBJ
  2
AmgSettingsObj
  3
"AcadM|Product Description: AutoCAD Mechanical|Company: Autodesk, Inc."
 90
     1024
280
     0
281
     0
  0
CLASS
  1
AMGOBJPROPCFG
  2
AmgObjPropCfg
  3
"AmgLay|Product Description: AutoCAD Mechanical|Company: Autodesk, Inc."
 90
     1025
280
     0
281
     0
  0
CLASS
  1
ACMESCOPE
  2
AcMeScope
  3
AcMeServices
 90
     1024
280
     0
281
     0
  0
CLASS
  1
ACMECOMMANDHISTORY
  2
AcMeCommandHistory
  3
AcMeServices
 90
     1024
280
     0
281
     0
  0
CLASS
  1
ACIMSYSVARMAN
  2
AcImSysVarManager
  3
AcMeServices
 90
     1024
280
     0
281
     0
  0
CLASS
  1
ACIMINTSYSVAR
  2
AcImIntSysVar
  3
AcMeServices
 90
     1024
280
     0
281
     0
  0
CLASS
  1
ACMEDRAWINGMAN
  2
AcMeDrawingMan
  3
AcMeServices
 90
     1024
280
     0
281
     0
  0
CLASS
  1
ACMEVIEW
  2
AcMeView
  3
AcMeServices
 90
     1024
280
     0
281
     0
  0
CLASS
  1
ACDBENTITYCACHE
  2
AcMeEntityCache
  3
AcMeServices
 90
     1024
280
     0
281
     0
  0
CLASS
  1
GSMANAGER
  2
AcMeGSManager
  3
AcMeServices
 90
     1024
280
     0
281
     0
  0
CLASS
  1
AMDTINTERNALREACTOR
  2
AmdtInternalReactor
  3
AcMeServices
 90
     1024
280
     0
281
     0
  0
CLASS
  1
ACMESTATEMGR
  2
AcMeStateMgr
  3
AcMeServices
 90
     1024
280
     0
281
     0
  0
CLASS
  1
ACGREFMASTER
  2
AcGrefMaster
  3
AcAttribServices
 90
     1024
280
     0
281
     0
  0
CLASS
  1
AM_DRAWING_MGR
  2
AcDmDwgMgr
  3
AcMechDwgViewMgmt
 90
     1024
280
     0
281
     0
  0
CLASS
  1
AM_DWG_DOCUMENT
  2
AcDmDwgDocument
  3
AcMechDwgViewMgmt
 90
     1024
280
     0
281
     0
  0
CLASS
  1
AM_DWG_SHEET
  2
AcDmSheet
  3
AcMechDwgViewMgmt
 90
     1024
280
     0
281
     0
  0
CLASS
  1
AM_VIEWDIMPARMAP
  2
AcDmViewDimParMap
  3
AcMechDwgViewMgmt
 90
     1024
280
     0
281
     0
  0
CLASS
  1
ACIMREALSYSVAR
  2
AcImRealSysVar
  3
AcMeServices
 90
     1024
280
     0
281
     0
  0
CLASS
  1
AM_DWGMGR_NAME
  2
AcDmDwgMgrName
  3
AcMechDwgViewMgmt
 90
     1024
280
     0
281
     0
  0
CLASS
  1
ACME_DATABASE
  2
AcMeDbDatabase
  3
AcMeServices
 90
     1024
280
     0
281
     0
  0
CLASS
  1
ACRFINSADJUSTERMGR
  2
AcRfInsAdjusterMgr
  3
AcMeServices
 90
     1024
280
     0
281
     0
  0
CLASS
  1
ACGREFACADMASTER
  2
AcGrefacadMaster
  3
AcGrefServices
 90
     1024
280
     0
281
     0
  0
CLASS
  1
AMDTMENUSTATEMGR
  2
AmdtMenuStateMgr
  3
McadcomServices
 90
     1024
280
     0
281
     0
  0
CLASS
  1
AMDTMCOMMENUSTATE
  2
AmdtMcomMenuState
  3
McadcomServices
 90
     1024
280
     0
281
     0
  0
CLASS
  1
AMIMASTER
  2
AmiMaster
  3
AmiServices
 90
     1024
280
     0
281
     0
  0
CLASS
  1
MAPIAMMOUDLE
  2
MApiAmModule
  3
MApiAmServices
 90
     1024
280
     0
281
     0
  0
CLASS
  1
AMDTADMENUSTATE
  2
AmdtAdMenuState
  3
DesignerServices
 90
     1024
280
     0
281
     0
  0
CLASS
  1
ADAPPL
  2
AcAdAppl
  3
DesignerServices
 90
     1024
280
     0
281
     0
  0
CLASS
  1
DEPMGR
  2
AcAdDepMgr
  3
DesignerServices
 90
     1024
280
     0
281
     0
  0
CLASS
  1
PARAMMGR
  2
AcAdParamMgr
  3
DesignerServices
 90
     1024
280
     0
281
     0
  0
CLASS
  1
PARAMSCOPE
  2
AcAdParamScope
  3
DesignerServices
 90
     1024
280
     0
281
     0
  0
CLASS
  1
NAMEDAPPL
  2
AcAdNamedAppl
  3
DesignerServices
 90
     1024
280
     0
281
     0
  0
CLASS
  1
AMDTDMMENUSTATE
  2
AmdtDmMenuState
  3
AcMechDwgViewMgmt
 90
     1024
280
     0
281
     0
  0
CLASS
  1
AMDTAMMENUSTATE
  2
AmdtAmMenuState
  3
DesignerAssemblies
 90
     1024
280
     0
281
     0
  0
CLASS
  1
ACIMSTRSYSVAR
  2
AcImStrSysVar
  3
AcMeServices
 90
     1024
280
     0
281
     0
  0
CLASS
  1
ACAMPROJECT
  2
AcAmProject
  3
DesignerAssemblies
 90
     1024
280
     0
281
     0
  0
CLASS
  1
ACAMGRCOMPDEF
  2
AcAmGrCompDef
  3
DesignerAssemblies
 90
     1024
280
     0
281
     0
  0
CLASS
  1
ACCMCONTEXT
  2
AcCmContext
  3
DesignerAssemblies
 90
     1024
280
     0
281
     0
  0
CLASS
  1
ACAMCOMPDEF
  2
AcAmCompDef
  3
DesignerAssemblies
 90
     1024
280
     0
281
     0
  0
CLASS
  1
ACAMCOMPDEFMGR
  2
AcAmCompDefMgr
  3
DesignerAssemblies
 90
     1024
280
     0
281
     0
  0
CLASS
  1
AMCONTEXTMGR
  2
AcAmContextMgr
  3
DesignerAssemblies
 90
     1024
280
     0
281
     0
  0
CLASS
  1
ACAMCONTEXTMODELER
  2
AcAmContextModeler
  3
DesignerAssemblies
 90
     1024
280
     0
281
     0
  0
CLASS
  1
ACMDATADICTIONARY
  2
AcmDataDictionary
  3
"AcmSymBB|Product Description: AutoCAD Mechanical|Company: Autodesk, Inc."
 90
     1024
280
     0
281
     0
  0
CLASS
  1
CATALOGSTATE
  2
AcAmCatalogState
  3
DesignerAssemblies
 90
     1024
280
     0
281
     0
  0
CLASS
  1
ACAMGRCOMPDEFSET
  2
AcAmGrCompDefSet
  3
DesignerAssemblies
 90
     1024
280
     0
281
     0
  0
CLASS
  1
AMDTBROWSERDBTAB
  2
AmdtBrowserDbTab
  3
McadcomServices
 90
     1024
280
     0
281
     0
  0
CLASS
  1
CBROWSERAPPOBJECT
  2
CBrowserAppObject
  3
McadcomServices
 90
     1024
280
     0
281
     0
  0
CLASS
  1
DM_PLACEHOLDER
  2
AcDmSelsetPlaceholder
  3
AcMechDwgViewMgmt
 90
     1024
280
     0
281
     0
  0
CLASS
  1
ACMSTANDARDANSI
  2
AcmStandardANSI
  3
"Amdt_StdImp|Product Description: AutoCAD Mechanical|Company: Autodesk, Inc."
 90
     1024
280
     0
281
     0
  0
CLASS
  1
ACMSURFSTANDARDANSI
  2
AcmSurfTextStdANSI
  3
"Amdt_StdImp|Product Description: AutoCAD Mechanical|Company: Autodesk, Inc."
 90
     1024
280
     0
281
     0
  0
CLASS
  1
ACMFCFSTANDARDANSI
  2
AcmFCFStdANSI
  3
"Amdt_StdImp|Product Description: AutoCAD Mechanical|Company: Autodesk, Inc."
 90
     1024
280
     0
281
     0
  0
CLASS
  1
ACMWELDSTANDARDANSI
  2
AcmWeldingStdANSI
  3
"Amdt_StdImp|Product Description: AutoCAD Mechanical|Company: Autodesk, Inc."
 90
     1024
280
     0
281
     0
  0
CLASS
  1
ACMIDSTANDARDANSI
  2
AcmIdStdANSI
  3
"Amdt_StdImp|Product Description: AutoCAD Mechanical|Company: Autodesk, Inc."
 90
     1024
280
     0
281
     0
  0
CLASS
  1
ACMDATUMSTANDARDANSI
  2
AcmDatumStdANSI
  3
"Amdt_StdImp|Product Description: AutoCAD Mechanical|Company: Autodesk, Inc."
 90
     1024
280
     0
281
     0
  0
CLASS
  1
ACMBOMSTANDARDANSI
  2
AcmBOMStdANSI
  3
"Amdt_StdImp|Product Description: AutoCAD Mechanical|Company: Autodesk, Inc."
 90
     1024
280
     0
281
     0
  0
CLASS
  1
ACMDETAILSTANDARDANSI
  2
AmdtDetailSymStdANSI
  3
"Amdt_StdImp|Product Description: AutoCAD Mechanical|Company: Autodesk, Inc."
 90
     1024
280
     0
281
     0
  0
CLASS
  1
ACMSECTIONSTANDARDANSI
  2
AmdtSectionSymStdANSI
  3
"Amdt_StdImp|Product Description: AutoCAD Mechanical|Company: Autodesk, Inc."
 90
     1024
280
     0
281
     0
  0
CLASS
  1
ACMCENTERLINESTANDARDANSI
  2
AmdtCenterLineStdANSI
  3
"Amdt_StdImp|Product Description: AutoCAD Mechanical|Company: Autodesk, Inc."
 90
     1024
280
     0
281
     0
  0
CLASS
  1
ACAMGLAYSTD
  2
AcAmgLayStd
  3
"AmgLay|Product Description: AutoCAD Mechanical|Company: Autodesk, Inc."
 90
     1024
280
     0
281
     0
  0
CLASS
  1
ACAMGDIMSTD
  2
AcAmgDimStd
  3
"AmgDim|Product Description: AutoCAD Mechanical|Company: Autodesk, Inc."
 90
     1024
280
     0
281
     0
  0
CLASS
  1
ACAMGTITLESTD
  2
AcAmgTitleStd
  3
"AmgTitle|Product Description: AutoCAD Mechanical|Company: Autodesk, Inc."
 90
     4095
280
     0
281
     0
  0
CLASS
  1
ACMNOTESTANDARDANSI
  2
AmdtNoteStdANSI
  3
"Amdt_StdImp|Product Description: AutoCAD Mechanical|Company: Autodesk, Inc."
 90
     1024
280
     0
281
     0
  0
CLASS
  1
ACMTHREADLINESTANDARDANSI
  2
AmdtThreadLineStdANSI
  3
"Amdt_StdImp|Product Description: AutoCAD Mechanical|Company: Autodesk, Inc."
 90
     1024
280
     0
281
     0
  0
CLASS
  1
ACMSTANDARDISO
  2
AcmStandardISO
  3
"Amdt_StdImp|Product Description: AutoCAD Mechanical|Company: Autodesk, Inc."
 90
     1024
280
     0
281
     0
  0
CLASS
  1
AMDTEDGESTANDARDISO
  2
AmdtEdgeStdISO
  3
"Amdt_StdImp|Product Description: AutoCAD Mechanical|Company: Autodesk, Inc."
 90
     1024
280
     0
281
     0
  0
CLASS
  1
ACMSURFSTANDARDISO
  2
AcmSurfTextStdISO
  3
"Amdt_StdImp|Product Description: AutoCAD Mechanical|Company: Autodesk, Inc."
 90
     1024
280
     0
281
     0
  0
CLASS
  1
ACMFCFSTANDARDISO
  2
AcmFCFStdISO
  3
"Amdt_StdImp|Product Description: AutoCAD Mechanical|Company: Autodesk, Inc."
 90
     1024
280
     0
281
     0
  0
CLASS
  1
ACMWELDSTANDARDISO
  2
AcmWeldingStdISO
  3
"Amdt_StdImp|Product Description: AutoCAD Mechanical|Company: Autodesk, Inc."
 90
     1024
280
     0
281
     0
  0
CLASS
  1
ACMIDSTANDARDISO
  2
AcmIdStdISO
  3
"Amdt_StdImp|Product Description: AutoCAD Mechanical|Company: Autodesk, Inc."
 90
     1024
280
     0
281
     0
  0
CLASS
  1
ACMDATUMSTANDARDISO
  2
AcmDatumStdISO
  3
"Amdt_StdImp|Product Description: AutoCAD Mechanical|Company: Autodesk, Inc."
 90
     1024
280
     0
281
     0
  0
CLASS
  1
ACMBOMSTANDARDISO
  2
AcmBOMStdISO
  3
"Amdt_StdImp|Product Description: AutoCAD Mechanical|Company: Autodesk, Inc."
 90
     1024
280
     0
281
     0
  0
CLASS
  1
ACMDETAILSTANDARDISO
  2
AmdtDetailSymStdISO
  3
"Amdt_StdImp|Product Description: AutoCAD Mechanical|Company: Autodesk, Inc."
 90
     1024
280
     0
281
     0
  0
CLASS
  1
ACMSECTIONSTANDARDISO
  2
AmdtSectionSymStdISO
  3
"Amdt_StdImp|Product Description: AutoCAD Mechanical|Company: Autodesk, Inc."
 90
     1024
280
     0
281
     0
  0
CLASS
  1
ACMCENTERLINESTANDARDISO
  2
AmdtCenterLineStdISO
  3
"Amdt_StdImp|Product Description: AutoCAD Mechanical|Company: Autodesk, Inc."
 90
     1024
280
     0
281
     0
  0
CLASS
  1
ACMNOTESTANDARDISO
  2
AmdtNoteStdISO
  3
"Amdt_StdImp|Product Description: AutoCAD Mechanical|Company: Autodesk, Inc."
 90
     1024
280
     0
281
     0
  0
CLASS
  1
ACMTHREADLINESTANDARDISO
  2
AmdtThreadLineStdISO
  3
"Amdt_StdImp|Product Description: AutoCAD Mechanical|Company: Autodesk, Inc."
 90
     1024
280
     0
281
     0
  0
CLASS
  1
ACMSTANDARDJIS
  2
AcmStandardJIS
  3
"Amdt_StdImp|Product Description: AutoCAD Mechanical|Company: Autodesk, Inc."
 90
     1024
280
     0
281
     0
  0
CLASS
  1
ACMSURFSTANDARDJIS
  2
AcmSurfTextStdJIS
  3
"Amdt_StdImp|Product Description: AutoCAD Mechanical|Company: Autodesk, Inc."
 90
     1024
280
     0
281
     0
  0
CLASS
  1
ACMFCFSTANDARDJIS
  2
AcmFCFStdJIS
  3
"Amdt_StdImp|Product Description: AutoCAD Mechanical|Company: Autodesk, Inc."
 90
     1024
280
     0
281
     0
  0
CLASS
  1
ACMWELDSTANDARDJIS
  2
AcmWeldingStdJIS
  3
"Amdt_StdImp|Product Description: AutoCAD Mechanical|Company: Autodesk, Inc."
 90
     1024
280
     0
281
     0
  0
CLASS
  1
ACMIDSTANDARDJIS
  2
AcmIdStdJIS
  3
"Amdt_StdImp|Product Description: AutoCAD Mechanical|Company: Autodesk, Inc."
 90
     1024
280
     0
281
     0
  0
CLASS
  1
ACMDATUMSTANDARDJIS
  2
AcmDatumStdJIS
  3
"Amdt_StdImp|Product Description: AutoCAD Mechanical|Company: Autodesk, Inc."
 90
     1024
280
     0
281
     0
  0
CLASS
  1
ACMBOMSTANDARDJIS
  2
AcmBOMStdJIS
  3
"Amdt_StdImp|Product Description: AutoCAD Mechanical|Company: Autodesk, Inc."
 90
     1024
280
     0
281
     0
  0
CLASS
  1
ACMDETAILSTANDARDJIS
  2
AmdtDetailSymStdJIS
  3
"Amdt_StdImp|Product Description: AutoCAD Mechanical|Company: Autodesk, Inc."
 90
     1024
280
     0
281
     0
  0
CLASS
  1
ACMSECTIONSTANDARDJIS
  2
AmdtSectionSymStdJIS
  3
"Amdt_StdImp|Product Description: AutoCAD Mechanical|Company: Autodesk, Inc."
 90
     1024
280
     0
281
     0
  0
CLASS
  1
ACMCENTERLINESTANDARDJIS
  2
AmdtCenterLineStdJIS
  3
"Amdt_StdImp|Product Description: AutoCAD Mechanical|Company: Autodesk, Inc."
 90
     1024
280
     0
281
     0
  0
CLASS
  1
ACMTHREADLINESTANDARDJIS
  2
AmdtThreadLineStdJIS
  3
"Amdt_StdImp|Product Description: AutoCAD Mechanical|Company: Autodesk, Inc."
 90
     1024
280
     0
281
     0
  0
CLASS
  1
ACMNOTESTANDARDJIS
  2
AmdtNoteStdJIS
  3
"Amdt_StdImp|Product Description: AutoCAD Mechanical|Company: Autodesk, Inc."
 90
     1024
280
     0
281
     0
  0
CLASS
  1
ACAMGFILTERDAT
  2
AcAmgFilterDat
  3
"AcadM|Product Description: AutoCAD Mechanical|Company: Autodesk, Inc."
 90
    33792
280
     0
281
     0
  0
CLASS
  1
LAYER_INDEX
  2
AcDbLayerIndex
  3
ObjectDBX Classes
 90
    32768
280
     0
281
     0
  0
CLASS
  1
IDBUFFER
  2
AcDbIdBuffer
  3
ObjectDBX Classes
 90
    32768
280
     0
281
     0
  0
CLASS
  1
TABLESTYLE
  2
AcDbTableStyle
  3
ObjectDBX Classes
 90
     4095
280
     0
281
     0
  0
CLASS
  1
DICTIONARYVAR
  2
AcDbDictionaryVar
  3
ObjectDBX Classes
 90
        0
280
     0
281
     0
  0
CLASS
  1
MATERIAL
  2
AcDbMaterial
  3
ObjectDBX Classes
 90
     1153
280
     0
281
     0
  0
CLASS
  1
VISUALSTYLE
  2
AcDbVisualStyle
  3
ObjectDBX Classes
 90
     4095
280
     0
281
     0
  0
CLASS
  1
SCALE
  2
AcDbScale
  3
ObjectDBX Classes
 90
     1153
280
     0
281
     0
  0
CLASS
  1
MLEADERSTYLE
  2
AcDbMLeaderStyle
  3
ACDB_MLEADERSTYLE_CLASS
 90
     4095
280
     0
281
     0
  0
CLASS
  1
ACMTAPERSTANDARDANSI
  2
AcmTaperStdANSI
  3
"Amdt_StdImp|Product Description: AutoCAD Mechanical|Company: Autodesk, Inc."
 90
     1024
280
     0
281
     0
  0
CLASS
  1
ACMANOOTATIONVIEWSTANDARDANSI
  2
AmdtAnViewStdANSI
  3
"Amdt_StdImp|Product Description: AutoCAD Mechanical|Company: Autodesk, Inc."
 90
     1024
280
     0
281
     0
  0
CLASS
  1
ACMTAPERSTANDARDISO
  2
AcmTaperStdISO
  3
"Amdt_StdImp|Product Description: AutoCAD Mechanical|Company: Autodesk, Inc."
 90
     1024
280
     0
281
     0
  0
CLASS
  1
ACMANOOTATIONVIEWSTANDARDISO
  2
AmdtAnViewStdISO
  3
"Amdt_StdImp|Product Description: AutoCAD Mechanical|Company: Autodesk, Inc."
 90
     1024
280
     0
281
     0
  0
CLASS
  1
ACMTAPERSTANDARDJIS
  2
AcmTaperStdJIS
  3
"Amdt_StdImp|Product Description: AutoCAD Mechanical|Company: Autodesk, Inc."
 90
     1024
280
     0
281
     0
  0
CLASS
  1
ACMANOOTATIONVIEWSTANDARDJIS
  2
AmdtAnViewStdJIS
  3
"Amdt_StdImp|Product Description: AutoCAD Mechanical|Company: Autodesk, Inc."
 90
     1024
280
     0
281
     0
  0
CLASS
  1
AMDTNOTETEMPLATEDB
  2
AmdtNoteTemplateDB
  3
AcmSymBB|Product Description: AutoCAD Mechanical|Company: Autodesk, Inc.
 90
     1024
280
     0
281
     0
  0
CLASS
  1
CAMSSTRUCTBTNSTATE
  2
StructBtnState
  3
DesignerAssemblies
 90
     1024
280
     0
281
     0
  0
CLASS
  1
CELLSTYLEMAP
  2
AcDbCellStyleMap
  3
ObjectDBX Classes
 90
     1152
280
     0
281
     0
  0
ENDSEC
  0
SECTION
  2
TABLES
  0
TABLE
  2
VPORT
  5
8
330
0
100
AcDbSymbolTable
 70
     1
  0
VPORT
  5
12D0
330
8
100
AcDbSymbolTableRecord
100
AcDbViewportTableRecord
  2
*Active
 70
     0
 10
0.0
 20
0.0
 11
1.0
 21
1.0
 12
441.7525093578734
 22
-229.7517127575747
 13
0.0
 23
0.0
 14
10.0
 24
10.0
 15
10.0
 25
10.0
 16
0.0
 26
0.0
 36
1.0
 17
0.0
 27
0.0
 37
0.0
 40
559.6277917672247
 41
1.586614173228346
 42
50.0
 43
0.0
 44
0.0
 50
0.0
 51
0.0
 71
     0
 72
   100
 73
     1
 74
     1
 75
     0
 76
     0
 77
     0
 78
     0
281
     0
 65
     1
110
0.0
120
0.0
130
0.0
111
1.0
121
0.0
131
0.0
112
0.0
122
1.0
132
0.0
 79
     0
146
0.0
  0
ENDTAB
  0
TABLE
  2
LTYPE
  5
5
330
0
100
AcDbSymbolTable
 70
    22
  0
LTYPE
  5
12
330
5
100
AcDbSymbolTableRecord
100
AcDbLinetypeTableRecord
  2
BYBLOCK
 70
     0
  3

 72
    65
 73
     0
 40
0.0
  0
LTYPE
  5
13
330
5
100
AcDbSymbolTableRecord
100
AcDbLinetypeTableRecord
  2
BYLAYER
 70
     0
  3

 72
    65
 73
     0
 40
0.0
  0
LTYPE
  5
14
330
5
100
AcDbSymbolTableRecord
100
AcDbLinetypeTableRecord
  2
CONTINUOUS
 70
     0
  3
Solid line
 72
    65
 73
     0
 40
0.0
  0
LTYPE
  5
22
330
5
100
AcDbSymbolTableRecord
100
AcDbLinetypeTableRecord
  2
CENTER
 70
     0
  3
__ . __
 72
    65
 73
     4
 40
7.0
 49
4.0
 74
     0
 49
-1.0
 74
     0
 49
1.0
 74
     0
 49
-1.0
 74
     0
  0
LTYPE
  5
23
330
5
100
AcDbSymbolTableRecord
100
AcDbLinetypeTableRecord
  2
CENTER2
 70
     0
  3
Center (.5x) ___ _ ___ _ ___ _ ___ _ ___ _ ___
 72
    65
 73
     4
 40
28.575
 49
19.05
 74
     0
 49
-3.174999999999999
 74
     0
 49
3.174999999999999
 74
     0
 49
-3.174999999999999
 74
     0
  0
LTYPE
  5
24
330
5
100
AcDbSymbolTableRecord
100
AcDbLinetypeTableRecord
  2
PHANTOM
 70
     0
  3
Phantom ______  __  __  ______  __  __  ______
 72
    65
 73
     6
 40
63.5
 49
31.75
 74
     0
 49
-6.349999999999999
 74
     0
 49
6.349999999999999
 74
     0
 49
-6.349999999999999
 74
     0
 49
6.349999999999999
 74
     0
 49
-6.349999999999999
 74
     0
  0
LTYPE
  5
25
330
5
100
AcDbSymbolTableRecord
100
AcDbLinetypeTableRecord
  2
PHANTOM2
 70
     0
  3
Phantom (.5x) ___ _ _ ___ _ _ ___ _ _ ___ _ _
 72
    65
 73
     6
 40
31.75
 49
15.875
 74
     0
 49
-3.174999999999999
 74
     0
 49
3.174999999999999
 74
     0
 49
-3.174999999999999
 74
     0
 49
3.174999999999999
 74
     0
 49
-3.174999999999999
 74
     0
  0
LTYPE
  5
26
330
5
100
AcDbSymbolTableRecord
100
AcDbLinetypeTableRecord
  2
DASHED
 70
     0
  3
Dashed __ __ __ __ __ __ __ __ __ __ __ __ __ _
 72
    65
 73
     2
 40
19.05
 49
12.7
 74
     0
 49
-6.349999999999999
 74
     0
  0
LTYPE
  5
27
330
5
100
AcDbSymbolTableRecord
100
AcDbLinetypeTableRecord
  2
DASHED2
 70
     0
  3
Dashed (.5x) _ _ _ _ _ _ _ _ _ _ _ _ _ _ _ _ _
 72
    65
 73
     2
 40
9.524999999999998
 49
6.349999999999999
 74
     0
 49
-3.174999999999999
 74
     0
  0
LTYPE
  5
39D
330
5
100
AcDbSymbolTableRecord
100
AcDbLinetypeTableRecord
  2
AM_ISO02W050
 70
     0
  3
__ __ __ __ __ __ __ __ __ __ __ __ __ __ __
 72
    65
 73
     2
 40
7.5
 49
6.0
 74
     0
 49
-1.5
 74
     0
  0
LTYPE
  5
39E
330
5
100
AcDbSymbolTableRecord
100
AcDbLinetypeTableRecord
  2
AM_ISO08W050
 70
     0
  3
____ . ____ . ____ . ____ . ____ . ____ . ____
 72
    65
 73
     4
 40
18.0
 49
12.0
 74
     0
 49
-1.5
 74
     0
 49
3.0
 74
     0
 49
-1.5
 74
     0
  0
LTYPE
  5
39F
330
5
100
AcDbSymbolTableRecord
100
AcDbLinetypeTableRecord
  2
AM_ISO09W050
 70
     0
  3
_____ . . _____ . . _____ . . ____ .. ____
 72
    65
 73
     6
 40
22.5
 49
12.0
 74
     0
 49
-1.5
 74
     0
 49
3.0
 74
     0
 49
-1.5
 74
     0
 49
3.0
 74
     0
 49
-1.5
 74
     0
  0
LTYPE
  5
3A0
330
5
100
AcDbSymbolTableRecord
100
AcDbLinetypeTableRecord
  2
Amconstr
 70
     0
  3
_______________________
 72
    65
 73
     2
 40
9999.0
 49
9999.0
 74
     0
 49
0.0
 74
     0
  0
LTYPE
  5
3A1
330
5
100
AcDbSymbolTableRecord
100
AcDbLinetypeTableRecord
  2
AM_ISO02W050x2
 70
     0
  3
 _ _ _ _ _ _ _ _ _ _ _ _
 72
    65
 73
     2
 40
3.75
 49
3.0
 74
     0
 49
-0.75
 74
     0
  0
LTYPE
  5
3A2
330
5
100
AcDbSymbolTableRecord
100
AcDbLinetypeTableRecord
  2
AM_ISO08W050x2
 70
     0
  3
__ . __ . __ . __ . __ . __
 72
    65
 73
     4
 40
9.0
 49
6.0
 74
     0
 49
-0.75
 74
     0
 49
1.5
 74
     0
 49
-0.75
 74
     0
  0
LTYPE
  5
3A3
330
5
100
AcDbSymbolTableRecord
100
AcDbLinetypeTableRecord
  2
Amzigzag
 70
     0
  3
/\/-/\/-/\/-/\/-/\/-/\/
 72
    65
 73
     2
 40
11.0001
 49
0.0001
 74
     4
 75
   135
340
21
 46
0.04
 50
0.0
 44
0.0
 45
0.0
 49
-11.0
 74
     0
  0
LTYPE
  5
3BE
330
5
100
AcDbSymbolTableRecord
100
AcDbLinetypeTableRecord
  2
HIDDEN
 70
     0
  3
Hidden __ __ __ __ __ __ __ __ __ __ __ __ __ _
 72
    65
 73
     2
 40
9.524999999999998
 49
6.349999999999999
 74
     0
 49
-3.174999999999999
 74
     0
  0
LTYPE
  5
405
330
5
100
AcDbSymbolTableRecord
100
AcDbLinetypeTableRecord
  2
ACANSTGB
 70
     0
  3
__ . . __ . .
 72
    65
 73
     6
 40
0.35433070866
 49
0.15748031496
 74
     0
 49
-0.03937007874
 74
     0
 49
0.03937007874
 74
     0
 49
-0.03937007874
 74
     0
 49
0.03937007874
 74
     0
 49
-0.03937007874
 74
     0
  0
LTYPE
  5
406
330
5
100
AcDbSymbolTableRecord
100
AcDbLinetypeTableRecord
  2
ACANSTGL
 70
     0
  3
_ _ _ _ _
 72
    65
 73
     2
 40
0.11811023622
 49
0.07874015748
 74
     0
 49
-0.03937007874
 74
     0
  0
LTYPE
  5
422
330
5
100
AcDbSymbolTableRecord
100
AcDbLinetypeTableRecord
  2
ACISOWELD
 70
     0
  3
_ _ _ _ _
 72
    65
 73
     2
 40
2.0
 49
2.0
 74
     0
 49
-1.0
 74
     0
  0
LTYPE
  5
425
330
5
100
AcDbSymbolTableRecord
100
AcDbLinetypeTableRecord
  2
ACISOTGB
 70
     0
  3
__ . . __ . .
 72
    65
 73
     6
 40
9.0
 49
4.0
 74
     0
 49
-1.0
 74
     0
 49
1.0
 74
     0
 49
-1.0
 74
     0
 49
1.0
 74
     0
 49
-1.0
 74
     0
  0
LTYPE
  5
426
330
5
100
AcDbSymbolTableRecord
100
AcDbLinetypeTableRecord
  2
ACISOTGL
 70
     0
  3
_ _ _ _ _
 72
    65
 73
     2
 40
3.0
 49
2.0
 74
     0
 49
-1.0
 74
     0
  0
LTYPE
  5
440
330
5
100
AcDbSymbolTableRecord
100
AcDbLinetypeTableRecord
  2
ACJISTGB
 70
     0
  3
__ . . __ . .
 72
    65
 73
     6
 40
9.0
 49
4.0
 74
     0
 49
-1.0
 74
     0
 49
1.0
 74
     0
 49
-1.0
 74
     0
 49
1.0
 74
     0
 49
-1.0
 74
     0
  0
LTYPE
  5
441
330
5
100
AcDbSymbolTableRecord
100
AcDbLinetypeTableRecord
  2
ACJISTGL
 70
     0
  3
_ _ _ _ _
 72
    65
 73
     2
 40
3.0
 49
2.0
 74
     0
 49
-1.0
 74
     0
  0
ENDTAB
  0
TABLE
  2
LAYER
  5
2
330
0
100
AcDbSymbolTable
 70
     7
  0
LAYER
  5
E
102
{ACAD_XDICTIONARY
360
1422
102
}
330
2
100
AcDbSymbolTableRecord
100
AcDbLayerTableRecord
  2
0
 70
     0
 62
     7
  6
CONTINUOUS
370
    -3
390
5D
  0
LAYER
  5
74
330
2
100
AcDbSymbolTableRecord
100
AcDbLayerTableRecord
  2
Defpoints
 70
     0
 62
     7
  6
CONTINUOUS
290
     0
370
    -3
390
5D
  0
LAYER
  5
75
102
{ACAD_XDICTIONARY
360
1424
102
}
330
2
100
AcDbSymbolTableRecord
100
AcDbLayerTableRecord
  2
PV0001_1
 70
     0
 62
     7
  6
CONTINUOUS
370
    -3
390
5D
  0
LAYER
  5
452
102
{ACAD_XDICTIONARY
360
1426
102
}
330
2
100
AcDbSymbolTableRecord
100
AcDbLayerTableRecord
  2
outline
 70
     0
 62
     4
  6
CONTINUOUS
370
    50
390
5D
  0
LAYER
  5
4AF
102
{ACAD_XDICTIONARY
360
1428
102
}
330
2
100
AcDbSymbolTableRecord
100
AcDbLayerTableRecord
  2
dimension
 70
     0
 62
     7
  6
CONTINUOUS
370
    25
390
5D
  0
LAYER
  5
5AB
102
{ACAD_XDICTIONARY
360
142A
102
}
330
2
100
AcDbSymbolTableRecord
100
AcDbLayerTableRecord
  2
AM_CL
 70
     0
 62
     1
  6
Amconstr
370
    25
390
5D
  0
LAYER
  5
684
102
{ACAD_XDICTIONARY
360
142C
102
}
330
2
100
AcDbSymbolTableRecord
100
AcDbLayerTableRecord
  2
center
 70
     0
 62
     2
  6
CENTER2
370
    25
390
5D
  0
ENDTAB
  0
TABLE
  2
STYLE
  5
3
330
0
100
AcDbSymbolTable
 70
    10
  0
STYLE
  5
F
330
3
100
AcDbSymbolTableRecord
100
AcDbTextStyleTableRecord
  2
STANDARD
 70
     0
 40
0.0
 41
1.0
 50
0.0
 71
     0
 42
2.5
  3
monotxt.shx
  4
extfont.shx
  0
STYLE
  5
21
330
3
100
AcDbSymbolTableRecord
100
AcDbTextStyleTableRecord
  2

 70
     1
 40
0.0
 41
1.0
 50
0.0
 71
     0
 42
2.5
  3
ltypeshp.shx
  4

  0
STYLE
  5
30
330
3
100
AcDbSymbolTableRecord
100
AcDbTextStyleTableRecord
  2
DIM
 70
     0
 40
0.0
 41
1.0
 50
0.0
 71
     0
 42
2.5
  3
monotxt.shx
  4
extfont.shx
  0
STYLE
  5
31
330
3
100
AcDbSymbolTableRecord
100
AcDbTextStyleTableRecord
  2
CONVERT
 70
     0
 40
0.0
 41
1.0
 50
0.0
 71
     0
 42
2.5
  3
monotxt.shx
  4
extfont.shx
  0
STYLE
  5
3FE
330
3
100
AcDbSymbolTableRecord
100
AcDbTextStyleTableRecord
  2
ACANSTS
 70
     0
 40
1.0
 41
1.0
 50
0.0
 71
     0
 42
5.0
  3
romans.shx
  4
extfont.shx
  0
STYLE
  5
401
330
3
100
AcDbSymbolTableRecord
100
AcDbTextStyleTableRecord
  2
ACANSGDT
 70
     0
 40
0.0
 41
1.0
 50
0.0
 71
     0
 42
5.0
  3
amgdtans.shx
  4

  0
STYLE
  5
41C
330
3
100
AcDbSymbolTableRecord
100
AcDbTextStyleTableRecord
  2
ACISOTS
 70
     0
 40
1.0
 41
1.0
 50
0.0
 71
     0
 42
2.5
  3
isocp.shx
  4
extfont.shx
  0
STYLE
  5
420
330
3
100
AcDbSymbolTableRecord
100
AcDbTextStyleTableRecord
  2
ACISOGDT
 70
     0
 40
0.0
 41
1.0
 50
0.0
 71
     0
 42
2.5
  3
amgdt.shx
  4

  0
STYLE
  5
439
330
3
100
AcDbSymbolTableRecord
100
AcDbTextStyleTableRecord
  2
ACJISTS
 70
     0
 40
1.0
 41
1.0
 50
0.0
 71
     0
 42
2.5
  3
isocp.shx
  4
bigfont.shx
  0
STYLE
  5
43C
330
3
100
AcDbSymbolTableRecord
100
AcDbTextStyleTableRecord
  2
ACJISGDT
 70
     0
 40
0.0
 41
1.0
 50
0.0
 71
     0
 42
2.5
  3
amgdt.shx
  4

  0
ENDTAB
  0
TABLE
  2
VIEW
  5
6
330
0
100
AcDbSymbolTable
 70
     0
  0
ENDTAB
  0
TABLE
  2
UCS
  5
7
330
0
100
AcDbSymbolTable
 70
     0
  0
ENDTAB
  0
TABLE
  2
APPID
  5
9
330
0
100
AcDbSymbolTable
 70
    30
  0
APPID
  5
10
330
9
100
AcDbSymbolTableRecord
100
AcDbRegAppTableRecord
  2
ACAD
 70
     0
  0
APPID
  5
381
330
9
100
AcDbSymbolTableRecord
100
AcDbRegAppTableRecord
  2
MCAD_NO_VIS
 70
     0
  0
APPID
  5
382
330
9
100
AcDbSymbolTableRecord
100
AcDbRegAppTableRecord
  2
ACAD_TEMP_GRAPHIC
 70
     0
  0
APPID
  5
383
330
9
100
AcDbSymbolTableRecord
100
AcDbRegAppTableRecord
  2
GENIUS_GENREC_14
 70
     0
  0
APPID
  5
384
330
9
100
AcDbSymbolTableRecord
100
AcDbRegAppTableRecord
  2
GENIUS_GENODEF_13
 70
     0
  0
APPID
  5
385
330
9
100
AcDbSymbolTableRecord
100
AcDbRegAppTableRecord
  2
GENIUS_GENOBJ-N-REC_13
 70
     0
  0
APPID
  5
386
330
9
100
AcDbSymbolTableRecord
100
AcDbRegAppTableRecord
  2
GENIUS_GENOBJ-N-CEN_13
 70
     0
  0
APPID
  5
387
330
9
100
AcDbSymbolTableRecord
100
AcDbRegAppTableRecord
  2
GENIUS_GENDTOL_13
 70
     0
  0
APPID
  5
388
330
9
100
AcDbSymbolTableRecord
100
AcDbRegAppTableRecord
  2
GENIUS_GENDIMSH_14
 70
     0
  0
APPID
  5
389
330
9
100
AcDbSymbolTableRecord
100
AcDbRegAppTableRecord
  2
ACATTRIBSERVICES
 70
     0
  0
APPID
  5
38A
330
9
100
AcDbSymbolTableRecord
100
AcDbRegAppTableRecord
  2
GENIUS_GENFIL_13
 70
     0
  0
APPID
  5
38B
330
9
100
AcDbSymbolTableRecord
100
AcDbRegAppTableRecord
  2
GENIUS_GENOBJ-N-CHA_13
 70
     0
  0
APPID
  5
38C
330
9
100
AcDbSymbolTableRecord
100
AcDbRegAppTableRecord
  2
GENIUS_GENOLIS_13
 70
     0
  0
APPID
  5
38D
330
9
100
AcDbSymbolTableRecord
100
AcDbRegAppTableRecord
  2
GENIUS_GENOENT_13
 70
     0
  0
APPID
  5
38E
330
9
100
AcDbSymbolTableRecord
100
AcDbRegAppTableRecord
  2
GENIUS_GENOREF_13
 70
     0
  0
APPID
  5
38F
330
9
100
AcDbSymbolTableRecord
100
AcDbRegAppTableRecord
  2
GENIUS_GENOBJ-N-CRS_13
 70
     0
  0
APPID
  5
390
330
9
100
AcDbSymbolTableRecord
100
AcDbRegAppTableRecord
  2
GENIUS_GENOBJ-N-TIT_13
 70
     0
  0
APPID
  5
391
330
9
100
AcDbSymbolTableRecord
100
AcDbRegAppTableRecord
  2
GENIUS_GENTITLE_13
 70
     0
  0
APPID
  5
392
330
9
100
AcDbSymbolTableRecord
100
AcDbRegAppTableRecord
  2
GENIUS_GENSCREG_15
 70
     0
  0
APPID
  5
393
330
9
100
AcDbSymbolTableRecord
100
AcDbRegAppTableRecord
  2
GENIUS_GENOBJ-N-SDF_13
 70
     0
  0
APPID
  5
394
330
9
100
AcDbSymbolTableRecord
100
AcDbRegAppTableRecord
  2
GENIUS_GENTRA_14
 70
     0
  0
APPID
  5
395
330
9
100
AcDbSymbolTableRecord
100
AcDbRegAppTableRecord
  2
GENIUS_GENOBJ-N-FIL_13
 70
     0
  0
APPID
  5
396
330
9
100
AcDbSymbolTableRecord
100
AcDbRegAppTableRecord
  2
AD_DRAW
 70
     0
  0
APPID
  5
397
330
9
100
AcDbSymbolTableRecord
100
AcDbRegAppTableRecord
  2
DESIGNERASSEMBLIES
 70
     0
  0
APPID
  5
398
330
9
100
AcDbSymbolTableRecord
100
AcDbRegAppTableRecord
  2
ACADM_DIM_EDIT
 70
     0
  0
APPID
  5
399
330
9
100
AcDbSymbolTableRecord
100
AcDbRegAppTableRecord
  2
AMDT_DM_ADJ
 70
     0
  0
APPID
  5
129F
330
9
100
AcDbSymbolTableRecord
100
AcDbRegAppTableRecord
  2
ACAD_DSTYLE_DIMARC_LENGTH_SYMBOL
 70
     0
  0
APPID
  5
12A0
330
9
100
AcDbSymbolTableRecord
100
AcDbRegAppTableRecord
  2
ACAD_DSTYLE_DIMJOGGED_JOGANGLE_SYMBOL
 70
     0
  0
APPID
  5
1328
330
9
100
AcDbSymbolTableRecord
100
AcDbRegAppTableRecord
  2
ACAD_MLEADERVER
 70
     0
  0
APPID
  5
1334
330
9
100
AcDbSymbolTableRecord
100
AcDbRegAppTableRecord
  2
ACAD_PSEXT
 70
     0
  0
ENDTAB
  0
TABLE
  2
DIMSTYLE
  5
A
330
0
100
AcDbSymbolTable
 70
    28
100
AcDbDimStyleTable
 71
     1
340
1D
  0
DIMSTYLE
105
1D
102
{ACAD_REACTORS
330
76
102
}
330
A
100
AcDbSymbolTableRecord
100
AcDbDimStyleTableRecord
  2
STANDARD
 70
     0
 41
3.0
 42
1.0
 43
7.0
 44
2.0
 73
     0
 74
     0
 77
     1
140
2.799999999999999
141
0.0
143
0.0394
147
0.7
171
     4
172
     1
173
     1
176
    44
177
    44
178
    44
271
     3
272
     3
273
     8
274
     4
289
     0
340
F
341
32
343
32
344
32
  0
DIMSTYLE
105
40E
330
A
100
AcDbSymbolTableRecord
100
AcDbDimStyleTableRecord
  2
AM_ANSI
 70
     0
  4
mm
 41
0.1
 42
0.05
 43
0.5
 44
0.1
 47
0.1
 48
0.1
 78
     7
 79
     2
140
0.12
141
0.0
146
0.71
147
0.06
176
   256
177
   256
178
     2
274
     4
340
F
371
    -1
372
    -1
1001
ACAD_DSTYLE_DIMJOGGED_JOGANGLE_SYMBOL
1070
   384
1040
0.7853981633974483
  0
DIMSTYLE
105
40F
330
A
100
AcDbSymbolTableRecord
100
AcDbDimStyleTableRecord
  2
AM_ANSI$3
 70
     0
  4
mm
 41
0.1
 42
0.05
 43
0.5
 44
0.1
 47
0.1
 48
0.1
 78
     7
 79
     2
140
0.12
141
0.0
146
0.71
147
0.06
176
   256
177
   256
178
     2
274
     4
288
     1
289
     0
340
F
371
    -1
372
    -1
1001
ACAD_DSTYLE_DIMJOGGED_JOGANGLE_SYMBOL
1070
   384
1040
0.7853981633974483
  0
DIMSTYLE
105
410
330
A
100
AcDbSymbolTableRecord
100
AcDbDimStyleTableRecord
  2
AM_ANSI$4
 70
     0
  4
mm
 41
0.1
 42
0.05
 43
0.5
 44
0.1
 47
0.1
 48
0.1
 78
     7
 79
     2
140
0.12
141
0.0
146
0.71
147
0.06
176
   256
177
   256
178
     2
274
     4
288
     1
289
     0
340
F
371
    -1
372
    -1
1001
ACAD_DSTYLE_DIMJOGGED_JOGANGLE_SYMBOL
1070
   384
1040
0.7853981633974483
  0
DIMSTYLE
105
411
330
A
100
AcDbSymbolTableRecord
100
AcDbDimStyleTableRecord
  2
AM_ANSI$7
 70
     0
  4
mm
 41
0.1
 42
0.05
 43
0.5
 44
0.1
 47
0.1
 48
0.1
 78
     7
 79
     2
140
0.24
141
0.0
146
0.71
147
0.06
176
   256
177
   256
178
     2
274
     4
340
F
371
    -1
372
    -1
1001
ACAD_DSTYLE_DIMJOGGED_JOGANGLE_SYMBOL
1070
   384
1040
0.7853981633974483
  0
DIMSTYLE
105
412
330
A
100
AcDbSymbolTableRecord
100
AcDbDimStyleTableRecord
  2
AM_ANSI$SF
 70
     0
  4
mm
 41
0.1
 42
0.05
 43
0.5
 44
0.1
 47
0.1
 48
0.1
 75
     1
 76
     1
 78
     7
 79
     2
140
0.12
141
0.0
146
0.71
147
0.06
176
   256
177
   256
178
     2
274
     4
340
F
371
    -1
372
    -1
1001
ACAD_DSTYLE_DIMJOGGED_JOGANGLE_SYMBOL
1070
   384
1040
0.7853981633974483
  0
DIMSTYLE
105
413
330
A
100
AcDbSymbolTableRecord
100
AcDbDimStyleTableRecord
  2
AM_ANSI$SH
 70
     0
  4
mm
 41
0.1
 42
0.05
 43
0.5
 44
0.1
 47
0.1
 48
0.1
 75
     1
 76
     1
 78
     7
 79
     2
140
0.12
141
0.0
146
0.71
147
0.06
173
     1
176
   256
177
   256
178
     2
274
     4
340
F
343
414
371
    -1
372
    -1
1001
ACAD_DSTYLE_DIMJOGGED_JOGANGLE_SYMBOL
1070
   384
1040
0.7853981633974483
  0
DIMSTYLE
105
42E
330
A
100
AcDbSymbolTableRecord
100
AcDbDimStyleTableRecord
  2
AM_ISO
 70
     0
  4
"
 41
2.5
 42
1.0
 43
10.0
 44
1.0
 47
0.1
 48
0.1
 73
     0
 74
     0
 77
     1
 78
     8
 79
     2
140
3.5
141
0.0
143
0.0393701
146
0.71
147
1.5
172
     1
176
   256
177
   256
178
     2
271
     2
272
     3
274
     4
283
     0
284
     8
340
F
371
    -1
372
    -1
1001
ACAD_DSTYLE_DIMJOGGED_JOGANGLE_SYMBOL
1070
   384
1040
0.7853981633974483
  0
DIMSTYLE
105
42F
330
A
100
AcDbSymbolTableRecord
100
AcDbDimStyleTableRecord
  2
AM_ISO$3
 70
     0
  4
"
 41
2.5
 42
1.0
 43
10.0
 44
1.0
 47
0.1
 48
0.1
 73
     0
 77
     1
 78
     8
 79
     2
140
3.5
141
0.0
143
0.0393701
146
0.71
147
1.5
176
   256
177
   256
178
     2
271
     2
272
     3
274
     4
283
     0
284
     8
288
     1
289
     0
340
F
371
    -1
372
    -1
1001
ACAD_DSTYLE_DIMJOGGED_JOGANGLE_SYMBOL
1070
   384
1040
0.7853981633974483
  0
DIMSTYLE
105
430
330
A
100
AcDbSymbolTableRecord
100
AcDbDimStyleTableRecord
  2
AM_ISO$4
 70
     0
  4
"
 41
2.5
 42
1.0
 43
10.0
 44
1.0
 47
0.1
 48
0.1
 73
     0
 77
     1
 78
     8
 79
     2
140
3.5
141
0.0
143
0.0393701
146
0.71
147
1.5
176
   256
177
   256
178
     2
271
     2
272
     3
274
     4
283
     0
284
     8
288
     1
289
     0
340
F
371
    -1
372
    -1
1001
ACAD_DSTYLE_DIMJOGGED_JOGANGLE_SYMBOL
1070
   384
1040
0.7853981633974483
  0
DIMSTYLE
105
431
330
A
100
AcDbSymbolTableRecord
100
AcDbDimStyleTableRecord
  2
AM_ISO$6
 70
     0
  4
"
 41
2.5
 42
1.0
 43
10.0
 44
1.0
 47
0.1
 48
0.1
 73
     0
 74
     0
 78
     8
 79
     2
140
3.5
141
0.0
143
0.0393701
146
0.71
147
1.5
172
     1
176
   256
177
   256
178
     2
271
     2
272
     3
274
     4
283
     0
284
     8
340
F
371
    -1
372
    -1
1001
ACAD_DSTYLE_DIMJOGGED_JOGANGLE_SYMBOL
1070
   384
1040
0.7853981633974483
  0
DIMSTYLE
105
432
330
A
100
AcDbSymbolTableRecord
100
AcDbDimStyleTableRecord
  2
AM_ISO$7
 70
     0
  4
"
 41
2.5
 42
1.0
 43
10.0
 44
1.0
 47
0.1
 48
0.1
 73
     0
 74
     0
 77
     1
 78
     8
 79
     2
140
5.0
141
0.0
143
0.0393701
146
0.71
147
1.5
172
     1
176
   256
177
   256
178
     2
271
     2
272
     3
274
     4
283
     0
284
     8
340
F
371
    -1
372
    -1
1001
ACAD_DSTYLE_DIMJOGGED_JOGANGLE_SYMBOL
1070
   384
1040
0.7853981633974483
  0
DIMSTYLE
105
433
330
A
100
AcDbSymbolTableRecord
100
AcDbDimStyleTableRecord
  2
AM_ISO$SF
 70
     0
  4
"
 41
2.5
 42
1.0
 43
10.0
 44
1.0
 47
0.1
 48
0.1
 73
     0
 74
     0
 75
     1
 76
     1
 77
     1
 78
     8
 79
     2
140
3.5
141
0.0
143
0.0393701
146
0.71
147
1.5
172
     1
176
   256
177
   256
178
     2
271
     2
272
     3
274
     4
283
     0
284
     8
340
F
371
    -1
372
    -1
1001
ACAD_DSTYLE_DIMJOGGED_JOGANGLE_SYMBOL
1070
   384
1040
0.7853981633974483
  0
DIMSTYLE
105
434
330
A
100
AcDbSymbolTableRecord
100
AcDbDimStyleTableRecord
  2
AM_ISO$SH
 70
     0
  4
"
 41
2.5
 42
1.0
 43
10.0
 44
1.0
 47
0.1
 48
0.1
 73
     0
 74
     0
 75
     1
 76
     1
 77
     1
 78
     8
 79
     2
140
3.5
141
0.0
143
0.0393701
144
2.0
146
0.71
147
1.5
172
     1
173
     1
176
   256
177
   256
178
     2
271
     2
272
     3
274
     4
283
     0
284
     8
340
F
343
414
371
    -1
372
    -1
1001
ACAD_DSTYLE_DIMJOGGED_JOGANGLE_SYMBOL
1070
   384
1040
0.7853981633974483
  0
DIMSTYLE
105
44E
330
A
100
AcDbSymbolTableRecord
100
AcDbDimStyleTableRecord
  2
kuroda_sunpo
 70
     0
  4
"
 41
2.5
 42
1.0
 43
8.0
 44
1.0
 47
0.1
 48
0.1
 73
     0
 74
     0
 77
     3
 78
     8
 79
     2
140
3.2
141
0.0
143
0.0393701
146
0.71
147
1.5
172
     1
176
     7
177
     7
178
     7
179
     2
271
     3
272
     3
275
     1
283
     0
340
F
341
A7
342
A7
371
    -1
372
    -1
  0
DIMSTYLE
105
456
330
A
100
AcDbSymbolTableRecord
100
AcDbDimStyleTableRecord
  2
kuroda_sunpo$3
 70
     0
  4
"
 41
2.5
 42
1.0
 43
8.0
 44
1.0
 47
0.1
 48
0.1
 73
     0
 77
     3
 78
     8
 79
     2
140
3.2
141
0.0
143
0.0393701
146
0.71
147
1.5
176
     7
177
     7
178
     7
179
     2
271
     3
272
     3
275
     1
283
     0
288
     1
289
     0
340
F
341
A7
342
A7
371
    -1
372
    -1
  0
DIMSTYLE
105
457
330
A
100
AcDbSymbolTableRecord
100
AcDbDimStyleTableRecord
  2
kuroda_sunpo$4
 70
     0
  4
"
 41
2.5
 42
1.0
 43
8.0
 44
1.0
 47
0.1
 48
0.1
 73
     0
 77
     3
 78
     8
 79
     2
140
3.2
141
0.0
143
0.0393701
146
0.71
147
1.5
176
     7
177
     7
178
     7
179
     2
271
     3
272
     3
275
     1
283
     0
288
     1
289
     0
340
F
341
A7
342
A7
371
    -1
372
    -1
  0
DIMSTYLE
105
458
330
A
100
AcDbSymbolTableRecord
100
AcDbDimStyleTableRecord
  2
kuroda_sunpo$6
 70
     0
  4
"
 41
2.5
 42
1.0
 43
8.0
 44
1.0
 47
0.1
 48
0.1
 73
     0
 74
     0
 78
     8
 79
     2
140
3.2
141
0.0
143
0.0393701
146
0.71
147
1.5
172
     1
176
     7
177
     7
178
     7
179
     2
271
     3
272
     3
275
     1
283
     0
340
F
341
A7
342
A7
371
    -1
372
    -1
  0
DIMSTYLE
105
459
330
A
100
AcDbSymbolTableRecord
100
AcDbDimStyleTableRecord
  2
kuroda_sunpo$SF
 70
     0
  4
"
 41
2.5
 42
1.0
 43
8.0
 44
1.0
 47
0.1
 48
0.1
 73
     0
 74
     0
 75
     1
 76
     1
 77
     3
 78
     8
 79
     2
140
5.0
141
0.0
143
0.0393701
146
0.71
147
1.5
172
     1
176
   256
177
   256
178
     7
179
     2
271
     3
272
     3
275
     1
283
     0
340
F
341
32
342
32
371
    -1
372
    -1
  0
DIMSTYLE
105
460
330
A
100
AcDbSymbolTableRecord
100
AcDbDimStyleTableRecord
  2
kuroda_sunpo$SH
 70
     0
  4
"
 41
2.5
 42
1.0
 43
8.0
 44
1.0
 47
0.1
 48
0.1
 73
     0
 74
     0
 75
     1
 76
     1
 77
     3
 78
     8
 79
     2
140
5.0
141
0.0
143
0.0393701
144
2.0
146
0.71
147
1.5
172
     1
173
     1
176
   256
177
   256
178
     7
179
     2
271
     3
272
     3
275
     1
283
     0
340
F
341
32
342
32
343
414
371
    -1
372
    -1
  0
DIMSTYLE
105
473
330
A
100
AcDbSymbolTableRecord
100
AcDbDimStyleTableRecord
  2
JIS-KURODA
 70
     0
  4
"
 41
2.5
 42
1.0
 43
10.0
 44
1.0
 47
0.1
 48
0.1
 73
     0
 74
     0
 77
     3
 78
     8
 79
     2
140
3.2
141
0.0
143
0.0393701
146
0.71
147
1.5
172
     1
174
     1
176
     7
177
     7
178
     7
271
     2
272
     2
283
     0
284
     8
340
F
341
A7
342
A7
371
    -1
372
    -1
1001
ACAD_DSTYLE_DIMJOGGED_JOGANGLE_SYMBOL
1070
   384
1040
0.7853981633974483
  0
DIMSTYLE
105
474
330
A
100
AcDbSymbolTableRecord
100
AcDbDimStyleTableRecord
  2
JIS-KURODA$2
 70
     0
  4
"
 41
2.5
 42
1.0
 43
10.0
 44
1.0
 47
0.1
 48
0.1
 73
     0
 74
     0
 77
     3
 78
     8
 79
     2
140
3.2
141
0.0
143
0.0393701
146
0.71
147
1.5
172
     1
174
     1
176
     7
177
     7
178
     7
271
     2
272
     2
283
     0
284
     8
340
F
341
A7
342
A7
371
    -1
372
    -1
1001
ACAD_DSTYLE_DIMJOGGED_JOGANGLE_SYMBOL
1070
   384
1040
0.7853981633974483
  0
DIMSTYLE
105
475
330
A
100
AcDbSymbolTableRecord
100
AcDbDimStyleTableRecord
  2
JIS-KURODA$3
 70
     0
  4
"
 41
2.5
 42
1.0
 43
10.0
 44
1.0
 47
0.1
 48
0.1
 73
     0
 74
     0
 77
     3
 78
     8
 79
     2
140
3.2
141
0.0
143
0.0393701
146
0.71
147
1.5
172
     1
176
     7
177
     7
178
     7
271
     2
272
     2
283
     0
284
     8
288
     1
289
     2
340
F
341
32
342
A7
371
    -1
372
    -1
1001
ACAD_DSTYLE_DIMJOGGED_JOGANGLE_SYMBOL
1070
   384
1040
0.7853981633974483
  0
DIMSTYLE
105
476
330
A
100
AcDbSymbolTableRecord
100
AcDbDimStyleTableRecord
  2
JIS-KURODA$4
 70
     0
  4
"
 41
2.5
 42
1.0
 43
10.0
 44
1.0
 47
0.1
 48
0.1
 73
     0
 77
     3
 78
     8
 79
     2
140
3.2
141
0.0
143
0.0393701
146
0.71
147
1.5
173
     1
176
     7
177
     7
178
     7
271
     2
272
     2
279
     1
283
     0
284
     8
288
     1
289
     0
340
F
341
32
343
32
344
A7
371
    -1
372
    -1
1001
ACAD_DSTYLE_DIMJOGGED_JOGANGLE_SYMBOL
1070
   384
1040
0.7853981633974483
  0
DIMSTYLE
105
477
330
A
100
AcDbSymbolTableRecord
100
AcDbDimStyleTableRecord
  2
JIS-KURODA$6
 70
     0
  4
"
 41
2.5
 42
1.0
 43
10.0
 44
1.0
 47
0.1
 48
0.1
 73
     0
 74
     0
 78
     8
 79
     2
140
3.2
141
0.0
143
0.0393701
146
0.71
147
1.5
172
     1
176
     7
177
     7
178
     7
271
     2
272
     2
279
     1
283
     0
284
     8
340
F
341
32
342
32
371
    -1
372
    -1
1001
ACAD_DSTYLE_DIMJOGGED_JOGANGLE_SYMBOL
1070
   384
1040
0.7853981633974483
  0
DIMSTYLE
105
478
330
A
100
AcDbSymbolTableRecord
100
AcDbDimStyleTableRecord
  2
JIS-KURODA$7
 70
     0
  4
"
 41
2.5
 42
1.0
 43
10.0
 44
1.0
 47
0.1
 48
0.1
 73
     0
 74
     0
 77
     3
 78
     8
 79
     2
140
4.000000000000003
141
0.0
143
0.0393701
146
0.71
147
1.5
172
     1
176
     7
177
     7
178
     7
271
     2
272
     2
279
     1
283
     0
284
     8
340
F
341
A7
342
32
371
    -1
372
    -1
1001
ACAD_DSTYLE_DIMJOGGED_JOGANGLE_SYMBOL
1070
   384
1040
0.7853981633974483
  0
DIMSTYLE
105
479
330
A
100
AcDbSymbolTableRecord
100
AcDbDimStyleTableRecord
  2
JIS-KURODA$SF
 70
     0
  4
"
 41
2.5
 42
1.0
 43
10.0
 44
1.0
 47
0.1
 48
0.1
 73
     0
 74
     0
 75
     1
 76
     1
 77
     3
 78
     8
 79
     2
140
3.5
141
0.0
143
0.0393701
146
0.71
147
1.5
172
     1
176
   256
177
   256
178
     7
271
     2
272
     3
274
     4
283
     0
284
     8
340
F
341
32
342
32
343
32
344
32
371
    -1
372
    -1
1001
ACAD_DSTYLE_DIMJOGGED_JOGANGLE_SYMBOL
1070
   384
1040
0.7853981633974483
  0
DIMSTYLE
105
47A
330
A
100
AcDbSymbolTableRecord
100
AcDbDimStyleTableRecord
  2
JIS-KURODA$SH
 70
     0
  4
"
 41
2.5
 42
1.0
 43
10.0
 44
1.0
 47
0.1
 48
0.1
 73
     0
 74
     0
 75
     1
 76
     1
 77
     3
 78
     8
 79
     2
140
3.5
141
0.0
143
0.0393701
144
2.0
146
0.71
147
1.5
172
     1
173
     1
176
   256
177
   256
178
     7
271
     2
272
     3
274
     4
283
     0
284
     8
340
F
341
32
342
32
343
414
344
32
371
    -1
372
    -1
1001
ACAD_DSTYLE_DIMJOGGED_JOGANGLE_SYMBOL
1070
   384
1040
0.7853981633974483
  0
ENDTAB
  0
TABLE
  2
BLOCK_RECORD
  5
1
330
0
100
AcDbSymbolTable
 70
     6
  0
BLOCK_RECORD
  5
18
102
{ACAD_XDICTIONARY
360
368
102
}
330
1
100
AcDbSymbolTableRecord
100
AcDbBlockTableRecord
  2
*MODEL_SPACE
340
60
  0
BLOCK_RECORD
  5
15
102
{ACAD_XDICTIONARY
360
366
102
}
330
1
100
AcDbSymbolTableRecord
100
AcDbBlockTableRecord
  2
*PAPER_SPACE
340
61
  0
BLOCK_RECORD
  5
32
330
1
100
AcDbSymbolTableRecord
100
AcDbBlockTableRecord
  2
_Open30
340
0
  0
BLOCK_RECORD
  5
77
330
1
100
AcDbSymbolTableRecord
100
AcDbBlockTableRecord
  2
*D1
340
0
  0
BLOCK_RECORD
  5
A7
330
1
100
AcDbSymbolTableRecord
100
AcDbBlockTableRecord
  2
_Open
340
0
102
{BLKREFS
331
10AB
331
10AA
102
}
  0
BLOCK_RECORD
  5
414
330
1
100
AcDbSymbolTableRecord
100
AcDbBlockTableRecord
  2
GENAXEH
340
0
  0
BLOCK_RECORD
  5
D43
330
1
100
AcDbSymbolTableRecord
100
AcDbBlockTableRecord
  2
*U4
340
0
102
{BLKREFS
331
DDA
102
}
  0
ENDTAB
  0
ENDSEC
  0
SECTION
  2
BLOCKS
  0
BLOCK
  5
19
330
18
100
AcDbEntity
  8
0
100
AcDbBlockBegin
  2
*MODEL_SPACE
 70
     0
 10
0.0
 20
0.0
 30
0.0
  3
*MODEL_SPACE
  1

  0
ENDBLK
  5
1A
330
18
100
AcDbEntity
  8
0
100
AcDbBlockEnd
  0
BLOCK
  5
16
330
15
100
AcDbEntity
 67
     1
  8
0
100
AcDbBlockBegin
  2
*PAPER_SPACE
 70
     0
 10
0.0
 20
0.0
 30
0.0
  3
*PAPER_SPACE
  1

  0
ENDBLK
  5
17
330
15
100
AcDbEntity
 67
     1
  8
0
100
AcDbBlockEnd
  0
BLOCK
  5
13D0
330
32
100
AcDbEntity
  8
0
100
AcDbBlockBegin
  2
_Open30
 70
     0
 10
0.0
 20
0.0
 30
0.0
  3
_Open30
  1

  0
LINE
  5
13D1
330
32
100
AcDbEntity
  8
0
 62
     0
370
    -2
100
AcDbLine
 10
-1.0
 20
0.26794919
 30
0.0
 11
0.0
 21
0.0
 31
0.0
  0
LINE
  5
13D2
330
32
100
AcDbEntity
  8
0
 62
     0
370
    -2
100
AcDbLine
 10
0.0
 20
0.0
 30
0.0
 11
-1.0
 21
-0.26794919
 31
0.0
  0
LINE
  5
13D3
330
32
100
AcDbEntity
  8
0
 62
     0
370
    -2
100
AcDbLine
 10
0.0
 20
0.0
 30
0.0
 11
-1.0
 21
0.0
 31
0.0
  0
ENDBLK
  5
13D4
330
32
100
AcDbEntity
  8
0
100
AcDbBlockEnd
  0
BLOCK
  5
81
330
77
100
AcDbEntity
  8
0
100
AcDbBlockBegin
  2
*D1
 70
     1
 10
0.0
 20
0.0
 30
0.0
  3
*D1
  1

  0
LINE
  5
10A7
330
77
100
AcDbEntity
  8
PV0001_1
 62
    44
370
    -2
100
AcDbLine
 10
297.0
 20
-145.35000610351
 30
0.0
 11
297.0
 21
-173.8784790039
 31
0.0
  0
LINE
  5
10A8
330
77
100
AcDbEntity
  8
PV0001_1
 62
    44
370
    -2
100
AcDbLine
 10
624.0
 20
-143.5
 30
0.0
 11
624.0
 21
-173.8784790039
 31
0.0
  0
LINE
  5
10A9
330
77
100
AcDbEntity
  8
PV0001_1
 62
    44
370
    -2
100
AcDbLine
 10
300.0
 20
-171.8784790039
 30
0.0
 11
621.0
 21
-171.8784790039
 31
0.0
  0
INSERT
  5
10AA
330
77
100
AcDbEntity
  8
PV0001_1
 62
    44
370
    -2
100
AcDbBlockReference
  2
_Open
 10
297.0
 20
-171.8784790039
 30
0.0
 41
3.0
 42
3.0
 43
3.0
 50
180.0
  0
INSERT
  5
10AB
330
77
100
AcDbEntity
  8
PV0001_1
 62
    44
370
    -2
100
AcDbBlockReference
  2
_Open
 10
624.0
 20
-171.8784790039
 30
0.0
 41
3.0
 42
3.0
 43
3.0
  0
MTEXT
  5
10AC
330
77
100
AcDbEntity
  8
PV0001_1
 62
    44
100
AcDbMText
 10
460.5
 20
-169.5784790039
 30
0.0
 40
3.2
 41
0.0
 71
     5
 72
     1
  1
\A1;L
 73
     1
 44
1.0
1001
ACAD
1000
MTEXTBEGIN
1070
    73
1070
     1
1070
    44
1040
1.0
1070
    74
1070
     0
1000
MTEXTEND
  0
POINT
  5
10AD
330
77
100
AcDbEntity
  8
Defpoints
 62
     0
100
AcDbPoint
 10
297.0
 20
-144.35000610351
 30
0.0
  0
POINT
  5
10AE
330
77
100
AcDbEntity
  8
Defpoints
 62
     0
100
AcDbPoint
 10
624.0
 20
-142.5
 30
0.0
  0
POINT
  5
10AF
330
77
100
AcDbEntity
  8
Defpoints
 62
     0
100
AcDbPoint
 10
624.0
 20
-171.8784790039
 30
0.0
  0
ENDBLK
  5
82
330
77
100
AcDbEntity
  8
0
100
AcDbBlockEnd
  0
BLOCK
  5
13C5
330
A7
100
AcDbEntity
  8
0
100
AcDbBlockBegin
  2
_Open
 70
     0
 10
0.0
 20
0.0
 30
0.0
  3
_Open
  1

  0
LINE
  5
13C6
330
A7
100
AcDbEntity
  8
outline
 62
     0
370
    -2
100
AcDbLine
 10
-1.0
 20
0.1666666666666666
 30
0.0
 11
0.0
 21
0.0
 31
0.0
  0
LINE
  5
13C8
330
A7
100
AcDbEntity
  8
outline
 62
     0
370
    -2
100
AcDbLine
 10
-1.0
 20
-0.1666666666666666
 30
0.0
 11
0.0
 21
0.0
 31
0.0
  0
LINE
  5
13C9
330
A7
100
AcDbEntity
  8
outline
 62
     0
370
    -2
100
AcDbLine
 10
0.0
 20
0.0
 30
0.0
 11
-1.0
 21
0.0
 31
0.0
  0
ENDBLK
  5
13CA
330
A7
100
AcDbEntity
  8
0
100
AcDbBlockEnd
  0
BLOCK
  5
1386
330
414
100
AcDbEntity
  8
0
100
AcDbBlockBegin
  2
GENAXEH
 70
     0
 10
0.0
 20
0.0
 30
0.0
  3
GENAXEH
  1

  0
LINE
  5
1387
330
414
100
AcDbEntity
  8
0
100
AcDbLine
 10
-1.0
 20
0.0
 30
0.0
 11
1.0
 21
0.0
 31
0.0
  0
ENDBLK
  5
1388
330
414
100
AcDbEntity
  8
0
100
AcDbBlockEnd
  0
BLOCK
  5
D44
330
D43
100
AcDbEntity
  8
0
100
AcDbBlockBegin
  2
*U4
 70
     1
 10
0.0
 20
0.0
 30
0.0
  3
*U4
  1

  0
SOLID
  5
D45
330
D43
100
AcDbEntity
  8
PV0001_1
  6
Continuous
100
AcDbTrace
 10
-0.8000457733869998
 20
0.0
 30
0.0
 11
-0.8586244180225708
 21
0.1414213583446291
 31
0.0
 12
-0.8586244180225708
 22
-0.1414213583446292
 32
0.0
 13
-0.8586244180225708
 23
-0.1414213583446292
 33
0.0
  0
SOLID
  5
D46
330
D43
100
AcDbEntity
  8
PV0001_1
  6
Continuous
100
AcDbTrace
 10
-1.000045776367199
 20
0.2000000029802
 30
0.0
 11
-0.8586244180225708
 21
-0.1414213583446292
 31
0.0
 12
-0.8586244180225708
 22
0.1414213583446291
 32
0.0
 13
-0.8586244180225708
 23
0.1414213583446291
 33
0.0
  0
SOLID
  5
D47
330
D43
100
AcDbEntity
  8
PV0001_1
  6
Continuous
100
AcDbTrace
 10
-0.8586244180225708
 20
-0.1414213583446292
 30
0.0
 11
-1.000045776367199
 21
0.2000000029802
 31
0.0
 12
-1.000045776367199
 22
-0.2000000029801999
 32
0.0
 13
-1.000045776367199
 23
-0.2000000029801999
 33
0.0
  0
SOLID
  5
D48
330
D43
100
AcDbEntity
  8
PV0001_1
  6
Continuous
100
AcDbTrace
 10
-1.141467134711829
 20
0.1414213583446291
 30
0.0
 11
-1.000045776367199
 21
-0.2000000029801999
 31
0.0
 12
-1.000045776367199
 22
0.2000000029802
 32
0.0
 13
-1.000045776367199
 23
0.2000000029802
 33
0.0
  0
SOLID
  5
D49
330
D43
100
AcDbEntity
  8
PV0001_1
  6
Continuous
100
AcDbTrace
 10
-1.000045776367199
 20
-0.2000000029801999
 30
0.0
 11
-1.141467134711829
 21
0.1414213583446291
 31
0.0
 12
-1.141467134711829
 22
-0.1414213583446291
 32
0.0
 13
-1.141467134711829
 23
-0.1414213583446291
 33
0.0
  0
SOLID
  5
D4A
330
D43
100
AcDbEntity
  8
PV0001_1
  6
Continuous
100
AcDbTrace
 10
-1.200045779347399
 20
0.0000000000000001
 30
0.0
 11
-1.141467134711829
 21
-0.1414213583446291
 31
0.0
 12
-1.141467134711829
 22
0.1414213583446291
 32
0.0
 13
-1.141467134711829
 23
0.1414213583446291
 33
0.0
  0
ENDBLK
  5
D4B
330
D43
100
AcDbEntity
  8
0
100
AcDbBlockEnd
  0
ENDSEC
  0
SECTION
  2
ENTITIES
  0
DIMENSION
  5
76
330
18
100
AcDbEntity
  8
PV0001_1
100
AcDbDimension
  2
*D1
 10
624.0
 20
-171.8784790039
 30
0.0
 11
460.5
 21
-169.5784790039
 31
0.0
 70
    32
  1
L
 71
     5
 42
327.0
  3
STANDARD
100
AcDbAlignedDimension
 13
297.0
 23
-144.35000610351
 33
0.0
 14
624.0
 24
-142.5
 34
0.0
100
AcDbRotatedDimension
1001
ACAD
1000
DSTYLE
1002
{
1070
   284
1070
     8
1070
   140
1040
3.2
1070
   271
1070
     0
1070
    45
1040
0.1
1070
   173
1070
     1
1070
     6
1000
OPEN
1070
     7
1000
OPEN
1002
}
  0
LINE
  5
C8
330
18
100
AcDbEntity
  8
PV0001_1
  6
Continuous
370
    50
100
AcDbLine
 10
883.4720568767229
 20
0.0
 30
0.0
 11
883.4720568767229
 21
-459.4999999999999
 31
0.0
  0
LINE
  5
C9
330
18
100
AcDbEntity
  8
PV0001_1
  6
Continuous
370
    50
100
AcDbLine
 10
0.0
 20
0.0
 30
0.0
 11
883.4720568767229
 21
0.0
 31
0.0
  0
LINE
  5
CA
330
18
100
AcDbEntity
  8
PV0001_1
  6
Continuous
370
    50
100
AcDbLine
 10
0.0
 20
0.0
 30
0.0
 11
0.0
 21
-459.4999999999999
 31
0.0
  0
LINE
  5
CB
330
18
100
AcDbEntity
  8
PV0001_1
  6
Continuous
370
    50
100
AcDbLine
 10
0.0
 20
-12.0
 30
0.0
 11
289.30798339843
 21
-12.0
 31
0.0
  0
LINE
  5
CC
330
18
100
AcDbEntity
  8
PV0001_1
  6
Continuous
 48
0.5
370
    50
100
AcDbLine
 10
39.671600341796
 20
-6.6000061035156
 30
0.0
 11
40.92251586914
 21
-6.6000061035156
 31
0.0
  0
LINE
  5
CD
330
18
100
AcDbEntity
  8
PV0001_1
  6
Continuous
 48
0.5
370
    50
100
AcDbLine
 10
41.800003051757
 20
-8.399993896484399
 30
0.0
 11
43.399993896484
 21
-8.399993896484399
 31
0.0
  0
LINE
  5
CE
330
18
100
AcDbEntity
  8
PV0001_1
  6
Continuous
 48
0.5
370
    50
100
AcDbLine
 10
41.51231765747
 20
-7.5367407798767
 30
0.0
 11
41.800056457519
 21
-8.399958610534699
 31
0.0
  0
LINE
  5
CF
330
18
100
AcDbEntity
  8
PV0001_1
  6
Continuous
 48
0.5
370
    50
100
AcDbLine
 10
38.48781967163
 20
-6.336773395538299
 30
0.0
 11
39.154487609863
 21
-4.3367743492126
 31
0.0
  0
LINE
  5
D0
330
18
100
AcDbEntity
  8
PV0001_1
  6
Continuous
 48
0.5
370
    50
100
AcDbLine
 10
41.399997711181
 20
-3.600002288818399
 30
0.0
 11
43.400001525878
 21
-8.400013923644999
 31
0.0
  0
LINE
  5
D1
330
18
100
AcDbEntity
  8
PV0001_1
  6
Continuous
 48
0.5
370
    50
100
AcDbLine
 10
38.199981689453
 20
-3.599996805191
 30
0.0
 11
36.199989318847
 21
-8.3999795913696
 31
0.0
  0
LINE
  5
D2
330
18
100
AcDbEntity
  8
PV0001_1
  6
Continuous
 48
0.5
370
    50
100
AcDbLine
 10
40.445644378662
 20
-4.3367295265198
 30
0.0
 11
41.112312316894
 21
-6.3367290496826
 31
0.0
  0
LINE
  5
D3
330
18
100
AcDbEntity
  8
PV0001_1
  6
Continuous
 48
0.5
370
    50
100
AcDbLine
 10
37.800079345703
 20
-8.400003433227499
 30
0.0
 11
38.087825775146
 21
-7.536756038665799
 31
0.0
  0
LINE
  5
D4
330
18
100
AcDbEntity
  8
PV0001_1
  6
Continuous
 48
0.5
370
    50
100
AcDbLine
 10
38.677490234375
 20
-6.6000061035156
 30
0.0
 11
39.671600341796
 21
-6.6000061035156
 31
0.0
  0
LINE
  5
D5
330
18
100
AcDbEntity
  8
PV0001_1
  6
Continuous
 48
0.5
370
    50
100
AcDbLine
 10
38.27749633789
 20
-7.399993896484399
 30
0.0
 11
41.322509765625
 21
-7.399993896484399
 31
0.0
  0
LINE
  5
D6
330
18
100
AcDbEntity
  8
PV0001_1
  6
Continuous
 48
0.5
370
    50
100
AcDbLine
 10
38.199996948242
 20
-3.6000061035156
 30
0.0
 11
41.399993896484
 21
-3.6000061035156
 31
0.0
  0
LINE
  5
D7
330
18
100
AcDbEntity
  8
PV0001_1
  6
Continuous
 48
0.5
370
    50
100
AcDbLine
 10
39.344146728515
 20
-4.200012207031299
 30
0.0
 11
40.25585937499999
 21
-4.200012207031299
 31
0.0
  0
LINE
  5
D8
330
18
100
AcDbEntity
  8
PV0001_1
  6
Continuous
 48
0.5
370
    50
100
AcDbLine
 10
36.199996948242
 20
-8.399993896484399
 30
0.0
 11
37.800003051757
 21
-8.399993896484399
 31
0.0
  0
LINE
  5
D9
330
18
100
AcDbEntity
  8
PV0001_1
  6
Continuous
 48
0.5
370
    50
100
AcDbLine
 10
31.600006103515
 20
-7.6000061035156
 30
0.0
 11
33.80000305175701
 21
-7.6000061035156
 31
0.0
  0
LINE
  5
DA
330
18
100
AcDbEntity
  8
PV0001_1
  6
Continuous
 48
0.5
370
    50
100
AcDbLine
 10
34.600006103515
 20
-5.0
 30
0.0
 11
34.600006103515
 21
-6.799987792968799
 31
0.0
  0
LINE
  5
DB
330
18
100
AcDbEntity
  8
PV0001_1
  6
Continuous
 48
0.5
370
    50
100
AcDbLine
 10
31.399993896484
 20
-4.399993896484399
 30
0.0
 11
31.399993896484
 21
-7.399993896484399
 31
0.0
  0
LINE
  5
DC
330
18
100
AcDbEntity
  8
PV0001_1
  6
Continuous
 48
0.5
370
    50
100
AcDbLine
 10
29.800003051757
 20
-3.5999755859375
 30
0.0
 11
29.800003051757
 21
-8.399993896484399
 31
0.0
  0
LINE
  5
DD
330
18
100
AcDbEntity
  8
PV0001_1
  6
Continuous
 48
0.5
370
    50
100
AcDbLine
 10
36.199996948242
 20
-5.0
 30
0.0
 11
36.199996948242
 21
-7.0
 31
0.0
  0
LINE
  5
DE
330
18
100
AcDbEntity
  8
PV0001_1
  6
Continuous
 48
0.5
370
    50
100
AcDbLine
 10
27.800003051757
 20
-5.0
 30
0.0
 11
27.800003051757
 21
-6.799987792968799
 31
0.0
  0
LINE
  5
DF
330
18
100
AcDbEntity
  8
PV0001_1
  6
Continuous
 48
0.5
370
    50
100
AcDbLine
 10
24.399993896484
 20
-5.0
 30
0.0
 11
24.399993896484
 21
-6.799987792968799
 31
0.0
  0
LINE
  5
E0
330
18
100
AcDbEntity
  8
PV0001_1
  6
Continuous
 48
0.5
370
    50
100
AcDbLine
 10
25.199996948242
 20
-7.6000061035156
 30
0.0
 11
27.0
 21
-7.6000061035156
 31
0.0
  0
LINE
  5
E1
330
18
100
AcDbEntity
  8
PV0001_1
  6
Continuous
 48
0.5
370
    50
100
AcDbLine
 10
29.800003051757
 20
-3.6000061035156
 30
0.0
 11
34.800003051757
 21
-3.6000061035156
 31
0.0
  0
LINE
  5
E2
330
18
100
AcDbEntity
  8
PV0001_1
  6
Continuous
 48
0.5
370
    50
100
AcDbLine
 10
31.600006103515
 20
-4.200012207031299
 30
0.0
 11
33.80000305175701
 21
-4.200012207031299
 31
0.0
  0
LINE
  5
E3
330
18
100
AcDbEntity
  8
PV0001_1
  6
Continuous
 48
0.5
370
    50
100
AcDbLine
 10
29.793655395507
 20
-8.399993896484399
 30
0.0
 11
34.800003051757
 21
-8.399993896484399
 31
0.0
  0
LINE
  5
E4
330
18
100
AcDbEntity
  8
PV0001_1
  6
Continuous
 48
0.5
370
    50
100
AcDbLine
 10
29.399993896484
 20
-5.0
 30
0.0
 11
29.399993896484
 21
-7.0
 31
0.0
  0
LINE
  5
E5
330
18
100
AcDbEntity
  8
PV0001_1
  6
Continuous
 48
0.5
370
    50
100
AcDbLine
 10
22.800003051757
 20
-5.0
 30
0.0
 11
22.800003051757
 21
-7.0
 31
0.0
  0
LINE
  5
E6
330
18
100
AcDbEntity
  8
PV0001_1
  6
Continuous
 48
0.5
370
    50
100
AcDbLine
 10
20.800003051757
 20
-7.399993896484399
 30
0.0
 11
20.800003051757
 21
-8.399993896484399
 31
0.0
  0
LINE
  5
E7
330
18
100
AcDbEntity
  8
PV0001_1
  6
Continuous
 48
0.5
370
    50
100
AcDbLine
 10
24.199996948242
 20
-3.6000061035156
 30
0.0
 11
28.0
 21
-3.6000061035156
 31
0.0
  0
LINE
  5
E8
330
18
100
AcDbEntity
  8
PV0001_1
  6
Continuous
 48
0.5
370
    50
100
AcDbLine
 10
25.199996948242
 20
-4.200012207031299
 30
0.0
 11
27.0
 21
-4.200012207031299
 31
0.0
  0
LINE
  5
E9
330
18
100
AcDbEntity
  8
PV0001_1
  6
Continuous
 48
0.5
370
    50
100
AcDbLine
 10
24.199996948242
 20
-8.399993896484399
 30
0.0
 11
28.0
 21
-8.399993896484399
 31
0.0
  0
LINE
  5
EA
330
18
100
AcDbEntity
  8
PV0001_1
  6
Continuous
 48
0.5
370
    50
100
AcDbLine
 10
17.899993896484
 20
-7.200012207031299
 30
0.0
 11
17.899993896484
 21
-8.399993896484399
 31
0.0
  0
LINE
  5
EB
330
18
100
AcDbEntity
  8
PV0001_1
  6
Continuous
 48
0.5
370
    50
100
AcDbLine
 10
20.800003051757
 20
-8.399993896484399
 30
0.0
 11
22.5
 21
-8.399993896484399
 31
0.0
  0
LINE
  5
EC
330
18
100
AcDbEntity
  8
PV0001_1
  6
Continuous
 48
0.5
370
    50
100
AcDbLine
 10
18.100006103515
 20
-6.1000061035156
 30
0.0
 11
20.199996948242
 21
-6.1000061035156
 31
0.0
  0
LINE
  5
ED
330
18
100
AcDbEntity
  8
PV0001_1
  6
Continuous
 48
0.5
370
    50
100
AcDbLine
 10
18.100006103515
 20
-4.200012207031299
 30
0.0
 11
20.199996948242
 21
-4.200012207031299
 31
0.0
  0
LINE
  5
EE
330
18
100
AcDbEntity
  8
PV0001_1
  6
Continuous
 48
0.5
370
    50
100
AcDbLine
 10
18.300003051757
 20
-6.799987792968799
 30
0.0
 11
20.199996948242
 21
-6.799987792968799
 31
0.0
  0
LINE
  5
EF
330
18
100
AcDbEntity
  8
PV0001_1
  6
Continuous
 48
0.5
370
    50
100
AcDbLine
 10
17.899993896484
 20
-4.399993896484399
 30
0.0
 11
17.899993896484
 21
-5.899993896484399
 31
0.0
  0
LINE
  5
F0
330
18
100
AcDbEntity
  8
PV0001_1
  6
Continuous
 48
0.5
370
    50
100
AcDbLine
 10
20.800003051757
 20
-4.799987792968799
 30
0.0
 11
20.800003051757
 21
-5.5
 31
0.0
  0
LINE
  5
F1
330
18
100
AcDbEntity
  8
PV0001_1
  6
Continuous
 48
0.5
370
    50
100
AcDbLine
 10
16.300003051757
 20
-3.5999755859375
 30
0.0
 11
16.300003051757
 21
-8.399993896484399
 31
0.0
  0
LINE
  5
F2
330
18
100
AcDbEntity
  8
PV0001_1
  6
Continuous
 48
0.5
370
    50
100
AcDbLine
 10
16.300003051757
 20
-8.399993896484399
 30
0.0
 11
17.899993896484
 21
-8.399993896484399
 31
0.0
  0
LINE
  5
F3
330
18
100
AcDbEntity
  8
PV0001_1
  6
Continuous
 48
0.5
370
    50
100
AcDbLine
 10
16.300003051757
 20
-3.6000061035156
 30
0.0
 11
21.0
 21
-3.6000061035156
 31
0.0
  0
LINE
  5
F4
330
18
100
AcDbEntity
  8
PV0001_1
  6
Continuous
 48
0.5
370
    50
100
AcDbLine
 10
14.399993896484
 20
-3.6000061035156
 30
0.0
 11
15.800003051757
 21
-3.6000061035156
 31
0.0
  0
LINE
  5
F5
330
18
100
AcDbEntity
  8
PV0001_1
  6
Continuous
 48
0.5
370
    50
100
AcDbLine
 10
11.600006103515
 20
-7.6000061035156
 30
0.0
 11
13.800003051757
 21
-7.6000061035156
 31
0.0
  0
LINE
  5
F6
330
18
100
AcDbEntity
  8
PV0001_1
  6
Continuous
 48
0.5
370
    50
100
AcDbLine
 10
14.399993896484
 20
-3.5999755859375
 30
0.0
 11
14.399993896484
 21
-7.0
 31
0.0
  0
LINE
  5
F7
330
18
100
AcDbEntity
  8
PV0001_1
  6
Continuous
 48
0.5
370
    50
100
AcDbLine
 10
11.0
 20
-3.6000061035156
 30
0.0
 11
11.0
 21
-7.0
 31
0.0
  0
LINE
  5
F8
330
18
100
AcDbEntity
  8
PV0001_1
  6
Continuous
 48
0.5
370
    50
100
AcDbLine
 10
15.800003051757
 20
-3.5999755859375
 30
0.0
 11
15.800003051757
 21
-7.200012207031299
 31
0.0
  0
LINE
  5
F9
330
18
100
AcDbEntity
  8
PV0001_1
  6
Continuous
 48
0.5
370
    50
100
AcDbLine
 10
4.6000061035156
 20
-6.200012207031299
 30
0.0
 11
4.6000061035156
 21
-8.399993896484399
 31
0.0
  0
LINE
  5
FA
330
18
100
AcDbEntity
  8
PV0001_1
  6
Continuous
 48
0.5
370
    50
100
AcDbLine
 10
7.199996948242199
 20
-3.6000061035156
 30
0.0
 11
9.199996948242199
 21
-3.6000061035156
 31
0.0
  0
LINE
  5
FB
330
18
100
AcDbEntity
  8
PV0001_1
  6
Continuous
 48
0.5
370
    50
100
AcDbLine
 10
7.6000061035156
 20
-8.399993896484399
 30
0.0
 11
9.6000061035156
 21
-8.399993896484399
 31
0.0
  0
LINE
  5
FC
330
18
100
AcDbEntity
  8
PV0001_1
  6
Continuous
 48
0.5
370
    50
100
AcDbLine
 10
7.330967426299999
 20
-5.469069480895999
 30
0.0
 11
9.2000274658203
 21
-3.600009918212899
 31
0.0
  0
LINE
  5
FD
330
18
100
AcDbEntity
  8
PV0001_1
  6
Continuous
 48
0.5
370
    50
100
AcDbLine
 10
5.8600568771362
 20
-5.322781085967999
 30
0.0
 11
7.1999979019165
 21
-3.599999904632599
 31
0.0
  0
LINE
  5
FE
330
18
100
AcDbEntity
  8
PV0001_1
  6
Continuous
 48
0.5
370
    50
100
AcDbLine
 10
7.320542812347399
 20
-5.740584373474099
 30
0.0
 11
9.600020408630399
 21
-8.399974822998
 31
0.0
  0
LINE
  5
FF
330
18
100
AcDbEntity
  8
PV0001_1
  6
Continuous
 48
0.5
370
    50
100
AcDbLine
 10
5.8599553108215
 20
-6.080024242401099
 30
0.0
 11
7.5999608039856
 21
-8.4000310897827
 31
0.0
  0
LINE
  5
100
330
18
100
AcDbEntity
  8
PV0001_1
  6
Continuous
 48
0.5
370
    50
100
AcDbLine
 10
4.8000030517578
 20
-5.399993896484399
 30
0.0
 11
5.7021789550781
 21
-5.399993896484399
 31
0.0
  0
LINE
  5
101
330
18
100
AcDbEntity
  8
PV0001_1
  6
Continuous
 48
0.5
370
    50
100
AcDbLine
 10
4.8000030517578
 20
-6.0
 30
0.0
 11
5.699996948242199
 21
-6.0
 31
0.0
  0
LINE
  5
102
330
18
100
AcDbEntity
  8
PV0001_1
  6
Continuous
 48
0.5
370
    50
100
AcDbLine
 10
9.6000061035156
 20
-3.6000061035156
 30
0.0
 11
11.0
 21
-3.6000061035156
 31
0.0
  0
LINE
  5
103
330
18
100
AcDbEntity
  8
PV0001_1
  6
Continuous
 48
0.5
370
    50
100
AcDbLine
 10
10.800003051757
 20
-8.399993896484399
 30
0.0
 11
14.600006103515
 21
-8.399993896484399
 31
0.0
  0
LINE
  5
104
330
18
100
AcDbEntity
  8
PV0001_1
  6
Continuous
 48
0.5
370
    50
100
AcDbLine
 10
9.6000061035156
 20
-3.6000061035156
 30
0.0
 11
9.6000061035156
 21
-7.200012207031299
 31
0.0
  0
LINE
  5
105
330
18
100
AcDbEntity
  8
PV0001_1
  6
Continuous
 48
0.5
370
    50
100
AcDbLine
 10
4.6000061035156
 20
-3.6000061035156
 30
0.0
 11
4.6000061035156
 21
-5.200012207031299
 31
0.0
  0
LINE
  5
106
330
18
100
AcDbEntity
  8
PV0001_1
  6
Continuous
 48
0.5
370
    50
100
AcDbLine
 10
3.0
 20
-3.6000061035156
 30
0.0
 11
4.6000061035156
 21
-3.6000061035156
 31
0.0
  0
LINE
  5
107
330
18
100
AcDbEntity
  8
PV0001_1
  6
Continuous
 48
0.5
370
    50
100
AcDbLine
 10
3.0
 20
-3.6000061035156
 30
0.0
 11
3.0
 21
-8.399993896484399
 31
0.0
  0
LINE
  5
108
330
18
100
AcDbEntity
  8
PV0001_1
  6
Continuous
 48
0.5
370
    50
100
AcDbLine
 10
3.0
 20
-8.399993896484399
 30
0.0
 11
4.6000061035156
 21
-8.399993896484399
 31
0.0
  0
LINE
  5
109
330
18
100
AcDbEntity
  8
PV0001_1
  6
Continuous
 48
0.5
370
    50
100
AcDbLine
 10
108.39999389648
 20
0.0
 30
0.0
 11
108.39999389648
 21
-12.0
 31
0.0
  0
LINE
  5
10A
330
18
100
AcDbEntity
  8
PV0001_1
  6
Continuous
 48
0.5
370
    50
100
AcDbLine
 10
46.399993896484
 20
0.0
 30
0.0
 11
46.399993896484
 21
-12.0
 31
0.0
  0
LINE
  5
10B
330
18
100
AcDbEntity
  8
PV0001_1
  6
Continuous
 48
0.5
370
   100
100
AcDbLine
 10
281.71597290039
 20
-3.2999877929688
 30
0.0
 11
281.71597290039
 21
-8.700012207031299
 31
0.0
  0
LINE
  5
10C
330
18
100
AcDbEntity
  8
PV0001_1
  6
Continuous
 48
0.5
370
   100
100
AcDbLine
 10
275.23599243164
 20
-7.620370864868199
 30
0.0
 11
281.71597290039
 21
-8.700367927551299
 31
0.0
  0
LINE
  5
10D
330
18
100
AcDbEntity
  8
PV0001_1
  6
Continuous
 48
0.5
370
   100
100
AcDbLine
 10
275.23596191406
 20
-4.3800048828125
 30
0.0
 11
275.23596191406
 21
-7.620056152343799
 31
0.0
  0
LINE
  5
10E
330
18
100
AcDbEntity
  8
PV0001_1
  6
Continuous
 48
0.5
370
   100
100
AcDbLine
 10
275.23602294921
 20
-4.3803462982178
 30
0.0
 11
281.71603393554
 21
-3.3003439903259
 31
0.0
  0
LINE
  5
10F
330
18
100
AcDbEntity
  8
PV0001_1
  6
CENTER2
 48
0.5
370
    25
100
AcDbLine
 10
274.3935546875
 20
-6.0
 30
0.0
 11
282.82943725585
 21
-6.0
 31
0.0
  0
LINE
  5
110
330
18
100
AcDbEntity
  8
PV0001_1
  6
CENTER2
 48
0.5
370
    25
100
AcDbLine
 10
266.30798339843
 20
-2.05517578125
 30
0.0
 11
266.30798339843
 21
-9.732879638671899
 31
0.0
  0
LINE
  5
111
330
18
100
AcDbEntity
  8
PV0001_1
  6
CENTER2
 48
0.5
370
    25
100
AcDbLine
 10
262.46533203125
 20
-6.0
 30
0.0
 11
270.05261230468
 21
-6.0
 31
0.0
  0
LINE
  5
112
330
18
100
AcDbEntity
  8
PV0001_1
  6
Continuous
 48
0.5
370
    50
100
AcDbLine
 10
289.30798339843
 20
0.0
 30
0.0
 11
289.30798339843
 21
-12.0
 31
0.0
  0
LINE
  5
113
330
18
100
AcDbEntity
  8
PV0001_1
  6
Continuous
 48
0.5
370
    50
100
AcDbLine
 10
259.30798339843
 20
0.0
 30
0.0
 11
259.30798339843
 21
-12.0
 31
0.0
  0
LINE
  5
114
330
18
100
AcDbEntity
  8
PV0001_1
  6
Continuous
 48
0.5
370
    50
100
AcDbLine
 10
232.39999389648
 20
0.0
 30
0.0
 11
232.39999389648
 21
-12.0
 31
0.0
  0
LINE
  5
1B9
330
18
100
AcDbEntity
  8
PV0001_1
  6
CENTER2
370
    25
100
AcDbLine
 10
292.80870013313
 20
-88.49999999999999
 30
0.0
 11
387.05892944335
 21
-88.49999999999999
 31
0.0
  0
LINE
  5
1BA
330
18
100
AcDbEntity
  8
PV0001_1
  6
Continuous
370
    50
100
AcDbLine
 10
0.0
 20
-459.4999999999999
 30
0.0
 11
883.4720568767229
 21
-459.4999999999999
 31
0.0
  0
LINE
  5
1C2
330
18
100
AcDbEntity
  8
PV0001_1
  6
Continuous
 48
0.5
370
    50
100
AcDbLine
 10
615.0
 20
-84.49999999999999
 30
0.0
 11
615.0
 21
-92.49999999999998
 31
0.0
  0
LINE
  5
1C9
330
18
100
AcDbEntity
  8
PV0001_1
  6
CENTER2
370
    25
100
AcDbLine
 10
540.66076660156
 20
-88.49999999999999
 30
0.0
 11
628.2775948203394
 21
-88.49999999999999
 31
0.0
  0
LINE
  5
1FC
330
18
100
AcDbEntity
  8
PV0001_1
  6
CENTER2
370
    25
100
AcDbLine
 10
278.00714111328
 20
-218.5
 30
0.0
 11
387.56524658203
 21
-218.5
 31
0.0
  0
LINE
  5
215
330
18
100
AcDbEntity
  8
PV0001_1
  6
CENTER2
370
    25
100
AcDbLine
 10
541.97454833984
 20
-388.5
 30
0.0
 11
632.1826171875
 21
-388.5
 31
0.0
  0
LINE
  5
21A
330
18
100
AcDbEntity
  8
PV0001_1
  6
PHANTOM2
 48
0.5
370
    25
100
AcDbLine
 10
615.0
 20
-382.5
 30
0.0
 11
615.0
 21
-394.5
 31
0.0
  0
LINE
  5
21D
330
18
100
AcDbEntity
  8
PV0001_1
  6
Continuous
 48
0.5
370
    50
100
AcDbLine
 10
354.0
 20
-84.50000000000001
 30
0.0
 11
354.0
 21
-92.5
 31
0.0
  0
LINE
  5
24E
330
18
100
AcDbEntity
  8
PV0001_1
  6
CENTER2
370
    25
100
AcDbLine
 10
222.49998474121
 20
-138.5
 30
0.0
 11
186.49998474121
 21
-138.5
 31
0.0
  0
LINE
  5
251
330
18
100
AcDbEntity
  8
PV0001_1
  6
CENTER2
370
    25
100
AcDbLine
 10
204.49998474121
 20
-119.509772324194
 30
0.0
 11
204.49998474121
 21
-158.0999912081113
 31
0.0
  0
LINE
  5
262
330
18
100
AcDbEntity
  8
PV0001_1
  6
CENTER2
370
    25
100
AcDbLine
 10
290.3940322067183
 20
-138.5
 30
0.0
 11
630.9260056202974
 21
-138.5
 31
0.0
  0
LINE
  5
269
330
18
100
AcDbEntity
  8
PV0001_1
  6
Continuous
 48
0.5
370
    50
100
AcDbLine
 10
354.0
 20
-134.4999999999999
 30
0.0
 11
354.0
 21
-142.5
 31
0.0
  0
LINE
  5
26A
330
18
100
AcDbEntity
  8
PV0001_1
  6
Continuous
 48
0.5
370
    50
100
AcDbLine
 10
374.0
 20
-147.5
 30
0.0
 11
378.5
 21
-147.5
 31
0.0
  0
LINE
  5
26E
330
18
100
AcDbEntity
  8
PV0001_1
  6
Continuous
370
    50
100
AcDbLine
 10
379.0
 20
-123.0
 30
0.0
 11
379.0
 21
-154.0
 31
0.0
  0
LINE
  5
26F
330
18
100
AcDbEntity
  8
PV0001_1
  6
Continuous
370
    50
100
AcDbLine
 10
383.0
 20
-123.0
 30
0.0
 11
383.0
 21
-154.0
 31
0.0
  0
LINE
  5
270
330
18
100
AcDbEntity
  8
PV0001_1
  6
Continuous
370
    50
100
AcDbLine
 10
396.5
 20
-129.5
 30
0.0
 11
396.5
 21
-147.5
 31
0.0
  0
LINE
  5
271
330
18
100
AcDbEntity
  8
PV0001_1
  6
Continuous
370
    50
100
AcDbLine
 10
374.0
 20
-129.5
 30
0.0
 11
374.0
 21
-147.5
 31
0.0
  0
LINE
  5
272
330
18
100
AcDbEntity
  8
PV0001_1
  6
Continuous
370
    50
100
AcDbLine
 10
401.0
 20
-129.5
 30
0.0
 11
401.0
 21
-147.5
 31
0.0
  0
LINE
  5
273
330
18
100
AcDbEntity
  8
PV0001_1
  6
Continuous
 48
0.5
370
    50
100
AcDbLine
 10
378.5
 20
-147.5
 30
0.0
 11
379.0
 21
-147.5
 31
0.0
  0
LINE
  5
276
330
18
100
AcDbEntity
  8
PV0001_1
  6
Continuous
 48
0.5
370
    50
100
AcDbLine
 10
401.0
 20
-129.5
 30
0.0
 11
396.5
 21
-129.5
 31
0.0
  0
LINE
  5
277
330
18
100
AcDbEntity
  8
PV0001_1
  6
Continuous
 48
0.5
370
    50
100
AcDbLine
 10
374.0
 20
-129.5
 30
0.0
 11
378.5
 21
-129.5
 31
0.0
  0
LINE
  5
278
330
18
100
AcDbEntity
  8
PV0001_1
  6
Continuous
 48
0.5
370
    50
100
AcDbLine
 10
378.5
 20
-129.5
 30
0.0
 11
379.0
 21
-129.5
 31
0.0
  0
LINE
  5
279
330
18
100
AcDbEntity
  8
PV0001_1
  6
Continuous
 48
0.5
370
    50
100
AcDbLine
 10
379.0
 20
-123.0
 30
0.0
 11
383.0
 21
-123.0
 31
0.0
  0
LINE
  5
27A
330
18
100
AcDbEntity
  8
PV0001_1
  6
Continuous
 48
0.5
370
    50
100
AcDbLine
 10
379.0
 20
-154.0
 30
0.0
 11
383.0
 21
-154.0
 31
0.0
  0
LINE
  5
27B
330
18
100
AcDbEntity
  8
PV0001_1
  6
Continuous
 48
0.5
370
    50
100
AcDbLine
 10
401.0
 20
-147.5
 30
0.0
 11
396.5
 21
-147.5
 31
0.0
  0
LINE
  5
27E
330
18
100
AcDbEntity
  8
PV0001_1
  6
Continuous
 48
0.5
370
    50
100
AcDbLine
 10
624.0
 20
-134.5
 30
0.0
 11
624.0
 21
-142.5
 31
0.0
  0
LINE
  5
283
330
18
100
AcDbEntity
  8
PV0001_1
  6
Continuous
370
    50
100
AcDbLine
 10
378.5
 20
-129.5
 30
0.0
 11
378.5
 21
-147.5
 31
0.0
  0
LINE
  5
284
330
18
100
AcDbEntity
  8
PV0001_1
  6
Continuous
 48
0.5
370
    50
100
AcDbLine
 10
383.0
 20
-147.5
 30
0.0
 11
396.5
 21
-147.5
 31
0.0
  0
LINE
  5
285
330
18
100
AcDbEntity
  8
PV0001_1
  6
Continuous
 48
0.5
370
    50
100
AcDbLine
 10
383.0
 20
-129.5
 30
0.0
 11
396.5
 21
-129.5
 31
0.0
  0
ARC
  5
286
330
18
100
AcDbEntity
  8
PV0001_1
  6
Continuous
 48
0.5
370
    50
100
AcDbCircle
 10
39.344146728515
 20
-4.399993896484399
 30
0.0
 40
0.2000000029802
100
AcDbArc
 50
89.99998201390964
 51
161.5651331937947
  0
ARC
  5
287
330
18
100
AcDbEntity
  8
PV0001_1
  6
Continuous
 48
0.5
370
    50
100
AcDbCircle
 10
40.92251586914
 20
-6.399993896484399
 30
0.0
 40
0.2000000029802
100
AcDbArc
 50
270.0000179860904
 51
18.4348803528989
  0
ARC
  5
288
330
18
100
AcDbEntity
  8
PV0001_1
  6
Continuous
 48
0.5
370
    50
100
AcDbCircle
 10
38.677490234375
 20
-6.399993896484399
 30
0.0
 40
0.2000000029802
100
AcDbArc
 50
161.5650375711494
 51
270.000000683247
  0
ARC
  5
289
330
18
100
AcDbEntity
  8
PV0001_1
  6
Continuous
 48
0.5
370
    50
100
AcDbCircle
 10
34.800003051757
 20
-5.0
 30
0.0
 40
1.399999976158099
100
AcDbArc
 50
0.0
 51
89.99998201390964
  0
ARC
  5
28A
330
18
100
AcDbEntity
  8
PV0001_1
  6
Continuous
 48
0.5
370
    50
100
AcDbCircle
 10
34.800003051757
 20
-7.0
 30
0.0
 40
1.399999976158099
100
AcDbArc
 50
270.0000179860904
 51
0.0
  0
ARC
  5
28B
330
18
100
AcDbEntity
  8
PV0001_1
  6
Continuous
 48
0.5
370
    50
100
AcDbCircle
 10
33.80000305175701
 20
-5.0
 30
0.0
 40
0.8000000119209
100
AcDbArc
 50
0.0
 51
89.99998201390964
  0
ARC
  5
28C
330
18
100
AcDbEntity
  8
PV0001_1
  6
Continuous
 48
0.5
370
    50
100
AcDbCircle
 10
33.80000305175701
 20
-6.799987792968799
 30
0.0
 40
0.8000000119209
100
AcDbArc
 50
270.0000179860904
 51
0.0
  0
ARC
  5
28D
330
18
100
AcDbEntity
  8
PV0001_1
  6
Continuous
 48
0.5
370
    50
100
AcDbCircle
 10
31.600006103515
 20
-7.399993896484399
 30
0.0
 40
0.2000000029802
100
AcDbArc
 50
179.9999776881987
 51
270.0000280040004
  0
ARC
  5
28E
330
18
100
AcDbEntity
  8
PV0001_1
  6
Continuous
 48
0.5
370
    50
100
AcDbCircle
 10
31.600006103515
 20
-4.399993896484399
 30
0.0
 40
0.2000000029802
100
AcDbArc
 50
89.99998201390964
 51
179.9999640278192
  0
ARC
  5
28F
330
18
100
AcDbEntity
  8
PV0001_1
  6
Continuous
 48
0.5
370
    50
100
AcDbCircle
 10
27.0
 20
-5.0
 30
0.0
 40
0.8000000119209
100
AcDbArc
 50
0.0
 51
89.99998201390964
  0
ARC
  5
290
330
18
100
AcDbEntity
  8
PV0001_1
  6
Continuous
 48
0.5
370
    50
100
AcDbCircle
 10
27.0
 20
-6.799987792968799
 30
0.0
 40
0.8000000119209
100
AcDbArc
 50
270.0000179860904
 51
0.0
  0
ARC
  5
291
330
18
100
AcDbEntity
  8
PV0001_1
  6
Continuous
 48
0.5
370
    50
100
AcDbCircle
 10
25.199996948242
 20
-6.799987792968799
 30
0.0
 40
0.8000000119209
100
AcDbArc
 50
179.9999776881987
 51
270.0000280040004
  0
ARC
  5
292
330
18
100
AcDbEntity
  8
PV0001_1
  6
Continuous
 48
0.5
370
    50
100
AcDbCircle
 10
25.199996948242
 20
-5.0
 30
0.0
 40
0.8000000119209
100
AcDbArc
 50
89.99998201390964
 51
179.9999640278192
  0
ARC
  5
293
330
18
100
AcDbEntity
  8
PV0001_1
  6
Continuous
 48
0.5
370
    50
100
AcDbCircle
 10
24.199996948242
 20
-5.0
 30
0.0
 40
1.399999976158099
100
AcDbArc
 50
89.99998201390964
 51
179.9999640278192
  0
ARC
  5
294
330
18
100
AcDbEntity
  8
PV0001_1
  6
Continuous
 48
0.5
370
    50
100
AcDbCircle
 10
28.0
 20
-5.0
 30
0.0
 40
1.399999976158099
100
AcDbArc
 50
0.0
 51
89.99998201390964
  0
ARC
  5
295
330
18
100
AcDbEntity
  8
PV0001_1
  6
Continuous
 48
0.5
370
    50
100
AcDbCircle
 10
28.0
 20
-7.0
 30
0.0
 40
1.399999976158099
100
AcDbArc
 50
270.0000179860904
 51
0.0
  0
ARC
  5
296
330
18
100
AcDbEntity
  8
PV0001_1
  6
Continuous
 48
0.5
370
    50
100
AcDbCircle
 10
24.199996948242
 20
-7.0
 30
0.0
 40
1.399999976158099
100
AcDbArc
 50
179.9999776881987
 51
270.0000280040004
  0
ARC
  5
297
330
18
100
AcDbEntity
  8
PV0001_1
  6
Continuous
 48
0.5
370
    50
100
AcDbCircle
 10
20.199996948242
 20
-4.799987792968799
 30
0.0
 40
0.6000000238419
100
AcDbArc
 50
0.0
 51
89.99998201390964
  0
ARC
  5
298
330
18
100
AcDbEntity
  8
PV0001_1
  6
Continuous
 48
0.5
370
    50
100
AcDbCircle
 10
20.199996948242
 20
-5.5
 30
0.0
 40
0.6000000238419
100
AcDbArc
 50
270.0000179860904
 51
0.0
  0
ARC
  5
299
330
18
100
AcDbEntity
  8
PV0001_1
  6
Continuous
 48
0.5
370
    50
100
AcDbCircle
 10
18.100006103515
 20
-5.899993896484399
 30
0.0
 40
0.2000000029802
100
AcDbArc
 50
179.9999776881987
 51
270.0000280040004
  0
ARC
  5
29A
330
18
100
AcDbEntity
  8
PV0001_1
  6
Continuous
 48
0.5
370
    50
100
AcDbCircle
 10
18.100006103515
 20
-4.399993896484399
 30
0.0
 40
0.2000000029802
100
AcDbArc
 50
89.99998201390964
 51
179.9999640278192
  0
ARC
  5
29B
330
18
100
AcDbEntity
  8
PV0001_1
  6
Continuous
 48
0.5
370
    50
100
AcDbCircle
 10
21.779830932617
 20
-6.610595703125
 30
0.0
 40
0.2000000029802
100
AcDbArc
 50
117.3049472966005
 51
234.4267362404176
  0
ARC
  5
29C
330
18
100
AcDbEntity
  8
PV0001_1
  6
Continuous
 48
0.5
370
    50
100
AcDbCircle
 10
20.199996948242
 20
-7.399993896484399
 30
0.0
 40
0.6000000238419
100
AcDbArc
 50
0.0
 51
89.99998201390964
  0
ARC
  5
29D
330
18
100
AcDbEntity
  8
PV0001_1
  6
Continuous
 48
0.5
370
    50
100
AcDbCircle
 10
18.300003051757
 20
-7.200012207031299
 30
0.0
 40
0.4000000059605
100
AcDbArc
 50
89.99998201390964
 51
179.9999640278192
  0
ARC
  5
29E
330
18
100
AcDbEntity
  8
PV0001_1
  6
Continuous
 48
0.5
370
    50
100
AcDbCircle
 10
21.0
 20
-5.0999755859375
 30
0.0
 40
1.5
100
AcDbArc
 50
297.304990098971
 51
0.0
  0
ARC
  5
29F
330
18
100
AcDbEntity
  8
PV0001_1
  6
Continuous
 48
0.5
370
    50
100
AcDbCircle
 10
21.0
 20
-5.0999755859375
 30
0.0
 40
1.5
100
AcDbArc
 50
0.0
 51
89.99998201390964
  0
ARC
  5
2A0
330
18
100
AcDbEntity
  8
PV0001_1
  6
Continuous
 48
0.5
370
    50
100
AcDbCircle
 10
20.5
 20
-8.399993896484399
 30
0.0
 40
2.0
100
AcDbArc
 50
0.0
 51
54.42673123145972
  0
ARC
  5
2A1
330
18
100
AcDbEntity
  8
PV0001_1
  6
Continuous
 48
0.5
370
    50
100
AcDbCircle
 10
11.600006103515
 20
-7.0
 30
0.0
 40
0.6000000238419
100
AcDbArc
 50
179.9999776881987
 51
270.0000280040004
  0
ARC
  5
2A2
330
18
100
AcDbEntity
  8
PV0001_1
  6
Continuous
 48
0.5
370
    50
100
AcDbCircle
 10
13.800003051757
 20
-7.0
 30
0.0
 40
0.6000000238419
100
AcDbArc
 50
270.0000179860904
 51
0.0
  0
ARC
  5
2A3
330
18
100
AcDbEntity
  8
PV0001_1
  6
Continuous
 48
0.5
370
    50
100
AcDbCircle
 10
14.600006103515
 20
-7.200012207031299
 30
0.0
 40
1.2000000476837
100
AcDbArc
 50
270.0000179860904
 51
0.0
  0
ARC
  5
2A4
330
18
100
AcDbEntity
  8
PV0001_1
  6
Continuous
 48
0.5
370
    50
100
AcDbCircle
 10
10.800003051757
 20
-7.200012207031299
 30
0.0
 40
1.2000000476837
100
AcDbArc
 50
179.9999776881987
 51
270.0000280040004
  0
ARC
  5
2A5
330
18
100
AcDbEntity
  8
PV0001_1
  6
Continuous
 48
0.5
370
    50
100
AcDbCircle
 10
4.8000030517578
 20
-6.200012207031299
 30
0.0
 40
0.2000000029802
100
AcDbArc
 50
89.99998201390964
 51
179.9999640278192
  0
ARC
  5
2A6
330
18
100
AcDbEntity
  8
PV0001_1
  6
Continuous
 48
0.5
370
    50
100
AcDbCircle
 10
4.8000030517578
 20
-5.200012207031299
 30
0.0
 40
0.2000000029802
100
AcDbArc
 50
179.9999776881987
 51
270.0000280040004
  0
ARC
  5
2A7
330
18
100
AcDbEntity
  8
PV0001_1
  6
Continuous
 48
0.5
370
    50
100
AcDbCircle
 10
5.699996948242199
 20
-6.200012207031299
 30
0.0
 40
0.2000000029802
100
AcDbArc
 50
36.86990755486351
 51
89.99998201390964
  0
ARC
  5
2A8
330
18
100
AcDbEntity
  8
PV0001_1
  6
Continuous
 48
0.5
370
    50
100
AcDbCircle
 10
5.7021789550781
 20
-5.200012207031299
 30
0.0
 40
0.2000000029802
100
AcDbArc
 50
270.0000179860904
 51
322.1249959578259
  0
ARC
  5
2A9
330
18
100
AcDbEntity
  8
PV0001_1
  6
Continuous
 48
0.5
370
    50
100
AcDbCircle
 10
7.472381591796899
 20
-5.6104736328125
 30
0.0
 40
0.2000000029802
100
AcDbArc
 50
135.0000549831359
 51
220.6012585677736
  0
CIRCLE
  5
2AA
330
18
100
AcDbEntity
  8
PV0001_1
  6
Continuous
 48
0.5
370
   100
100
AcDbCircle
 10
266.30798339843
 20
-6.000061035156299
 30
0.0
 40
2.700000047683699
  0
ARC
  5
2AB
330
18
100
AcDbEntity
  8
PV0001_1
  6
Continuous
 48
0.5
370
    50
100
AcDbCircle
 10
40.25585937499999
 20
-4.399993896484399
 30
0.0
 40
0.2000000029802
100
AcDbArc
 50
18.43505281517194
 51
89.99998201390964
  0
ARC
  5
2AC
330
18
100
AcDbEntity
  8
PV0001_1
  6
Continuous
 48
0.5
370
    50
100
AcDbCircle
 10
38.27749633789
 20
-7.5999755859375
 30
0.0
 40
0.2000000029802
100
AcDbArc
 50
89.99998201390964
 51
161.5650102503904
  0
ARC
  5
2AD
330
18
100
AcDbEntity
  8
PV0001_1
  6
Continuous
 48
0.5
370
    50
100
AcDbCircle
 10
41.322509765625
 20
-7.5999755859375
 30
0.0
 40
0.2000000029802
100
AcDbArc
 50
18.4348803528989
 51
89.99998201390964
  0
CIRCLE
  5
2AE
330
18
100
AcDbEntity
  8
PV0001_1
  6
Continuous
 48
0.5
370
   100
100
AcDbCircle
 10
266.30798339843
 20
-6.000061035156299
 30
0.0
 40
1.6200001239777
  0
MTEXT
  5
2FB
330
18
100
AcDbEntity
  8
PV0001_1
 62
     7
370
    25
100
AcDbMText
 10
119.5427439212755
 20
-7.5
 30
0.0
 40
4.799999999999999
 41
0.0
 71
     4
 72
     5
  1
\T1.4;\W0.61;HG0812QS-HEZR-0340A
 73
     1
 44
1.0
1001
ACAD
1000
MTEXTBEGIN
1070
    73
1070
     1
1070
    44
1040
1.0
1070
    74
1070
     0
1000
MTEXTEND
  0
MTEXT
  5
2FC
330
18
100
AcDbEntity
  8
PV0001_1
 62
     7
370
    25
100
AcDbMText
 10
111.8284938931421
 20
-2.0
 30
0.0
 40
3.2
 41
0.0
 71
     4
 72
     5
  1
\T1.40;\W0.61;MODEL
 73
     1
 44
1.0
1001
ACAD
1000
MTEXTBEGIN
1070
    73
1070
     1
1070
    44
1040
1.0
1070
    74
1070
     0
1000
MTEXTEND
  0
MTEXT
  5
2FD
330
18
100
AcDbEntity
  8
PV0001_1
 62
     7
370
    25
100
AcDbMText
 10
65.54274392127952
 20
-7.5
 30
0.0
 40
4.799999999999999
 41
0.0
 71
     4
 72
     5
  1
\T1.4;\W0.61;HG0812QS
 73
     1
 44
1.0
1001
ACAD
1000
MTEXTBEGIN
1070
    73
1070
     1
1070
    44
1040
1.0
1070
    74
1070
     0
1000
MTEXTEND
  0
MTEXT
  5
2FE
330
18
100
AcDbEntity
  8
PV0001_1
 62
     7
370
    25
100
AcDbMText
 10
49.82849389314615
 20
-2.0
 30
0.0
 40
3.2
 41
0.0
 71
     4
 72
     5
  1
\T1.40;\W0.61;FILE　NAME
 73
     1
 44
1.0
1001
ACAD
1000
MTEXTBEGIN
1070
    73
1070
     1
1070
    44
1040
1.0
1070
    74
1070
     0
1000
MTEXTEND
  0
MTEXT
  5
2FF
330
18
100
AcDbEntity
  8
PV0001_1
 62
     7
370
    25
100
AcDbMText
 10
235.8284938931421
 20
-2.0
 30
0.0
 40
3.2
 41
0.0
 71
     4
 72
     5
  1
\T1.40;\W0.61;L
 73
     1
 44
1.0
1001
ACAD
1000
MTEXTBEGIN
1070
    73
1070
     1
1070
    44
1040
1.0
1070
    74
1070
     0
1000
MTEXTEND
  0
MTEXT
  5
300
330
18
100
AcDbEntity
  8
PV0001_1
 62
     7
370
    25
100
AcDbMText
 10
243.5427439212755
 20
-7.5
 30
0.0
 40
4.799999999999999
 41
0.0
 71
     4
 72
     5
  1
\T1.4;\W0.61;340
 73
     1
 44
1.0
1001
ACAD
1000
MTEXTBEGIN
1070
    73
1070
     1
1070
    44
1040
1.0
1070
    74
1070
     0
1000
MTEXTEND
  0
MTEXT
  5
305
330
18
100
AcDbEntity
  8
PV0001_1
 62
     7
370
    25
100
AcDbMText
 10
319.9873979332115
 20
-251.8480124631757
 30
0.0
 40
3.2
 41
0.0
 71
     4
 72
     5
  1
\T1.4;\W0.61;BUK-8F
 73
     1
 44
1.0
1001
ACAD
1000
MTEXTBEGIN
1070
    73
1070
     1
1070
    44
1040
1.0
1070
    74
1070
     0
1000
MTEXTEND
  0
MTEXT
  5
306
330
18
100
AcDbEntity
  8
PV0001_1
 62
     7
370
    25
100
AcDbMText
 10
610.8263102569
 20
-253.8292213813879
 30
0.0
 40
3.2
 41
0.0
 71
     4
 72
     5
  1
\T1.4;\W0.61;BUK-6S
 73
     1
 44
1.0
1001
ACAD
1000
MTEXTBEGIN
1070
    73
1070
     1
1070
    44
1040
1.0
1070
    74
1070
     0
1000
MTEXTEND
  0
MTEXT
  5
307
330
18
100
AcDbEntity
  8
PV0001_1
 62
     7
370
    25
100
AcDbMText
 10
314.8719511213186
 20
-343.6532210777112
 30
0.0
 40
3.2
 41
0.0
 71
     4
 72
     5
  1
\T1.4;\W0.61;BUM-8
 73
     1
 44
1.0
1001
ACAD
1000
MTEXTBEGIN
1070
    73
1070
     1
1070
    44
1040
1.0
1070
    74
1070
     0
1000
MTEXTEND
  0
MTEXT
  5
308
330
18
100
AcDbEntity
  8
PV0001_1
 62
     7
370
    25
100
AcDbMText
 10
322.0845239430655
 20
-412.3262597835645
 30
0.0
 40
3.2
 41
0.0
 71
     4
 72
     5
  1
\T1.4;\W0.61;BUM-8
 73
     1
 44
1.0
1001
ACAD
1000
MTEXTBEGIN
1070
    73
1070
     1
1070
    44
1040
1.0
1070
    74
1070
     0
1000
MTEXTEND
  0
MTEXT
  5
309
330
18
100
AcDbEntity
  8
PV0001_1
 62
     7
370
    25
100
AcDbMText
 10
614.6273525357221
 20
-403.8468017578099
 30
0.0
 40
3.2
 41
0.0
 71
     4
 72
     5
  1
\T1.40;\W0.61;608ZZ
 73
     1
 44
1.0
1001
ACAD
1000
MTEXTBEGIN
1070
    73
1070
     1
1070
    44
1040
1.0
1070
    74
1070
     0
1000
MTEXTEND
  0
LINE
  5
5B6
330
18
100
AcDbEntity
  8
0
100
AcDbLine
 10
354.0
 20
-84.50000000000001
 30
0.0
 11
384.0000000000001
 21
-84.50000000000001
 31
0.0
  0
LINE
  5
5B7
330
18
100
AcDbEntity
  8
0
100
AcDbLine
 10
354.0
 20
-92.5
 30
0.0
 11
384.0000000000001
 21
-92.50000000000001
 31
0.0
  0
LINE
  5
5D0
330
18
100
AcDbEntity
  8
0
100
AcDbLine
 10
342.0
 20
-85.35
 30
0.0
 11
384.0000000000001
 21
-85.35
 31
0.0
  0
LINE
  5
5D1
330
18
100
AcDbEntity
  8
0
100
AcDbLine
 10
384.0000000000001
 20
-91.65
 30
0.0
 11
342.0
 21
-91.65
 31
0.0
  0
LINE
  5
5FB
330
18
100
AcDbEntity
  8
0
100
AcDbLine
 10
334.0
 20
-82.75
 30
0.0
 11
342.0
 21
-82.75
 31
0.0
  0
LINE
  5
5FC
330
18
100
AcDbEntity
  8
0
100
AcDbLine
 10
342.0
 20
-82.75
 30
0.0
 11
342.0
 21
-94.25
 31
0.0
  0
LINE
  5
5FD
330
18
100
AcDbEntity
  8
0
100
AcDbLine
 10
342.0
 20
-94.25
 30
0.0
 11
334.0
 21
-94.25
 31
0.0
  0
LINE
  5
5FE
330
18
100
AcDbEntity
  8
0
100
AcDbLine
 10
334.0
 20
-94.25
 30
0.0
 11
334.0
 21
-82.75
 31
0.0
  0
LINE
  5
628
330
18
100
AcDbEntity
  8
0
100
AcDbLine
 10
334.0
 20
-84.50000000000001
 30
0.0
 11
307.0
 21
-84.50000000000001
 31
0.0
  0
LINE
  5
629
330
18
100
AcDbEntity
  8
0
100
AcDbLine
 10
307.0
 20
-84.50000000000001
 30
0.0
 11
307.0
 21
-92.5
 31
0.0
  0
LINE
  5
62A
330
18
100
AcDbEntity
  8
0
100
AcDbLine
 10
307.0
 20
-92.5
 30
0.0
 11
334.0
 21
-92.5
 31
0.0
  0
LINE
  5
63E
330
18
100
AcDbEntity
  8
0
100
AcDbLine
 10
307.0
 20
-85.5
 30
0.0
 11
297.0
 21
-85.5
 31
0.0
  0
LINE
  5
63F
330
18
100
AcDbEntity
  8
0
100
AcDbLine
 10
297.0
 20
-85.5
 30
0.0
 11
297.0
 21
-91.5
 31
0.0
  0
LINE
  5
640
330
18
100
AcDbEntity
  8
0
100
AcDbLine
 10
297.0
 20
-91.5
 30
0.0
 11
307.0
 21
-91.5
 31
0.0
  0
LINE
  5
660
330
18
100
AcDbEntity
  8
0
100
AcDbLine
 10
307.0
 20
-85.129
 30
0.0
 11
316.0
 21
-85.129
 31
0.0
  0
LINE
  5
661
330
18
100
AcDbEntity
  8
0
100
AcDbLine
 10
316.0
 20
-85.129
 30
0.0
 11
317.0894599579608
 21
-84.50000000000001
 31
0.0
  0
LINE
  5
662
330
18
100
AcDbEntity
  8
0
100
AcDbLine
 10
307.0
 20
-91.87099999999999
 30
0.0
 11
316.0
 21
-91.87099999999999
 31
0.0
  0
LINE
  5
663
330
18
100
AcDbEntity
  8
0
100
AcDbLine
 10
316.0
 20
-91.87099999999999
 30
0.0
 11
317.0894599579609
 21
-92.5
 31
0.0
  0
LINE
  5
665
330
18
100
AcDbEntity
  8
0
100
AcDbLine
 10
316.0
 20
-84.50000000000001
 30
0.0
 11
316.0
 21
-92.5
 31
0.0
  0
LINE
  5
685
330
18
100
AcDbEntity
  8
0
  6
AM_ISO08W050x2
 48
0.5
100
AcDbLine
 10
340.0
 20
-55.22366264436232
 30
0.0
 11
348.544
 21
-55.22366264436232
 31
0.0
1001
GENIUS_GENOREF_13
1005
689
  0
LINE
  5
686
330
18
100
AcDbEntity
  8
0
  6
AM_ISO08W050x2
 48
0.5
100
AcDbLine
 10
340.0
 20
-55.22366264436232
 30
0.0
 11
340.0
 21
-46.67966264436232
 31
0.0
1001
GENIUS_GENOREF_13
1005
689
  0
LINE
  5
687
330
18
100
AcDbEntity
  8
0
  6
AM_ISO08W050x2
 48
0.5
100
AcDbLine
 10
340.0
 20
-55.22366264436232
 30
0.0
 11
331.456
 21
-55.22366264436232
 31
0.0
1001
GENIUS_GENOREF_13
1005
689
  0
LINE
  5
688
330
18
100
AcDbEntity
  8
0
  6
AM_ISO08W050x2
 48
0.5
100
AcDbLine
 10
340.0
 20
-55.22366264436232
 30
0.0
 11
340.0
 21
-63.76766264436231
 31
0.0
1001
GENIUS_GENOREF_13
1005
689
  0
POINT
  5
689
330
18
100
AcDbEntity
  8
0
 60
     1
100
AcDbPoint
 10
0.0
 20
0.0
 30
0.0
1001
GENIUS_GENOBJ-N-CRS_13
1002
{
1000
OWNER
1000
GEN
1002
}
1001
GENIUS_GENODEF_13
1002
{
1000
HIER
1070
    10
1002
}
1002
{
1000
MANEDIT
1070
     0
1002
}
1002
{
1000
NOSEL
1070
     0
1002
}
1002
{
1000
BEHIND
1070
     0
1002
}
1002
{
1000
OTHER
1070
     0
1002
}
1002
{
1000
REACTOR
1002
}
1001
GENIUS_GENOENT_13
1002
{
1000
MYREF
1005
689
1002
}
1002
{
1000
GRP
1005
0
1002
}
1001
GENIUS_GENOLIS_13
1002
{
1000
ENT
1005
688
1005
687
1005
686
1005
685
1002
}
  0
ARC
  5
68A
330
18
100
AcDbEntity
  8
0
100
AcDbCircle
 10
340.0
 20
-55.22366264436232
 30
0.0
 40
5.75
100
AcDbArc
 50
29.59184579395089
 51
150.4081542060491
  0
LINE
  5
6A1
330
18
100
AcDbEntity
  8
0
100
AcDbLine
 10
345.0
 20
-52.38420847146219
 30
0.0
 11
345.0
 21
-58.06311681726246
 31
0.0
  0
LINE
  5
6A2
330
18
100
AcDbEntity
  8
0
100
AcDbLine
 10
335.0
 20
-52.38420847146219
 30
0.0
 11
335.0
 21
-58.06311681726246
 31
0.0
  0
ARC
  5
6A3
330
18
100
AcDbEntity
  8
0
100
AcDbCircle
 10
340.0
 20
-55.22366264436232
 30
0.0
 40
5.75
100
AcDbArc
 50
209.5918457939509
 51
330.4081542060491
  0
LINE
  5
6B4
330
18
100
AcDbEntity
  8
0
100
AcDbLine
 10
342.0
 20
-85.66054582709984
 30
0.0
 11
338.0
 21
-85.66054582709984
 31
0.0
  0
LINE
  5
6B5
330
18
100
AcDbEntity
  8
0
100
AcDbLine
 10
338.0
 20
-85.66054582709984
 30
0.0
 11
338.0
 21
-91.33945417290012
 31
0.0
  0
LINE
  5
6B6
330
18
100
AcDbEntity
  8
0
100
AcDbLine
 10
338.0
 20
-91.33945417290012
 30
0.0
 11
342.0
 21
-91.33945417290012
 31
0.0
  0
LINE
  5
6B8
330
18
100
AcDbEntity
  8
0
100
AcDbLine
 10
342.0
 20
-85.66054582709984
 30
0.0
 11
338.0
 21
-91.33945417290012
 31
0.0
  0
LINE
  5
6B9
330
18
100
AcDbEntity
  8
0
100
AcDbLine
 10
342.0
 20
-91.33945417290012
 30
0.0
 11
338.0
 21
-85.66054582709984
 31
0.0
  0
LINE
  5
6D3
330
18
100
AcDbEntity
  8
0
  6
AM_ISO08W050x2
100
AcDbLine
 10
340.0
 20
-79.956
 30
0.0
 11
340.0
 21
-96.46761340075126
 31
0.0
1001
GENIUS_GENOBJ-N-CEN_13
1002
{
1000
OWNER
1000
GEN
1002
}
1001
GENIUS_GENODEF_13
1002
{
1000
HIER
1070
     0
1002
}
1002
{
1000
MANEDIT
1070
     0
1002
}
1002
{
1000
NOSEL
1070
     0
1002
}
1002
{
1000
BEHIND
1070
     0
1002
}
1002
{
1000
OTHER
1070
     0
1002
}
1002
{
1000
REACTOR
1002
}
  0
LINE
  5
769
330
18
100
AcDbEntity
  8
0
100
AcDbLine
 10
545.0
 20
-84.49999999999999
 30
0.0
 11
615.0
 21
-84.49999999999999
 31
0.0
  0
LINE
  5
76A
330
18
100
AcDbEntity
  8
0
100
AcDbLine
 10
615.0
 20
-85.34999999999998
 30
0.0
 11
545.0
 21
-85.34999999999998
 31
0.0
  0
LINE
  5
76B
330
18
100
AcDbEntity
  8
0
100
AcDbLine
 10
545.0
 20
-91.64999999999999
 30
0.0
 11
615.0
 21
-91.64999999999999
 31
0.0
  0
LINE
  5
76C
330
18
100
AcDbEntity
  8
0
100
AcDbLine
 10
615.0
 20
-92.49999999999998
 30
0.0
 11
545.0
 21
-92.49999999999998
 31
0.0
  0
LINE
  5
78C
330
18
100
AcDbEntity
  8
0
100
AcDbLine
 10
615.0
 20
-85.49999999999998
 30
0.0
 11
621.0
 21
-85.49999999999998
 31
0.0
  0
LINE
  5
78D
330
18
100
AcDbEntity
  8
0
100
AcDbLine
 10
624.0
 20
-85.49999999999998
 30
0.0
 11
624.0
 21
-91.49999999999998
 31
0.0
  0
LINE
  5
78E
330
18
100
AcDbEntity
  8
0
100
AcDbLine
 10
624.0
 20
-91.49999999999998
 30
0.0
 11
621.7999999999999
 21
-91.49999999999998
 31
0.0
  0
LINE
  5
7C5
330
18
100
AcDbEntity
  8
0
100
AcDbLine
 10
621.0
 20
-85.49999999999998
 30
0.0
 11
621.0
 21
-91.49999999999998
 31
0.0
  0
LINE
  5
7C6
330
18
100
AcDbEntity
  8
0
100
AcDbLine
 10
621.7999999999999
 20
-85.49999999999998
 30
0.0
 11
621.7999999999999
 21
-91.49999999999998
 31
0.0
  0
LINE
  5
7C7
330
18
100
AcDbEntity
  8
0
100
AcDbLine
 10
621.7999999999999
 20
-85.64999999999999
 30
0.0
 11
621.0
 21
-85.64999999999999
 31
0.0
  0
LINE
  5
7C8
330
18
100
AcDbEntity
  8
0
100
AcDbLine
 10
621.7999999999999
 20
-91.34999999999998
 30
0.0
 11
621.0
 21
-91.34999999999998
 31
0.0
  0
LINE
  5
7CA
330
18
100
AcDbEntity
  8
0
100
AcDbLine
 10
621.7999999999999
 20
-85.49999999999998
 30
0.0
 11
624.0
 21
-85.49999999999998
 31
0.0
  0
LINE
  5
7CB
330
18
100
AcDbEntity
  8
0
100
AcDbLine
 10
621.0
 20
-91.49999999999998
 30
0.0
 11
615.0
 21
-91.49999999999998
 31
0.0
  0
LINE
  5
807
330
18
100
AcDbEntity
  8
0
100
AcDbLine
 10
624.0
 20
-134.5
 30
0.0
 11
401.0
 21
-134.4999999999999
 31
0.0
  0
LINE
  5
808
330
18
100
AcDbEntity
  8
0
100
AcDbLine
 10
401.0
 20
-135.35
 30
0.0
 11
624.0
 21
-135.35
 31
0.0
  0
LINE
  5
809
330
18
100
AcDbEntity
  8
0
100
AcDbLine
 10
401.0
 20
-141.65
 30
0.0
 11
624.0
 21
-141.65
 31
0.0
  0
LINE
  5
80A
330
18
100
AcDbEntity
  8
0
100
AcDbLine
 10
401.0
 20
-142.5
 30
0.0
 11
624.0
 21
-142.5
 31
0.0
  0
LINE
  5
80D
330
18
100
AcDbEntity
  8
0
100
AcDbLine
 10
374.0
 20
-134.4999999999999
 30
0.0
 11
354.0
 21
-134.4999999999999
 31
0.0
  0
LINE
  5
80E
330
18
100
AcDbEntity
  8
0
100
AcDbLine
 10
374.0
 20
-135.35
 30
0.0
 11
342.0
 21
-135.35
 31
0.0
  0
LINE
  5
80F
330
18
100
AcDbEntity
  8
0
100
AcDbLine
 10
374.0
 20
-141.65
 30
0.0
 11
342.0
 21
-141.65
 31
0.0
  0
LINE
  5
810
330
18
100
AcDbEntity
  8
0
100
AcDbLine
 10
374.0
 20
-142.5
 30
0.0
 11
354.0
 21
-142.5
 31
0.0
  0
LINE
  5
850
330
18
100
AcDbEntity
  8
0
100
AcDbLine
 10
317.0
 20
-132.5
 30
0.0
 11
342.0
 21
-132.5
 31
0.0
  0
LINE
  5
851
330
18
100
AcDbEntity
  8
0
100
AcDbLine
 10
342.0
 20
-132.5
 30
0.0
 11
342.0
 21
-144.5
 31
0.0
  0
LINE
  5
852
330
18
100
AcDbEntity
  8
0
100
AcDbLine
 10
342.0
 20
-144.5
 30
0.0
 11
317.0
 21
-144.5
 31
0.0
  0
LINE
  5
853
330
18
100
AcDbEntity
  8
0
100
AcDbLine
 10
317.0
 20
-144.5
 30
0.0
 11
317.0
 21
-132.5
 31
0.0
  0
LINE
  5
867
330
18
100
AcDbEntity
  8
0
100
AcDbLine
 10
317.0
 20
-132.65
 30
0.0
 11
297.0
 21
-132.65
 31
0.0
  0
LINE
  5
868
330
18
100
AcDbEntity
  8
0
100
AcDbLine
 10
297.0
 20
-132.65
 30
0.0
 11
297.0
 21
-144.35000610351
 31
0.0
  0
LINE
  5
869
330
18
100
AcDbEntity
  8
0
100
AcDbLine
 10
297.0
 20
-144.35000610351
 30
0.0
 11
317.0
 21
-144.35
 31
0.0
  0
CIRCLE
  5
9BE
330
18
100
AcDbEntity
  8
PV0001_1
  6
Continuous
 48
0.5
370
    50
100
AcDbCircle
 10
204.49998474121
 20
-209.5000171661375
 30
0.0
 40
1.399999976158099
  0
CIRCLE
  5
9BF
330
18
100
AcDbEntity
  8
PV0001_1
  6
Continuous
 48
0.5
370
    50
100
AcDbCircle
 10
213.499973297118
 20
-218.50000667572
 30
0.0
 40
1.399999976158099
  0
CIRCLE
  5
9C0
330
18
100
AcDbEntity
  8
PV0001_1
  6
Continuous
 48
0.5
370
    50
100
AcDbCircle
 10
204.49998474121
 20
-227.4999961853025
 30
0.0
 40
1.399999976158099
  0
CIRCLE
  5
9C1
330
18
100
AcDbEntity
  8
PV0001_1
  6
Continuous
 48
0.5
370
    50
100
AcDbCircle
 10
195.499996185302
 20
-218.50000667572
 30
0.0
 40
1.399999976158099
  0
CIRCLE
  5
9C2
330
18
100
AcDbEntity
  8
PV0001_1
  6
CENTER2
370
    25
100
AcDbCircle
 10
204.49998474121
 20
-218.50000667572
 30
0.0
 40
9.0
  0
ARC
  5
9C3
330
18
100
AcDbEntity
  8
PV0001_1
  6
Continuous
 48
0.5
370
    50
100
AcDbCircle
 10
204.49998474121
 20
-218.50000667572
 30
0.0
 40
8.5
100
AcDbArc
 50
124.5603157424455
 51
145.4396712804219
  0
ARC
  5
9C4
330
18
100
AcDbEntity
  8
PV0001_1
  6
Continuous
 48
0.5
370
    50
100
AcDbCircle
 10
204.49998474121
 20
-218.50000667572
 30
0.0
 40
8.5
100
AcDbArc
 50
34.56028250211569
 51
55.43962437971224
  0
ARC
  5
9C5
330
18
100
AcDbEntity
  8
PV0001_1
  6
Continuous
 48
0.5
370
    50
100
AcDbCircle
 10
204.49998474121
 20
-218.50000667572
 30
0.0
 40
8.5
100
AcDbArc
 50
304.5603380542467
 51
325.4396935922232
  0
ARC
  5
9C6
330
18
100
AcDbEntity
  8
PV0001_1
  6
Continuous
 48
0.5
370
    50
100
AcDbCircle
 10
204.49998474121
 20
-218.50000667572
 30
0.0
 40
8.5
100
AcDbArc
 50
214.5603150591987
 51
235.439670597175
  0
CIRCLE
  5
9C7
330
18
100
AcDbEntity
  8
PV0001_1
  6
Continuous
370
    25
100
AcDbCircle
 10
204.49998474121
 20
-218.50000667572
 30
0.0
 40
11.36600112915
  0
CIRCLE
  5
9C8
330
18
100
AcDbEntity
  8
PV0001_1
  6
Continuous
370
    50
100
AcDbCircle
 10
204.49998474121
 20
-218.50000667572
 30
0.0
 40
11.94250011444
  0
CIRCLE
  5
9C9
330
18
100
AcDbEntity
  8
PV0001_1
  6
Continuous
 48
0.5
370
    50
100
AcDbCircle
 10
194.49998474121
 20
-199.500018119812
 30
0.0
 40
2.75
  0
CIRCLE
  5
9CA
330
18
100
AcDbEntity
  8
PV0001_1
  6
Continuous
 48
0.5
370
    50
100
AcDbCircle
 10
208.499975204467
 20
-199.500018119812
 30
0.0
 40
2.75
  0
CIRCLE
  5
9CB
330
18
100
AcDbEntity
  8
PV0001_1
  6
Continuous
 48
0.5
370
    50
100
AcDbCircle
 10
208.499975204467
 20
-237.499995231628
 30
0.0
 40
2.75
  0
CIRCLE
  5
9CC
330
18
100
AcDbEntity
  8
PV0001_1
  6
Continuous
 48
0.5
370
    50
100
AcDbCircle
 10
194.49998474121
 20
-237.500021934509
 30
0.0
 40
2.75
  0
LINE
  5
9DE
330
18
100
AcDbEntity
  8
PV0001_1
  6
CENTER2
370
    25
100
AcDbLine
 10
221.347530364989
 20
-218.50000667572
 30
0.0
 11
185.998691558837
 21
-218.50000667572
 31
0.0
  0
LINE
  5
9DF
330
18
100
AcDbEntity
  8
PV0001_1
  6
CENTER2
370
    25
100
AcDbLine
 10
204.49998474121
 20
-247.499989509582
 30
0.0
 11
204.49998474121
 21
-189.500010490418
 31
0.0
  0
LINE
  5
9E0
330
18
100
AcDbEntity
  8
PV0001_1
  6
Continuous
 48
0.5
370
    50
100
AcDbLine
 10
197.499965667724
 20
-223.3218283653257
 30
0.0
 11
197.499965667724
 21
-213.678172111511
 31
0.0
  0
LINE
  5
9E1
330
18
100
AcDbEntity
  8
PV0001_1
  6
Continuous
 48
0.5
370
    50
100
AcDbLine
 10
211.500003814696
 20
-223.3218283653257
 30
0.0
 11
211.500003814696
 21
-213.678172111511
 31
0.0
  0
LINE
  5
9E2
330
18
100
AcDbEntity
  8
PV0001_1
  6
Continuous
 48
0.5
370
    50
100
AcDbLine
 10
209.321826934813
 20
-225.5000014305113
 30
0.0
 11
199.678173065184
 21
-225.5000014305113
 31
0.0
  0
LINE
  5
9E3
330
18
100
AcDbEntity
  8
PV0001_1
  6
Continuous
 48
0.5
370
    50
100
AcDbLine
 10
209.321826934813
 20
-211.5000119209287
 30
0.0
 11
199.678173065184
 21
-211.5000119209287
 31
0.0
  0
LINE
  5
9E4
330
18
100
AcDbEntity
  8
PV0001_1
  6
CENTER2
 48
0.5
370
    25
100
AcDbLine
 10
194.49998474121
 20
-195.499995231629
 30
0.0
 11
194.49998474121
 21
-203.5
 31
0.0
  0
LINE
  5
9E5
330
18
100
AcDbEntity
  8
PV0001_1
  6
CENTER2
 48
0.5
370
    25
100
AcDbLine
 10
208.499975204467
 20
-195.499995231629
 30
0.0
 11
208.499975204467
 21
-203.5
 31
0.0
  0
LINE
  5
9E6
330
18
100
AcDbEntity
  8
PV0001_1
  6
CENTER2
 48
0.5
370
    25
100
AcDbLine
 10
194.49998474121
 20
-241.500004768371
 30
0.0
 11
194.49998474121
 21
-233.499999999999
 31
0.0
  0
LINE
  5
9E7
330
18
100
AcDbEntity
  8
PV0001_1
  6
CENTER2
 48
0.5
370
    25
100
AcDbLine
 10
208.499975204467
 20
-241.500004768371
 30
0.0
 11
208.499975204467
 21
-233.499999999999
 31
0.0
  0
LINE
  5
9E8
330
18
100
AcDbEntity
  8
PV0001_1
  6
DASHED2
 48
0.5
370
    50
100
AcDbLine
 10
213.499988555907
 20
-204.999997138977
 30
0.0
 11
201.500019073485
 21
-204.999997138977
 31
0.0
  0
LINE
  5
9E9
330
18
100
AcDbEntity
  8
PV0001_1
  6
DASHED2
 48
0.5
370
    50
100
AcDbLine
 10
201.500019073485
 20
-202.800010681153
 30
0.0
 11
187.499980926513
 21
-202.800010681153
 31
0.0
  0
LINE
  5
9EA
330
18
100
AcDbEntity
  8
PV0001_1
  6
CENTER2
370
    25
100
AcDbLine
 10
215.970642089843
 20
-199.500018119812
 30
0.0
 11
185.182678222655
 21
-199.500018119812
 31
0.0
  0
LINE
  5
9EB
330
18
100
AcDbEntity
  8
PV0001_1
  6
DASHED2
 48
0.5
370
    50
100
AcDbLine
 10
201.500019073485
 20
-196.199999809265
 30
0.0
 11
187.499980926513
 21
-196.199999809265
 31
0.0
  0
LINE
  5
9EC
330
18
100
AcDbEntity
  8
PV0001_1
  6
DASHED2
 48
0.5
370
    50
100
AcDbLine
 10
201.500003814696
 20
-194.00000667572
 30
0.0
 11
201.500003814696
 21
-204.999990463257
 31
0.0
  0
LINE
  5
9ED
330
18
100
AcDbEntity
  8
PV0001_1
  6
DASHED2
 48
0.5
370
    50
100
AcDbLine
 10
213.499988555907
 20
-194.000012397766
 30
0.0
 11
201.500019073485
 21
-194.000012397766
 31
0.0
  0
LINE
  5
9EE
330
18
100
AcDbEntity
  8
PV0001_1
  6
DASHED2
 48
0.5
370
    50
100
AcDbLine
 10
201.500003814696
 20
-242.999995231628
 30
0.0
 11
201.500003814696
 21
-232.000009536742
 31
0.0
  0
LINE
  5
9EF
330
18
100
AcDbEntity
  8
PV0001_1
  6
DASHED2
 48
0.5
370
    50
100
AcDbLine
 10
201.500019073485
 20
-240.800013542175
 30
0.0
 11
187.499980926513
 21
-240.800013542175
 31
0.0
  0
LINE
  5
9F0
330
18
100
AcDbEntity
  8
PV0001_1
  6
DASHED2
 48
0.5
370
    50
100
AcDbLine
 10
201.500019073485
 20
-234.200002670287
 30
0.0
 11
187.499980926513
 21
-234.200002670287
 31
0.0
  0
LINE
  5
9F1
330
18
100
AcDbEntity
  8
PV0001_1
  6
DASHED2
 48
0.5
370
    50
100
AcDbLine
 10
213.499988555907
 20
-243.000000953674
 30
0.0
 11
201.500019073485
 21
-243.000000953674
 31
0.0
  0
LINE
  5
9F2
330
18
100
AcDbEntity
  8
PV0001_1
  6
DASHED2
 48
0.5
370
    50
100
AcDbLine
 10
213.499988555907
 20
-232.000016212463
 30
0.0
 11
201.500019073485
 21
-232.000016212463
 31
0.0
  0
LINE
  5
9F3
330
18
100
AcDbEntity
  8
PV0001_1
  6
CENTER2
370
    25
100
AcDbLine
 10
215.970642089843
 20
-237.499995231628
 30
0.0
 11
185.182678222655
 21
-237.499995231628
 31
0.0
  0
LINE
  5
9F4
330
18
100
AcDbEntity
  8
PV0001_1
  6
Continuous
 48
0.5
370
    50
100
AcDbLine
 10
213.499988555907
 20
-192.499997138977
 30
0.0
 11
187.499980926513
 21
-192.499997138977
 31
0.0
  0
LINE
  5
9F5
330
18
100
AcDbEntity
  8
PV0001_1
  6
Continuous
 48
0.5
370
    50
100
AcDbLine
 10
213.499988555907
 20
-244.500016212463
 30
0.0
 11
187.499980926513
 21
-244.500016212463
 31
0.0
  0
LINE
  5
9F6
330
18
100
AcDbEntity
  8
PV0001_1
  6
Continuous
 48
0.5
370
    50
100
AcDbLine
 10
219.499999999999
 20
-206.000007629395
 30
0.0
 11
213.499988555907
 21
-206.000007629395
 31
0.0
  0
LINE
  5
9F7
330
18
100
AcDbEntity
  8
PV0001_1
  6
Continuous
 48
0.5
370
    50
100
AcDbLine
 10
219.499999999999
 20
-231.000005722045
 30
0.0
 11
213.499988555907
 21
-231.000005722045
 31
0.0
  0
LINE
  5
9F8
330
18
100
AcDbEntity
  8
PV0001_1
  6
Continuous
 48
0.5
370
    50
100
AcDbLine
 10
213.499973297118
 20
-206.0
 30
0.0
 11
213.499973297118
 21
-192.499991416931
 31
0.0
  0
LINE
  5
9F9
330
18
100
AcDbEntity
  8
PV0001_1
  6
Continuous
370
    50
100
AcDbLine
 10
187.4999656677239
 20
-244.500010490417
 30
0.0
 11
187.4999656677239
 21
-192.499991416931
 31
0.0
  0
LINE
  5
9FA
330
18
100
AcDbEntity
  8
PV0001_1
  6
Continuous
 48
0.5
370
    50
100
AcDbLine
 10
219.49998474121
 20
-230.999999999999
 30
0.0
 11
219.49998474121
 21
-206.0
 31
0.0
  0
LINE
  5
9FB
330
18
100
AcDbEntity
  8
PV0001_1
  6
Continuous
 48
0.5
370
    50
100
AcDbLine
 10
213.499973297118
 20
-244.500010490417
 30
0.0
 11
213.499973297118
 21
-230.999999999999
 31
0.0
  0
ARC
  5
A0C
330
18
100
AcDbEntity
  8
0
100
AcDbCircle
 10
204.49998474121
 20
-138.5
 30
0.0
 40
15.5
100
AcDbArc
 50
49.82223045985225
 51
130.1777695401479
  0
LINE
  5
A20
330
18
100
AcDbEntity
  8
0
100
AcDbLine
 10
214.49998474121
 20
-126.657280717673
 30
0.0
 11
214.49998474121
 21
-150.342719282327
 31
0.0
  0
LINE
  5
A21
330
18
100
AcDbEntity
  8
0
100
AcDbLine
 10
194.49998474121
 20
-126.657280717673
 30
0.0
 11
194.49998474121
 21
-150.342719282327
 31
0.0
  0
ARC
  5
A23
330
18
100
AcDbEntity
  8
0
100
AcDbCircle
 10
204.49998474121
 20
-138.5
 30
0.0
 40
15.5
100
AcDbArc
 50
229.8222304598521
 51
310.1777695401478
  0
LINE
  5
A5F
330
18
100
AcDbEntity
  8
center
 62
     0
100
AcDbLine
 10
195.3529847412101
 20
-122.6569312631674
 30
0.0
 11
213.6469847412099
 21
-154.3430687368326
 31
0.0
1001
GENIUS_GENOBJ-N-CEN_13
1002
{
1000
OWNER
1000
GEN
1002
}
1001
GENIUS_GENODEF_13
1002
{
1000
HIER
1070
     0
1002
}
1002
{
1000
MANEDIT
1070
     0
1002
}
1002
{
1000
NOSEL
1070
     0
1002
}
1002
{
1000
BEHIND
1070
     0
1002
}
1002
{
1000
OTHER
1070
     0
1002
}
1002
{
1000
REACTOR
1002
}
  0
LINE
  5
A6C
330
18
100
AcDbEntity
  8
center
 62
     0
100
AcDbLine
 10
213.6469847412099
 20
-122.6569312631674
 30
0.0
 11
195.3529847412101
 21
-154.3430687368326
 31
0.0
1001
GENIUS_GENOBJ-N-CEN_13
1002
{
1000
OWNER
1000
GEN
1002
}
1001
GENIUS_GENODEF_13
1002
{
1000
HIER
1070
     0
1002
}
1002
{
1000
MANEDIT
1070
     0
1002
}
1002
{
1000
NOSEL
1070
     0
1002
}
1002
{
1000
BEHIND
1070
     0
1002
}
1002
{
1000
OTHER
1070
     0
1002
}
1002
{
1000
REACTOR
1002
}
  0
CIRCLE
  5
A6E
330
18
100
AcDbEntity
  8
0
  6
AM_ISO08W050
100
AcDbCircle
 10
204.49998474121
 20
-138.5
 30
0.0
 40
12.5
  0
CIRCLE
  5
A6F
330
18
100
AcDbEntity
  8
0
100
AcDbCircle
 10
210.7499847412099
 20
-127.6746824526945
 30
0.0
 40
1.7
  0
CIRCLE
  5
A70
330
18
100
AcDbEntity
  8
0
100
AcDbCircle
 10
198.24998474121
 20
-127.6746824526945
 30
0.0
 40
1.7
  0
CIRCLE
  5
A71
330
18
100
AcDbEntity
  8
0
100
AcDbCircle
 10
198.24998474121
 20
-149.3253175473055
 30
0.0
 40
1.7
  0
CIRCLE
  5
A72
330
18
100
AcDbEntity
  8
0
100
AcDbCircle
 10
210.7499847412099
 20
-149.3253175473055
 30
0.0
 40
1.7
  0
CIRCLE
  5
A73
330
18
100
AcDbEntity
  8
0
100
AcDbCircle
 10
204.49998474121
 20
-138.5
 30
0.0
 40
5.849999999999994
  0
CIRCLE
  5
A84
330
18
100
AcDbEntity
  8
0
100
AcDbCircle
 10
204.49998474121
 20
-138.5
 30
0.0
 40
9.0
  0
LINE
  5
B58
330
18
100
AcDbEntity
  8
PV0001_1
  6
Continuous
370
    50
100
AcDbLine
 10
338.0
 20
-244.500009536743
 30
0.0
 11
338.0
 21
-192.499990463257
 31
0.0
  0
LINE
  5
B59
330
18
100
AcDbEntity
  8
PV0001_1
  6
Continuous
370
    50
100
AcDbLine
 10
315.00001525879
 20
-244.500009536743
 30
0.0
 11
315.00001525879
 21
-192.499990463257
 31
0.0
  0
LINE
  5
B5A
330
18
100
AcDbEntity
  8
PV0001_1
  6
Continuous
 48
0.5
370
    50
100
AcDbLine
 10
308.0
 20
-225.499993801117
 30
0.0
 11
308.0
 21
-211.5000042915345
 31
0.0
  0
LINE
  5
B5B
330
18
100
AcDbEntity
  8
PV0001_1
  6
Continuous
 48
0.5
370
    50
100
AcDbLine
 10
338.00001525879
 20
-192.499996185303
 30
0.0
 11
315.000030517579
 21
-192.499996185303
 31
0.0
  0
LINE
  5
B5C
330
18
100
AcDbEntity
  8
PV0001_1
  6
Continuous
 48
0.5
370
    50
100
AcDbLine
 10
338.00001525879
 20
-244.500015258789
 30
0.0
 11
315.000030517579
 21
-244.500015258789
 31
0.0
  0
LINE
  5
B5D
330
18
100
AcDbEntity
  8
PV0001_1
  6
Continuous
 48
0.5
370
    50
100
AcDbLine
 10
338.00001525879
 20
-231.000004768371
 30
0.0
 11
315.000030517579
 21
-231.000004768371
 31
0.0
  0
LINE
  5
B5E
330
18
100
AcDbEntity
  8
PV0001_1
  6
Continuous
 48
0.5
370
    50
100
AcDbLine
 10
338.00001525879
 20
-206.000006675721
 30
0.0
 11
315.000030517579
 21
-206.000006675721
 31
0.0
  0
LINE
  5
B5F
330
18
100
AcDbEntity
  8
PV0001_1
  6
CENTER2
 48
0.5
370
    25
100
AcDbLine
 10
319.000022888184
 20
-237.499994277954
 30
0.0
 11
334.000022888184
 21
-237.499994277954
 31
0.0
  0
LINE
  5
B60
330
18
100
AcDbEntity
  8
PV0001_1
  6
CENTER2
 48
0.5
370
    25
100
AcDbLine
 10
326.500007629395
 20
-244.999988555908
 30
0.0
 11
326.500007629395
 21
-229.999988555908
 31
0.0
  0
LINE
  5
B61
330
18
100
AcDbEntity
  8
PV0001_1
  6
CENTER2
 48
0.5
370
    25
100
AcDbLine
 10
326.500007629395
 20
-192.000009536744
 30
0.0
 11
326.500007629395
 21
-207.000009536744
 31
0.0
  0
LINE
  5
B62
330
18
100
AcDbEntity
  8
PV0001_1
  6
CENTER2
 48
0.5
370
    25
100
AcDbLine
 10
319.000022888184
 20
-199.500017166138
 30
0.0
 11
334.000022888184
 21
-199.500017166138
 31
0.0
  0
LINE
  5
B63
330
18
100
AcDbEntity
  8
PV0001_1
  6
Continuous
 48
0.5
370
    50
100
AcDbLine
 10
314.499984741211
 20
-224.5000090599061
 30
0.0
 11
314.499984741211
 21
-212.4999890327455
 31
0.0
  0
LINE
  5
B64
330
18
100
AcDbEntity
  8
PV0001_1
  6
Continuous
 48
0.5
370
    50
100
AcDbLine
 10
314.000022888184
 20
-211.5000109672547
 30
0.0
 11
308.00001525879
 21
-211.5000109672547
 31
0.0
  0
LINE
  5
B65
330
18
100
AcDbEntity
  8
PV0001_1
  6
Continuous
 48
0.5
370
    50
100
AcDbLine
 10
314.000022888184
 20
-225.5000004768373
 30
0.0
 11
308.00001525879
 21
-225.5000004768373
 31
0.0
  0
LINE
  5
B66
330
18
100
AcDbEntity
  8
PV0001_1
  6
Continuous
 48
0.5
370
    50
100
AcDbLine
 10
315.000030517579
 20
-212.4999957084657
 30
0.0
 11
314.000022888184
 21
-212.4999957084657
 31
0.0
  0
LINE
  5
B67
330
18
100
AcDbEntity
  8
PV0001_1
  6
Continuous
 48
0.5
370
    50
100
AcDbLine
 10
315.000030517579
 20
-224.5000157356263
 30
0.0
 11
314.000022888184
 21
-224.5000157356263
 31
0.0
  0
LINE
  5
B68
330
18
100
AcDbEntity
  8
PV0001_1
  6
Continuous
 48
0.5
370
    50
100
AcDbLine
 10
314.000007629395
 20
-225.499993801117
 30
0.0
 11
314.000007629395
 21
-211.5000042915345
 31
0.0
  0
CIRCLE
  5
B69
330
18
100
AcDbEntity
  8
PV0001_1
  6
Continuous
370
    50
100
AcDbCircle
 10
326.500007629395
 20
-237.499994277954
 30
0.0
 40
5.5
  0
CIRCLE
  5
B6A
330
18
100
AcDbEntity
  8
PV0001_1
  6
Continuous
 48
0.5
370
    50
100
AcDbCircle
 10
326.500007629395
 20
-237.499994277954
 30
0.0
 40
3.2999999523163
  0
CIRCLE
  5
B6B
330
18
100
AcDbEntity
  8
PV0001_1
  6
Continuous
370
    50
100
AcDbCircle
 10
326.500007629395
 20
-199.499990463257
 30
0.0
 40
5.5
  0
CIRCLE
  5
B6C
330
18
100
AcDbEntity
  8
PV0001_1
  6
Continuous
 48
0.5
370
    50
100
AcDbCircle
 10
326.500007629395
 20
-199.499990463257
 30
0.0
 40
3.2999999523163
  0
LINE
  5
BB2
330
18
100
AcDbEntity
  8
0
100
AcDbLine
 10
311.0
 20
-214.5
 30
0.0
 11
311.0
 21
-222.5
 31
0.0
  0
LINE
  5
BB3
330
18
100
AcDbEntity
  8
0
100
AcDbLine
 10
311.0
 20
-215.129
 30
0.0
 11
312.0894599579608
 21
-214.5
 31
0.0
  0
LINE
  5
BB4
330
18
100
AcDbEntity
  8
0
100
AcDbLine
 10
302.0
 20
-215.129
 30
0.0
 11
311.0
 21
-215.129
 31
0.0
  0
LINE
  5
BB5
330
18
100
AcDbEntity
  8
0
100
AcDbLine
 10
302.0
 20
-215.5
 30
0.0
 11
292.0
 21
-215.5
 31
0.0
  0
LINE
  5
BB6
330
18
100
AcDbEntity
  8
0
100
AcDbLine
 10
302.0
 20
-214.5
 30
0.0
 11
302.0
 21
-222.5
 31
0.0
  0
LINE
  5
BB7
330
18
100
AcDbEntity
  8
0
100
AcDbLine
 10
334.0
 20
-214.5
 30
0.0
 11
302.0
 21
-214.5
 31
0.0
  0
LINE
  5
BB8
330
18
100
AcDbEntity
  8
0
100
AcDbLine
 10
311.0
 20
-221.871
 30
0.0
 11
312.0894599579608
 21
-222.5
 31
0.0
  0
LINE
  5
BB9
330
18
100
AcDbEntity
  8
0
100
AcDbLine
 10
302.0
 20
-221.871
 30
0.0
 11
311.0
 21
-221.871
 31
0.0
  0
LINE
  5
BBA
330
18
100
AcDbEntity
  8
0
100
AcDbLine
 10
292.0
 20
-221.5
 30
0.0
 11
302.0
 21
-221.5
 31
0.0
  0
LINE
  5
BBB
330
18
100
AcDbEntity
  8
0
100
AcDbLine
 10
292.0
 20
-215.5
 30
0.0
 11
292.0
 21
-221.5
 31
0.0
  0
LINE
  5
BBC
330
18
100
AcDbEntity
  8
0
100
AcDbLine
 10
302.0
 20
-222.5
 30
0.0
 11
334.0
 21
-222.5
 31
0.0
  0
LINE
  5
BE7
330
18
100
AcDbEntity
  8
0
100
AcDbLine
 10
334.0
 20
-224.25
 30
0.0
 11
334.0
 21
-212.75
 31
0.0
  0
LINE
  5
BE8
330
18
100
AcDbEntity
  8
0
100
AcDbLine
 10
342.0
 20
-224.25
 30
0.0
 11
334.0
 21
-224.25
 31
0.0
  0
LINE
  5
BE9
330
18
100
AcDbEntity
  8
0
100
AcDbLine
 10
342.0
 20
-212.75
 30
0.0
 11
342.0
 21
-224.25
 31
0.0
  0
LINE
  5
BEA
330
18
100
AcDbEntity
  8
0
100
AcDbLine
 10
334.0
 20
-212.75
 30
0.0
 11
342.0
 21
-212.75
 31
0.0
  0
LINE
  5
BEB
330
18
100
AcDbEntity
  8
0
100
AcDbLine
 10
384.0000000000001
 20
-221.65
 30
0.0
 11
342.0
 21
-221.65
 31
0.0
  0
LINE
  5
BEC
330
18
100
AcDbEntity
  8
0
100
AcDbLine
 10
342.0
 20
-215.35
 30
0.0
 11
384.0000000000001
 21
-215.35
 31
0.0
  0
LINE
  5
BED
330
18
100
AcDbEntity
  8
0
100
AcDbLine
 10
354.0
 20
-222.5
 30
0.0
 11
384.0000000000001
 21
-222.5
 31
0.0
  0
LINE
  5
BEE
330
18
100
AcDbEntity
  8
0
100
AcDbLine
 10
354.0
 20
-214.5
 30
0.0
 11
384.0000000000001
 21
-214.5
 31
0.0
  0
LINE
  5
BEF
330
18
100
AcDbEntity
  8
PV0001_1
  6
Continuous
 48
0.5
370
    50
100
AcDbLine
 10
354.0
 20
-214.5
 30
0.0
 11
354.0
 21
-222.5
 31
0.0
  0
CIRCLE
  5
C6B
330
18
100
AcDbEntity
  8
PV0001_1
  6
Continuous
370
    50
100
AcDbCircle
 10
725.3350242938697
 20
-218.5
 30
0.0
 40
8.5
  0
LINE
  5
C71
330
18
100
AcDbEntity
  8
PV0001_1
  6
DASHED2
 48
0.5
370
    50
100
AcDbLine
 10
728.3350242938698
 20
-232.000002861022
 30
0.0
 11
728.3350242938698
 21
-242.999988555908
 31
0.0
  0
LINE
  5
C72
330
18
100
AcDbEntity
  8
PV0001_1
  6
DASHED2
 48
0.5
370
    50
100
AcDbLine
 10
728.3350242938698
 20
-194.0
 30
0.0
 11
728.3350242938698
 21
-204.999983787537
 31
0.0
  0
LINE
  5
C73
330
18
100
AcDbEntity
  8
PV0001_1
  6
DASHED2
 48
0.5
370
    50
100
AcDbLine
 10
716.3350242938697
 20
-204.999990463257
 30
0.0
 11
728.3349937762898
 21
-204.999990463257
 31
0.0
  0
LINE
  5
C74
330
18
100
AcDbEntity
  8
PV0001_1
  6
DASHED2
 48
0.5
370
    50
100
AcDbLine
 10
716.3350242938697
 20
-194.000005722046
 30
0.0
 11
728.3349937762898
 21
-194.000005722046
 31
0.0
  0
LINE
  5
C75
330
18
100
AcDbEntity
  8
PV0001_1
  6
DASHED2
 48
0.5
370
    50
100
AcDbLine
 10
716.3350242938697
 20
-232.000009536743
 30
0.0
 11
728.3349937762898
 21
-232.000009536743
 31
0.0
  0
LINE
  5
C76
330
18
100
AcDbEntity
  8
PV0001_1
  6
DASHED2
 48
0.5
370
    50
100
AcDbLine
 10
716.3350242938697
 20
-242.999994277954
 30
0.0
 11
728.3349937762898
 21
-242.999994277954
 31
0.0
  0
LINE
  5
C77
330
18
100
AcDbEntity
  8
PV0001_1
  6
DASHED2
 48
0.5
370
    50
100
AcDbLine
 10
728.3349937762898
 20
-234.199995994567
 30
0.0
 11
742.3349937762898
 21
-234.199995994567
 31
0.0
  0
LINE
  5
C78
330
18
100
AcDbEntity
  8
PV0001_1
  6
DASHED2
 48
0.5
370
    50
100
AcDbLine
 10
728.3349937762898
 20
-240.800006866455
 30
0.0
 11
742.3349937762898
 21
-240.800006866455
 31
0.0
  0
LINE
  5
C79
330
18
100
AcDbEntity
  8
PV0001_1
  6
DASHED2
 48
0.5
370
    50
100
AcDbLine
 10
728.3349937762898
 20
-196.199993133545
 30
0.0
 11
742.3349937762898
 21
-196.199993133545
 31
0.0
  0
LINE
  5
C7A
330
18
100
AcDbEntity
  8
PV0001_1
  6
DASHED2
 48
0.5
370
    50
100
AcDbLine
 10
728.3349937762898
 20
-202.800004005433
 30
0.0
 11
742.3349937762898
 21
-202.800004005433
 31
0.0
  0
LINE
  5
C7B
330
18
100
AcDbEntity
  8
PV0001_1
  6
CENTER2
370
    25
100
AcDbLine
 10
713.8196129169098
 20
-237.499988555908
 30
0.0
 11
744.7537865008997
 21
-237.499988555908
 31
0.0
  0
LINE
  5
C7C
330
18
100
AcDbEntity
  8
PV0001_1
  6
CENTER2
370
    25
100
AcDbLine
 10
713.6633934344898
 20
-199.500011444092
 30
0.0
 11
744.7537865008997
 21
-199.500011444092
 31
0.0
  0
LINE
  5
C7D
330
18
100
AcDbEntity
  8
PV0001_1
  6
Continuous
 48
0.5
370
    50
100
AcDbLine
 10
716.3350242938697
 20
-230.999999046325
 30
0.0
 11
716.3350242938697
 21
-244.500009536743
 31
0.0
  0
LINE
  5
C7E
330
18
100
AcDbEntity
  8
PV0001_1
  6
Continuous
 48
0.5
370
    50
100
AcDbLine
 10
716.3350242938697
 20
-192.499990463257
 30
0.0
 11
716.3350242938697
 21
-206.000000953675
 31
0.0
  0
LINE
  5
C7F
330
18
100
AcDbEntity
  8
PV0001_1
  6
Continuous
 48
0.5
370
    50
100
AcDbLine
 10
710.3350242938697
 20
-206.000000953675
 30
0.0
 11
716.3350242938697
 21
-206.000000953675
 31
0.0
  0
LINE
  5
C80
330
18
100
AcDbEntity
  8
PV0001_1
  6
Continuous
 48
0.5
370
    50
100
AcDbLine
 10
710.3350242938697
 20
-230.999999046325
 30
0.0
 11
716.3350242938697
 21
-230.999999046325
 31
0.0
  0
LINE
  5
C81
330
18
100
AcDbEntity
  8
PV0001_1
  6
Continuous
 48
0.5
370
    50
100
AcDbLine
 10
710.3350242938697
 20
-206.000000953675
 30
0.0
 11
710.3350242938697
 21
-230.999999046325
 31
0.0
  0
LINE
  5
C82
330
18
100
AcDbEntity
  8
PV0001_1
  6
Continuous
370
    50
100
AcDbLine
 10
742.3350242938697
 20
-192.499990463257
 30
0.0
 11
742.3350242938697
 21
-244.500009536743
 31
0.0
  0
LINE
  5
C83
330
18
100
AcDbEntity
  8
PV0001_1
  6
Continuous
 48
0.5
370
    50
100
AcDbLine
 10
716.3350242938697
 20
-192.499990463257
 30
0.0
 11
742.3350242938697
 21
-192.499990463257
 31
0.0
  0
LINE
  5
C84
330
18
100
AcDbEntity
  8
PV0001_1
  6
Continuous
 48
0.5
370
    50
100
AcDbLine
 10
716.3350242938697
 20
-244.500009536743
 30
0.0
 11
742.3350242938697
 21
-244.500009536743
 31
0.0
  0
LINE
  5
C85
330
18
100
AcDbEntity
  8
PV0001_1
  6
CENTER2
370
    25
100
AcDbLine
 10
725.3350242938697
 20
-189.366083145142
 30
0.0
 11
725.3350242938697
 21
-247.328601837158
 31
0.0
  0
LINE
  5
C86
330
18
100
AcDbEntity
  8
PV0001_1
  6
CENTER2
370
    25
100
AcDbLine
 10
707.7265037860497
 20
-218.5
 30
0.0
 11
744.5975365008997
 21
-218.5
 31
0.0
  0
LINE
  5
CD4
330
18
100
AcDbEntity
  8
0
100
AcDbLine
 10
621.0
 20
-221.5
 30
0.0
 11
615.0
 21
-221.5
 31
0.0
  0
LINE
  5
CD5
330
18
100
AcDbEntity
  8
0
100
AcDbLine
 10
621.7999999999999
 20
-215.5
 30
0.0
 11
624.0
 21
-215.5
 31
0.0
  0
LINE
  5
CD6
330
18
100
AcDbEntity
  8
0
100
AcDbLine
 10
621.7999999999999
 20
-221.35
 30
0.0
 11
621.0
 21
-221.35
 31
0.0
  0
LINE
  5
CD7
330
18
100
AcDbEntity
  8
0
100
AcDbLine
 10
621.7999999999999
 20
-215.65
 30
0.0
 11
621.0
 21
-215.65
 31
0.0
  0
LINE
  5
CD8
330
18
100
AcDbEntity
  8
0
100
AcDbLine
 10
621.7999999999999
 20
-215.5
 30
0.0
 11
621.7999999999999
 21
-221.5
 31
0.0
  0
LINE
  5
CD9
330
18
100
AcDbEntity
  8
0
100
AcDbLine
 10
621.0
 20
-215.5
 30
0.0
 11
621.0
 21
-221.5
 31
0.0
  0
LINE
  5
CDA
330
18
100
AcDbEntity
  8
0
100
AcDbLine
 10
624.0
 20
-221.5
 30
0.0
 11
621.7999999999999
 21
-221.5
 31
0.0
  0
LINE
  5
CDB
330
18
100
AcDbEntity
  8
0
100
AcDbLine
 10
624.0
 20
-215.5
 30
0.0
 11
624.0
 21
-221.5
 31
0.0
  0
LINE
  5
CDC
330
18
100
AcDbEntity
  8
0
100
AcDbLine
 10
615.0
 20
-215.5
 30
0.0
 11
621.0
 21
-215.5
 31
0.0
  0
LINE
  5
CDD
330
18
100
AcDbEntity
  8
0
100
AcDbLine
 10
615.0
 20
-222.5
 30
0.0
 11
545.0
 21
-222.5
 31
0.0
  0
LINE
  5
CDE
330
18
100
AcDbEntity
  8
0
100
AcDbLine
 10
545.0
 20
-221.65
 30
0.0
 11
615.0
 21
-221.65
 31
0.0
  0
LINE
  5
CDF
330
18
100
AcDbEntity
  8
0
100
AcDbLine
 10
615.0
 20
-215.35
 30
0.0
 11
545.0
 21
-215.35
 31
0.0
  0
LINE
  5
CE0
330
18
100
AcDbEntity
  8
0
100
AcDbLine
 10
545.0
 20
-214.5
 30
0.0
 11
615.0
 21
-214.5
 31
0.0
  0
LINE
  5
CE1
330
18
100
AcDbEntity
  8
PV0001_1
  6
CENTER2
370
    25
100
AcDbLine
 10
540.66076660156
 20
-218.5
 30
0.0
 11
628.2775948203394
 21
-218.5
 31
0.0
  0
LINE
  5
CE2
330
18
100
AcDbEntity
  8
PV0001_1
  6
Continuous
 48
0.5
370
    50
100
AcDbLine
 10
615.0
 20
-214.5
 30
0.0
 11
615.0
 21
-222.5
 31
0.0
  0
LINE
  5
D2E
330
18
100
AcDbEntity
  8
PV0001_1
  6
DASHED2
 48
0.5
370
    50
100
AcDbLine
 10
621.0000305175799
 20
-209.9999978542328
 30
0.0
 11
615.00001525879
 21
-209.9999978542328
 31
0.0
  0
LINE
  5
D2F
330
18
100
AcDbEntity
  8
PV0001_1
  6
DASHED2
 48
0.5
370
    50
100
AcDbLine
 10
621.0000305175799
 20
-227.000016927719
 30
0.0
 11
621.0000305175799
 21
-209.9999978542328
 31
0.0
  0
LINE
  5
D30
330
18
100
AcDbEntity
  8
PV0001_1
  6
DASHED2
 48
0.5
370
    50
100
AcDbLine
 10
615.00001525879
 20
-227.000016927719
 30
0.0
 11
615.00001525879
 21
-209.9999978542328
 31
0.0
  0
LINE
  5
D31
330
18
100
AcDbEntity
  8
PV0001_1
  6
Continuous
370
    50
100
AcDbLine
 10
610.5000457763599
 20
-244.5000178813934
 30
0.0
 11
610.5000457763599
 21
-192.4999988079073
 31
0.0
  0
LINE
  5
D32
330
18
100
AcDbEntity
  8
PV0001_1
  6
Continuous
 48
0.5
370
    50
100
AcDbLine
 10
625.5000457763599
 20
-192.4999988079073
 30
0.0
 11
610.5000457763599
 21
-192.4999988079073
 31
0.0
  0
LINE
  5
D33
330
18
100
AcDbEntity
  8
PV0001_1
  6
Continuous
370
    50
100
AcDbLine
 10
625.5000457763599
 20
-244.5000178813934
 30
0.0
 11
625.5000457763599
 21
-192.4999988079073
 31
0.0
  0
LINE
  5
D34
330
18
100
AcDbEntity
  8
PV0001_1
  6
CENTER2
 48
0.5
370
    25
100
AcDbLine
 10
608.7102813720699
 20
-199.5000197887423
 30
0.0
 11
627.2719268798799
 21
-199.5000197887423
 31
0.0
  0
LINE
  5
D35
330
18
100
AcDbEntity
  8
PV0001_1
  6
CENTER2
 48
0.5
370
    25
100
AcDbLine
 10
618.0000457763599
 20
-207.0000112056733
 30
0.0
 11
618.0000457763599
 21
-192.0000121593483
 31
0.0
  0
LINE
  5
D36
330
18
100
AcDbEntity
  8
PV0001_1
  6
Continuous
 48
0.5
370
    50
100
AcDbLine
 10
610.5000305175799
 20
-206.0000083446503
 30
0.0
 11
625.5000305175799
 21
-206.0000083446503
 31
0.0
  0
CIRCLE
  5
D37
330
18
100
AcDbEntity
  8
PV0001_1
  6
Continuous
 48
0.5
370
    50
100
AcDbCircle
 10
618.0000457763599
 20
-199.5000197887423
 30
0.0
 40
3.2999999523163
  0
CIRCLE
  5
D38
330
18
100
AcDbEntity
  8
PV0001_1
  6
Continuous
370
    50
100
AcDbCircle
 10
618.0000457763599
 20
-199.5000197887423
 30
0.0
 40
5.5
  0
LINE
  5
D39
330
18
100
AcDbEntity
  8
PV0001_1
  6
DASHED2
 48
0.5
370
    50
100
AcDbLine
 10
621.0000305175799
 20
-227.000016927719
 30
0.0
 11
615.00001525879
 21
-227.000016927719
 31
0.0
  0
LINE
  5
D3A
330
18
100
AcDbEntity
  8
PV0001_1
  6
CENTER2
 48
0.5
370
    25
100
AcDbLine
 10
618.0000457763599
 20
-244.9999911785123
 30
0.0
 11
618.0000457763599
 21
-229.9999902248373
 31
0.0
  0
LINE
  5
D3B
330
18
100
AcDbEntity
  8
PV0001_1
  6
DASHED2
 48
0.5
370
    50
100
AcDbLine
 10
621.7000274658199
 20
-224.5000178813934
 30
0.0
 11
621.0000152587899
 21
-224.5000178813934
 31
0.0
  0
LINE
  5
D3C
330
18
100
AcDbEntity
  8
PV0001_1
  6
DASHED2
 48
0.5
370
    50
100
AcDbLine
 10
621.7000274658199
 20
-224.5000178813934
 30
0.0
 11
621.7000274658199
 21
-212.4999978542327
 31
0.0
  0
LINE
  5
D3D
330
18
100
AcDbEntity
  8
PV0001_1
  6
Continuous
 48
0.5
370
    50
100
AcDbLine
 10
625.5000457763599
 20
-244.5000178813934
 30
0.0
 11
610.5000457763599
 21
-244.5000178813934
 31
0.0
  0
LINE
  5
D3E
330
18
100
AcDbEntity
  8
PV0001_1
  6
CENTER2
 48
0.5
370
    25
100
AcDbLine
 10
608.9224243163998
 20
-237.4999969005584
 30
0.0
 11
627.2719268798799
 21
-237.4999969005584
 31
0.0
  0
LINE
  5
D3F
330
18
100
AcDbEntity
  8
PV0001_1
  6
Continuous
 48
0.5
370
    50
100
AcDbLine
 10
610.5000305175799
 20
-231.0000064373014
 30
0.0
 11
625.5000305175799
 21
-231.0000064373014
 31
0.0
  0
CIRCLE
  5
D40
330
18
100
AcDbEntity
  8
PV0001_1
  6
Continuous
 48
0.5
370
    50
100
AcDbCircle
 10
618.0000457763599
 20
-237.5000236034393
 30
0.0
 40
3.2999999523163
  0
CIRCLE
  5
D41
330
18
100
AcDbEntity
  8
PV0001_1
  6
Continuous
370
    50
100
AcDbCircle
 10
618.0000457763599
 20
-237.5000236034393
 30
0.0
 40
5.5
  0
INSERT
  5
DDA
330
18
100
AcDbEntity
  8
PV0001_1
  6
Continuous
100
AcDbBlockReference
  2
*U4
 10
188.0000386387093
 20
-318.5
 30
0.0
1001
ACAD
1002
{
1000
R14_HATCH_DATA
1000
178
1011
189.0000386387093
1021
-318.5
1031
0.0
1011
188.0000386387093
1021
-317.5
1031
0.0
1011
188.0000386387093
1021
-318.5
1031
1.0
1040
0.0
1010
0.0
1020
0.0
1030
1.0
1000
SOLID
1070
     1
1070
     0
1071
        1
1071
        1
1071
        1
1070
     2
1040
-1.000045776367199
1040
0.0
1040
0.2000000029802
1040
0.0
1040
6.283185307179586
1070
     1
1071
        0
1070
     0
1070
     1
1071
        1
1040
0.0
1040
0.0
1040
0.0
1002
}
  0
CIRCLE
  5
DDB
330
18
100
AcDbEntity
  8
PV0001_1
  6
Continuous
 48
0.5
370
    25
100
AcDbCircle
 10
186.9999928623421
 20
-318.5
 30
0.0
 40
0.2000000029802
  0
CIRCLE
  5
DDF
330
18
100
AcDbEntity
  8
PV0001_1
  6
Continuous
 48
0.5
370
    50
100
AcDbCircle
 10
204.4999776035523
 20
-327.5
 30
0.0
 40
1.399999976158099
  0
CIRCLE
  5
DE0
330
18
100
AcDbEntity
  8
PV0001_1
  6
Continuous
 48
0.5
370
    50
100
AcDbCircle
 10
195.4999928623421
 20
-318.5
 30
0.0
 40
1.399999976158099
  0
CIRCLE
  5
DE1
330
18
100
AcDbEntity
  8
PV0001_1
  6
Continuous
 48
0.5
370
    50
100
AcDbCircle
 10
213.4999928623413
 20
-318.5
 30
0.0
 40
1.399999976158099
  0
CIRCLE
  5
DE2
330
18
100
AcDbEntity
  8
PV0001_1
  6
Continuous
 48
0.5
370
    50
100
AcDbCircle
 10
204.4999928623413
 20
-309.5
 30
0.0
 40
1.399999976158099
  0
CIRCLE
  5
DE3
330
18
100
AcDbEntity
  8
PV0001_1
  6
CENTER2
370
    25
100
AcDbCircle
 10
204.4999928623413
 20
-318.5
 30
0.0
 40
9.0
  0
CIRCLE
  5
DE4
330
18
100
AcDbEntity
  8
PV0001_1
  6
Continuous
370
    50
100
AcDbCircle
 10
204.4999928623413
 20
-318.5
 30
0.0
 40
11.94250011444
  0
CIRCLE
  5
DE5
330
18
100
AcDbEntity
  8
PV0001_1
  6
Continuous
370
    25
100
AcDbCircle
 10
204.4999928623413
 20
-318.5
 30
0.0
 40
11.366000175476
  0
ARC
  5
DE6
330
18
100
AcDbEntity
  8
PV0001_1
  6
Continuous
 48
0.5
370
    50
100
AcDbCircle
 10
204.4999928623413
 20
-318.5
 30
0.0
 40
8.5
100
AcDbArc
 50
214.5603013988261
 51
235.4396569367959
  0
ARC
  5
DE7
330
18
100
AcDbEntity
  8
PV0001_1
  6
Continuous
 48
0.5
370
    50
100
AcDbCircle
 10
204.4999928623413
 20
-318.5
 30
0.0
 40
8.5
100
AcDbArc
 50
304.5603380542469
 51
325.4396799318428
  0
ARC
  5
DE8
330
18
100
AcDbEntity
  8
PV0001_1
  6
Continuous
 48
0.5
370
    50
100
AcDbCircle
 10
204.4999928623413
 20
-318.5
 30
0.0
 40
8.5
100
AcDbArc
 50
34.56026542664339
 51
55.4396209646197
  0
ARC
  5
DE9
330
18
100
AcDbEntity
  8
PV0001_1
  6
Continuous
 48
0.5
370
    50
100
AcDbCircle
 10
204.4999928623413
 20
-318.5
 30
0.0
 40
8.5
100
AcDbArc
 50
124.5602884216926
 51
145.4396439596649
  0
CIRCLE
  5
DEA
330
18
100
AcDbEntity
  8
PV0001_1
  6
Continuous
 48
0.5
370
    50
100
AcDbCircle
 10
216.8743672519903
 20
-330.874389648437
 30
0.0
 40
1.7000000476837
  0
CIRCLE
  5
DEB
330
18
100
AcDbEntity
  8
PV0001_1
  6
Continuous
 48
0.5
370
    50
100
AcDbCircle
 10
216.8743672519903
 20
-330.874389648437
 30
0.0
 40
3.25
  0
CIRCLE
  5
DEC
330
18
100
AcDbEntity
  8
PV0001_1
  6
Continuous
 48
0.5
370
    50
100
AcDbCircle
 10
192.1256184726937
 20
-330.874389648437
 30
0.0
 40
1.7000000476837
  0
CIRCLE
  5
DED
330
18
100
AcDbEntity
  8
PV0001_1
  6
Continuous
 48
0.5
370
    50
100
AcDbCircle
 10
192.1256184726937
 20
-330.874389648437
 30
0.0
 40
3.25
  0
CIRCLE
  5
DEE
330
18
100
AcDbEntity
  8
PV0001_1
  6
Continuous
 48
0.5
370
    50
100
AcDbCircle
 10
216.8743672519903
 20
-306.125640869141
 30
0.0
 40
1.7000000476837
  0
CIRCLE
  5
DEF
330
18
100
AcDbEntity
  8
PV0001_1
  6
Continuous
 48
0.5
370
    50
100
AcDbCircle
 10
216.8743672519903
 20
-306.125640869141
 30
0.0
 40
3.25
  0
CIRCLE
  5
DF0
330
18
100
AcDbEntity
  8
PV0001_1
  6
Continuous
 48
0.5
370
    50
100
AcDbCircle
 10
192.1256184726937
 20
-306.125640869141
 30
0.0
 40
1.7000000476837
  0
CIRCLE
  5
DF1
330
18
100
AcDbEntity
  8
PV0001_1
  6
Continuous
 48
0.5
370
    50
100
AcDbCircle
 10
192.1256184726937
 20
-306.125640869141
 30
0.0
 40
3.25
  0
ARC
  5
DF2
330
18
100
AcDbEntity
  8
PV0001_1
  6
Continuous
 48
0.5
370
    50
100
AcDbCircle
 10
204.4999928623413
 20
-318.5
 30
0.0
 40
21.5
100
AcDbArc
 50
215.5159678071112
 51
234.4840041888828
  0
ARC
  5
DF3
330
18
100
AcDbEntity
  8
PV0001_1
  6
Continuous
 48
0.5
370
    50
100
AcDbCircle
 10
204.4999928623413
 20
-318.5
 30
0.0
 40
21.5
100
AcDbArc
 50
305.5159634814018
 51
324.4840135235504
  0
ARC
  5
DF4
330
18
100
AcDbEntity
  8
PV0001_1
  6
Continuous
 48
0.5
370
    50
100
AcDbCircle
 10
204.4999928623413
 20
-318.5
 30
0.0
 40
21.5
100
AcDbArc
 50
35.51593183493544
 51
54.48396821670669
  0
CIRCLE
  5
DF5
330
18
100
AcDbEntity
  8
PV0001_1
  6
CENTER2
370
    25
100
AcDbCircle
 10
204.4999928623413
 20
-318.5
 30
0.0
 40
17.5
  0
ARC
  5
DF6
330
18
100
AcDbEntity
  8
PV0001_1
  6
Continuous
 48
0.5
370
    50
100
AcDbCircle
 10
204.4999928623413
 20
-318.5
 30
0.0
 40
21.5
100
AcDbArc
 50
125.5159548299803
 51
144.4839912117489
  0
LINE
  5
E3D
330
18
100
AcDbEntity
  8
PV0001_1
  6
Continuous
 48
0.5
370
    50
100
AcDbLine
 10
199.6781697422243
 20
-311.5
 30
0.0
 11
209.3218159824593
 21
-311.5
 31
0.0
  0
LINE
  5
E3E
330
18
100
AcDbEntity
  8
PV0001_1
  6
Continuous
 48
0.5
370
    50
100
AcDbLine
 10
199.6781697422243
 20
-325.5
 30
0.0
 11
209.3218159824593
 21
-325.5
 31
0.0
  0
LINE
  5
E3F
330
18
100
AcDbEntity
  8
PV0001_1
  6
Continuous
 48
0.5
370
    50
100
AcDbLine
 10
211.4999928623413
 20
-313.6781616210937
 30
0.0
 11
211.4999928623413
 21
-323.3218383789063
 31
0.0
  0
LINE
  5
E40
330
18
100
AcDbEntity
  8
PV0001_1
  6
Continuous
 48
0.5
370
    50
100
AcDbLine
 10
197.4999928623421
 20
-313.6781616210937
 30
0.0
 11
197.4999928623421
 21
-323.3218383789063
 31
0.0
  0
LINE
  5
E41
330
18
100
AcDbEntity
  8
PV0001_1
  6
CENTER2
370
    25
100
AcDbLine
 10
220.7634472995973
 20
-302.236534118653
 30
0.0
 11
188.2365317195637
 21
-334.763456344604
 31
0.0
  0
LINE
  5
E42
330
18
100
AcDbEntity
  8
PV0001_1
  6
CENTER2
370
    25
100
AcDbLine
 10
220.7634434849003
 20
-334.76344871521
 30
0.0
 11
188.2365296483023
 21
-302.23653793335
 31
0.0
  0
LINE
  5
E43
330
18
100
AcDbEntity
  8
PV0001_1
  6
CENTER2
370
    25
100
AcDbLine
 10
204.4999928623413
 20
-298.5
 30
0.0
 11
204.4999928623413
 21
-338.5
 31
0.0
  0
LINE
  5
E44
330
18
100
AcDbEntity
  8
PV0001_1
  6
CENTER2
370
    25
100
AcDbLine
 10
184.4999928623421
 20
-318.5
 30
0.0
 11
224.4999928623413
 21
-318.5
 31
0.0
  0
LINE
  5
E45
330
18
100
AcDbEntity
  8
PV0001_1
  6
Continuous
 48
0.5
370
    50
100
AcDbLine
 10
186.9999928623421
 20
-306.010009765625
 30
0.0
 11
186.9999928623421
 21
-330.989990234375
 31
0.0
  0
LINE
  5
E46
330
18
100
AcDbEntity
  8
PV0001_1
  6
Continuous
 48
0.5
370
    50
100
AcDbLine
 10
221.9999928623413
 20
-306.010009765625
 30
0.0
 11
221.9999928623413
 21
-330.989990234375
 31
0.0
  0
LINE
  5
E47
330
18
100
AcDbEntity
  8
PV0001_1
  6
Continuous
 48
0.5
370
    50
100
AcDbLine
 10
216.9899830967163
 20
-336.0
 30
0.0
 11
192.0099873691781
 21
-336.0
 31
0.0
  0
LINE
  5
E48
330
18
100
AcDbEntity
  8
PV0001_1
  6
Continuous
 48
0.5
370
    50
100
AcDbLine
 10
216.9899830967163
 20
-301.0
 30
0.0
 11
192.0099873691781
 21
-301.0
 31
0.0
  0
LINE
  5
EA0
330
18
100
AcDbEntity
  8
0
100
AcDbLine
 10
316.0
 20
-314.5
 30
0.0
 11
316.0
 21
-322.5
 31
0.0
  0
LINE
  5
EA1
330
18
100
AcDbEntity
  8
0
100
AcDbLine
 10
316.0
 20
-321.871
 30
0.0
 11
317.0894599579609
 21
-322.5
 31
0.0
  0
LINE
  5
EA2
330
18
100
AcDbEntity
  8
0
100
AcDbLine
 10
307.0
 20
-321.871
 30
0.0
 11
316.0
 21
-321.871
 31
0.0
  0
LINE
  5
EA3
330
18
100
AcDbEntity
  8
0
100
AcDbLine
 10
316.0
 20
-315.129
 30
0.0
 11
317.0894599579608
 21
-314.5
 31
0.0
  0
LINE
  5
EA4
330
18
100
AcDbEntity
  8
0
100
AcDbLine
 10
307.0
 20
-315.129
 30
0.0
 11
316.0
 21
-315.129
 31
0.0
  0
LINE
  5
EA5
330
18
100
AcDbEntity
  8
0
100
AcDbLine
 10
297.0
 20
-321.5
 30
0.0
 11
307.0
 21
-321.5
 31
0.0
  0
LINE
  5
EA6
330
18
100
AcDbEntity
  8
0
100
AcDbLine
 10
297.0
 20
-315.5
 30
0.0
 11
297.0
 21
-321.5
 31
0.0
  0
LINE
  5
EA7
330
18
100
AcDbEntity
  8
0
100
AcDbLine
 10
307.0
 20
-315.5
 30
0.0
 11
297.0
 21
-315.5
 31
0.0
  0
LINE
  5
EA8
330
18
100
AcDbEntity
  8
0
100
AcDbLine
 10
307.0
 20
-322.5
 30
0.0
 11
334.0
 21
-322.5
 31
0.0
  0
LINE
  5
EA9
330
18
100
AcDbEntity
  8
0
100
AcDbLine
 10
307.0
 20
-314.5
 30
0.0
 11
307.0
 21
-322.5
 31
0.0
  0
LINE
  5
EAA
330
18
100
AcDbEntity
  8
0
100
AcDbLine
 10
334.0
 20
-314.5
 30
0.0
 11
307.0
 21
-314.5
 31
0.0
  0
LINE
  5
EAB
330
18
100
AcDbEntity
  8
0
100
AcDbLine
 10
334.0
 20
-324.25
 30
0.0
 11
334.0
 21
-312.75
 31
0.0
  0
LINE
  5
EAC
330
18
100
AcDbEntity
  8
0
100
AcDbLine
 10
342.0
 20
-324.25
 30
0.0
 11
334.0
 21
-324.25
 31
0.0
  0
LINE
  5
EAD
330
18
100
AcDbEntity
  8
0
100
AcDbLine
 10
342.0
 20
-312.75
 30
0.0
 11
342.0
 21
-324.25
 31
0.0
  0
LINE
  5
EAE
330
18
100
AcDbEntity
  8
0
100
AcDbLine
 10
334.0
 20
-312.75
 30
0.0
 11
342.0
 21
-312.75
 31
0.0
  0
LINE
  5
EAF
330
18
100
AcDbEntity
  8
0
100
AcDbLine
 10
384.0000000000001
 20
-321.65
 30
0.0
 11
342.0
 21
-321.65
 31
0.0
  0
LINE
  5
EB0
330
18
100
AcDbEntity
  8
0
100
AcDbLine
 10
342.0
 20
-315.35
 30
0.0
 11
384.0000000000001
 21
-315.35
 31
0.0
  0
LINE
  5
EB1
330
18
100
AcDbEntity
  8
0
100
AcDbLine
 10
354.0
 20
-322.5
 30
0.0
 11
384.0000000000001
 21
-322.5
 31
0.0
  0
LINE
  5
EB2
330
18
100
AcDbEntity
  8
0
100
AcDbLine
 10
354.0
 20
-314.5
 30
0.0
 11
384.0000000000001
 21
-314.5
 31
0.0
  0
LINE
  5
EB3
330
18
100
AcDbEntity
  8
PV0001_1
  6
Continuous
 48
0.5
370
    50
100
AcDbLine
 10
354.0
 20
-314.5
 30
0.0
 11
354.0
 21
-322.5
 31
0.0
  0
LINE
  5
EB4
330
18
100
AcDbEntity
  8
PV0001_1
  6
CENTER2
370
    25
100
AcDbLine
 10
292.80870013313
 20
-318.5
 30
0.0
 11
387.05892944335
 21
-318.5
 31
0.0
  0
LINE
  5
ED0
330
18
100
AcDbEntity
  8
PV0001_1
  6
Continuous
 48
0.5
370
    50
100
AcDbLine
 10
308.0
 20
-311.5
 30
0.0
 11
308.0
 21
-325.5
 31
0.0
  0
LINE
  5
ED1
330
18
100
AcDbEntity
  8
PV0001_1
  6
Continuous
 48
0.5
370
    50
100
AcDbLine
 10
314.0
 20
-311.5
 30
0.0
 11
308.0
 21
-311.5
 31
0.0
  0
LINE
  5
ED2
330
18
100
AcDbEntity
  8
PV0001_1
  6
Continuous
 48
0.5
370
    50
100
AcDbLine
 10
314.0
 20
-325.5
 30
0.0
 11
308.0
 21
-325.5
 31
0.0
  0
LINE
  5
ED3
330
18
100
AcDbEntity
  8
PV0001_1
  6
Continuous
 48
0.5
370
    50
100
AcDbLine
 10
314.5
 20
-312.5
 30
0.0
 11
314.5
 21
-324.5
 31
0.0
  0
LINE
  5
ED4
330
18
100
AcDbEntity
  8
PV0001_1
  6
Continuous
 48
0.5
370
    50
100
AcDbLine
 10
314.0
 20
-311.5
 30
0.0
 11
314.0
 21
-325.5
 31
0.0
  0
LINE
  5
ED5
330
18
100
AcDbEntity
  8
PV0001_1
  6
Continuous
 48
0.5
370
    50
100
AcDbLine
 10
315.0
 20
-312.5
 30
0.0
 11
314.0
 21
-312.5
 31
0.0
  0
LINE
  5
ED6
330
18
100
AcDbEntity
  8
PV0001_1
  6
Continuous
 48
0.5
370
    50
100
AcDbLine
 10
315.0
 20
-324.5
 30
0.0
 11
314.0
 21
-324.5
 31
0.0
  0
LINE
  5
ED7
330
18
100
AcDbEntity
  8
PV0001_1
  6
Continuous
 48
0.5
370
    50
100
AcDbLine
 10
338.0
 20
-304.5
 30
0.0
 11
338.0
 21
-332.5
 31
0.0
  0
LINE
  5
ED8
330
18
100
AcDbEntity
  8
PV0001_1
  6
Continuous
370
    50
100
AcDbLine
 10
324.0
 20
-301.0
 30
0.0
 11
324.0
 21
-336.0
 31
0.0
  0
LINE
  5
ED9
330
18
100
AcDbEntity
  8
PV0001_1
  6
Continuous
370
    50
100
AcDbLine
 10
315.0
 20
-301.0
 30
0.0
 11
315.0
 21
-336.0
 31
0.0
  0
LINE
  5
EDA
330
18
100
AcDbEntity
  8
PV0001_1
  6
Continuous
 48
0.5
370
    50
100
AcDbLine
 10
338.0
 20
-304.5
 30
0.0
 11
324.0
 21
-304.5
 31
0.0
  0
LINE
  5
EDB
330
18
100
AcDbEntity
  8
PV0001_1
  6
Continuous
 48
0.5
370
    50
100
AcDbLine
 10
324.0
 20
-301.0
 30
0.0
 11
315.0
 21
-301.0
 31
0.0
  0
LINE
  5
EDC
330
18
100
AcDbEntity
  8
PV0001_1
  6
Continuous
 48
0.5
370
    50
100
AcDbLine
 10
338.0
 20
-332.5
 30
0.0
 11
324.0
 21
-332.5
 31
0.0
  0
LINE
  5
EDD
330
18
100
AcDbEntity
  8
PV0001_1
  6
Continuous
 48
0.5
370
    50
100
AcDbLine
 10
324.0
 20
-336.0
 30
0.0
 11
315.0
 21
-336.0
 31
0.0
  0
LINE
  5
EDE
330
18
100
AcDbEntity
  8
PV0001_1
  6
CENTER2
 48
0.5
370
    25
100
AcDbLine
 10
325.63189697265
 20
-330.874389648437
 30
0.0
 11
313.50271606445
 21
-330.874389648437
 31
0.0
  0
LINE
  5
EDF
330
18
100
AcDbEntity
  8
PV0001_1
  6
DASHED2
 48
0.5
370
    50
100
AcDbLine
 10
319.0
 20
-334.1243896484371
 30
0.0
 11
315.0
 21
-334.1243896484371
 31
0.0
  0
LINE
  5
EE0
330
18
100
AcDbEntity
  8
PV0001_1
  6
DASHED2
 48
0.5
370
    50
100
AcDbLine
 10
324.0
 20
-332.57437133789
 30
0.0
 11
319.0
 21
-332.57437133789
 31
0.0
  0
LINE
  5
EE1
330
18
100
AcDbEntity
  8
PV0001_1
  6
DASHED2
 48
0.5
370
    50
100
AcDbLine
 10
324.0
 20
-329.174377441406
 30
0.0
 11
319.0
 21
-329.174377441406
 31
0.0
  0
LINE
  5
EE2
330
18
100
AcDbEntity
  8
PV0001_1
  6
DASHED2
 48
0.5
370
    50
100
AcDbLine
 10
319.0
 20
-327.6243896484375
 30
0.0
 11
319.0
 21
-334.1243896484371
 31
0.0
  0
LINE
  5
EE3
330
18
100
AcDbEntity
  8
PV0001_1
  6
DASHED2
 48
0.5
370
    50
100
AcDbLine
 10
319.0
 20
-327.6243896484375
 30
0.0
 11
315.0
 21
-327.6243896484375
 31
0.0
  0
LINE
  5
EF1
330
18
100
AcDbEntity
  8
PV0001_1
  6
Continuous
 48
0.5
370
    50
100
AcDbLine
 10
615.0
 20
-380.0
 30
0.0
 11
615.0
 21
-397.0
 31
0.0
  0
LINE
  5
EF2
330
18
100
AcDbEntity
  8
PV0001_1
  6
Continuous
 48
0.5
370
    50
100
AcDbLine
 10
621.0
 20
-380.0
 30
0.0
 11
621.0
 21
-397.0
 31
0.0
  0
LINE
  5
EF3
330
18
100
AcDbEntity
  8
PV0001_1
  6
Continuous
 48
0.5
370
    50
100
AcDbLine
 10
621.0
 20
-380.0
 30
0.0
 11
615.0
 21
-380.0
 31
0.0
  0
LINE
  5
EF4
330
18
100
AcDbEntity
  8
PV0001_1
  6
Continuous
 48
0.5
370
    50
100
AcDbLine
 10
621.6999969482399
 20
-382.5
 30
0.0
 11
621.0
 21
-382.5
 31
0.0
  0
LINE
  5
EF5
330
18
100
AcDbEntity
  8
PV0001_1
  6
Continuous
 48
0.5
370
    50
100
AcDbLine
 10
621.6999969482399
 20
-382.5
 30
0.0
 11
621.6999969482399
 21
-394.5
 31
0.0
  0
LINE
  5
EF6
330
18
100
AcDbEntity
  8
PV0001_1
  6
Continuous
 48
0.5
370
    50
100
AcDbLine
 10
621.0
 20
-397.0
 30
0.0
 11
615.0
 21
-397.0
 31
0.0
  0
LINE
  5
EF7
330
18
100
AcDbEntity
  8
0
100
AcDbLine
 10
621.6999969482399
 20
-394.5
 30
0.0
 11
621.0
 21
-394.5
 31
0.0
  0
LINE
  5
F2A
330
18
100
AcDbEntity
  8
0
100
AcDbLine
 10
316.0
 20
-384.5
 30
0.0
 11
316.0
 21
-392.5
 31
0.0
  0
LINE
  5
F2B
330
18
100
AcDbEntity
  8
0
100
AcDbLine
 10
316.0
 20
-391.871
 30
0.0
 11
317.0894599579609
 21
-392.5
 31
0.0
  0
LINE
  5
F2C
330
18
100
AcDbEntity
  8
0
100
AcDbLine
 10
307.0
 20
-391.871
 30
0.0
 11
316.0
 21
-391.871
 31
0.0
  0
LINE
  5
F2D
330
18
100
AcDbEntity
  8
0
100
AcDbLine
 10
316.0
 20
-385.129
 30
0.0
 11
317.0894599579608
 21
-384.5
 31
0.0
  0
LINE
  5
F2E
330
18
100
AcDbEntity
  8
0
100
AcDbLine
 10
307.0
 20
-385.129
 30
0.0
 11
316.0
 21
-385.129
 31
0.0
  0
LINE
  5
F2F
330
18
100
AcDbEntity
  8
0
100
AcDbLine
 10
297.0
 20
-391.5
 30
0.0
 11
307.0
 21
-391.5
 31
0.0
  0
LINE
  5
F30
330
18
100
AcDbEntity
  8
0
100
AcDbLine
 10
297.0
 20
-385.5
 30
0.0
 11
297.0
 21
-391.5
 31
0.0
  0
LINE
  5
F31
330
18
100
AcDbEntity
  8
0
100
AcDbLine
 10
307.0
 20
-385.5
 30
0.0
 11
297.0
 21
-385.5
 31
0.0
  0
LINE
  5
F32
330
18
100
AcDbEntity
  8
0
100
AcDbLine
 10
307.0
 20
-392.5
 30
0.0
 11
334.0
 21
-392.5
 31
0.0
  0
LINE
  5
F33
330
18
100
AcDbEntity
  8
0
100
AcDbLine
 10
307.0
 20
-384.5
 30
0.0
 11
307.0
 21
-392.5
 31
0.0
  0
LINE
  5
F34
330
18
100
AcDbEntity
  8
0
100
AcDbLine
 10
334.0
 20
-384.5
 30
0.0
 11
307.0
 21
-384.5
 31
0.0
  0
LINE
  5
F35
330
18
100
AcDbEntity
  8
0
100
AcDbLine
 10
334.0
 20
-394.25
 30
0.0
 11
334.0
 21
-382.75
 31
0.0
  0
LINE
  5
F36
330
18
100
AcDbEntity
  8
0
100
AcDbLine
 10
342.0
 20
-394.25
 30
0.0
 11
334.0
 21
-394.25
 31
0.0
  0
LINE
  5
F37
330
18
100
AcDbEntity
  8
0
100
AcDbLine
 10
342.0
 20
-382.75
 30
0.0
 11
342.0
 21
-394.25
 31
0.0
  0
LINE
  5
F38
330
18
100
AcDbEntity
  8
0
100
AcDbLine
 10
334.0
 20
-382.75
 30
0.0
 11
342.0
 21
-382.75
 31
0.0
  0
LINE
  5
F39
330
18
100
AcDbEntity
  8
0
100
AcDbLine
 10
384.0000000000001
 20
-391.65
 30
0.0
 11
342.0
 21
-391.65
 31
0.0
  0
LINE
  5
F3A
330
18
100
AcDbEntity
  8
0
100
AcDbLine
 10
342.0
 20
-385.35
 30
0.0
 11
384.0000000000001
 21
-385.35
 31
0.0
  0
LINE
  5
F3B
330
18
100
AcDbEntity
  8
0
100
AcDbLine
 10
354.0
 20
-392.5
 30
0.0
 11
384.0000000000001
 21
-392.5
 31
0.0
  0
LINE
  5
F3C
330
18
100
AcDbEntity
  8
0
100
AcDbLine
 10
354.0
 20
-384.5
 30
0.0
 11
384.0000000000001
 21
-384.5
 31
0.0
  0
LINE
  5
F3D
330
18
100
AcDbEntity
  8
PV0001_1
  6
Continuous
 48
0.5
370
    50
100
AcDbLine
 10
354.0
 20
-384.5
 30
0.0
 11
354.0
 21
-392.5
 31
0.0
  0
LINE
  5
F3E
330
18
100
AcDbEntity
  8
PV0001_1
  6
CENTER2
370
    25
100
AcDbLine
 10
292.80870013313
 20
-388.5
 30
0.0
 11
387.05892944335
 21
-388.5
 31
0.0
  0
LINE
  5
F5B
330
18
100
AcDbEntity
  8
PV0001_1
  6
Continuous
 48
0.5
370
    50
100
AcDbLine
 10
316.0
 20
-402.5
 30
0.0
 11
316.0
 21
-374.5
 31
0.0
  0
LINE
  5
F5C
330
18
100
AcDbEntity
  8
PV0001_1
  6
Continuous
 48
0.5
370
    50
100
AcDbLine
 10
308.0
 20
-381.5
 30
0.0
 11
308.0
 21
-395.5
 31
0.0
  0
LINE
  5
F5D
330
18
100
AcDbEntity
  8
PV0001_1
  6
Continuous
 48
0.5
370
    50
100
AcDbLine
 10
314.0
 20
-381.5
 30
0.0
 11
308.0
 21
-381.5
 31
0.0
  0
LINE
  5
F5E
330
18
100
AcDbEntity
  8
PV0001_1
  6
Continuous
 48
0.5
370
    50
100
AcDbLine
 10
314.5
 20
-382.5
 30
0.0
 11
314.5
 21
-394.5
 31
0.0
  0
LINE
  5
F5F
330
18
100
AcDbEntity
  8
PV0001_1
  6
Continuous
 48
0.5
370
    50
100
AcDbLine
 10
314.0
 20
-381.5
 30
0.0
 11
314.0
 21
-395.5
 31
0.0
  0
LINE
  5
F60
330
18
100
AcDbEntity
  8
PV0001_1
  6
Continuous
 48
0.5
370
    50
100
AcDbLine
 10
316.0
 20
-382.5
 30
0.0
 11
314.0
 21
-382.5
 31
0.0
  0
LINE
  5
F61
330
18
100
AcDbEntity
  8
PV0001_1
  6
Continuous
 48
0.5
370
    50
100
AcDbLine
 10
316.0
 20
-381.5
 30
0.0
 11
316.0
 21
-395.5
 31
0.0
  0
LINE
  5
F62
330
18
100
AcDbEntity
  8
PV0001_1
  6
Continuous
 48
0.5
370
    50
100
AcDbLine
 10
314.0
 20
-395.5
 30
0.0
 11
308.0
 21
-395.5
 31
0.0
  0
LINE
  5
F63
330
18
100
AcDbEntity
  8
PV0001_1
  6
Continuous
 48
0.5
370
    50
100
AcDbLine
 10
316.0
 20
-394.5
 30
0.0
 11
314.0
 21
-394.5
 31
0.0
  0
LINE
  5
F64
330
18
100
AcDbEntity
  8
PV0001_1
  6
Continuous
370
    50
100
AcDbLine
 10
330.0
 20
-406.0
 30
0.0
 11
330.0
 21
-371.0
 31
0.0
  0
LINE
  5
F65
330
18
100
AcDbEntity
  8
PV0001_1
  6
Continuous
370
    50
100
AcDbLine
 10
339.0
 20
-406.0
 30
0.0
 11
339.0
 21
-371.0
 31
0.0
  0
LINE
  5
F66
330
18
100
AcDbEntity
  8
PV0001_1
  6
Continuous
 48
0.5
370
    50
100
AcDbLine
 10
316.0
 20
-402.5
 30
0.0
 11
330.0
 21
-402.5
 31
0.0
  0
LINE
  5
F67
330
18
100
AcDbEntity
  8
PV0001_1
  6
Continuous
 48
0.5
370
    50
100
AcDbLine
 10
330.0
 20
-406.0
 30
0.0
 11
339.0
 21
-406.0
 31
0.0
  0
LINE
  5
F68
330
18
100
AcDbEntity
  8
PV0001_1
  6
Continuous
 48
0.5
370
    50
100
AcDbLine
 10
316.0
 20
-374.5
 30
0.0
 11
330.0
 21
-374.5
 31
0.0
  0
LINE
  5
F69
330
18
100
AcDbEntity
  8
PV0001_1
  6
Continuous
 48
0.5
370
    50
100
AcDbLine
 10
330.0
 20
-371.0
 30
0.0
 11
339.0
 21
-371.0
 31
0.0
  0
LINE
  5
F6A
330
18
100
AcDbEntity
  8
PV0001_1
  6
CENTER2
 48
0.5
370
    25
100
AcDbLine
 10
328.36810302734
 20
-376.125610351562
 30
0.0
 11
340.49728393554
 21
-376.125610351562
 31
0.0
  0
LINE
  5
F6B
330
18
100
AcDbEntity
  8
PV0001_1
  6
DASHED2
 48
0.5
370
    50
100
AcDbLine
 10
335.0
 20
-372.8756103515621
 30
0.0
 11
339.0
 21
-372.8756103515621
 31
0.0
  0
LINE
  5
F6C
330
18
100
AcDbEntity
  8
PV0001_1
  6
DASHED2
 48
0.5
370
    50
100
AcDbLine
 10
335.0
 20
-379.3756103515621
 30
0.0
 11
339.0
 21
-379.3756103515621
 31
0.0
  0
LINE
  5
F6D
330
18
100
AcDbEntity
  8
PV0001_1
  6
DASHED2
 48
0.5
370
    50
100
AcDbLine
 10
330.0
 20
-374.425628662109
 30
0.0
 11
335.0
 21
-374.425628662109
 31
0.0
  0
LINE
  5
F6E
330
18
100
AcDbEntity
  8
PV0001_1
  6
DASHED2
 48
0.5
370
    50
100
AcDbLine
 10
330.0
 20
-377.825622558593
 30
0.0
 11
335.0
 21
-377.825622558593
 31
0.0
  0
LINE
  5
F6F
330
18
100
AcDbEntity
  8
PV0001_1
  6
DASHED2
 48
0.5
370
    50
100
AcDbLine
 10
335.0
 20
-379.3756103515621
 30
0.0
 11
335.0
 21
-372.8756103515621
 31
0.0
  0
LINE
  5
F8B
330
18
100
AcDbEntity
  8
0
100
AcDbLine
 10
621.0
 20
-391.5
 30
0.0
 11
615.0
 21
-391.5
 31
0.0
  0
LINE
  5
F8C
330
18
100
AcDbEntity
  8
0
100
AcDbLine
 10
621.7999999999999
 20
-385.5
 30
0.0
 11
624.0
 21
-385.5
 31
0.0
  0
LINE
  5
F8E
330
18
100
AcDbEntity
  8
0
100
AcDbLine
 10
621.7999999999999
 20
-385.65
 30
0.0
 11
621.0
 21
-385.65
 31
0.0
  0
LINE
  5
F8F
330
18
100
AcDbEntity
  8
0
100
AcDbLine
 10
621.7999999999999
 20
-385.5
 30
0.0
 11
621.7999999999999
 21
-391.5
 31
0.0
  0
LINE
  5
F90
330
18
100
AcDbEntity
  8
0
100
AcDbLine
 10
621.0
 20
-385.5
 30
0.0
 11
621.0
 21
-391.5
 31
0.0
  0
LINE
  5
F91
330
18
100
AcDbEntity
  8
0
100
AcDbLine
 10
624.0
 20
-391.5
 30
0.0
 11
621.7999999999999
 21
-391.5
 31
0.0
  0
LINE
  5
F92
330
18
100
AcDbEntity
  8
0
100
AcDbLine
 10
624.0
 20
-385.5
 30
0.0
 11
624.0
 21
-391.5
 31
0.0
  0
LINE
  5
F93
330
18
100
AcDbEntity
  8
0
100
AcDbLine
 10
615.0
 20
-385.5
 30
0.0
 11
621.0
 21
-385.5
 31
0.0
  0
LINE
  5
F94
330
18
100
AcDbEntity
  8
0
100
AcDbLine
 10
615.0
 20
-392.5
 30
0.0
 11
545.0
 21
-392.5
 31
0.0
  0
LINE
  5
F95
330
18
100
AcDbEntity
  8
0
100
AcDbLine
 10
545.0
 20
-391.65
 30
0.0
 11
615.0
 21
-391.65
 31
0.0
  0
LINE
  5
F96
330
18
100
AcDbEntity
  8
0
100
AcDbLine
 10
615.0
 20
-385.35
 30
0.0
 11
545.0
 21
-385.35
 31
0.0
  0
LINE
  5
F97
330
18
100
AcDbEntity
  8
0
100
AcDbLine
 10
545.0
 20
-384.5
 30
0.0
 11
615.0
 21
-384.5
 31
0.0
  0
LINE
  5
F98
330
18
100
AcDbEntity
  8
PV0001_1
  6
Continuous
 48
0.5
370
    50
100
AcDbLine
 10
615.0
 20
-384.5
 30
0.0
 11
615.0
 21
-392.5
 31
0.0
  0
LINE
  5
FA4
330
18
100
AcDbEntity
  8
0
100
AcDbLine
 10
621.7999999999999
 20
-391.35
 30
0.0
 11
621.0
 21
-391.35
 31
0.0
  0
LINE
  5
FC8
330
18
100
AcDbEntity
  8
PV0001_1
  6
CENTER2
370
    25
100
AcDbLine
 10
541.97454833984
 20
-318.5
 30
0.0
 11
628.2775948203394
 21
-318.5
 31
0.0
  0
LINE
  5
1018
330
18
100
AcDbEntity
  8
0
  6
CENTER
370
    -2
100
AcDbLine
 10
631.0
 20
-318.5
 30
0.0
 11
610.0
 21
-318.5
 31
0.0
  0
MTEXT
  5
105A
330
18
100
AcDbEntity
  8
PV0001_1
 62
     7
370
    25
100
AcDbMText
 10
616.201983069268
 20
-352.7095128322855
 30
0.0
 40
3.2
 41
0.0
 71
     4
 72
     5
  1
\T1.4;\W0.61;BUM-6S
 73
     1
 44
1.0
1001
ACAD
1000
MTEXTBEGIN
1070
    73
1070
     1
1070
    44
1040
1.0
1070
    74
1070
     0
1000
MTEXTEND
  0
ARC
  5
10E1
330
18
100
AcDbEntity
  8
0
370
    -2
100
AcDbCircle
 10
727.4763327597977
 20
-318.5
 30
0.0
 40
21.5
100
AcDbArc
 50
215.5159837645339
 51
234.4840162354615
  0
CIRCLE
  5
10E2
330
18
100
AcDbEntity
  8
0
370
    -2
100
AcDbCircle
 10
715.1019634774725
 20
-330.8743680592039
 30
0.0
 40
3.25
  0
LINE
  5
10E3
330
18
100
AcDbEntity
  8
0
  6
AM_ISO08W050
370
    -2
100
AcDbLine
 10
751.9763327597977
 20
-318.5
 30
0.0
 11
702.9763327597977
 21
-318.5
 31
0.0
  0
CIRCLE
  5
10E4
330
18
100
AcDbEntity
  8
0
370
    -2
100
AcDbCircle
 10
715.1019640890331
 20
-306.1256313292355
 30
0.0
 40
3.25
  0
ARC
  5
10E5
330
18
100
AcDbEntity
  8
0
370
    -2
100
AcDbCircle
 10
727.4763327597977
 20
-318.5
 30
0.0
 40
21.5
100
AcDbArc
 50
125.5159837645385
 51
144.484016235466
  0
LINE
  5
10E6
330
18
100
AcDbEntity
  8
0
  6
AM_ISO08W050
370
    -2
100
AcDbLine
 10
744.8004488988681
 20
-301.1758838609297
 30
0.0
 11
710.1522166207271
 21
-335.8241161390705
 31
0.0
  0
LINE
  5
10E7
330
18
100
AcDbEntity
  8
0
  6
AM_ISO08W050
370
    -2
100
AcDbLine
 10
744.8004488988681
 20
-335.8241161390704
 30
0.0
 11
710.1522166207273
 21
-301.1758838609297
 31
0.0
  0
CIRCLE
  5
10E8
330
18
100
AcDbEntity
  8
0
  6
AM_ISO08W050
370
    -2
100
AcDbCircle
 10
727.4763327597977
 20
-318.5
 30
0.0
 40
17.5
  0
ARC
  5
10E9
330
18
100
AcDbEntity
  8
0
370
    -2
100
AcDbCircle
 10
727.4763327597977
 20
-318.5
 30
0.0
 40
21.5
100
AcDbArc
 50
35.51598376453396
 51
54.4840162354615
  0
LINE
  5
10EA
330
18
100
AcDbEntity
  8
0
370
    -2
100
AcDbLine
 10
739.9663287565945
 20
-301.0
 30
0.0
 11
714.9863367630009
 21
-301.0000000000001
 31
0.0
  0
LINE
  5
10EB
330
18
100
AcDbEntity
  8
0
370
    -2
100
AcDbLine
 10
744.9763327597979
 20
-306.0100040032034
 30
0.0
 11
744.9763327597977
 21
-330.9899959967968
 31
0.0
  0
CIRCLE
  5
10EC
330
18
100
AcDbEntity
  8
0
370
    -2
100
AcDbCircle
 10
727.4763327597977
 20
-318.5
 30
0.0
 40
8.5
  0
CIRCLE
  5
10ED
330
18
100
AcDbEntity
  8
0
  6
DASHED2
370
    -2
100
AcDbCircle
 10
727.4763327597977
 20
-318.5
 30
0.0
 40
14.0
  0
CIRCLE
  5
10EE
330
18
100
AcDbEntity
  8
0
370
    -2
100
AcDbCircle
 10
739.8507014305623
 20
-306.1256313292354
 30
0.0
 40
3.25
  0
CIRCLE
  5
10EF
330
18
100
AcDbEntity
  8
0
370
    -2
100
AcDbCircle
 10
739.8507020421229
 20
-306.1256319407961
 30
0.0
 40
1.7
  0
CIRCLE
  5
10F0
330
18
100
AcDbEntity
  8
0
370
    -2
100
AcDbCircle
 10
715.1019647005937
 20
-306.1256319407962
 30
0.0
 40
1.7
  0
LINE
  5
10F1
330
18
100
AcDbEntity
  8
0
370
    -2
100
AcDbLine
 10
739.9663287565945
 20
-336.0000000000001
 30
0.0
 11
714.9863367630009
 21
-336.0000000000001
 31
0.0
  0
ARC
  5
10F2
330
18
100
AcDbEntity
  8
0
370
    -2
100
AcDbCircle
 10
727.4763327597977
 20
-318.5
 30
0.0
 40
21.5
100
AcDbArc
 50
305.5159837645385
 51
324.4840162354661
  0
CIRCLE
  5
10F3
330
18
100
AcDbEntity
  8
0
370
    -2
100
AcDbCircle
 10
739.8507014305623
 20
-330.8743686707647
 30
0.0
 40
3.25
  0
CIRCLE
  5
10F4
330
18
100
AcDbEntity
  8
0
370
    -2
100
AcDbCircle
 10
739.8507020421229
 20
-330.8743692823254
 30
0.0
 40
1.7
  0
CIRCLE
  5
10F5
330
18
100
AcDbEntity
  8
0
370
    -2
100
AcDbCircle
 10
715.1019640890331
 20
-330.8743686707646
 30
0.0
 40
1.7
  0
LINE
  5
10F6
330
18
100
AcDbEntity
  8
0
370
    -2
100
AcDbLine
 10
618.9999999999998
 20
-304.5
 30
0.0
 11
618.9999999999998
 21
-301.0000000000001
 31
0.0
  0
LINE
  5
10F7
330
18
100
AcDbEntity
  8
0
370
    -2
100
AcDbLine
 10
625.0
 20
-340.0000000000001
 30
0.0
 11
625.0
 21
-301.0000000000001
 31
0.0
  0
LINE
  5
10F8
330
18
100
AcDbEntity
  8
0
370
    -2
100
AcDbLine
 10
625.0
 20
-301.0000000000001
 30
0.0
 11
619.0
 21
-301.0000000000001
 31
0.0
  0
LINE
  5
10F9
330
18
100
AcDbEntity
  8
0
370
    -2
100
AcDbLine
 10
615.0
 20
-304.5
 30
0.0
 11
615.0
 21
-332.5
 31
0.0
  0
LINE
  5
10FA
330
18
100
AcDbEntity
  8
0
370
    -2
100
AcDbLine
 10
709.9763327597977
 20
-306.0100040032032
 30
0.0
 11
709.9763327597977
 21
-330.9899959967968
 31
0.0
  0
LINE
  5
10FB
330
18
100
AcDbEntity
  8
0
370
    -2
100
AcDbLine
 10
624.5
 20
-310.0
 30
0.0
 11
615.5
 21
-310.0
 31
0.0
  0
LINE
  5
10FC
330
18
100
AcDbEntity
  8
0
370
    -2
100
AcDbLine
 10
618.9999999999998
 20
-304.5
 30
0.0
 11
615.0
 21
-304.5
 31
0.0
  0
LINE
  5
10FE
330
18
100
AcDbEntity
  8
0
370
    -2
100
AcDbLine
 10
618.9999999999998
 20
-340.0000000000001
 30
0.0
 11
619.0000000000001
 21
-332.5
 31
0.0
  0
LINE
  5
10FF
330
18
100
AcDbEntity
  8
0
370
    -2
100
AcDbLine
 10
624.5
 20
-327.0
 30
0.0
 11
615.5
 21
-327.0
 31
0.0
  0
LINE
  5
1100
330
18
100
AcDbEntity
  8
0
370
    -2
100
AcDbLine
 10
618.9999999999998
 20
-340.0000000000001
 30
0.0
 11
625.0
 21
-340.0000000000001
 31
0.0
  0
LINE
  5
1101
330
18
100
AcDbEntity
  8
0
370
    -2
100
AcDbLine
 10
619.0000000000001
 20
-332.5
 30
0.0
 11
615.0
 21
-332.5
 31
0.0
  0
LINE
  5
1102
330
18
100
AcDbEntity
  8
0
  6
AM_ISO08W050
100
AcDbLine
 10
727.4763327597977
 20
-343.0000000000001
 30
0.0
 11
727.4763327597977
 21
-294.0000000000001
 31
0.0
  0
CIRCLE
  5
1103
330
18
100
AcDbEntity
  8
0
370
    -2
100
AcDbCircle
 10
727.4763327597977
 20
-318.5
 30
0.0
 40
9.0
  0
LINE
  5
1104
330
18
100
AcDbEntity
  8
0
100
AcDbLine
 10
615.0
 20
-327.5000000000001
 30
0.0
 11
615.5
 21
-327.0
 31
0.0
  0
LINE
  5
1105
330
18
100
AcDbEntity
  8
0
100
AcDbLine
 10
615.5
 20
-327.0
 30
0.0
 11
615.5
 21
-310.0
 31
0.0
  0
LINE
  5
1106
330
18
100
AcDbEntity
  8
0
100
AcDbLine
 10
615.5
 20
-310.0
 30
0.0
 11
615.0
 21
-309.5000000000001
 31
0.0
  0
LINE
  5
1107
330
18
100
AcDbEntity
  8
0
100
AcDbLine
 10
625.0
 20
-309.5000000000001
 30
0.0
 11
624.5
 21
-310.0
 31
0.0
  0
LINE
  5
1108
330
18
100
AcDbEntity
  8
0
100
AcDbLine
 10
624.5
 20
-310.0
 30
0.0
 11
624.5
 21
-327.0
 31
0.0
  0
LINE
  5
1109
330
18
100
AcDbEntity
  8
0
100
AcDbLine
 10
624.5
 20
-327.0
 30
0.0
 11
625.0
 21
-327.5000000000001
 31
0.0
  0
LINE
  5
1153
330
18
100
AcDbEntity
  8
PV0001_1
  6
DASHED2
 48
0.5
370
    50
100
AcDbLine
 10
621.7000274658199
 20
-324.5000178813934
 30
0.0
 11
621.7000274658199
 21
-312.4999978542327
 31
0.0
  0
LINE
  5
1154
330
18
100
AcDbEntity
  8
PV0001_1
  6
DASHED2
 48
0.5
370
    50
100
AcDbLine
 10
621.7000274658199
 20
-324.5000178813934
 30
0.0
 11
621.0000152587899
 21
-324.5000178813934
 31
0.0
  0
LINE
  5
1155
330
18
100
AcDbEntity
  8
PV0001_1
  6
DASHED2
 48
0.5
370
    50
100
AcDbLine
 10
621.0000305175799
 20
-309.9999978542328
 30
0.0
 11
615.00001525879
 21
-309.9999978542328
 31
0.0
  0
LINE
  5
1156
330
18
100
AcDbEntity
  8
PV0001_1
  6
Continuous
 48
0.5
370
    50
100
AcDbLine
 10
615.0
 20
-314.5
 30
0.0
 11
615.0
 21
-322.5
 31
0.0
  0
LINE
  5
1157
330
18
100
AcDbEntity
  8
0
100
AcDbLine
 10
545.0
 20
-314.5
 30
0.0
 11
615.0
 21
-314.5
 31
0.0
  0
LINE
  5
1158
330
18
100
AcDbEntity
  8
0
100
AcDbLine
 10
615.0
 20
-315.35
 30
0.0
 11
545.0
 21
-315.35
 31
0.0
  0
LINE
  5
1159
330
18
100
AcDbEntity
  8
0
100
AcDbLine
 10
545.0
 20
-321.65
 30
0.0
 11
615.0
 21
-321.65
 31
0.0
  0
LINE
  5
115A
330
18
100
AcDbEntity
  8
0
100
AcDbLine
 10
615.0
 20
-322.5
 30
0.0
 11
545.0
 21
-322.5
 31
0.0
  0
LINE
  5
115B
330
18
100
AcDbEntity
  8
0
100
AcDbLine
 10
615.0
 20
-315.5
 30
0.0
 11
621.0
 21
-315.5
 31
0.0
  0
LINE
  5
115C
330
18
100
AcDbEntity
  8
0
100
AcDbLine
 10
624.0
 20
-315.5
 30
0.0
 11
624.0
 21
-321.5
 31
0.0
  0
LINE
  5
115D
330
18
100
AcDbEntity
  8
0
100
AcDbLine
 10
624.0
 20
-321.5
 30
0.0
 11
621.7999999999999
 21
-321.5
 31
0.0
  0
LINE
  5
115E
330
18
100
AcDbEntity
  8
0
100
AcDbLine
 10
621.0
 20
-315.5
 30
0.0
 11
621.0
 21
-321.5
 31
0.0
  0
LINE
  5
115F
330
18
100
AcDbEntity
  8
0
100
AcDbLine
 10
621.7999999999999
 20
-315.5
 30
0.0
 11
621.7999999999999
 21
-321.5
 31
0.0
  0
LINE
  5
1160
330
18
100
AcDbEntity
  8
0
100
AcDbLine
 10
621.7999999999999
 20
-315.65
 30
0.0
 11
621.0
 21
-315.65
 31
0.0
  0
LINE
  5
1161
330
18
100
AcDbEntity
  8
0
100
AcDbLine
 10
621.7999999999999
 20
-321.35
 30
0.0
 11
621.0
 21
-321.35
 31
0.0
  0
LINE
  5
1162
330
18
100
AcDbEntity
  8
0
100
AcDbLine
 10
621.7999999999999
 20
-315.5
 30
0.0
 11
624.0
 21
-315.5
 31
0.0
  0
LINE
  5
1163
330
18
100
AcDbEntity
  8
0
100
AcDbLine
 10
621.0
 20
-321.5
 30
0.0
 11
615.0
 21
-321.5
 31
0.0
  0
LINE
  5
1164
330
18
100
AcDbEntity
  8
PV0001_1
  6
DASHED2
 48
0.5
370
    50
100
AcDbLine
 10
621.0000305175799
 20
-327.000016927719
 30
0.0
 11
615.00001525879
 21
-327.000016927719
 31
0.0
  0
LINE
  5
1165
330
18
100
AcDbEntity
  8
PV0001_1
  6
DASHED2
 48
0.5
370
    50
100
AcDbLine
 10
615.00001525879
 20
-327.000016927719
 30
0.0
 11
615.00001525879
 21
-309.9999978542328
 31
0.0
  0
LINE
  5
1166
330
18
100
AcDbEntity
  8
PV0001_1
  6
DASHED2
 48
0.5
370
    50
100
AcDbLine
 10
621.0000305175799
 20
-327.000016927719
 30
0.0
 11
621.0000305175799
 21
-309.9999978542328
 31
0.0
  0
ENDSEC
  0
SECTION
  2
OBJECTS
  0
DICTIONARY
  5
C
330
0
100
AcDbDictionary
281
     1
  3
ACAD_2007HEADERVARS_RT
350
143D
  3
ACAD_COLOR
350
379
  3
ACAD_GROUP
350
D
  3
ACAD_LAYOUT
350
5E
  3
ACAD_MATERIAL
350
378
  3
ACAD_MLEADERSTYLE
350
1326
  3
ACAD_MLINESTYLE
350
1B
  3
ACAD_PLOTSETTINGS
350
5F
  3
ACAD_PLOTSTYLENAME
350
5C
  3
ACAD_SCALELIST
350
1304
  3
ACAD_TABLESTYLE
350
1285
  3
ACAD_VISUALSTYLE
350
12F3
  3
ACDB_RECOMPOSE_DATA
350
143B
  3
AcDbVariableDictionary
350
12D6
  3
AcmDictionary
350
3F2
  3
AMG
350
37F
  3
AMGSNAPSETTINGS
350
480
  3
DWGPROPS
350
143C
  3
SAKAE_DICT
350
32E
  0
DICTIONARY
  5
1422
330
E
100
AcDbDictionary
280
     1
281
     1
  3
ADSK_XREC_LAYER_RECONCILED
360
1423
  0
DICTIONARY
  5
1424
330
75
100
AcDbDictionary
280
     1
281
     1
  3
ADSK_XREC_LAYER_RECONCILED
360
1425
  0
DICTIONARY
  5
1426
330
452
100
AcDbDictionary
280
     1
281
     1
  3
ADSK_XREC_LAYER_RECONCILED
360
1427
  0
DICTIONARY
  5
1428
330
4AF
100
AcDbDictionary
280
     1
281
     1
  3
ADSK_XREC_LAYER_RECONCILED
360
1429
  0
DICTIONARY
  5
142A
330
5AB
100
AcDbDictionary
280
     1
281
     1
  3
ADSK_XREC_LAYER_RECONCILED
360
142B
  0
DICTIONARY
  5
142C
330
684
100
AcDbDictionary
280
     1
281
     1
  3
ADSK_XREC_LAYER_RECONCILED
360
142D
  0
DICTIONARY
  5
368
330
18
100
AcDbDictionary
280
     1
281
     1
  3
ACAD_LAYOUTSELFREF
360
369
  0
DICTIONARY
  5
366
330
15
100
AcDbDictionary
280
     1
281
     1
  3
ACAD_LAYOUTSELFREF
360
367
  0
DICTIONARY
  5
143D
102
{ACAD_REACTORS
330
C
102
}
330
C
100
AcDbDictionary
281
     1
  3
DIMARCSYM
350
143E
  0
DICTIONARY
  5
379
102
{ACAD_REACTORS
330
C
102
}
330
C
100
AcDbDictionary
281
     1
  0
DICTIONARY
  5
D
102
{ACAD_REACTORS
330
C
102
}
330
C
100
AcDbDictionary
281
     1
  0
DICTIONARY
  5
5E
102
{ACAD_REACTORS
330
C
102
}
330
C
100
AcDbDictionary
281
     1
  3
Model
350
60
  3
ﾚｲｱｳﾄ1
350
61
  0
DICTIONARY
  5
378
102
{ACAD_REACTORS
330
C
102
}
330
C
100
AcDbDictionary
281
     1
  3
ByBlock
350
12E3
  3
ByLayer
350
12DB
  3
Global
350
12EB
  0
DICTIONARY
  5
1326
102
{ACAD_REACTORS
330
C
102
}
330
C
100
AcDbDictionary
281
     1
  3
Standard
350
1327
  0
DICTIONARY
  5
1B
102
{ACAD_REACTORS
330
C
102
}
330
C
100
AcDbDictionary
281
     1
  3
STANDARD
350
1C
  0
DICTIONARY
  5
5F
102
{ACAD_REACTORS
330
C
102
}
330
C
100
AcDbDictionary
281
     1
  0
ACDBDICTIONARYWDFLT
  5
5C
102
{ACAD_REACTORS
330
C
102
}
330
C
100
AcDbDictionary
281
     1
  3
Normal
350
5D
100
AcDbDictionaryWithDefault
340
5D
1001
ACAD
1000
TREAT_AS_HARD
1070
     0
  0
DICTIONARY
  5
1304
102
{ACAD_REACTORS
330
C
102
}
330
C
100
AcDbDictionary
281
     1
  3
A0
350
1305
  3
A1
350
1306
  3
A2
350
1307
  3
A3
350
1308
  3
A4
350
1309
  3
A5
350
130A
  3
A6
350
130B
  3
A7
350
130C
  3
A8
350
130D
  3
A9
350
130E
  3
B0
350
130F
  3
B1
350
1310
  3
B2
350
1311
  3
B3
350
1312
  3
B4
350
1313
  3
B5
350
1314
  3
B6
350
1315
  3
B7
350
1316
  3
B8
350
1317
  3
B9
350
1318
  3
C0
350
1319
  3
C1
350
131A
  3
C2
350
131B
  3
C3
350
131C
  3
C4
350
131D
  3
C5
350
131E
  3
C6
350
131F
  3
C7
350
1320
  3
C8
350
1321
  3
C9
350
1322
  3
D0
350
1323
  3
D1
350
1324
  3
D2
350
1325
  0
DICTIONARY
  5
1285
102
{ACAD_REACTORS
330
C
102
}
330
C
100
AcDbDictionary
281
     1
  3
Standard
350
1286
  0
DICTIONARY
  5
12F3
102
{ACAD_REACTORS
330
C
102
}
330
C
100
AcDbDictionary
281
     1
  3
2dWireframe
350
12F9
  3
3D Hidden
350
12FB
  3
3dWireframe
350
12FA
  3
Basic
350
12F8
  3
Brighten
350
12FF
  3
ColorChange
350
1303
  3
Conceptual
350
12FC
  3
Dim
350
12FE
  3
Facepattern
350
1302
  3
Flat
350
12F4
  3
FlatWithEdges
350
12F5
  3
Gouraud
350
12F6
  3
GouraudWithEdges
350
12F7
  3
Linepattern
350
1301
  3
Realistic
350
12FD
  3
Thicken
350
1300
  0
XRECORD
  5
143B
102
{ACAD_REACTORS
330
C
102
}
330
C
100
AcDbXrecord
280
     1
 90
        1
330
1286
  0
DICTIONARY
  5
12D6
102
{ACAD_REACTORS
330
C
102
}
330
C
100
AcDbDictionary
281
     1
  3
CANNOSCALE
350
1436
  3
CMLEADERSTYLE
350
1435
  3
CTABLESTYLE
350
12D7
  3
DIMASSOC
350
12D8
  3
INDEXCTL
350
1438
  3
PROJECTNAME
350
12D9
  3
SORTENTS
350
1437
  0
DICTIONARY
  5
3F2
102
{ACAD_REACTORS
330
C
102
}
330
C
100
AcDbDictionary
281
     1
  3
AcmStdDictionary
350
3FC
  3
AMDTSECTSYM_ARROWCOLOR
350
129E
  0
DICTIONARY
  5
37F
102
{ACAD_REACTORS
330
C
102
}
330
C
100
AcDbDictionary
281
     1
  0
DICTIONARY
  5
480
102
{ACAD_REACTORS
330
C
102
}
330
C
100
AcDbDictionary
281
     1
  0
XRECORD
  5
143C
102
{ACAD_REACTORS
330
C
102
}
330
C
100
AcDbXrecord
280
     1
  1
DWGPROPS COOKIE
  2

  3

  4

  6

  7

  8
06941
  9

300
=
301
=
302
=
303
=
304
=
305
=
306
=
307
=
308
=
309
=
 40
0.3691584953703704
 41
2451067.751276933
 42
2454966.690250556
  1

 90
        0
  0
DICTIONARY
  5
32E
102
{ACAD_REACTORS
330
C
102
}
330
C
100
AcDbDictionary
281
     1
  3
XREC1
350
32F
  0
XRECORD
  5
1423
102
{ACAD_REACTORS
330
1422
102
}
330
1422
100
AcDbXrecord
280
     1
290
     1
  0
XRECORD
  5
1425
102
{ACAD_REACTORS
330
1424
102
}
330
1424
100
AcDbXrecord
280
     1
290
     1
  0
XRECORD
  5
1427
102
{ACAD_REACTORS
330
1426
102
}
330
1426
100
AcDbXrecord
280
     1
290
     1
  0
XRECORD
  5
1429
102
{ACAD_REACTORS
330
1428
102
}
330
1428
100
AcDbXrecord
280
     1
290
     1
  0
XRECORD
  5
142B
102
{ACAD_REACTORS
330
142A
102
}
330
142A
100
AcDbXrecord
280
     1
290
     1
  0
XRECORD
  5
142D
102
{ACAD_REACTORS
330
142C
102
}
330
142C
100
AcDbXrecord
280
     1
290
     1
  0
XRECORD
  5
369
102
{ACAD_REACTORS
330
368
102
}
330
368
100
AcDbXrecord
280
     1
340
18
  0
XRECORD
  5
367
102
{ACAD_REACTORS
330
366
102
}
330
366
100
AcDbXrecord
280
     1
340
15
  0
XRECORD
  5
143E
102
{ACAD_REACTORS
330
143D
102
}
330
143D
100
AcDbXrecord
280
     1
 70
     1
  0
LAYOUT
  5
60
102
{ACAD_XDICTIONARY
360
143F
102
}
102
{ACAD_REACTORS
330
5E
102
}
330
5E
100
AcDbPlotSettings
  1

  2
BT8050.pc3
  4
A3_(420.00_x_297.00_MM)
  6

 40
0.7937499880790711
 41
0.7937499880790711
 42
0.79376220703125
 43
0.79376220703125
 44
420.0
 45
297.0
 46
0.0
 47
38.9
 48
0.0
 49
0.0
140
0.0
141
0.0
142
1.0
143
2.111634750127937
 70
 11956
 72
     1
 73
     0
 74
     1
  7
kuroda-monochrome.ctb
 75
     0
147
0.4735667472508744
148
0.0146744673786543
149
459.5170364212123
100
AcDbLayout
  1
Model
 70
     1
 71
     0
 10
0.0
 20
0.0
 11
12.0
 21
9.0
 12
0.0
 22
0.0
 32
0.0
 14
0.0
 24
0.0
 34
0.0
 15
0.0
 25
0.0
 35
0.0
146
0.0
 13
0.0
 23
0.0
 33
0.0
 16
1.0
 26
0.0
 36
0.0
 17
0.0
 27
1.0
 37
0.0
 76
     0
330
18
331
12D0
  0
LAYOUT
  5
61
102
{ACAD_XDICTIONARY
360
1441
102
}
102
{ACAD_REACTORS
330
5E
102
}
330
5E
100
AcDbPlotSettings
  1

  2
\\BLUEWAVE2\EPSON LP-9200SX
  4

  6

 40
0.0
 41
0.0
 42
0.0
 43
0.0
 44
0.0
 45
0.0
 46
0.0
 47
0.0
 48
0.0
 49
0.0
140
0.0
141
0.0
142
1.0
143
1.0
 70
   688
 72
     0
 73
     0
 74
     5
  7
kuroda-monochrome.ctb
 75
    16
147
1.0
148
0.0
149
0.0
100
AcDbLayout
  1
ﾚｲｱｳﾄ1
 70
     1
 71
     1
 10
0.0
 20
0.0
 11
420.0
 21
297.0
 12
0.0
 22
0.0
 32
0.0
 14
1.000000000000000E+20
 24
1.000000000000000E+20
 34
1.000000000000000E+20
 15
-1.000000000000000E+20
 25
-1.000000000000000E+20
 35
-1.000000000000000E+20
146
0.0
 13
0.0
 23
0.0
 33
0.0
 16
1.0
 26
0.0
 36
0.0
 17
0.0
 27
1.0
 37
0.0
 76
     0
330
15
  0
MATERIAL
  5
12E3
102
{ACAD_XDICTIONARY
360
12E4
102
}
102
{ACAD_REACTORS
330
378
102
}
330
378
100
AcDbMaterial
  1
ByBlock
 72
     0
 43
0.0208333333333333
 43
0.0
 43
0.0
 43
0.0
 43
0.0
 43
0.0208333333333333
 43
0.0
 43
0.0
 43
0.0
 43
0.0
 43
1.0
 43
0.0
 43
0.0
 43
0.0
 43
0.0
 43
1.0
 77
     0
 47
0.0208333333333333
 47
0.0
 47
0.0
 47
0.0
 47
0.0
 47
0.0208333333333333
 47
0.0
 47
0.0
 47
0.0
 47
0.0
 47
1.0
 47
0.0
 47
0.0
 47
0.0
 47
0.0
 47
1.0
171
     0
 49
0.0208333333333333
 49
0.0
 49
0.0
 49
0.0
 49
0.0
 49
0.0208333333333333
 49
0.0
 49
0.0
 49
0.0
 49
0.0
 49
1.0
 49
0.0
 49
0.0
 49
0.0
 49
0.0
 49
1.0
175
     0
142
0.0208333333333333
142
0.0
142
0.0
142
0.0
142
0.0
142
0.0208333333333333
142
0.0
142
0.0
142
0.0
142
0.0
142
1.0
142
0.0
142
0.0
142
0.0
142
0.0
142
1.0
179
     0
144
0.0208333333333333
144
0.0
144
0.0
144
0.0
144
0.0
144
0.0208333333333333
144
0.0
144
0.0
144
0.0
144
0.0
144
1.0
144
0.0
144
0.0
144
0.0
144
0.0
144
1.0
147
0.0208333333333333
147
0.0
147
0.0
147
0.0
147
0.0
147
0.0208333333333333
147
0.0
147
0.0
147
0.0
147
0.0
147
1.0
147
0.0
147
0.0
147
0.0
147
0.0
147
1.0
  0
MATERIAL
  5
12DB
102
{ACAD_XDICTIONARY
360
12DC
102
}
102
{ACAD_REACTORS
330
378
102
}
330
378
100
AcDbMaterial
  1
ByLayer
 72
     0
 43
0.0208333333333333
 43
0.0
 43
0.0
 43
0.0
 43
0.0
 43
0.0208333333333333
 43
0.0
 43
0.0
 43
0.0
 43
0.0
 43
1.0
 43
0.0
 43
0.0
 43
0.0
 43
0.0
 43
1.0
 77
     0
 47
0.0208333333333333
 47
0.0
 47
0.0
 47
0.0
 47
0.0
 47
0.0208333333333333
 47
0.0
 47
0.0
 47
0.0
 47
0.0
 47
1.0
 47
0.0
 47
0.0
 47
0.0
 47
0.0
 47
1.0
171
     0
 49
0.0208333333333333
 49
0.0
 49
0.0
 49
0.0
 49
0.0
 49
0.0208333333333333
 49
0.0
 49
0.0
 49
0.0
 49
0.0
 49
1.0
 49
0.0
 49
0.0
 49
0.0
 49
0.0
 49
1.0
175
     0
142
0.0208333333333333
142
0.0
142
0.0
142
0.0
142
0.0
142
0.0208333333333333
142
0.0
142
0.0
142
0.0
142
0.0
142
1.0
142
0.0
142
0.0
142
0.0
142
0.0
142
1.0
179
     0
144
0.0208333333333333
144
0.0
144
0.0
144
0.0
144
0.0
144
0.0208333333333333
144
0.0
144
0.0
144
0.0
144
0.0
144
1.0
144
0.0
144
0.0
144
0.0
144
0.0
144
1.0
147
0.0208333333333333
147
0.0
147
0.0
147
0.0
147
0.0
147
0.0208333333333333
147
0.0
147
0.0
147
0.0
147
0.0
147
1.0
147
0.0
147
0.0
147
0.0
147
0.0
147
1.0
  0
MATERIAL
  5
12EB
102
{ACAD_XDICTIONARY
360
12EC
102
}
102
{ACAD_REACTORS
330
378
102
}
330
378
100
AcDbMaterial
  1
Global
 72
     0
 43
0.0208333333333333
 43
0.0
 43
0.0
 43
0.0
 43
0.0
 43
0.0208333333333333
 43
0.0
 43
0.0
 43
0.0
 43
0.0
 43
1.0
 43
0.0
 43
0.0
 43
0.0
 43
0.0
 43
1.0
 77
     0
 47
0.0208333333333333
 47
0.0
 47
0.0
 47
0.0
 47
0.0
 47
0.0208333333333333
 47
0.0
 47
0.0
 47
0.0
 47
0.0
 47
1.0
 47
0.0
 47
0.0
 47
0.0
 47
0.0
 47
1.0
171
     0
 49
0.0208333333333333
 49
0.0
 49
0.0
 49
0.0
 49
0.0
 49
0.0208333333333333
 49
0.0
 49
0.0
 49
0.0
 49
0.0
 49
1.0
 49
0.0
 49
0.0
 49
0.0
 49
0.0
 49
1.0
175
     0
142
0.0208333333333333
142
0.0
142
0.0
142
0.0
142
0.0
142
0.0208333333333333
142
0.0
142
0.0
142
0.0
142
0.0
142
1.0
142
0.0
142
0.0
142
0.0
142
0.0
142
1.0
179
     0
144
0.0208333333333333
144
0.0
144
0.0
144
0.0
144
0.0
144
0.0208333333333333
144
0.0
144
0.0
144
0.0
144
0.0
144
1.0
144
0.0
144
0.0
144
0.0
144
0.0
144
1.0
147
0.0208333333333333
147
0.0
147
0.0
147
0.0
147
0.0
147
0.0208333333333333
147
0.0
147
0.0
147
0.0
147
0.0
147
1.0
147
0.0
147
0.0
147
0.0
147
0.0
147
1.0
  0
MLEADERSTYLE
  5
1327
102
{ACAD_REACTORS
330
1326
102
}
330
1326
100
AcDbMLeaderStyle
170
     2
171
     1
172
     0
 90
        2
 40
0.0
 41
0.0
173
     1
 91
-1056964608
340
12
 92
       -2
290
     1
 42
2.0
291
     1
 43
0.36
  3
Standard
 44
4.0
300

342
F
174
     1
178
     6
175
     1
176
     0
 93
-1056964608
 45
4.0
292
     0
297
     0
 46
4.0
 94
-1056964608
 47
1.0
 49
1.0
140
1.0
293
     1
141
0.0
294
     1
177
     0
142
1.0
295
     0
296
     0
143
0.125
1001
ACAD_MLEADERVER
1070
     2
  0
MLINESTYLE
  5
1C
102
{ACAD_REACTORS
330
1B
102
}
330
1B
100
AcDbMlineStyle
  2
STANDARD
 70
     0
  3

 62
   256
 51
90.0
 52
90.0
 71
     2
 49
0.5
 62
   256
  6
BYLAYER
 49
-0.5
 62
   256
  6
BYLAYER
  0
ACDBPLACEHOLDER
  5
5D
102
{ACAD_REACTORS
330
5C
102
}
330
5C
  0
SCALE
  5
1305
102
{ACAD_REACTORS
330
1304
102
}
330
1304
100
AcDbScale
 70
     0
300
1:1
140
1.0
141
1.0
290
     1
  0
SCALE
  5
1306
102
{ACAD_REACTORS
330
1304
102
}
330
1304
100
AcDbScale
 70
     0
300
1:2
140
1.0
141
2.0
290
     0
  0
SCALE
  5
1307
102
{ACAD_REACTORS
330
1304
102
}
330
1304
100
AcDbScale
 70
     0
300
1:4
140
1.0
141
4.0
290
     0
  0
SCALE
  5
1308
102
{ACAD_REACTORS
330
1304
102
}
330
1304
100
AcDbScale
 70
     0
300
1:5
140
1.0
141
5.0
290
     0
  0
SCALE
  5
1309
102
{ACAD_REACTORS
330
1304
102
}
330
1304
100
AcDbScale
 70
     0
300
1:8
140
1.0
141
8.0
290
     0
  0
SCALE
  5
130A
102
{ACAD_REACTORS
330
1304
102
}
330
1304
100
AcDbScale
 70
     0
300
1:10
140
1.0
141
10.0
290
     0
  0
SCALE
  5
130B
102
{ACAD_REACTORS
330
1304
102
}
330
1304
100
AcDbScale
 70
     0
300
1:16
140
1.0
141
16.0
290
     0
  0
SCALE
  5
130C
102
{ACAD_REACTORS
330
1304
102
}
330
1304
100
AcDbScale
 70
     0
300
1:20
140
1.0
141
20.0
290
     0
  0
SCALE
  5
130D
102
{ACAD_REACTORS
330
1304
102
}
330
1304
100
AcDbScale
 70
     0
300
1:30
140
1.0
141
30.0
290
     0
  0
SCALE
  5
130E
102
{ACAD_REACTORS
330
1304
102
}
330
1304
100
AcDbScale
 70
     0
300
1:40
140
1.0
141
40.0
290
     0
  0
SCALE
  5
130F
102
{ACAD_REACTORS
330
1304
102
}
330
1304
100
AcDbScale
 70
     0
300
1:50
140
1.0
141
50.0
290
     0
  0
SCALE
  5
1310
102
{ACAD_REACTORS
330
1304
102
}
330
1304
100
AcDbScale
 70
     0
300
1:100
140
1.0
141
100.0
290
     0
  0
SCALE
  5
1311
102
{ACAD_REACTORS
330
1304
102
}
330
1304
100
AcDbScale
 70
     0
300
2:1
140
2.0
141
1.0
290
     0
  0
SCALE
  5
1312
102
{ACAD_REACTORS
330
1304
102
}
330
1304
100
AcDbScale
 70
     0
300
4:1
140
4.0
141
1.0
290
     0
  0
SCALE
  5
1313
102
{ACAD_REACTORS
330
1304
102
}
330
1304
100
AcDbScale
 70
     0
300
8:1
140
8.0
141
1.0
290
     0
  0
SCALE
  5
1314
102
{ACAD_REACTORS
330
1304
102
}
330
1304
100
AcDbScale
 70
     0
300
10:1
140
10.0
141
1.0
290
     0
  0
SCALE
  5
1315
102
{ACAD_REACTORS
330
1304
102
}
330
1304
100
AcDbScale
 70
     0
300
100:1
140
100.0
141
1.0
290
     0
  0
SCALE
  5
1316
102
{ACAD_REACTORS
330
1304
102
}
330
1304
100
AcDbScale
 70
     0
300
1/128" = 1'-0"
140
0.0078125
141
12.0
290
     0
  0
SCALE
  5
1317
102
{ACAD_REACTORS
330
1304
102
}
330
1304
100
AcDbScale
 70
     0
300
1/64" = 1'-0"
140
0.015625
141
12.0
290
     0
  0
SCALE
  5
1318
102
{ACAD_REACTORS
330
1304
102
}
330
1304
100
AcDbScale
 70
     0
300
1/32" = 1'-0"
140
0.03125
141
12.0
290
     0
  0
SCALE
  5
1319
102
{ACAD_REACTORS
330
1304
102
}
330
1304
100
AcDbScale
 70
     0
300
1/16" = 1'-0"
140
0.0625
141
12.0
290
     0
  0
SCALE
  5
131A
102
{ACAD_REACTORS
330
1304
102
}
330
1304
100
AcDbScale
 70
     0
300
3/32" = 1'-0"
140
0.09375
141
12.0
290
     0
  0
SCALE
  5
131B
102
{ACAD_REACTORS
330
1304
102
}
330
1304
100
AcDbScale
 70
     0
300
1/8" = 1'-0"
140
0.125
141
12.0
290
     0
  0
SCALE
  5
131C
102
{ACAD_REACTORS
330
1304
102
}
330
1304
100
AcDbScale
 70
     0
300
3/16" = 1'-0"
140
0.1875
141
12.0
290
     0
  0
SCALE
  5
131D
102
{ACAD_REACTORS
330
1304
102
}
330
1304
100
AcDbScale
 70
     0
300
1/4" = 1'-0"
140
0.25
141
12.0
290
     0
  0
SCALE
  5
131E
102
{ACAD_REACTORS
330
1304
102
}
330
1304
100
AcDbScale
 70
     0
300
3/8" = 1'-0"
140
0.375
141
12.0
290
     0
  0
SCALE
  5
131F
102
{ACAD_REACTORS
330
1304
102
}
330
1304
100
AcDbScale
 70
     0
300
1/2" = 1'-0"
140
0.5
141
12.0
290
     0
  0
SCALE
  5
1320
102
{ACAD_REACTORS
330
1304
102
}
330
1304
100
AcDbScale
 70
     0
300
3/4" = 1'-0"
140
0.75
141
12.0
290
     0
  0
SCALE
  5
1321
102
{ACAD_REACTORS
330
1304
102
}
330
1304
100
AcDbScale
 70
     0
300
1" = 1'-0"
140
1.0
141
12.0
290
     0
  0
SCALE
  5
1322
102
{ACAD_REACTORS
330
1304
102
}
330
1304
100
AcDbScale
 70
     0
300
1-1/2" = 1'-0"
140
1.5
141
12.0
290
     0
  0
SCALE
  5
1323
102
{ACAD_REACTORS
330
1304
102
}
330
1304
100
AcDbScale
 70
     0
300
3" = 1'-0"
140
3.0
141
12.0
290
     0
  0
SCALE
  5
1324
102
{ACAD_REACTORS
330
1304
102
}
330
1304
100
AcDbScale
 70
     0
300
6" = 1'-0"
140
6.0
141
12.0
290
     0
  0
SCALE
  5
1325
102
{ACAD_REACTORS
330
1304
102
}
330
1304
100
AcDbScale
 70
     0
300
1'-0" = 1'-0"
140
12.0
141
12.0
290
     0
  0
TABLESTYLE
  5
1286
102
{ACAD_XDICTIONARY
360
1439
102
}
102
{ACAD_REACTORS
330
1285
102
}
330
1285
100
AcDbTableStyle
  3
Standard
 70
     0
 71
     0
 40
1.5
 41
1.5
280
     0
281
     0
  7
STANDARD
140
4.5
170
     2
 62
     0
 63
     7
283
     0
274
    -2
284
     1
 64
     0
275
    -2
285
     1
 65
     0
276
    -2
286
     1
 66
     0
277
    -2
287
     1
 67
     0
278
    -2
288
     1
 68
     0
279
    -2
289
     1
 69
     0
  7
STANDARD
140
6.0
170
     5
 62
     0
 63
     7
283
     0
274
    -2
284
     1
 64
     0
275
    -2
285
     1
 65
     0
276
    -2
286
     1
 66
     0
277
    -2
287
     1
 67
     0
278
    -2
288
     1
 68
     0
279
    -2
289
     1
 69
     0
  7
STANDARD
140
4.5
170
     5
 62
     0
 63
     7
283
     0
274
    -2
284
     1
 64
     0
275
    -2
285
     1
 65
     0
276
    -2
286
     1
 66
     0
277
    -2
287
     1
 67
     0
278
    -2
288
     1
 68
     0
279
    -2
289
     1
 69
     0
  0
VISUALSTYLE
  5
12F9
102
{ACAD_REACTORS
330
12F3
102
}
330
12F3
100
AcDbVisualStyle
  2
2dWireframe
 70
     4
 71
     0
 72
     2
 73
     0
 90
        0
 40
-0.6
 41
-30.0
 62
     5
 63
     7
 74
     1
 91
        4
 64
     7
 65
   257
 75
     1
175
     1
 42
1.0
 92
        0
 66
   257
 43
1.0
 76
     1
 77
     6
 78
     2
 67
     7
 79
     5
170
     0
171
     0
290
     0
174
     0
 93
        1
 44
0.0
173
     0
291
     0
 45
0.0
1001
ACAD
1000
AcDbSavedByObjectVersion
1070
     0
  0
VISUALSTYLE
  5
12FB
102
{ACAD_REACTORS
330
12F3
102
}
330
12F3
100
AcDbVisualStyle
  2
3D Hidden
 70
     6
 71
     1
 72
     2
 73
     2
 90
        0
 40
-0.6
 41
-30.0
 62
     5
 63
     7
 74
     2
 91
        2
 64
     7
 65
   257
 75
     2
175
     1
 42
40.0
 92
        0
 66
   257
 43
1.0
 76
     1
 77
     6
 78
     2
 67
     7
 79
     3
170
     0
171
     0
290
     0
174
     0
 93
        1
 44
0.0
173
     0
291
     0
 45
0.0
1001
ACAD
1000
AcDbSavedByObjectVersion
1070
     0
  0
VISUALSTYLE
  5
12FA
102
{ACAD_REACTORS
330
12F3
102
}
330
12F3
100
AcDbVisualStyle
  2
3dWireframe
 70
     5
 71
     0
 72
     2
 73
     0
 90
        0
 40
-0.6
 41
-30.0
 62
     5
 63
     7
 74
     1
 91
        4
 64
     7
 65
   257
 75
     1
175
     1
 42
1.0
 92
        0
 66
   257
 43
1.0
 76
     1
 77
     6
 78
     2
 67
     7
 79
     5
170
     0
171
     0
290
     0
174
     0
 93
        1
 44
0.0
173
     0
291
     0
 45
0.0
1001
ACAD
1000
AcDbSavedByObjectVersion
1070
     0
  0
VISUALSTYLE
  5
12F8
102
{ACAD_REACTORS
330
12F3
102
}
330
12F3
100
AcDbVisualStyle
  2
Basic
 70
     7
 71
     1
 72
     0
 73
     1
 90
        0
 40
-0.6
 41
-30.0
 62
     5
 63
     7
 74
     0
 91
        4
 64
     7
 65
   257
 75
     1
175
     1
 42
1.0
 92
        8
 66
     7
 43
1.0
 76
     1
 77
     6
 78
     2
 67
     7
 79
     5
170
     0
171
     0
290
     0
174
     0
 93
        1
 44
0.0
173
     0
291
     1
 45
0.0
1001
ACAD
1000
AcDbSavedByObjectVersion
1070
     0
  0
VISUALSTYLE
  5
12FF
102
{ACAD_REACTORS
330
12F3
102
}
330
12F3
100
AcDbVisualStyle
  2
Brighten
 70
    12
 71
     2
 72
     2
 73
     0
 90
        0
 40
-0.6
 41
-30.0
 62
     5
 63
     7
 74
     1
 91
        4
 64
     7
 65
   257
 75
     1
175
     1
 42
1.0
 92
        8
 66
     7
 43
1.0
 76
     1
 77
     6
 78
     2
 67
     7
 79
     5
170
     0
171
     0
290
     0
174
     0
 93
        1
 44
50.0
173
     0
291
     1
 45
0.0
1001
ACAD
1000
AcDbSavedByObjectVersion
1070
     0
  0
VISUALSTYLE
  5
1303
102
{ACAD_REACTORS
330
12F3
102
}
330
12F3
100
AcDbVisualStyle
  2
ColorChange
 70
    16
 71
     2
 72
     2
 73
     3
 90
        0
 40
-0.6
 41
-30.0
 62
     5
 63
     8
 74
     1
 91
        4
 64
     7
 65
   257
 75
     1
175
     1
 42
1.0
 92
        8
 66
     8
 43
1.0
 76
     1
 77
     6
 78
     2
 67
     7
 79
     5
170
     0
171
     0
290
     0
174
     0
 93
        1
 44
0.0
173
     0
291
     1
 45
0.0
1001
ACAD
1000
AcDbSavedByObjectVersion
1070
     0
  0
VISUALSTYLE
  5
12FC
102
{ACAD_REACTORS
330
12F3
102
}
330
12F3
100
AcDbVisualStyle
  2
Conceptual
 70
     9
 71
     3
 72
     2
 73
     0
 90
        0
 40
-0.6
 41
-30.0
 62
     5
 63
     7
 74
     2
 91
        2
 64
     7
 65
   257
 75
     1
175
     1
 42
40.0
 92
        8
 66
     7
 43
1.0
 76
     1
 77
     6
 78
     2
 67
     7
 79
     3
170
     0
171
     0
290
     0
174
     0
 93
        1
 44
0.0
173
     0
291
     0
 45
0.0
1001
ACAD
1000
AcDbSavedByObjectVersion
1070
     0
  0
VISUALSTYLE
  5
12FE
102
{ACAD_REACTORS
330
12F3
102
}
330
12F3
100
AcDbVisualStyle
  2
Dim
 70
    11
 71
     2
 72
     2
 73
     0
 90
        0
 40
-0.6
 41
-30.0
 62
     5
 63
     7
 74
     1
 91
        4
 64
     7
 65
   257
 75
     1
175
     1
 42
1.0
 92
        8
 66
     7
 43
1.0
 76
     1
 77
     6
 78
     2
 67
     7
 79
     5
170
     0
171
     0
290
     0
174
     0
 93
        1
 44
-50.0
173
     0
291
     1
 45
0.0
1001
ACAD
1000
AcDbSavedByObjectVersion
1070
     0
  0
VISUALSTYLE
  5
1302
102
{ACAD_REACTORS
330
12F3
102
}
330
12F3
100
AcDbVisualStyle
  2
Facepattern
 70
    15
 71
     2
 72
     2
 73
     0
 90
        0
 40
-0.6
 41
-30.0
 62
     5
 63
     7
 74
     1
 91
        4
 64
     7
 65
   257
 75
     1
175
     1
 42
1.0
 92
        8
 66
     7
 43
1.0
 76
     1
 77
     6
 78
     2
 67
     7
 79
     5
170
     0
171
     0
290
     0
174
     0
 93
        1
 44
0.0
173
     0
291
     1
 45
0.0
1001
ACAD
1000
AcDbSavedByObjectVersion
1070
     0
  0
VISUALSTYLE
  5
12F4
102
{ACAD_REACTORS
330
12F3
102
}
330
12F3
100
AcDbVisualStyle
  2
Flat
 70
     0
 71
     2
 72
     1
 73
     1
 90
        2
 40
-0.6
 41
30.0
 62
     5
 63
     7
 74
     0
 91
        4
 64
     7
 65
   257
 75
     1
175
     1
 42
1.0
 92
        8
 66
     7
 43
1.0
 76
     1
 77
     6
 78
     2
 67
     7
 79
     5
170
     0
171
     0
290
     0
174
     0
 93
       13
 44
0.0
173
     0
291
     1
 45
0.0
1001
ACAD
1000
AcDbSavedByObjectVersion
1070
     0
  0
VISUALSTYLE
  5
12F5
102
{ACAD_REACTORS
330
12F3
102
}
330
12F3
100
AcDbVisualStyle
  2
FlatWithEdges
 70
     1
 71
     2
 72
     1
 73
     1
 90
        2
 40
-0.6
 41
30.0
 62
     5
 63
     7
 74
     1
 91
        4
 64
     7
 65
   257
 75
     1
175
     1
 42
1.0
 92
        0
 66
   257
 43
1.0
 76
     1
 77
     6
 78
     2
 67
     7
 79
     5
170
     0
171
     0
290
     0
174
     0
 93
       13
 44
0.0
173
     0
291
     1
 45
0.0
1001
ACAD
1000
AcDbSavedByObjectVersion
1070
     0
  0
VISUALSTYLE
  5
12F6
102
{ACAD_REACTORS
330
12F3
102
}
330
12F3
100
AcDbVisualStyle
  2
Gouraud
 70
     2
 71
     2
 72
     2
 73
     1
 90
        2
 40
-0.6
 41
30.0
 62
     5
 63
     7
 74
     0
 91
        4
 64
     7
 65
   257
 75
     1
175
     1
 42
1.0
 92
        0
 66
     7
 43
1.0
 76
     1
 77
     6
 78
     2
 67
     7
 79
     5
170
     0
171
     0
290
     0
174
     0
 93
       13
 44
0.0
173
     0
291
     1
 45
0.0
1001
ACAD
1000
AcDbSavedByObjectVersion
1070
     0
  0
VISUALSTYLE
  5
12F7
102
{ACAD_REACTORS
330
12F3
102
}
330
12F3
100
AcDbVisualStyle
  2
GouraudWithEdges
 70
     3
 71
     2
 72
     2
 73
     1
 90
        2
 40
-0.6
 41
30.0
 62
     5
 63
     7
 74
     1
 91
        4
 64
     7
 65
   257
 75
     1
175
     1
 42
1.0
 92
        0
 66
   257
 43
1.0
 76
     1
 77
     6
 78
     2
 67
     7
 79
     5
170
     0
171
     0
290
     0
174
     0
 93
       13
 44
0.0
173
     0
291
     1
 45
0.0
1001
ACAD
1000
AcDbSavedByObjectVersion
1070
     0
  0
VISUALSTYLE
  5
1301
102
{ACAD_REACTORS
330
12F3
102
}
330
12F3
100
AcDbVisualStyle
  2
Linepattern
 70
    14
 71
     2
 72
     2
 73
     0
 90
        0
 40
-0.6
 41
-30.0
 62
     5
 63
     7
 74
     1
 91
        4
 64
     7
 65
   257
 75
     7
175
     7
 42
1.0
 92
        8
 66
     7
 43
1.0
 76
     1
 77
     6
 78
     2
 67
     7
 79
     5
170
     0
171
     0
290
     0
174
     0
 93
        1
 44
0.0
173
     0
291
     1
 45
0.0
1001
ACAD
1000
AcDbSavedByObjectVersion
1070
     0
  0
VISUALSTYLE
  5
12FD
102
{ACAD_REACTORS
330
12F3
102
}
330
12F3
100
AcDbVisualStyle
  2
Realistic
 70
     8
 71
     2
 72
     2
 73
     0
 90
        0
 40
-0.6
 41
-30.0
 62
     5
 63
     7
 74
     1
 91
        0
 64
     7
 65
   257
 75
     1
175
     1
 42
1.0
 92
        8
 66
     8
 43
1.0
 76
     1
 77
     6
 78
     2
 67
     7
 79
     5
170
     0
171
     0
290
     0
174
     0
 93
       13
 44
0.0
173
     0
291
     0
 45
0.0
1001
ACAD
1000
AcDbSavedByObjectVersion
1070
     0
  0
VISUALSTYLE
  5
1300
102
{ACAD_REACTORS
330
12F3
102
}
330
12F3
100
AcDbVisualStyle
  2
Thicken
 70
    13
 71
     2
 72
     2
 73
     0
 90
        0
 40
-0.6
 41
-30.0
 62
     5
 63
     7
 74
     1
 91
        4
 64
     7
 65
   257
 75
     1
175
     1
 42
1.0
 92
       12
 66
     7
 43
1.0
 76
     1
 77
     6
 78
     2
 67
     7
 79
     5
170
     0
171
     0
290
     0
174
     0
 93
        1
 44
0.0
173
     0
291
     1
 45
0.0
1001
ACAD
1000
AcDbSavedByObjectVersion
1070
     0
  0
DICTIONARYVAR
  5
1436
102
{ACAD_REACTORS
330
12D6
102
}
330
12D6
100
DictionaryVariables
280
     0
  1
1:1
  0
DICTIONARYVAR
  5
1435
102
{ACAD_REACTORS
330
12D6
102
}
330
12D6
100
DictionaryVariables
280
     0
  1
STANDARD
  0
DICTIONARYVAR
  5
12D7
102
{ACAD_REACTORS
330
12D6
102
}
330
12D6
100
DictionaryVariables
280
     0
  1
STANDARD
  0
DICTIONARYVAR
  5
12D8
102
{ACAD_REACTORS
330
12D6
102
}
330
12D6
100
DictionaryVariables
280
     0
  1
1
  0
DICTIONARYVAR
  5
1438
102
{ACAD_REACTORS
330
12D6
102
}
330
12D6
100
DictionaryVariables
280
     0
  1
0
  0
DICTIONARYVAR
  5
12D9
102
{ACAD_REACTORS
330
12D6
102
}
330
12D6
100
DictionaryVariables
280
     0
  1

  0
DICTIONARYVAR
  5
1437
102
{ACAD_REACTORS
330
12D6
102
}
330
12D6
100
DictionaryVariables
280
     0
  1
127
  0
DICTIONARY
  5
3FC
102
{ACAD_REACTORS
330
3F2
102
}
330
3F2
100
AcDbDictionary
281
     1
  0
XRECORD
  5
129E
102
{ACAD_REACTORS
330
3F2
102
}
330
3F2
100
AcDbXrecord
280
     1
 90
-1023410169
  0
XRECORD
  5
32F
102
{ACAD_REACTORS
330
32E
102
}
330
32E
100
AcDbXrecord
280
     1
  1
PV
 40
1.0
 50
0.0
 51
0.0
 52
0.0
 53
0.0
  0
DICTIONARY
  5
143F
330
60
100
AcDbDictionary
280
     1
281
     1
  3
ACAD_XREC_ROUNDTRIP
360
1440
  0
DICTIONARY
  5
1441
330
61
100
AcDbDictionary
280
     1
281
     1
  3
ACAD_XREC_ROUNDTRIP
360
1442
  0
DICTIONARY
  5
12E4
330
12E3
100
AcDbDictionary
280
     1
281
     1
  3
ACAD_XREC_ROUNDTRIP
360
1445
  3
BUMPTILE
360
12E6
  3
DIFFUSETILE
360
12E5
  3
OPACITYTILE
360
12E9
  3
REFLECTIONTILE
360
12E8
  3
REFRACTIONTILE
360
12EA
  3
SPECULARTILE
360
12E7
  0
DICTIONARY
  5
12DC
330
12DB
100
AcDbDictionary
280
     1
281
     1
  3
ACAD_XREC_ROUNDTRIP
360
1444
  3
BUMPTILE
360
12DE
  3
DIFFUSETILE
360
12DD
  3
OPACITYTILE
360
12E1
  3
REFLECTIONTILE
360
12E0
  3
REFRACTIONTILE
360
12E2
  3
SPECULARTILE
360
12DF
  0
DICTIONARY
  5
12EC
330
12EB
100
AcDbDictionary
280
     1
281
     1
  3
ACAD_XREC_ROUNDTRIP
360
1446
  3
BUMPTILE
360
12EE
  3
DIFFUSETILE
360
12ED
  3
OPACITYTILE
360
12F1
  3
REFLECTIONTILE
360
12F0
  3
REFRACTIONTILE
360
12F2
  3
SPECULARTILE
360
12EF
  0
DICTIONARY
  5
1439
330
1286
100
AcDbDictionary
280
     1
281
     1
  3
ACAD_ROUNDTRIP_2008_TABLESTYLE_CELLSTYLEMAP
360
143A
  3
ACAD_XREC_ROUNDTRIP
360
1443
  0
XRECORD
  5
1440
102
{ACAD_REACTORS
330
143F
102
}
330
143F
100
AcDbXrecord
280
     1
102
SHADEPLOT
 70
     0
102
SHADEPLOTRESLEVEL
 70
     2
102
SHADEPLOTCUSTOMDPI
 70
   200
  0
XRECORD
  5
1442
102
{ACAD_REACTORS
330
1441
102
}
330
1441
100
AcDbXrecord
280
     1
102
SHADEPLOT
 70
     0
102
SHADEPLOTRESLEVEL
 70
     2
102
SHADEPLOTCUSTOMDPI
 70
   300
  0
XRECORD
  5
1445
102
{ACAD_REACTORS
330
12E4
102
}
330
12E4
100
AcDbXrecord
280
     1
102
MATERIAL
148
0.0
149
0.0
149
0.0
 93
        0
 94
      127
282
     0
 72
     0
 77
     0
171
     0
175
     0
179
     0
273
     0
  0
XRECORD
  5
12E6
102
{ACAD_REACTORS
330
12E4
102
}
330
12E4
100
AcDbXrecord
280
     1
270
     1
271
     1
  0
XRECORD
  5
12E5
102
{ACAD_REACTORS
330
12E4
102
}
330
12E4
100
AcDbXrecord
280
     1
270
     1
271
     1
  0
XRECORD
  5
12E9
102
{ACAD_REACTORS
330
12E4
102
}
330
12E4
100
AcDbXrecord
280
     1
270
     1
271
     1
  0
XRECORD
  5
12E8
102
{ACAD_REACTORS
330
12E4
102
}
330
12E4
100
AcDbXrecord
280
     1
270
     1
271
     1
  0
XRECORD
  5
12EA
102
{ACAD_REACTORS
330
12E4
102
}
330
12E4
100
AcDbXrecord
280
     1
270
     1
271
     1
  0
XRECORD
  5
12E7
102
{ACAD_REACTORS
330
12E4
102
}
330
12E4
100
AcDbXrecord
280
     1
270
     1
271
     1
  0
XRECORD
  5
1444
102
{ACAD_REACTORS
330
12DC
102
}
330
12DC
100
AcDbXrecord
280
     1
102
MATERIAL
148
0.0
149
0.0
149
0.0
 93
        0
 94
      127
282
     0
 72
     0
 77
     0
171
     0
175
     0
179
     0
273
     0
  0
XRECORD
  5
12DE
102
{ACAD_REACTORS
330
12DC
102
}
330
12DC
100
AcDbXrecord
280
     1
270
     1
271
     1
  0
XRECORD
  5
12DD
102
{ACAD_REACTORS
330
12DC
102
}
330
12DC
100
AcDbXrecord
280
     1
270
     1
271
     1
  0
XRECORD
  5
12E1
102
{ACAD_REACTORS
330
12DC
102
}
330
12DC
100
AcDbXrecord
280
     1
270
     1
271
     1
  0
XRECORD
  5
12E0
102
{ACAD_REACTORS
330
12DC
102
}
330
12DC
100
AcDbXrecord
280
     1
270
     1
271
     1
  0
XRECORD
  5
12E2
102
{ACAD_REACTORS
330
12DC
102
}
330
12DC
100
AcDbXrecord
280
     1
270
     1
271
     1
  0
XRECORD
  5
12DF
102
{ACAD_REACTORS
330
12DC
102
}
330
12DC
100
AcDbXrecord
280
     1
270
     1
271
     1
  0
XRECORD
  5
1446
102
{ACAD_REACTORS
330
12EC
102
}
330
12EC
100
AcDbXrecord
280
     1
102
MATERIAL
148
0.0
149
0.0
149
0.0
 93
        0
 94
      127
282
     0
 72
     0
 77
     0
171
     0
175
     0
179
     0
273
     0
  0
XRECORD
  5
12EE
102
{ACAD_REACTORS
330
12EC
102
}
330
12EC
100
AcDbXrecord
280
     1
270
     1
271
     1
  0
XRECORD
  5
12ED
102
{ACAD_REACTORS
330
12EC
102
}
330
12EC
100
AcDbXrecord
280
     1
270
     1
271
     1
  0
XRECORD
  5
12F1
102
{ACAD_REACTORS
330
12EC
102
}
330
12EC
100
AcDbXrecord
280
     1
270
     1
271
     1
  0
XRECORD
  5
12F0
102
{ACAD_REACTORS
330
12EC
102
}
330
12EC
100
AcDbXrecord
280
     1
270
     1
271
     1
  0
XRECORD
  5
12F2
102
{ACAD_REACTORS
330
12EC
102
}
330
12EC
100
AcDbXrecord
280
     1
270
     1
271
     1
  0
XRECORD
  5
12EF
102
{ACAD_REACTORS
330
12EC
102
}
330
12EC
100
AcDbXrecord
280
     1
270
     1
271
     1
  0
CELLSTYLEMAP
  5
143A
102
{ACAD_REACTORS
330
1439
102
}
330
1439
100
AcDbCellStyleMap
 90
        3
300
CELLSTYLE
  1
TABLEFORMAT_BEGIN
 90
        5
170
     1
 91
        0
 92
    32768
 62
   257
 93
        1
300
CONTENTFORMAT
  1
CONTENTFORMAT_BEGIN
 90
        0
 91
        0
 92
        4
 93
        0
300

 40
0.0
140
1.0
 94
        5
 62
     0
340
F
144
6.0
309
CONTENTFORMAT_END
171
     1
301
MARGIN
  1
CELLMARGIN_BEGIN
 40
1.5
 40
1.5
 40
1.5
 40
1.5
 40
0.18
 40
0.18
309
CELLMARGIN_END
 94
        6
 95
        1
302
GRIDFORMAT
  1
GRIDFORMAT_BEGIN
 90
        0
 91
        1
 62
     0
 92
       -2
340
0
 93
        0
 40
0.045
309
GRIDFORMAT_END
 95
        2
302
GRIDFORMAT
  1
GRIDFORMAT_BEGIN
 90
        0
 91
        1
 62
     0
 92
       -2
340
0
 93
        0
 40
0.045
309
GRIDFORMAT_END
 95
        4
302
GRIDFORMAT
  1
GRIDFORMAT_BEGIN
 90
        0
 91
        1
 62
     0
 92
       -2
340
0
 93
        0
 40
0.045
309
GRIDFORMAT_END
 95
        8
302
GRIDFORMAT
  1
GRIDFORMAT_BEGIN
 90
        0
 91
        1
 62
     0
 92
       -2
340
0
 93
        0
 40
0.045
309
GRIDFORMAT_END
 95
       16
302
GRIDFORMAT
  1
GRIDFORMAT_BEGIN
 90
        0
 91
        1
 62
     0
 92
       -2
340
0
 93
        0
 40
0.045
309
GRIDFORMAT_END
 95
       32
302
GRIDFORMAT
  1
GRIDFORMAT_BEGIN
 90
        0
 91
        1
 62
     0
 92
       -2
340
0
 93
        0
 40
0.045
309
GRIDFORMAT_END
309
TABLEFORMAT_END
  1
CELLSTYLE_BEGIN
 90
        1
 91
        1
300
_TITLE
309
CELLSTYLE_END
300
CELLSTYLE
  1
TABLEFORMAT_BEGIN
 90
        5
170
     1
 91
        0
 92
        0
 62
   257
 93
        1
300
CONTENTFORMAT
  1
CONTENTFORMAT_BEGIN
 90
        0
 91
        0
 92
        4
 93
        0
300

 40
0.0
140
1.0
 94
        5
 62
     0
340
F
144
4.5
309
CONTENTFORMAT_END
171
     1
301
MARGIN
  1
CELLMARGIN_BEGIN
 40
1.5
 40
1.5
 40
1.5
 40
1.5
 40
0.18
 40
0.18
309
CELLMARGIN_END
 94
        6
 95
        1
302
GRIDFORMAT
  1
GRIDFORMAT_BEGIN
 90
        0
 91
        1
 62
     0
 92
       -2
340
0
 93
        0
 40
0.045
309
GRIDFORMAT_END
 95
        2
302
GRIDFORMAT
  1
GRIDFORMAT_BEGIN
 90
        0
 91
        1
 62
     0
 92
       -2
340
0
 93
        0
 40
0.045
309
GRIDFORMAT_END
 95
        4
302
GRIDFORMAT
  1
GRIDFORMAT_BEGIN
 90
        0
 91
        1
 62
     0
 92
       -2
340
0
 93
        0
 40
0.045
309
GRIDFORMAT_END
 95
        8
302
GRIDFORMAT
  1
GRIDFORMAT_BEGIN
 90
        0
 91
        1
 62
     0
 92
       -2
340
0
 93
        0
 40
0.045
309
GRIDFORMAT_END
 95
       16
302
GRIDFORMAT
  1
GRIDFORMAT_BEGIN
 90
        0
 91
        1
 62
     0
 92
       -2
340
0
 93
        0
 40
0.045
309
GRIDFORMAT_END
 95
       32
302
GRIDFORMAT
  1
GRIDFORMAT_BEGIN
 90
        0
 91
        1
 62
     0
 92
       -2
340
0
 93
        0
 40
0.045
309
GRIDFORMAT_END
309
TABLEFORMAT_END
  1
CELLSTYLE_BEGIN
 90
        2
 91
        1
300
_HEADER
309
CELLSTYLE_END
300
CELLSTYLE
  1
TABLEFORMAT_BEGIN
 90
        5
170
     1
 91
        0
 92
        0
 62
   257
 93
        1
300
CONTENTFORMAT
  1
CONTENTFORMAT_BEGIN
 90
        0
 91
        0
 92
        4
 93
        0
300

 40
0.0
140
1.0
 94
        2
 62
     0
340
F
144
4.5
309
CONTENTFORMAT_END
171
     1
301
MARGIN
  1
CELLMARGIN_BEGIN
 40
1.5
 40
1.5
 40
1.5
 40
1.5
 40
0.18
 40
0.18
309
CELLMARGIN_END
 94
        6
 95
        1
302
GRIDFORMAT
  1
GRIDFORMAT_BEGIN
 90
        0
 91
        1
 62
     0
 92
       -2
340
0
 93
        0
 40
0.045
309
GRIDFORMAT_END
 95
        2
302
GRIDFORMAT
  1
GRIDFORMAT_BEGIN
 90
        0
 91
        1
 62
     0
 92
       -2
340
0
 93
        0
 40
0.045
309
GRIDFORMAT_END
 95
        4
302
GRIDFORMAT
  1
GRIDFORMAT_BEGIN
 90
        0
 91
        1
 62
     0
 92
       -2
340
0
 93
        0
 40
0.045
309
GRIDFORMAT_END
 95
        8
302
GRIDFORMAT
  1
GRIDFORMAT_BEGIN
 90
        0
 91
        1
 62
     0
 92
       -2
340
0
 93
        0
 40
0.045
309
GRIDFORMAT_END
 95
       16
302
GRIDFORMAT
  1
GRIDFORMAT_BEGIN
 90
        0
 91
        1
 62
     0
 92
       -2
340
0
 93
        0
 40
0.045
309
GRIDFORMAT_END
 95
       32
302
GRIDFORMAT
  1
GRIDFORMAT_BEGIN
 90
        0
 91
        1
 62
     0
 92
       -2
340
0
 93
        0
 40
0.045
309
GRIDFORMAT_END
309
TABLEFORMAT_END
  1
CELLSTYLE_BEGIN
 90
        3
 91
        2
300
_DATA
309
CELLSTYLE_END
  0
XRECORD
  5
1443
102
{ACAD_REACTORS
330
1439
102
}
330
1439
100
AcDbXrecord
280
     1
102
ACAD_ROUNDTRIP_PRE2007_TABLESTYLE
 90
        4
 91
        0
  1

 92
        4
 93
        0
  2

 94
        4
 95
        0
  3

  0
ENDSEC
  0
EOF
