  0
SECTION
  2
HEADER
  9
$ACADVER
  1
AC1015
  9
$ACADMAINTVER
 70
    20
  9
$DWGCODEPAGE
  3
ANSI_932
  9
$INSBASE
 10
0.0
 20
0.0
 30
0.0
  9
$EXTMIN
 10
0.0
 20
-436.0
 30
0.0
  9
$EXTMAX
 10
861.0
 20
0.0
 30
0.0
  9
$LIMMIN
 10
0.0
 20
0.0
  9
$LIMMAX
 10
0.0
 20
0.0
  9
$ORTHOMODE
 70
     0
  9
$REGENMODE
 70
     1
  9
$FILLMODE
 70
     1
  9
$QTEXTMODE
 70
     0
  9
$MIRRTEXT
 70
     1
  9
$LTSCALE
 40
1.0
  9
$ATTMODE
 70
     1
  9
$TEXTSIZE
 40
2.5
  9
$TRACEWID
 40
1.0
  9
$TEXTSTYLE
  7
CONVERT
  9
$CLAYER
  8
0
  9
$CELTYPE
  6
BYLAYER
  9
$CECOLOR
 62
   256
  9
$CELTSCALE
 40
1.0
  9
$DISPSILH
 70
     0
  9
$DIMSCALE
 40
1.0
  9
$DIMASZ
 40
3.0
  9
$DIMEXO
 40
1.0
  9
$DIMDLI
 40
7.0
  9
$DIMRND
 40
0.0
  9
$DIMDLE
 40
0.0
  9
$DIMEXE
 40
2.0
  9
$DIMTP
 40
0.0
  9
$DIMTM
 40
0.0
  9
$DIMTXT
 40
2.799999999999999
  9
$DIMCEN
 40
0.0
  9
$DIMTSZ
 40
0.0
  9
$DIMTOL
 70
     0
  9
$DIMLIM
 70
     0
  9
$DIMTIH
 70
     0
  9
$DIMTOH
 70
     0
  9
$DIMSE1
 70
     0
  9
$DIMSE2
 70
     0
  9
$DIMTAD
 70
     1
  9
$DIMZIN
 70
     0
  9
$DIMBLK
  1

  9
$DIMASO
 70
     1
  9
$DIMSHO
 70
     1
  9
$DIMPOST
  1

  9
$DIMAPOST
  1

  9
$DIMALT
 70
     0
  9
$DIMALTD
 70
     4
  9
$DIMALTF
 40
0.0394
  9
$DIMLFAC
 40
1.0
  9
$DIMTOFL
 70
     1
  9
$DIMTVP
 40
0.0
  9
$DIMTIX
 70
     0
  9
$DIMSOXD
 70
     0
  9
$DIMSAH
 70
     1
  9
$DIMBLK1
  1
Open30
  9
$DIMBLK2
  1
Open30
  9
$DIMSTYLE
  2
STANDARD
  9
$DIMCLRD
 70
    44
  9
$DIMCLRE
 70
    44
  9
$DIMCLRT
 70
    44
  9
$DIMTFAC
 40
1.0
  9
$DIMGAP
 40
0.7
  9
$DIMJUST
 70
     0
  9
$DIMSD1
 70
     0
  9
$DIMSD2
 70
     0
  9
$DIMTOLJ
 70
     1
  9
$DIMTZIN
 70
     0
  9
$DIMALTZ
 70
     0
  9
$DIMALTTZ
 70
     0
  9
$DIMUPT
 70
     0
  9
$DIMDEC
 70
     3
  9
$DIMTDEC
 70
     3
  9
$DIMALTU
 70
     8
  9
$DIMALTTD
 70
     4
  9
$DIMTXSTY
  7
STANDARD
  9
$DIMAUNIT
 70
     0
  9
$DIMADEC
 70
     0
  9
$DIMALTRND
 40
0.0
  9
$DIMAZIN
 70
     0
  9
$DIMDSEP
 70
    46
  9
$DIMATFIT
 70
     0
  9
$DIMFRAC
 70
     0
  9
$DIMLDRBLK
  1
Open30
  9
$DIMLUNIT
 70
     2
  9
$DIMLWD
 70
    -2
  9
$DIMLWE
 70
    -2
  9
$DIMTMOVE
 70
     0
  9
$LUNITS
 70
     2
  9
$LUPREC
 70
     4
  9
$SKETCHINC
 40
1.0
  9
$FILLETRAD
 40
10.0
  9
$AUNITS
 70
     0
  9
$AUPREC
 70
     0
  9
$MENU
  1
.
  9
$ELEVATION
 40
0.0
  9
$PELEVATION
 40
0.0
  9
$THICKNESS
 40
0.0
  9
$LIMCHECK
 70
     0
  9
$CHAMFERA
 40
10.0
  9
$CHAMFERB
 40
10.0
  9
$CHAMFERC
 40
20.0
  9
$CHAMFERD
 40
0.0
  9
$SKPOLY
 70
     0
  9
$TDCREATE
 40
2451067.751276933
  9
$TDUCREATE
 40
2451067.376276933
  9
$TDUPDATE
 40
2454174.427886818
  9
$TDUUPDATE
 40
2454174.052886817
  9
$TDINDWG
 40
0.0430060764
  9
$TDUSRTIMER
 40
0.0430060764
  9
$USRTIMER
 70
     1
  9
$ANGBASE
 50
0.0
  9
$ANGDIR
 70
     0
  9
$PDMODE
 70
     1
  9
$PDSIZE
 40
0.0
  9
$PLINEWID
 40
0.0
  9
$SPLFRAME
 70
     0
  9
$SPLINETYPE
 70
     6
  9
$SPLINESEGS
 70
     8
  9
$HANDSEED
  5
D7B
  9
$SURFTAB1
 70
     6
  9
$SURFTAB2
 70
     6
  9
$SURFTYPE
 70
     6
  9
$SURFU
 70
     6
  9
$SURFV
 70
     6
  9
$UCSBASE
  2

  9
$UCSNAME
  2

  9
$UCSORG
 10
0.0
 20
0.0
 30
0.0
  9
$UCSXDIR
 10
1.0
 20
0.0
 30
0.0
  9
$UCSYDIR
 10
0.0
 20
1.0
 30
0.0
  9
$UCSORTHOREF
  2

  9
$UCSORTHOVIEW
 70
     0
  9
$UCSORGTOP
 10
0.0
 20
0.0
 30
0.0
  9
$UCSORGBOTTOM
 10
0.0
 20
0.0
 30
0.0
  9
$UCSORGLEFT
 10
0.0
 20
0.0
 30
0.0
  9
$UCSORGRIGHT
 10
0.0
 20
0.0
 30
0.0
  9
$UCSORGFRONT
 10
0.0
 20
0.0
 30
0.0
  9
$UCSORGBACK
 10
0.0
 20
0.0
 30
0.0
  9
$PUCSBASE
  2

  9
$PUCSNAME
  2

  9
$PUCSORG
 10
0.0
 20
0.0
 30
0.0
  9
$PUCSXDIR
 10
1.0
 20
0.0
 30
0.0
  9
$PUCSYDIR
 10
0.0
 20
1.0
 30
0.0
  9
$PUCSORTHOREF
  2

  9
$PUCSORTHOVIEW
 70
     0
  9
$PUCSORGTOP
 10
0.0
 20
0.0
 30
0.0
  9
$PUCSORGBOTTOM
 10
0.0
 20
0.0
 30
0.0
  9
$PUCSORGLEFT
 10
0.0
 20
0.0
 30
0.0
  9
$PUCSORGRIGHT
 10
0.0
 20
0.0
 30
0.0
  9
$PUCSORGFRONT
 10
0.0
 20
0.0
 30
0.0
  9
$PUCSORGBACK
 10
0.0
 20
0.0
 30
0.0
  9
$USERI1
 70
     0
  9
$USERI2
 70
     0
  9
$USERI3
 70
     0
  9
$USERI4
 70
     0
  9
$USERI5
 70
     0
  9
$USERR1
 40
0.0
  9
$USERR2
 40
0.0
  9
$USERR3
 40
0.0
  9
$USERR4
 40
0.0
  9
$USERR5
 40
0.0
  9
$WORLDVIEW
 70
     1
  9
$SHADEDGE
 70
     3
  9
$SHADEDIF
 70
    70
  9
$TILEMODE
 70
     1
  9
$MAXACTVP
 70
    48
  9
$PINSBASE
 10
0.0
 20
0.0
 30
0.0
  9
$PLIMCHECK
 70
     0
  9
$PEXTMIN
 10
1.000000000000000E+20
 20
1.000000000000000E+20
 30
1.000000000000000E+20
  9
$PEXTMAX
 10
-1.000000000000000E+20
 20
-1.000000000000000E+20
 30
-1.000000000000000E+20
  9
$PLIMMIN
 10
0.0
 20
0.0
  9
$PLIMMAX
 10
420.0
 20
297.0
  9
$UNITMODE
 70
     0
  9
$VISRETAIN
 70
     1
  9
$PLINEGEN
 70
     0
  9
$PSLTSCALE
 70
     1
  9
$TREEDEPTH
 70
  3020
  9
$CMLSTYLE
  2
STANDARD
  9
$CMLJUST
 70
     0
  9
$CMLSCALE
 40
20.0
  9
$PROXYGRAPHICS
 70
     1
  9
$MEASUREMENT
 70
     1
  9
$CELWEIGHT
370
    -1
  9
$ENDCAPS
280
     0
  9
$JOINSTYLE
280
     0
  9
$LWDISPLAY
290
     0
  9
$INSUNITS
 70
     0
  9
$HYPERLINKBASE
  1

  9
$STYLESHEET
  1

  9
$XEDIT
290
     1
  9
$CEPSNTYPE
380
     0
  9
$PSTYLEMODE
290
     1
  9
$FINGERPRINTGUID
  2
{881B1582-4BC7-11D3-AB9D-00805F8B7187}
  9
$VERSIONGUID
  2
{C0874338-63F8-4688-80B9-BA962CE5C743}
  9
$EXTNAMES
290
     1
  9
$PSVPSCALE
 40
0.0
  9
$OLESTARTUP
290
     0
  0
ENDSEC
  0
SECTION
  2
CLASSES
  0
CLASS
  1
ACDBDICTIONARYWDFLT
  2
AcDbDictionaryWithDefault
  3
ObjectDBX Classes
 90
        0
280
     0
281
     0
  0
CLASS
  1
ACDBPLACEHOLDER
  2
AcDbPlaceHolder
  3
ObjectDBX Classes
 90
        0
280
     0
281
     0
  0
CLASS
  1
LAYOUT
  2
AcDbLayout
  3
ObjectDBX Classes
 90
        0
280
     0
281
     0
  0
CLASS
  1
ACME_DOCUMENT
  2
AcMeDbDoc
  3
AcMeServices
 90
        0
280
     0
281
     0
  0
CLASS
  1
AMGSETTINGSOBJ
  2
AmgSettingsObj
  3
"AcadM|Product Description: AutoCAD Mechanical 2000|Company: Autodesk"
 90
        0
280
     0
281
     0
  0
CLASS
  1
AMGOBJPROPCFG
  2
AmgObjPropCfg
  3
"AmgLay|Product Description: AutoCAD Mechanical 2000|Company: Autodesk"
 90
        1
280
     0
281
     0
  0
CLASS
  1
ACMESCOPE
  2
AcMeScope
  3
AcMeServices
 90
        0
280
     0
281
     0
  0
CLASS
  1
ACMECOMMANDHISTORY
  2
AcMeCommandHistory
  3
AcMeServices
 90
        0
280
     0
281
     0
  0
CLASS
  1
ACIMSYSVARMAN
  2
AcImSysVarManager
  3
AcMeServices
 90
        0
280
     0
281
     0
  0
CLASS
  1
ACIMINTSYSVAR
  2
AcImIntSysVar
  3
AcMeServices
 90
        0
280
     0
281
     0
  0
CLASS
  1
ACMEDRAWINGMAN
  2
AcMeDrawingMan
  3
AcMeServices
 90
        0
280
     0
281
     0
  0
CLASS
  1
ACMEVIEW
  2
AcMeView
  3
AcMeServices
 90
        0
280
     0
281
     0
  0
CLASS
  1
ACDBENTITYCACHE
  2
AcMeEntityCache
  3
AcMeServices
 90
        0
280
     0
281
     0
  0
CLASS
  1
GSMANAGER
  2
AcMeGSManager
  3
AcMeServices
 90
        0
280
     0
281
     0
  0
CLASS
  1
AMDTINTERNALREACTOR
  2
AmdtInternalReactor
  3
AcMeServices
 90
        0
280
     0
281
     0
  0
CLASS
  1
ACMESTATEMGR
  2
AcMeStateMgr
  3
AcMeServices
 90
        0
280
     0
281
     0
  0
CLASS
  1
ACGREFMASTER
  2
AcGrefMaster
  3
AcAttribServices
 90
        0
280
     0
281
     0
  0
CLASS
  1
AM_DRAWING_MGR
  2
AcDmDwgMgr
  3
AcMechDwgViewMgmt
 90
        0
280
     0
281
     0
  0
CLASS
  1
AM_DWG_DOCUMENT
  2
AcDmDwgDocument
  3
AcMechDwgViewMgmt
 90
        0
280
     0
281
     0
  0
CLASS
  1
AM_DWG_SHEET
  2
AcDmSheet
  3
AcMechDwgViewMgmt
 90
        0
280
     0
281
     0
  0
CLASS
  1
AM_VIEWDIMPARMAP
  2
AcDmViewDimParMap
  3
AcMechDwgViewMgmt
 90
        0
280
     0
281
     0
  0
CLASS
  1
ACIMREALSYSVAR
  2
AcImRealSysVar
  3
AcMeServices
 90
        0
280
     0
281
     0
  0
CLASS
  1
AM_DWGMGR_NAME
  2
AcDmDwgMgrName
  3
AcMechDwgViewMgmt
 90
        0
280
     0
281
     0
  0
CLASS
  1
ACME_DATABASE
  2
AcMeDbDatabase
  3
AcMeServices
 90
        0
280
     0
281
     0
  0
CLASS
  1
ACRFINSADJUSTERMGR
  2
AcRfInsAdjusterMgr
  3
AcMeServices
 90
        0
280
     0
281
     0
  0
CLASS
  1
ACGREFACADMASTER
  2
AcGrefacadMaster
  3
AcGrefServices
 90
        0
280
     0
281
     0
  0
CLASS
  1
AMDTMENUSTATEMGR
  2
AmdtMenuStateMgr
  3
McadcomServices
 90
        0
280
     0
281
     0
  0
CLASS
  1
AMDTMCOMMENUSTATE
  2
AmdtMcomMenuState
  3
McadcomServices
 90
        0
280
     0
281
     0
  0
CLASS
  1
AMIMASTER
  2
AmiMaster
  3
AmiServices
 90
        0
280
     0
281
     0
  0
CLASS
  1
MAPIAMMOUDLE
  2
MApiAmModule
  3
MApiAmServices
 90
        0
280
     0
281
     0
  0
CLASS
  1
AMDTADMENUSTATE
  2
AmdtAdMenuState
  3
DesignerServices
 90
        0
280
     0
281
     0
  0
CLASS
  1
ADAPPL
  2
AcAdAppl
  3
DesignerServices
 90
        0
280
     0
281
     0
  0
CLASS
  1
DEPMGR
  2
AcAdDepMgr
  3
DesignerServices
 90
        0
280
     0
281
     0
  0
CLASS
  1
PARAMMGR
  2
AcAdParamMgr
  3
DesignerServices
 90
        0
280
     0
281
     0
  0
CLASS
  1
PARAMSCOPE
  2
AcAdParamScope
  3
DesignerServices
 90
        0
280
     0
281
     0
  0
CLASS
  1
NAMEDAPPL
  2
AcAdNamedAppl
  3
DesignerServices
 90
        0
280
     0
281
     0
  0
CLASS
  1
AMDTDMMENUSTATE
  2
AmdtDmMenuState
  3
AcMechDwgViewMgmt
 90
        0
280
     0
281
     0
  0
CLASS
  1
AMDTAMMENUSTATE
  2
AmdtAmMenuState
  3
DesignerAssemblies
 90
        0
280
     0
281
     0
  0
CLASS
  1
ACIMSTRSYSVAR
  2
AcImStrSysVar
  3
AcMeServices
 90
        0
280
     0
281
     0
  0
CLASS
  1
ACAMPROJECT
  2
AcAmProject
  3
DesignerAssemblies
 90
        0
280
     0
281
     0
  0
CLASS
  1
ACAMGRCOMPDEF
  2
AcAmGrCompDef
  3
DesignerAssemblies
 90
        0
280
     0
281
     0
  0
CLASS
  1
ACCMCONTEXT
  2
AcCmContext
  3
DesignerAssemblies
 90
        0
280
     0
281
     0
  0
CLASS
  1
ACAMCOMPDEF
  2
AcAmCompDef
  3
DesignerAssemblies
 90
        0
280
     0
281
     0
  0
CLASS
  1
ACAMCOMPDEFMGR
  2
AcAmCompDefMgr
  3
DesignerAssemblies
 90
        0
280
     0
281
     0
  0
CLASS
  1
AMCONTEXTMGR
  2
AcAmContextMgr
  3
DesignerAssemblies
 90
        0
280
     0
281
     0
  0
CLASS
  1
ACAMCONTEXTMODELER
  2
AcAmContextModeler
  3
DesignerAssemblies
 90
        0
280
     0
281
     0
  0
CLASS
  1
ACMDATADICTIONARY
  2
AcmDataDictionary
  3
"AcmSymBB|Product Description: AutoCAD Mechanical 2004 DX|Company: Autodesk"
 90
        0
280
     0
281
     0
  0
CLASS
  1
CATALOGSTATE
  2
AcAmCatalogState
  3
DesignerAssemblies
 90
        0
280
     0
281
     0
  0
CLASS
  1
ACAMGRCOMPDEFSET
  2
AcAmGrCompDefSet
  3
DesignerAssemblies
 90
        0
280
     0
281
     0
  0
CLASS
  1
AMDTBROWSERDBTAB
  2
AmdtBrowserDbTab
  3
McadcomServices
 90
        0
280
     0
281
     0
  0
CLASS
  1
CBROWSERAPPOBJECT
  2
CBrowserAppObject
  3
McadcomServices
 90
        0
280
     0
281
     0
  0
CLASS
  1
DM_PLACEHOLDER
  2
AcDmSelsetPlaceholder
  3
AcMechDwgViewMgmt
 90
        0
280
     0
281
     0
  0
CLASS
  1
ACMSTANDARDANSI
  2
AcmStandardANSI
  3
"Amdt_StdImp|Product Description: AutoCAD Mechanical 2004 DX|Company: Autodesk"
 90
        0
280
     0
281
     0
  0
CLASS
  1
ACMSURFSTANDARDANSI
  2
AcmSurfTextStdANSI
  3
"Amdt_StdImp|Product Description: AutoCAD Mechanical 2004 DX|Company: Autodesk"
 90
        0
280
     0
281
     0
  0
CLASS
  1
ACMFCFSTANDARDANSI
  2
AcmFCFStdANSI
  3
"Amdt_StdImp|Product Description: AutoCAD Mechanical 2004 DX|Company: Autodesk"
 90
        0
280
     0
281
     0
  0
CLASS
  1
ACMWELDSTANDARDANSI
  2
AcmWeldingStdANSI
  3
"Amdt_StdImp|Product Description: AutoCAD Mechanical 2004 DX|Company: Autodesk"
 90
        0
280
     0
281
     0
  0
CLASS
  1
ACMIDSTANDARDANSI
  2
AcmIdStdANSI
  3
"Amdt_StdImp|Product Description: AutoCAD Mechanical 2004 DX|Company: Autodesk"
 90
        0
280
     0
281
     0
  0
CLASS
  1
ACMDATUMSTANDARDANSI
  2
AcmDatumStdANSI
  3
"Amdt_StdImp|Product Description: AutoCAD Mechanical 2004 DX|Company: Autodesk"
 90
        0
280
     0
281
     0
  0
CLASS
  1
ACMBOMSTANDARDANSI
  2
AcmBOMStdANSI
  3
"Amdt_StdImp|Product Description: AutoCAD Mechanical 2004 DX|Company: Autodesk"
 90
        0
280
     0
281
     0
  0
CLASS
  1
ACMDETAILSTANDARDANSI
  2
AmdtDetailSymStdANSI
  3
"Amdt_StdImp|Product Description: AutoCAD Mechanical 2004 DX|Company: Autodesk"
 90
        0
280
     0
281
     0
  0
CLASS
  1
ACMSECTIONSTANDARDANSI
  2
AmdtSectionSymStdANSI
  3
"Amdt_StdImp|Product Description: AutoCAD Mechanical 2004 DX|Company: Autodesk"
 90
        0
280
     0
281
     0
  0
CLASS
  1
ACMCENTERLINESTANDARDANSI
  2
AmdtCenterLineStdANSI
  3
"Amdt_StdImp|Product Description: AutoCAD Mechanical 2004 DX|Company: Autodesk"
 90
        0
280
     0
281
     0
  0
CLASS
  1
ACAMGLAYSTD
  2
AcAmgLayStd
  3
"AcAmgLayStd|Product Description: AutoCAD Mechanical 2000|Company: Autodesk"
 90
        0
280
     0
281
     0
  0
CLASS
  1
ACAMGDIMSTD
  2
AcAmgDimStd
  3
"AcAmgDimStd|Product Description: AutoCAD Mechanical 2000|Company: Autodesk"
 90
        0
280
     0
281
     0
  0
CLASS
  1
ACAMGTITLESTD
  2
AcAmgTitleStd
  3
"TITLEAPP"
 90
        0
280
     0
281
     0
  0
CLASS
  1
ACMNOTESTANDARDANSI
  2
AmdtNoteStdANSI
  3
"Amdt_StdImp|Product Description: AutoCAD Mechanical 2004 DX|Company: Autodesk"
 90
        0
280
     0
281
     0
  0
CLASS
  1
ACMTHREADLINESTANDARDANSI
  2
AmdtThreadLineStdANSI
  3
"Amdt_StdImp|Product Description: AutoCAD Mechanical 2004 DX|Company: Autodesk"
 90
        0
280
     0
281
     0
  0
CLASS
  1
ACMSTANDARDISO
  2
AcmStandardISO
  3
"Amdt_StdImp|Product Description: AutoCAD Mechanical 2004 DX|Company: Autodesk"
 90
        0
280
     0
281
     0
  0
CLASS
  1
AMDTEDGESTANDARDISO
  2
AmdtEdgeStdISO
  3
"Amdt_StdImp|Product Description: AutoCAD Mechanical 2004 DX|Company: Autodesk"
 90
        0
280
     0
281
     0
  0
CLASS
  1
ACMSURFSTANDARDISO
  2
AcmSurfTextStdISO
  3
"Amdt_StdImp|Product Description: AutoCAD Mechanical 2004 DX|Company: Autodesk"
 90
        0
280
     0
281
     0
  0
CLASS
  1
ACMFCFSTANDARDISO
  2
AcmFCFStdISO
  3
"Amdt_StdImp|Product Description: AutoCAD Mechanical 2004 DX|Company: Autodesk"
 90
        0
280
     0
281
     0
  0
CLASS
  1
ACMWELDSTANDARDISO
  2
AcmWeldingStdISO
  3
"Amdt_StdImp|Product Description: AutoCAD Mechanical 2004 DX|Company: Autodesk"
 90
        0
280
     0
281
     0
  0
CLASS
  1
ACMIDSTANDARDISO
  2
AcmIdStdISO
  3
"Amdt_StdImp|Product Description: AutoCAD Mechanical 2004 DX|Company: Autodesk"
 90
        0
280
     0
281
     0
  0
CLASS
  1
ACMDATUMSTANDARDISO
  2
AcmDatumStdISO
  3
"Amdt_StdImp|Product Description: AutoCAD Mechanical 2004 DX|Company: Autodesk"
 90
        0
280
     0
281
     0
  0
CLASS
  1
ACMBOMSTANDARDISO
  2
AcmBOMStdISO
  3
"Amdt_StdImp|Product Description: AutoCAD Mechanical 2004 DX|Company: Autodesk"
 90
        0
280
     0
281
     0
  0
CLASS
  1
ACMDETAILSTANDARDISO
  2
AmdtDetailSymStdISO
  3
"Amdt_StdImp|Product Description: AutoCAD Mechanical 2004 DX|Company: Autodesk"
 90
        0
280
     0
281
     0
  0
CLASS
  1
ACMSECTIONSTANDARDISO
  2
AmdtSectionSymStdISO
  3
"Amdt_StdImp|Product Description: AutoCAD Mechanical 2004 DX|Company: Autodesk"
 90
        0
280
     0
281
     0
  0
CLASS
  1
ACMCENTERLINESTANDARDISO
  2
AmdtCenterLineStdISO
  3
"Amdt_StdImp|Product Description: AutoCAD Mechanical 2004 DX|Company: Autodesk"
 90
        0
280
     0
281
     0
  0
CLASS
  1
ACMNOTESTANDARDISO
  2
AmdtNoteStdISO
  3
"Amdt_StdImp|Product Description: AutoCAD Mechanical 2004 DX|Company: Autodesk"
 90
        0
280
     0
281
     0
  0
CLASS
  1
ACMTHREADLINESTANDARDISO
  2
AmdtThreadLineStdISO
  3
"Amdt_StdImp|Product Description: AutoCAD Mechanical 2004 DX|Company: Autodesk"
 90
        0
280
     0
281
     0
  0
CLASS
  1
ACMSTANDARDJIS
  2
AcmStandardJIS
  3
"Amdt_StdImp|Product Description: AutoCAD Mechanical 2004 DX|Company: Autodesk"
 90
        0
280
     0
281
     0
  0
CLASS
  1
ACMSURFSTANDARDJIS
  2
AcmSurfTextStdJIS
  3
"Amdt_StdImp|Product Description: AutoCAD Mechanical 2004 DX|Company: Autodesk"
 90
        0
280
     0
281
     0
  0
CLASS
  1
ACMFCFSTANDARDJIS
  2
AcmFCFStdJIS
  3
"Amdt_StdImp|Product Description: AutoCAD Mechanical 2004 DX|Company: Autodesk"
 90
        0
280
     0
281
     0
  0
CLASS
  1
ACMWELDSTANDARDJIS
  2
AcmWeldingStdJIS
  3
"Amdt_StdImp|Product Description: AutoCAD Mechanical 2004 DX|Company: Autodesk"
 90
        0
280
     0
281
     0
  0
CLASS
  1
ACMIDSTANDARDJIS
  2
AcmIdStdJIS
  3
"Amdt_StdImp|Product Description: AutoCAD Mechanical 2004 DX|Company: Autodesk"
 90
        0
280
     0
281
     0
  0
CLASS
  1
ACMDATUMSTANDARDJIS
  2
AcmDatumStdJIS
  3
"Amdt_StdImp|Product Description: AutoCAD Mechanical 2004 DX|Company: Autodesk"
 90
        0
280
     0
281
     0
  0
CLASS
  1
ACMBOMSTANDARDJIS
  2
AcmBOMStdJIS
  3
"Amdt_StdImp|Product Description: AutoCAD Mechanical 2004 DX|Company: Autodesk"
 90
        0
280
     0
281
     0
  0
CLASS
  1
ACMDETAILSTANDARDJIS
  2
AmdtDetailSymStdJIS
  3
"Amdt_StdImp|Product Description: AutoCAD Mechanical 2004 DX|Company: Autodesk"
 90
        0
280
     0
281
     0
  0
CLASS
  1
ACMSECTIONSTANDARDJIS
  2
AmdtSectionSymStdJIS
  3
"Amdt_StdImp|Product Description: AutoCAD Mechanical 2004 DX|Company: Autodesk"
 90
        0
280
     0
281
     0
  0
CLASS
  1
ACMCENTERLINESTANDARDJIS
  2
AmdtCenterLineStdJIS
  3
"Amdt_StdImp|Product Description: AutoCAD Mechanical 2004 DX|Company: Autodesk"
 90
        0
280
     0
281
     0
  0
CLASS
  1
ACMTHREADLINESTANDARDJIS
  2
AmdtThreadLineStdJIS
  3
"Amdt_StdImp|Product Description: AutoCAD Mechanical 2004 DX|Company: Autodesk"
 90
        0
280
     0
281
     0
  0
CLASS
  1
ACMNOTESTANDARDJIS
  2
AmdtNoteStdJIS
  3
"Amdt_StdImp|Product Description: AutoCAD Mechanical 2004 DX|Company: Autodesk"
 90
        0
280
     0
281
     0
  0
CLASS
  1
ACAMGFILTERDAT
  2
AcAmgFilterDat
  3
"AcadM|Product Description: AutoCAD Mechanical 2000|Company: Autodesk"
 90
    32768
280
     0
281
     0
  0
CLASS
  1
LAYER_INDEX
  2
AcDbLayerIndex
  3
ObjectDBX Classes
 90
    32768
280
     0
281
     0
  0
CLASS
  1
IDBUFFER
  2
AcDbIdBuffer
  3
ObjectDBX Classes
 90
    32768
280
     0
281
     0
  0
CLASS
  1
AMDTNOTE
  2
AmdtNote
  3
"AcmSymBB|Product Description: AutoCAD Mechanical 2004 DX|Company: Autodesk"
 90
    33791
280
     0
281
     1
  0
CLASS
  1
TABLESTYLE
  2
AcDbTableStyle
  3
ObjectDBX Classes
 90
     2047
280
     0
281
     0
  0
CLASS
  1
DICTIONARYVAR
  2
AcDbDictionaryVar
  3
ObjectDBX Classes
 90
        0
280
     0
281
     0
  0
CLASS
  1
AMDTFORMULAUPDATEDISPATCHER
  2
AmdtFormulaUpdateDispatcher
  3
AcMeServices
 90
    32768
280
     0
281
     0
  0
ENDSEC
  0
SECTION
  2
TABLES
  0
TABLE
  2
VPORT
  5
8
330
0
100
AcDbSymbolTable
 70
     3
  0
VPORT
  5
D75
330
8
100
AcDbSymbolTableRecord
100
AcDbViewportTableRecord
  2
*Active
 70
     0
 10
0.0
 20
0.0
 11
1.0
 21
1.0
 12
455.7233692823164
 22
-217.999997969655
 13
0.0
 23
0.0
 14
10.0
 24
10.0
 15
10.0
 25
10.0
 16
0.0
 26
0.0
 36
1.0
 17
0.0
 27
0.0
 37
0.0
 40
712.7838670841484
 41
1.285904255319148
 42
50.0
 43
0.0
 44
0.0
 50
0.0
 51
0.0
 71
     0
 72
   100
 73
     1
 74
     1
 75
     0
 76
     0
 77
     0
 78
     0
281
     0
 65
     1
110
0.0
120
0.0
130
0.0
111
1.0
121
0.0
131
0.0
112
0.0
122
1.0
132
0.0
 79
     0
146
0.0
  0
ENDTAB
  0
TABLE
  2
LTYPE
  5
5
330
0
100
AcDbSymbolTable
 70
    22
  0
LTYPE
  5
12
330
5
100
AcDbSymbolTableRecord
100
AcDbLinetypeTableRecord
  2
BYBLOCK
 70
     0
  3

 72
    65
 73
     0
 40
0.0
  0
LTYPE
  5
13
330
5
100
AcDbSymbolTableRecord
100
AcDbLinetypeTableRecord
  2
BYLAYER
 70
     0
  3

 72
    65
 73
     0
 40
0.0
  0
LTYPE
  5
14
330
5
100
AcDbSymbolTableRecord
100
AcDbLinetypeTableRecord
  2
CONTINUOUS
 70
     0
  3
Solid line
 72
    65
 73
     0
 40
0.0
  0
LTYPE
  5
22
330
5
100
AcDbSymbolTableRecord
100
AcDbLinetypeTableRecord
  2
CENTER
 70
     0
  3
__ . __
 72
    65
 73
     4
 40
7.0
 49
4.0
 74
     0
 49
-1.0
 74
     0
 49
1.0
 74
     0
 49
-1.0
 74
     0
  0
LTYPE
  5
23
330
5
100
AcDbSymbolTableRecord
100
AcDbLinetypeTableRecord
  2
CENTER2
 70
     0
  3
Center (.5x) ___ _ ___ _ ___ _ ___ _ ___ _ ___
 72
    65
 73
     4
 40
28.575
 49
19.05
 74
     0
 49
-3.174999999999999
 74
     0
 49
3.174999999999999
 74
     0
 49
-3.174999999999999
 74
     0
  0
LTYPE
  5
24
330
5
100
AcDbSymbolTableRecord
100
AcDbLinetypeTableRecord
  2
PHANTOM
 70
     0
  3
Phantom ______  __  __  ______  __  __  ______
 72
    65
 73
     6
 40
63.5
 49
31.75
 74
     0
 49
-6.349999999999999
 74
     0
 49
6.349999999999999
 74
     0
 49
-6.349999999999999
 74
     0
 49
6.349999999999999
 74
     0
 49
-6.349999999999999
 74
     0
  0
LTYPE
  5
25
330
5
100
AcDbSymbolTableRecord
100
AcDbLinetypeTableRecord
  2
PHANTOM2
 70
     0
  3
Phantom (.5x) ___ _ _ ___ _ _ ___ _ _ ___ _ _
 72
    65
 73
     6
 40
31.75
 49
15.875
 74
     0
 49
-3.174999999999999
 74
     0
 49
3.174999999999999
 74
     0
 49
-3.174999999999999
 74
     0
 49
3.174999999999999
 74
     0
 49
-3.174999999999999
 74
     0
  0
LTYPE
  5
26
330
5
100
AcDbSymbolTableRecord
100
AcDbLinetypeTableRecord
  2
DASHED
 70
     0
  3
Dashed __ __ __ __ __ __ __ __ __ __ __ __ __ _
 72
    65
 73
     2
 40
19.05
 49
12.7
 74
     0
 49
-6.349999999999999
 74
     0
  0
LTYPE
  5
27
330
5
100
AcDbSymbolTableRecord
100
AcDbLinetypeTableRecord
  2
DASHED2
 70
     0
  3
Dashed (.5x) _ _ _ _ _ _ _ _ _ _ _ _ _ _ _ _ _
 72
    65
 73
     2
 40
9.524999999999998
 49
6.349999999999999
 74
     0
 49
-3.174999999999999
 74
     0
  0
LTYPE
  5
36D
330
5
100
AcDbSymbolTableRecord
100
AcDbLinetypeTableRecord
  2
AM_ISO02W050
 70
     0
  3
__ __ __ __ __ __ __ __ __ __ __ __ __ __ __
 72
    65
 73
     2
 40
7.5
 49
6.0
 74
     0
 49
-1.5
 74
     0
  0
LTYPE
  5
36E
330
5
100
AcDbSymbolTableRecord
100
AcDbLinetypeTableRecord
  2
AM_ISO08W050
 70
     0
  3
____ . ____ . ____ . ____ . ____ . ____ . ____
 72
    65
 73
     4
 40
18.0
 49
12.0
 74
     0
 49
-1.5
 74
     0
 49
3.0
 74
     0
 49
-1.5
 74
     0
  0
LTYPE
  5
36F
330
5
100
AcDbSymbolTableRecord
100
AcDbLinetypeTableRecord
  2
AM_ISO09W050
 70
     0
  3
_____ . . _____ . . _____ . . ____ .. ____
 72
    65
 73
     6
 40
22.5
 49
12.0
 74
     0
 49
-1.5
 74
     0
 49
3.0
 74
     0
 49
-1.5
 74
     0
 49
3.0
 74
     0
 49
-1.5
 74
     0
  0
LTYPE
  5
370
330
5
100
AcDbSymbolTableRecord
100
AcDbLinetypeTableRecord
  2
Amconstr
 70
     0
  3
_______________________
 72
    65
 73
     2
 40
9999.0
 49
9999.0
 74
     0
 49
0.0
 74
     0
  0
LTYPE
  5
371
330
5
100
AcDbSymbolTableRecord
100
AcDbLinetypeTableRecord
  2
AM_ISO02W050x2
 70
     0
  3
 _ _ _ _ _ _ _ _ _ _ _ _
 72
    65
 73
     2
 40
3.75
 49
3.0
 74
     0
 49
-0.75
 74
     0
  0
LTYPE
  5
372
330
5
100
AcDbSymbolTableRecord
100
AcDbLinetypeTableRecord
  2
AM_ISO08W050x2
 70
     0
  3
__ . __ . __ . __ . __ . __
 72
    65
 73
     4
 40
9.0
 49
6.0
 74
     0
 49
-0.75
 74
     0
 49
1.5
 74
     0
 49
-0.75
 74
     0
  0
LTYPE
  5
373
330
5
100
AcDbSymbolTableRecord
100
AcDbLinetypeTableRecord
  2
Amzigzag
 70
     0
  3
/\/-/\/-/\/-/\/-/\/-/\/
 72
    65
 73
     2
 40
11.0001
 49
0.0001
 74
     4
 75
   135
340
21
 46
0.04
 50
0.0
 44
0.0
 45
0.0
 49
-11.0
 74
     0
  0
LTYPE
  5
38E
330
5
100
AcDbSymbolTableRecord
100
AcDbLinetypeTableRecord
  2
HIDDEN
 70
     0
  3
Hidden __ __ __ __ __ __ __ __ __ __ __ __ __ _
 72
    65
 73
     2
 40
9.524999999999998
 49
6.349999999999999
 74
     0
 49
-3.174999999999999
 74
     0
  0
LTYPE
  5
3D5
330
5
100
AcDbSymbolTableRecord
100
AcDbLinetypeTableRecord
  2
ACANSTGB
 70
     0
  3
__ . . __ . .
 72
    65
 73
     6
 40
0.35433070866
 49
0.15748031496
 74
     0
 49
-0.03937007874
 74
     0
 49
0.03937007874
 74
     0
 49
-0.03937007874
 74
     0
 49
0.03937007874
 74
     0
 49
-0.03937007874
 74
     0
  0
LTYPE
  5
3D6
330
5
100
AcDbSymbolTableRecord
100
AcDbLinetypeTableRecord
  2
ACANSTGL
 70
     0
  3
_ _ _ _ _
 72
    65
 73
     2
 40
0.11811023622
 49
0.07874015748
 74
     0
 49
-0.03937007874
 74
     0
  0
LTYPE
  5
3F2
330
5
100
AcDbSymbolTableRecord
100
AcDbLinetypeTableRecord
  2
ACISOWELD
 70
     0
  3
_ _ _ _ _
 72
    65
 73
     2
 40
2.0
 49
2.0
 74
     0
 49
-1.0
 74
     0
  0
LTYPE
  5
3F5
330
5
100
AcDbSymbolTableRecord
100
AcDbLinetypeTableRecord
  2
ACISOTGB
 70
     0
  3
__ . . __ . .
 72
    65
 73
     6
 40
9.0
 49
4.0
 74
     0
 49
-1.0
 74
     0
 49
1.0
 74
     0
 49
-1.0
 74
     0
 49
1.0
 74
     0
 49
-1.0
 74
     0
  0
LTYPE
  5
3F6
330
5
100
AcDbSymbolTableRecord
100
AcDbLinetypeTableRecord
  2
ACISOTGL
 70
     0
  3
_ _ _ _ _
 72
    65
 73
     2
 40
3.0
 49
2.0
 74
     0
 49
-1.0
 74
     0
  0
LTYPE
  5
410
330
5
100
AcDbSymbolTableRecord
100
AcDbLinetypeTableRecord
  2
ACJISTGB
 70
     0
  3
__ . . __ . .
 72
    65
 73
     6
 40
9.0
 49
4.0
 74
     0
 49
-1.0
 74
     0
 49
1.0
 74
     0
 49
-1.0
 74
     0
 49
1.0
 74
     0
 49
-1.0
 74
     0
  0
LTYPE
  5
411
330
5
100
AcDbSymbolTableRecord
100
AcDbLinetypeTableRecord
  2
ACJISTGL
 70
     0
  3
_ _ _ _ _
 72
    65
 73
     2
 40
3.0
 49
2.0
 74
     0
 49
-1.0
 74
     0
  0
ENDTAB
  0
TABLE
  2
LAYER
  5
2
330
0
100
AcDbSymbolTable
 70
    11
  0
LAYER
  5
E
330
2
100
AcDbSymbolTableRecord
100
AcDbLayerTableRecord
  2
0
 70
     0
 62
     7
  6
CONTINUOUS
370
    -3
390
5D
  0
LAYER
  5
74
330
2
100
AcDbSymbolTableRecord
100
AcDbLayerTableRecord
  2
Defpoints
 70
     0
 62
     7
  6
CONTINUOUS
290
     0
370
    -3
390
5D
  0
LAYER
  5
75
330
2
100
AcDbSymbolTableRecord
100
AcDbLayerTableRecord
  2
PV0001_1
 70
     0
 62
     7
  6
CONTINUOUS
370
    -3
390
5D
  0
LAYER
  5
422
330
2
100
AcDbSymbolTableRecord
100
AcDbLayerTableRecord
  2
outline
 70
     0
 62
     4
  6
CONTINUOUS
370
    50
390
5D
  0
LAYER
  5
509
330
2
100
AcDbSymbolTableRecord
100
AcDbLayerTableRecord
  2
AM_CL
 70
     0
 62
     1
  6
Amconstr
370
    25
390
5D
  0
LAYER
  5
611
330
2
100
AcDbSymbolTableRecord
100
AcDbLayerTableRecord
  2
center
 70
     0
 62
     2
  6
CENTER2
370
    25
390
5D
  0
LAYER
  5
612
330
2
100
AcDbSymbolTableRecord
100
AcDbLayerTableRecord
  2
dimension
 70
     0
 62
     7
  6
CONTINUOUS
370
    25
390
5D
  0
LAYER
  5
A15
330
2
100
AcDbSymbolTableRecord
100
AcDbLayerTableRecord
  2
jissen f
 70
     0
 62
     4
  6
CONTINUOUS
370
    25
390
5D
  0
LAYER
  5
A16
330
2
100
AcDbSymbolTableRecord
100
AcDbLayerTableRecord
  2
jissen s
 70
     0
 62
     2
  6
CONTINUOUS
370
    35
390
5D
  0
LAYER
  5
A17
330
2
100
AcDbSymbolTableRecord
100
AcDbLayerTableRecord
  2
1ten s
 70
     0
 62
     2
  6
AM_ISO08W050x2
370
    35
390
5D
  0
LAYER
  5
A18
330
2
100
AcDbSymbolTableRecord
100
AcDbLayerTableRecord
  2
hasen f
 70
     0
 62
     4
  6
DASHED
370
    25
390
5D
  0
ENDTAB
  0
TABLE
  2
STYLE
  5
3
330
0
100
AcDbSymbolTable
 70
    10
  0
STYLE
  5
F
330
3
100
AcDbSymbolTableRecord
100
AcDbTextStyleTableRecord
  2
STANDARD
 70
     0
 40
0.0
 41
1.0
 50
0.0
 71
     0
 42
2.5
  3
monotxt.shx
  4
extfont.shx
  0
STYLE
  5
21
330
3
100
AcDbSymbolTableRecord
100
AcDbTextStyleTableRecord
  2

 70
     1
 40
0.0
 41
1.0
 50
0.0
 71
     0
 42
2.5
  3
ltypeshp.shx
  4

  0
STYLE
  5
30
330
3
100
AcDbSymbolTableRecord
100
AcDbTextStyleTableRecord
  2
DIM
 70
     0
 40
0.0
 41
1.0
 50
0.0
 71
     0
 42
2.5
  3
monotxt.shx
  4
extfont.shx
  0
STYLE
  5
31
330
3
100
AcDbSymbolTableRecord
100
AcDbTextStyleTableRecord
  2
CONVERT
 70
     0
 40
0.0
 41
1.0
 50
0.0
 71
     0
 42
2.5
  3
monotxt.shx
  4
extfont.shx
  0
STYLE
  5
3CE
330
3
100
AcDbSymbolTableRecord
100
AcDbTextStyleTableRecord
  2
ACANSTS
 70
     0
 40
1.0
 41
1.0
 50
0.0
 71
     0
 42
5.0
  3
romans.shx
  4
extfont.shx
  0
STYLE
  5
3D1
330
3
100
AcDbSymbolTableRecord
100
AcDbTextStyleTableRecord
  2
ACANSGDT
 70
     0
 40
0.0
 41
1.0
 50
0.0
 71
     0
 42
5.0
  3
amgdtans.shx
  4

  0
STYLE
  5
3EC
330
3
100
AcDbSymbolTableRecord
100
AcDbTextStyleTableRecord
  2
ACISOTS
 70
     0
 40
1.0
 41
1.0
 50
0.0
 71
     0
 42
2.5
  3
isocp.shx
  4
extfont.shx
  0
STYLE
  5
3F0
330
3
100
AcDbSymbolTableRecord
100
AcDbTextStyleTableRecord
  2
ACISOGDT
 70
     0
 40
0.0
 41
1.0
 50
0.0
 71
     0
 42
2.5
  3
amgdt.shx
  4

  0
STYLE
  5
409
330
3
100
AcDbSymbolTableRecord
100
AcDbTextStyleTableRecord
  2
ACJISTS
 70
     0
 40
1.0
 41
1.0
 50
0.0
 71
     0
 42
2.5
  3
isocp.shx
  4
bigfont.shx
  0
STYLE
  5
40C
330
3
100
AcDbSymbolTableRecord
100
AcDbTextStyleTableRecord
  2
ACJISGDT
 70
     0
 40
0.0
 41
1.0
 50
0.0
 71
     0
 42
2.5
  3
amgdt.shx
  4

  0
ENDTAB
  0
TABLE
  2
VIEW
  5
6
330
0
100
AcDbSymbolTable
 70
     0
  0
ENDTAB
  0
TABLE
  2
UCS
  5
7
330
0
100
AcDbSymbolTable
 70
     0
  0
ENDTAB
  0
TABLE
  2
APPID
  5
9
330
0
100
AcDbSymbolTable
 70
    28
  0
APPID
  5
10
330
9
100
AcDbSymbolTableRecord
100
AcDbRegAppTableRecord
  2
ACAD
 70
     0
  0
APPID
  5
351
330
9
100
AcDbSymbolTableRecord
100
AcDbRegAppTableRecord
  2
MCAD_NO_VIS
 70
     0
  0
APPID
  5
352
330
9
100
AcDbSymbolTableRecord
100
AcDbRegAppTableRecord
  2
ACAD_TEMP_GRAPHIC
 70
     0
  0
APPID
  5
353
330
9
100
AcDbSymbolTableRecord
100
AcDbRegAppTableRecord
  2
GENIUS_GENREC_14
 70
     0
  0
APPID
  5
354
330
9
100
AcDbSymbolTableRecord
100
AcDbRegAppTableRecord
  2
GENIUS_GENODEF_13
 70
     0
  0
APPID
  5
355
330
9
100
AcDbSymbolTableRecord
100
AcDbRegAppTableRecord
  2
GENIUS_GENOBJ-N-REC_13
 70
     0
  0
APPID
  5
356
330
9
100
AcDbSymbolTableRecord
100
AcDbRegAppTableRecord
  2
GENIUS_GENOBJ-N-CEN_13
 70
     0
  0
APPID
  5
357
330
9
100
AcDbSymbolTableRecord
100
AcDbRegAppTableRecord
  2
GENIUS_GENDTOL_13
 70
     0
  0
APPID
  5
358
330
9
100
AcDbSymbolTableRecord
100
AcDbRegAppTableRecord
  2
GENIUS_GENDIMSH_14
 70
     0
  0
APPID
  5
359
330
9
100
AcDbSymbolTableRecord
100
AcDbRegAppTableRecord
  2
ACATTRIBSERVICES
 70
     0
  0
APPID
  5
35A
330
9
100
AcDbSymbolTableRecord
100
AcDbRegAppTableRecord
  2
GENIUS_GENFIL_13
 70
     0
  0
APPID
  5
35B
330
9
100
AcDbSymbolTableRecord
100
AcDbRegAppTableRecord
  2
GENIUS_GENOBJ-N-CHA_13
 70
     0
  0
APPID
  5
35C
330
9
100
AcDbSymbolTableRecord
100
AcDbRegAppTableRecord
  2
GENIUS_GENOLIS_13
 70
     0
  0
APPID
  5
35D
330
9
100
AcDbSymbolTableRecord
100
AcDbRegAppTableRecord
  2
GENIUS_GENOENT_13
 70
     0
  0
APPID
  5
35E
330
9
100
AcDbSymbolTableRecord
100
AcDbRegAppTableRecord
  2
GENIUS_GENOREF_13
 70
     0
  0
APPID
  5
35F
330
9
100
AcDbSymbolTableRecord
100
AcDbRegAppTableRecord
  2
GENIUS_GENOBJ-N-CRS_13
 70
     0
  0
APPID
  5
360
330
9
100
AcDbSymbolTableRecord
100
AcDbRegAppTableRecord
  2
GENIUS_GENOBJ-N-TIT_13
 70
     0
  0
APPID
  5
361
330
9
100
AcDbSymbolTableRecord
100
AcDbRegAppTableRecord
  2
GENIUS_GENTITLE_13
 70
     0
  0
APPID
  5
362
330
9
100
AcDbSymbolTableRecord
100
AcDbRegAppTableRecord
  2
GENIUS_GENSCREG_15
 70
     0
  0
APPID
  5
363
330
9
100
AcDbSymbolTableRecord
100
AcDbRegAppTableRecord
  2
GENIUS_GENOBJ-N-SDF_13
 70
     0
  0
APPID
  5
364
330
9
100
AcDbSymbolTableRecord
100
AcDbRegAppTableRecord
  2
GENIUS_GENTRA_14
 70
     0
  0
APPID
  5
365
330
9
100
AcDbSymbolTableRecord
100
AcDbRegAppTableRecord
  2
GENIUS_GENOBJ-N-FIL_13
 70
     0
  0
APPID
  5
366
330
9
100
AcDbSymbolTableRecord
100
AcDbRegAppTableRecord
  2
AD_DRAW
 70
     0
  0
APPID
  5
367
330
9
100
AcDbSymbolTableRecord
100
AcDbRegAppTableRecord
  2
DESIGNERASSEMBLIES
 70
     0
  0
APPID
  5
368
330
9
100
AcDbSymbolTableRecord
100
AcDbRegAppTableRecord
  2
ACADM_DIM_EDIT
 70
     0
  0
APPID
  5
369
330
9
100
AcDbSymbolTableRecord
100
AcDbRegAppTableRecord
  2
AMDT_DM_ADJ
 70
     0
  0
APPID
  5
83B
330
9
100
AcDbSymbolTableRecord
100
AcDbRegAppTableRecord
  2
ACAD_DSTYLE_DIMARC_LENGTH_SYMBOL
 70
     0
  0
APPID
  5
83C
330
9
100
AcDbSymbolTableRecord
100
AcDbRegAppTableRecord
  2
ACAD_DSTYLE_DIMJOGGED_JOGANGLE_SYMBOL
 70
     0
  0
ENDTAB
  0
TABLE
  2
DIMSTYLE
  5
A
330
0
100
AcDbSymbolTable
 70
    28
100
AcDbDimStyleTable
 71
     0
  0
DIMSTYLE
105
1D
102
{ACAD_REACTORS
330
76
102
}
330
A
100
AcDbSymbolTableRecord
100
AcDbDimStyleTableRecord
  2
STANDARD
 70
     0
 41
3.0
 42
1.0
 43
7.0
 44
2.0
 73
     0
 74
     0
 77
     1
140
2.799999999999999
141
0.0
143
0.0394
147
0.7
171
     4
172
     1
173
     1
176
    44
177
    44
178
    44
271
     3
272
     3
273
     8
274
     4
289
     0
340
F
341
32
343
32
344
32
  0
DIMSTYLE
105
3DE
330
A
100
AcDbSymbolTableRecord
100
AcDbDimStyleTableRecord
  2
AM_ANSI
 70
     0
  4
mm
 41
0.1
 42
0.05
 43
0.5
 44
0.1
 47
0.1
 48
0.1
 78
     7
 79
     2
140
0.12
141
0.0
146
0.71
147
0.06
176
   256
177
   256
178
     2
274
     4
340
F
371
    -1
372
    -1
1001
ACAD_DSTYLE_DIMARC_LENGTH_SYMBOL
1070
   379
1070
     1
1001
ACAD_DSTYLE_DIMJOGGED_JOGANGLE_SYMBOL
1070
   384
1040
0.7853981633974483
  0
DIMSTYLE
105
3DF
330
A
100
AcDbSymbolTableRecord
100
AcDbDimStyleTableRecord
  2
AM_ANSI$3
 70
     0
  4
mm
 41
0.1
 42
0.05
 43
0.5
 44
0.1
 47
0.1
 48
0.1
 78
     7
 79
     2
140
0.12
141
0.0
146
0.71
147
0.06
176
   256
177
   256
178
     2
274
     4
288
     1
289
     0
340
F
371
    -1
372
    -1
1001
ACAD_DSTYLE_DIMARC_LENGTH_SYMBOL
1070
   379
1070
     1
1001
ACAD_DSTYLE_DIMJOGGED_JOGANGLE_SYMBOL
1070
   384
1040
0.7853981633974483
  0
DIMSTYLE
105
3E0
330
A
100
AcDbSymbolTableRecord
100
AcDbDimStyleTableRecord
  2
AM_ANSI$4
 70
     0
  4
mm
 41
0.1
 42
0.05
 43
0.5
 44
0.1
 47
0.1
 48
0.1
 78
     7
 79
     2
140
0.12
141
0.0
146
0.71
147
0.06
176
   256
177
   256
178
     2
274
     4
288
     1
289
     0
340
F
371
    -1
372
    -1
1001
ACAD_DSTYLE_DIMARC_LENGTH_SYMBOL
1070
   379
1070
     1
1001
ACAD_DSTYLE_DIMJOGGED_JOGANGLE_SYMBOL
1070
   384
1040
0.7853981633974483
  0
DIMSTYLE
105
3E1
330
A
100
AcDbSymbolTableRecord
100
AcDbDimStyleTableRecord
  2
AM_ANSI$7
 70
     0
  4
mm
 41
0.1
 42
0.05
 43
0.5
 44
0.1
 47
0.1
 48
0.1
 78
     7
 79
     2
140
0.24
141
0.0
146
0.71
147
0.06
176
   256
177
   256
178
     2
274
     4
340
F
371
    -1
372
    -1
1001
ACAD_DSTYLE_DIMARC_LENGTH_SYMBOL
1070
   379
1070
     1
1001
ACAD_DSTYLE_DIMJOGGED_JOGANGLE_SYMBOL
1070
   384
1040
0.7853981633974483
  0
DIMSTYLE
105
3E2
330
A
100
AcDbSymbolTableRecord
100
AcDbDimStyleTableRecord
  2
AM_ANSI$SF
 70
     0
  4
mm
 41
0.1
 42
0.05
 43
0.5
 44
0.1
 47
0.1
 48
0.1
 75
     1
 76
     1
 78
     7
 79
     2
140
0.12
141
0.0
146
0.71
147
0.06
176
   256
177
   256
178
     2
274
     4
340
F
371
    -1
372
    -1
1001
ACAD_DSTYLE_DIMARC_LENGTH_SYMBOL
1070
   379
1070
     1
1001
ACAD_DSTYLE_DIMJOGGED_JOGANGLE_SYMBOL
1070
   384
1040
0.7853981633974483
  0
DIMSTYLE
105
3E3
330
A
100
AcDbSymbolTableRecord
100
AcDbDimStyleTableRecord
  2
AM_ANSI$SH
 70
     0
  4
mm
 41
0.1
 42
0.05
 43
0.5
 44
0.1
 47
0.1
 48
0.1
 75
     1
 76
     1
 78
     7
 79
     2
140
0.12
141
0.0
146
0.71
147
0.06
173
     1
176
   256
177
   256
178
     2
274
     4
340
F
343
3E4
371
    -1
372
    -1
1001
ACAD_DSTYLE_DIMARC_LENGTH_SYMBOL
1070
   379
1070
     1
1001
ACAD_DSTYLE_DIMJOGGED_JOGANGLE_SYMBOL
1070
   384
1040
0.7853981633974483
  0
DIMSTYLE
105
3FE
330
A
100
AcDbSymbolTableRecord
100
AcDbDimStyleTableRecord
  2
AM_ISO
 70
     0
  4
"
 41
2.5
 42
1.0
 43
10.0
 44
1.0
 47
0.1
 48
0.1
 73
     0
 74
     0
 77
     1
 78
     8
 79
     2
140
3.5
141
0.0
143
0.0393701
146
0.71
147
1.5
172
     1
176
   256
177
   256
178
     2
271
     2
272
     3
274
     4
283
     0
284
     8
340
F
371
    -1
372
    -1
1001
ACAD_DSTYLE_DIMARC_LENGTH_SYMBOL
1070
   379
1070
     1
1001
ACAD_DSTYLE_DIMJOGGED_JOGANGLE_SYMBOL
1070
   384
1040
0.7853981633974483
  0
DIMSTYLE
105
3FF
330
A
100
AcDbSymbolTableRecord
100
AcDbDimStyleTableRecord
  2
AM_ISO$3
 70
     0
  4
"
 41
2.5
 42
1.0
 43
10.0
 44
1.0
 47
0.1
 48
0.1
 73
     0
 77
     1
 78
     8
 79
     2
140
3.5
141
0.0
143
0.0393701
146
0.71
147
1.5
176
   256
177
   256
178
     2
271
     2
272
     3
274
     4
283
     0
284
     8
288
     1
289
     0
340
F
371
    -1
372
    -1
1001
ACAD_DSTYLE_DIMARC_LENGTH_SYMBOL
1070
   379
1070
     1
1001
ACAD_DSTYLE_DIMJOGGED_JOGANGLE_SYMBOL
1070
   384
1040
0.7853981633974483
  0
DIMSTYLE
105
400
330
A
100
AcDbSymbolTableRecord
100
AcDbDimStyleTableRecord
  2
AM_ISO$4
 70
     0
  4
"
 41
2.5
 42
1.0
 43
10.0
 44
1.0
 47
0.1
 48
0.1
 73
     0
 77
     1
 78
     8
 79
     2
140
3.5
141
0.0
143
0.0393701
146
0.71
147
1.5
176
   256
177
   256
178
     2
271
     2
272
     3
274
     4
283
     0
284
     8
288
     1
289
     0
340
F
371
    -1
372
    -1
1001
ACAD_DSTYLE_DIMARC_LENGTH_SYMBOL
1070
   379
1070
     1
1001
ACAD_DSTYLE_DIMJOGGED_JOGANGLE_SYMBOL
1070
   384
1040
0.7853981633974483
  0
DIMSTYLE
105
401
330
A
100
AcDbSymbolTableRecord
100
AcDbDimStyleTableRecord
  2
AM_ISO$6
 70
     0
  4
"
 41
2.5
 42
1.0
 43
10.0
 44
1.0
 47
0.1
 48
0.1
 73
     0
 74
     0
 78
     8
 79
     2
140
3.5
141
0.0
143
0.0393701
146
0.71
147
1.5
172
     1
176
   256
177
   256
178
     2
271
     2
272
     3
274
     4
283
     0
284
     8
340
F
371
    -1
372
    -1
1001
ACAD_DSTYLE_DIMARC_LENGTH_SYMBOL
1070
   379
1070
     1
1001
ACAD_DSTYLE_DIMJOGGED_JOGANGLE_SYMBOL
1070
   384
1040
0.7853981633974483
  0
DIMSTYLE
105
402
330
A
100
AcDbSymbolTableRecord
100
AcDbDimStyleTableRecord
  2
AM_ISO$7
 70
     0
  4
"
 41
2.5
 42
1.0
 43
10.0
 44
1.0
 47
0.1
 48
0.1
 73
     0
 74
     0
 77
     1
 78
     8
 79
     2
140
5.0
141
0.0
143
0.0393701
146
0.71
147
1.5
172
     1
176
   256
177
   256
178
     2
271
     2
272
     3
274
     4
283
     0
284
     8
340
F
371
    -1
372
    -1
1001
ACAD_DSTYLE_DIMARC_LENGTH_SYMBOL
1070
   379
1070
     1
1001
ACAD_DSTYLE_DIMJOGGED_JOGANGLE_SYMBOL
1070
   384
1040
0.7853981633974483
  0
DIMSTYLE
105
403
330
A
100
AcDbSymbolTableRecord
100
AcDbDimStyleTableRecord
  2
AM_ISO$SF
 70
     0
  4
"
 41
2.5
 42
1.0
 43
10.0
 44
1.0
 47
0.1
 48
0.1
 73
     0
 74
     0
 75
     1
 76
     1
 77
     1
 78
     8
 79
     2
140
3.5
141
0.0
143
0.0393701
146
0.71
147
1.5
172
     1
176
   256
177
   256
178
     2
271
     2
272
     3
274
     4
283
     0
284
     8
340
F
371
    -1
372
    -1
1001
ACAD_DSTYLE_DIMARC_LENGTH_SYMBOL
1070
   379
1070
     1
1001
ACAD_DSTYLE_DIMJOGGED_JOGANGLE_SYMBOL
1070
   384
1040
0.7853981633974483
  0
DIMSTYLE
105
404
330
A
100
AcDbSymbolTableRecord
100
AcDbDimStyleTableRecord
  2
AM_ISO$SH
 70
     0
  4
"
 41
2.5
 42
1.0
 43
10.0
 44
1.0
 47
0.1
 48
0.1
 73
     0
 74
     0
 75
     1
 76
     1
 77
     1
 78
     8
 79
     2
140
3.5
141
0.0
143
0.0393701
144
2.0
146
0.71
147
1.5
172
     1
173
     1
176
   256
177
   256
178
     2
271
     2
272
     3
274
     4
283
     0
284
     8
340
F
343
3E4
371
    -1
372
    -1
1001
ACAD_DSTYLE_DIMARC_LENGTH_SYMBOL
1070
   379
1070
     1
1001
ACAD_DSTYLE_DIMJOGGED_JOGANGLE_SYMBOL
1070
   384
1040
0.7853981633974483
  0
DIMSTYLE
105
41E
330
A
100
AcDbSymbolTableRecord
100
AcDbDimStyleTableRecord
  2
kuroda_sunpo
 70
     0
  4
"
 41
2.5
 42
1.0
 43
8.0
 44
1.0
 47
0.1
 48
0.1
 73
     0
 74
     0
 77
     3
 78
     8
 79
     2
140
3.2
141
0.0
143
0.0393701
146
0.71
147
1.5
172
     1
176
     7
177
     7
178
     7
179
     2
271
     3
272
     3
275
     1
283
     0
340
F
341
A7
342
A7
371
    -1
372
    -1
  0
DIMSTYLE
105
426
330
A
100
AcDbSymbolTableRecord
100
AcDbDimStyleTableRecord
  2
kuroda_sunpo$3
 70
     0
  4
"
 41
2.5
 42
1.0
 43
8.0
 44
1.0
 47
0.1
 48
0.1
 73
     0
 77
     3
 78
     8
 79
     2
140
3.2
141
0.0
143
0.0393701
146
0.71
147
1.5
176
     7
177
     7
178
     7
179
     2
271
     3
272
     3
275
     1
283
     0
288
     1
289
     0
340
F
341
A7
342
A7
371
    -1
372
    -1
  0
DIMSTYLE
105
427
330
A
100
AcDbSymbolTableRecord
100
AcDbDimStyleTableRecord
  2
kuroda_sunpo$4
 70
     0
  4
"
 41
2.5
 42
1.0
 43
8.0
 44
1.0
 47
0.1
 48
0.1
 73
     0
 77
     3
 78
     8
 79
     2
140
3.2
141
0.0
143
0.0393701
146
0.71
147
1.5
176
     7
177
     7
178
     7
179
     2
271
     3
272
     3
275
     1
283
     0
288
     1
289
     0
340
F
341
A7
342
A7
371
    -1
372
    -1
  0
DIMSTYLE
105
428
330
A
100
AcDbSymbolTableRecord
100
AcDbDimStyleTableRecord
  2
kuroda_sunpo$6
 70
     0
  4
"
 41
2.5
 42
1.0
 43
8.0
 44
1.0
 47
0.1
 48
0.1
 73
     0
 74
     0
 78
     8
 79
     2
140
3.2
141
0.0
143
0.0393701
146
0.71
147
1.5
172
     1
176
     7
177
     7
178
     7
179
     2
271
     3
272
     3
275
     1
283
     0
340
F
341
A7
342
A7
371
    -1
372
    -1
  0
DIMSTYLE
105
429
330
A
100
AcDbSymbolTableRecord
100
AcDbDimStyleTableRecord
  2
kuroda_sunpo$SF
 70
     0
  4
"
 41
2.5
 42
1.0
 43
8.0
 44
1.0
 47
0.1
 48
0.1
 73
     0
 74
     0
 75
     1
 76
     1
 77
     3
 78
     8
 79
     2
140
5.0
141
0.0
143
0.0393701
146
0.71
147
1.5
172
     1
176
   256
177
   256
178
     7
179
     2
271
     3
272
     3
275
     1
283
     0
340
F
341
32
342
32
371
    -1
372
    -1
  0
DIMSTYLE
105
430
330
A
100
AcDbSymbolTableRecord
100
AcDbDimStyleTableRecord
  2
kuroda_sunpo$SH
 70
     0
  4
"
 41
2.5
 42
1.0
 43
8.0
 44
1.0
 47
0.1
 48
0.1
 73
     0
 74
     0
 75
     1
 76
     1
 77
     3
 78
     8
 79
     2
140
5.0
141
0.0
143
0.0393701
144
2.0
146
0.71
147
1.5
172
     1
173
     1
176
   256
177
   256
178
     7
179
     2
271
     3
272
     3
275
     1
283
     0
340
F
341
32
342
32
343
3E4
371
    -1
372
    -1
  0
DIMSTYLE
105
443
330
A
100
AcDbSymbolTableRecord
100
AcDbDimStyleTableRecord
  2
JIS-KURODA
 70
     0
  4
"
 41
2.5
 42
1.0
 43
10.0
 44
1.0
 47
0.1
 48
0.1
 73
     0
 74
     0
 77
     3
 78
     8
 79
     2
140
3.2
141
0.0
143
0.0393701
146
0.71
147
1.5
172
     1
174
     1
176
     7
177
     7
178
     7
271
     2
272
     2
283
     0
284
     8
340
F
341
A7
342
A7
371
    -1
372
    -1
1001
ACAD_DSTYLE_DIMARC_LENGTH_SYMBOL
1070
   379
1070
     1
1001
ACAD_DSTYLE_DIMJOGGED_JOGANGLE_SYMBOL
1070
   384
1040
0.7853981633974483
  0
DIMSTYLE
105
444
330
A
100
AcDbSymbolTableRecord
100
AcDbDimStyleTableRecord
  2
JIS-KURODA$2
 70
     0
  4
"
 41
2.5
 42
1.0
 43
10.0
 44
1.0
 47
0.1
 48
0.1
 73
     0
 74
     0
 77
     3
 78
     8
 79
     2
140
3.2
141
0.0
143
0.0393701
146
0.71
147
1.5
172
     1
174
     1
176
     7
177
     7
178
     7
271
     2
272
     2
283
     0
284
     8
340
F
341
A7
342
A7
371
    -1
372
    -1
1001
ACAD_DSTYLE_DIMARC_LENGTH_SYMBOL
1070
   379
1070
     1
1001
ACAD_DSTYLE_DIMJOGGED_JOGANGLE_SYMBOL
1070
   384
1040
0.7853981633974483
  0
DIMSTYLE
105
445
330
A
100
AcDbSymbolTableRecord
100
AcDbDimStyleTableRecord
  2
JIS-KURODA$3
 70
     0
  4
"
 41
2.5
 42
1.0
 43
10.0
 44
1.0
 47
0.1
 48
0.1
 73
     0
 74
     0
 77
     3
 78
     8
 79
     2
140
3.2
141
0.0
143
0.0393701
146
0.71
147
1.5
172
     1
176
     7
177
     7
178
     7
271
     2
272
     2
283
     0
284
     8
288
     1
289
     2
340
F
341
32
342
A7
371
    -1
372
    -1
1001
ACAD_DSTYLE_DIMARC_LENGTH_SYMBOL
1070
   379
1070
     1
1001
ACAD_DSTYLE_DIMJOGGED_JOGANGLE_SYMBOL
1070
   384
1040
0.7853981633974483
  0
DIMSTYLE
105
446
330
A
100
AcDbSymbolTableRecord
100
AcDbDimStyleTableRecord
  2
JIS-KURODA$4
 70
     0
  4
"
 41
2.5
 42
1.0
 43
10.0
 44
1.0
 47
0.1
 48
0.1
 73
     0
 77
     3
 78
     8
 79
     2
140
3.2
141
0.0
143
0.0393701
146
0.71
147
1.5
173
     1
176
     7
177
     7
178
     7
271
     2
272
     2
279
     1
283
     0
284
     8
288
     1
289
     0
340
F
341
32
343
32
344
A7
371
    -1
372
    -1
1001
ACAD_DSTYLE_DIMARC_LENGTH_SYMBOL
1070
   379
1070
     1
1001
ACAD_DSTYLE_DIMJOGGED_JOGANGLE_SYMBOL
1070
   384
1040
0.7853981633974483
  0
DIMSTYLE
105
447
330
A
100
AcDbSymbolTableRecord
100
AcDbDimStyleTableRecord
  2
JIS-KURODA$6
 70
     0
  4
"
 41
2.5
 42
1.0
 43
10.0
 44
1.0
 47
0.1
 48
0.1
 73
     0
 74
     0
 78
     8
 79
     2
140
3.2
141
0.0
143
0.0393701
146
0.71
147
1.5
172
     1
176
     7
177
     7
178
     7
271
     2
272
     2
279
     1
283
     0
284
     8
340
F
341
32
342
32
371
    -1
372
    -1
1001
ACAD_DSTYLE_DIMARC_LENGTH_SYMBOL
1070
   379
1070
     1
1001
ACAD_DSTYLE_DIMJOGGED_JOGANGLE_SYMBOL
1070
   384
1040
0.7853981633974483
  0
DIMSTYLE
105
448
330
A
100
AcDbSymbolTableRecord
100
AcDbDimStyleTableRecord
  2
JIS-KURODA$7
 70
     0
  4
"
 41
2.5
 42
1.0
 43
10.0
 44
1.0
 47
0.1
 48
0.1
 73
     0
 74
     0
 77
     3
 78
     8
 79
     2
140
4.000000000000003
141
0.0
143
0.0393701
146
0.71
147
1.5
172
     1
176
     7
177
     7
178
     7
271
     2
272
     2
279
     1
283
     0
284
     8
340
F
341
A7
342
32
371
    -1
372
    -1
1001
ACAD_DSTYLE_DIMARC_LENGTH_SYMBOL
1070
   379
1070
     1
1001
ACAD_DSTYLE_DIMJOGGED_JOGANGLE_SYMBOL
1070
   384
1040
0.7853981633974483
  0
DIMSTYLE
105
449
330
A
100
AcDbSymbolTableRecord
100
AcDbDimStyleTableRecord
  2
JIS-KURODA$SF
 70
     0
  4
"
 41
2.5
 42
1.0
 43
10.0
 44
1.0
 47
0.1
 48
0.1
 73
     0
 74
     0
 75
     1
 76
     1
 77
     3
 78
     8
 79
     2
140
3.5
141
0.0
143
0.0393701
146
0.71
147
1.5
172
     1
176
   256
177
   256
178
     7
271
     2
272
     3
274
     4
283
     0
284
     8
340
F
341
32
342
32
343
32
344
32
371
    -1
372
    -1
1001
ACAD_DSTYLE_DIMARC_LENGTH_SYMBOL
1070
   379
1070
     1
1001
ACAD_DSTYLE_DIMJOGGED_JOGANGLE_SYMBOL
1070
   384
1040
0.7853981633974483
  0
DIMSTYLE
105
44A
330
A
100
AcDbSymbolTableRecord
100
AcDbDimStyleTableRecord
  2
JIS-KURODA$SH
 70
     0
  4
"
 41
2.5
 42
1.0
 43
10.0
 44
1.0
 47
0.1
 48
0.1
 73
     0
 74
     0
 75
     1
 76
     1
 77
     3
 78
     8
 79
     2
140
3.5
141
0.0
143
0.0393701
144
2.0
146
0.71
147
1.5
172
     1
173
     1
176
   256
177
   256
178
     7
271
     2
272
     3
274
     4
283
     0
284
     8
340
F
341
32
342
32
343
3E4
344
32
371
    -1
372
    -1
1001
ACAD_DSTYLE_DIMARC_LENGTH_SYMBOL
1070
   379
1070
     1
1001
ACAD_DSTYLE_DIMJOGGED_JOGANGLE_SYMBOL
1070
   384
1040
0.7853981633974483
  0
ENDTAB
  0
TABLE
  2
BLOCK_RECORD
  5
1
330
0
100
AcDbSymbolTable
 70
     6
  0
BLOCK_RECORD
  5
18
102
{ACAD_XDICTIONARY
360
32F
102
}
330
1
100
AcDbSymbolTableRecord
100
AcDbBlockTableRecord
  2
*MODEL_SPACE
340
60
  0
BLOCK_RECORD
  5
15
102
{ACAD_XDICTIONARY
360
32D
102
}
330
1
100
AcDbSymbolTableRecord
100
AcDbBlockTableRecord
  2
*PAPER_SPACE
340
61
  0
BLOCK_RECORD
  5
32
330
1
100
AcDbSymbolTableRecord
100
AcDbBlockTableRecord
  2
_Open30
340
0
  0
BLOCK_RECORD
  5
77
330
1
100
AcDbSymbolTableRecord
100
AcDbBlockTableRecord
  2
*D1
340
0
  0
BLOCK_RECORD
  5
A7
330
1
100
AcDbSymbolTableRecord
100
AcDbBlockTableRecord
  2
_Open
340
0
  0
BLOCK_RECORD
  5
33E
330
1
100
AcDbSymbolTableRecord
100
AcDbBlockTableRecord
  2
*U3
340
0
102
{BLKREFS
331
2C7
102
}
  0
BLOCK_RECORD
  5
3E4
330
1
100
AcDbSymbolTableRecord
100
AcDbBlockTableRecord
  2
GENAXEH
340
0
  0
ENDTAB
  0
ENDSEC
  0
SECTION
  2
BLOCKS
  0
BLOCK
  5
19
330
18
100
AcDbEntity
  8
0
100
AcDbBlockBegin
  2
*MODEL_SPACE
 70
     0
 10
0.0
 20
0.0
 30
0.0
  3
*MODEL_SPACE
  1

  0
ENDBLK
  5
1A
330
18
100
AcDbEntity
  8
0
100
AcDbBlockEnd
  0
BLOCK
  5
16
330
15
100
AcDbEntity
 67
     1
  8
0
100
AcDbBlockBegin
  2
*PAPER_SPACE
 70
     0
 10
0.0
 20
0.0
 30
0.0
  3
*PAPER_SPACE
  1

  0
ENDBLK
  5
17
330
15
100
AcDbEntity
 67
     1
  8
0
100
AcDbBlockEnd
  0
BLOCK
  5
D30
330
32
100
AcDbEntity
  8
0
100
AcDbBlockBegin
  2
_Open30
 70
     0
 10
0.0
 20
0.0
 30
0.0
  3
_Open30
  1

  0
LINE
  5
D31
330
32
100
AcDbEntity
  8
0
 62
     0
370
    -2
100
AcDbLine
 10
-1.0
 20
0.26794919
 30
0.0
 11
0.0
 21
0.0
 31
0.0
  0
LINE
  5
D32
330
32
100
AcDbEntity
  8
0
 62
     0
370
    -2
100
AcDbLine
 10
0.0
 20
0.0
 30
0.0
 11
-1.0
 21
-0.26794919
 31
0.0
  0
LINE
  5
D33
330
32
100
AcDbEntity
  8
0
 62
     0
370
    -2
100
AcDbLine
 10
0.0
 20
0.0
 30
0.0
 11
-1.0
 21
0.0
 31
0.0
  0
ENDBLK
  5
D34
330
32
100
AcDbEntity
  8
0
100
AcDbBlockEnd
  0
BLOCK
  5
81
330
77
100
AcDbEntity
  8
0
100
AcDbBlockBegin
  2
*D1
 70
     1
 10
0.0
 20
0.0
 30
0.0
  3
*D1
  1

  0
LINE
  5
8D8
330
77
100
AcDbEntity
  8
PV0001_1
 62
    44
370
    -2
100
AcDbLine
 10
254.0
 20
-144.5
 30
0.0
 11
254.0
 21
-174.10444641113
 31
0.0
  0
LINE
  5
8D9
330
77
100
AcDbEntity
  8
PV0001_1
 62
    44
370
    -2
100
AcDbLine
 10
654.0
 20
-144.5
 30
0.0
 11
654.0
 21
-174.10444641113
 31
0.0
  0
LINE
  5
8DA
330
77
100
AcDbEntity
  8
PV0001_1
 62
    44
370
    -2
100
AcDbLine
 10
257.0
 20
-172.10444641113
 30
0.0
 11
651.0
 21
-172.10444641113
 31
0.0
  0
INSERT
  5
8DB
330
77
100
AcDbEntity
  8
PV0001_1
 62
    44
370
    -2
100
AcDbBlockReference
  2
_Open
 10
254.0
 20
-172.10444641113
 30
0.0
 41
3.0
 42
3.0
 43
3.0
 50
180.0
  0
INSERT
  5
8DC
330
77
100
AcDbEntity
  8
PV0001_1
 62
    44
370
    -2
100
AcDbBlockReference
  2
_Open
 10
654.0
 20
-172.10444641113
 30
0.0
 41
3.0
 42
3.0
 43
3.0
  0
MTEXT
  5
8DD
330
77
100
AcDbEntity
  8
PV0001_1
 62
    44
100
AcDbMText
 10
454.0
 20
-169.80444641113
 30
0.0
 40
3.2
 41
0.0
 71
     5
 72
     1
  1
\A1;L
 73
     1
 44
1.0
1001
ACAD
1000
MTEXTBEGIN
1070
    73
1070
     1
1070
    44
1040
1.0
1070
    74
1070
     0
1000
MTEXTEND
  0
POINT
  5
8DE
330
77
100
AcDbEntity
  8
Defpoints
 62
     0
100
AcDbPoint
 10
254.0
 20
-143.5
 30
0.0
  0
POINT
  5
8DF
330
77
100
AcDbEntity
  8
Defpoints
 62
     0
100
AcDbPoint
 10
654.0
 20
-143.5
 30
0.0
  0
POINT
  5
8E0
330
77
100
AcDbEntity
  8
Defpoints
 62
     0
100
AcDbPoint
 10
654.0
 20
-172.10444641113
 30
0.0
  0
ENDBLK
  5
82
330
77
100
AcDbEntity
  8
0
100
AcDbBlockEnd
  0
BLOCK
  5
D25
330
A7
100
AcDbEntity
  8
0
100
AcDbBlockBegin
  2
_Open
 70
     0
 10
0.0
 20
0.0
 30
0.0
  3
_Open
  1

  0
LINE
  5
D26
330
A7
100
AcDbEntity
  8
outline
 62
     0
370
    -2
100
AcDbLine
 10
-1.0
 20
0.1666666666666666
 30
0.0
 11
0.0
 21
0.0
 31
0.0
  0
LINE
  5
D28
330
A7
100
AcDbEntity
  8
outline
 62
     0
370
    -2
100
AcDbLine
 10
-1.0
 20
-0.1666666666666666
 30
0.0
 11
0.0
 21
0.0
 31
0.0
  0
LINE
  5
D29
330
A7
100
AcDbEntity
  8
outline
 62
     0
370
    -2
100
AcDbLine
 10
0.0
 20
0.0
 30
0.0
 11
-1.0
 21
0.0
 31
0.0
  0
ENDBLK
  5
D2A
330
A7
100
AcDbEntity
  8
0
100
AcDbBlockEnd
  0
BLOCK
  5
345
330
33E
100
AcDbEntity
  8
0
100
AcDbBlockBegin
  2
*U3
 70
     1
 10
0.0
 20
0.0
 30
0.0
  3
*U3
  1

  0
SOLID
  5
33F
330
33E
100
AcDbEntity
  8
PV0001_1
  6
Continuous
100
AcDbTrace
 10
147.1999847441902
 20
-318.5
 30
0.0
 11
147.1414060995546
 21
-318.3585786416553
 31
0.0
 12
147.1414060995546
 22
-318.6414213583447
 32
0.0
 13
147.1414060995546
 23
-318.6414213583447
 33
0.0
  0
SOLID
  5
340
330
33E
100
AcDbEntity
  8
PV0001_1
  6
Continuous
100
AcDbTrace
 10
146.99998474121
 20
-318.2999999970198
 30
0.0
 11
147.1414060995546
 21
-318.6414213583447
 31
0.0
 12
147.1414060995546
 22
-318.3585786416553
 32
0.0
 13
147.1414060995546
 23
-318.3585786416553
 33
0.0
  0
SOLID
  5
341
330
33E
100
AcDbEntity
  8
PV0001_1
  6
Continuous
100
AcDbTrace
 10
147.1414060995546
 20
-318.6414213583447
 30
0.0
 11
146.99998474121
 21
-318.2999999970198
 31
0.0
 12
146.99998474121
 22
-318.7000000029802
 32
0.0
 13
146.99998474121
 23
-318.7000000029802
 33
0.0
  0
SOLID
  5
342
330
33E
100
AcDbEntity
  8
PV0001_1
  6
Continuous
100
AcDbTrace
 10
146.8585633828654
 20
-318.3585786416553
 30
0.0
 11
146.99998474121
 21
-318.7000000029802
 31
0.0
 12
146.99998474121
 22
-318.2999999970198
 32
0.0
 13
146.99998474121
 23
-318.2999999970198
 33
0.0
  0
SOLID
  5
343
330
33E
100
AcDbEntity
  8
PV0001_1
  6
Continuous
100
AcDbTrace
 10
146.99998474121
 20
-318.7000000029802
 30
0.0
 11
146.8585633828654
 21
-318.3585786416553
 31
0.0
 12
146.8585633828654
 22
-318.6414213583447
 32
0.0
 13
146.8585633828654
 23
-318.6414213583447
 33
0.0
  0
SOLID
  5
344
330
33E
100
AcDbEntity
  8
PV0001_1
  6
Continuous
100
AcDbTrace
 10
146.7999847382298
 20
-318.5
 30
0.0
 11
146.8585633828654
 21
-318.6414213583447
 31
0.0
 12
146.8585633828654
 22
-318.3585786416553
 32
0.0
 13
146.8585633828654
 23
-318.3585786416553
 33
0.0
  0
ENDBLK
  5
346
330
33E
100
AcDbEntity
  8
0
100
AcDbBlockEnd
  0
BLOCK
  5
CEA
330
3E4
100
AcDbEntity
  8
0
100
AcDbBlockBegin
  2
GENAXEH
 70
     0
 10
0.0
 20
0.0
 30
0.0
  3
GENAXEH
  1

  0
LINE
  5
CEB
330
3E4
100
AcDbEntity
  8
0
100
AcDbLine
 10
-1.0
 20
0.0
 30
0.0
 11
1.0
 21
0.0
 31
0.0
  0
ENDBLK
  5
CEC
330
3E4
100
AcDbEntity
  8
0
100
AcDbBlockEnd
  0
ENDSEC
  0
SECTION
  2
ENTITIES
  0
DIMENSION
  5
76
330
18
100
AcDbEntity
  8
PV0001_1
100
AcDbDimension
  2
*D1
 10
654.0
 20
-172.10444641113
 30
0.0
 11
454.0
 21
-172.10444641113
 31
0.0
 70
   160
  1
L
 71
     5
 42
400.0
  3
STANDARD
100
AcDbAlignedDimension
 13
254.0
 23
-143.5
 33
0.0
 14
654.0
 24
-143.5
 34
0.0
100
AcDbRotatedDimension
1001
ACAD
1000
DSTYLE
1002
{
1070
   284
1070
     8
1070
   140
1040
3.2
1070
   271
1070
     0
1070
    45
1040
0.1
1070
   173
1070
     1
1070
     6
1000
OPEN
1070
     7
1000
OPEN
1002
}
  0
LINE
  5
C8
330
18
100
AcDbEntity
  8
PV0001_1
  6
Continuous
370
    50
100
AcDbLine
 10
0.0
 20
0.0
 30
0.0
 11
861.0
 21
0.0
 31
0.0
  0
LINE
  5
C9
330
18
100
AcDbEntity
  8
PV0001_1
  6
Continuous
370
    50
100
AcDbLine
 10
0.0
 20
0.0
 30
0.0
 11
0.0
 21
-436.0
 31
0.0
  0
LINE
  5
CA
330
18
100
AcDbEntity
  8
PV0001_1
  6
Continuous
 48
0.5
370
    50
100
AcDbLine
 10
3.0
 20
-8.399993896484399
 30
0.0
 11
4.6000061035156
 21
-8.399993896484399
 31
0.0
  0
LINE
  5
CB
330
18
100
AcDbEntity
  8
PV0001_1
  6
Continuous
 48
0.5
370
    50
100
AcDbLine
 10
3.0
 20
-3.6000061035156
 30
0.0
 11
3.0
 21
-8.399993896484399
 31
0.0
  0
LINE
  5
CC
330
18
100
AcDbEntity
  8
PV0001_1
  6
Continuous
 48
0.5
370
    50
100
AcDbLine
 10
3.0
 20
-3.6000061035156
 30
0.0
 11
4.6000061035156
 21
-3.6000061035156
 31
0.0
  0
LINE
  5
CD
330
18
100
AcDbEntity
  8
PV0001_1
  6
Continuous
 48
0.5
370
    50
100
AcDbLine
 10
4.6000061035156
 20
-3.6000061035156
 30
0.0
 11
4.6000061035156
 21
-5.199996948242199
 31
0.0
  0
LINE
  5
CE
330
18
100
AcDbEntity
  8
PV0001_1
  6
Continuous
 48
0.5
370
    50
100
AcDbLine
 10
9.6000061035156
 20
-3.6000061035156
 30
0.0
 11
9.6000061035156
 21
-7.199996948242199
 31
0.0
  0
LINE
  5
CF
330
18
100
AcDbEntity
  8
PV0001_1
  6
Continuous
 48
0.5
370
    50
100
AcDbLine
 10
10.800003051757
 20
-8.399993896484399
 30
0.0
 11
14.600006103515
 21
-8.399993896484399
 31
0.0
  0
LINE
  5
D0
330
18
100
AcDbEntity
  8
PV0001_1
  6
Continuous
 48
0.5
370
    50
100
AcDbLine
 10
9.6000061035156
 20
-3.6000061035156
 30
0.0
 11
11.0
 21
-3.6000061035156
 31
0.0
  0
LINE
  5
D1
330
18
100
AcDbEntity
  8
PV0001_1
  6
Continuous
 48
0.5
370
    50
100
AcDbLine
 10
4.8000030517578
 20
-6.0
 30
0.0
 11
5.699996948242199
 21
-6.0
 31
0.0
  0
LINE
  5
D2
330
18
100
AcDbEntity
  8
PV0001_1
  6
Continuous
 48
0.5
370
    50
100
AcDbLine
 10
4.8000030517578
 20
-5.399993896484399
 30
0.0
 11
5.7021789550781
 21
-5.399993896484399
 31
0.0
  0
LINE
  5
D3
330
18
100
AcDbEntity
  8
PV0001_1
  6
Continuous
 48
0.5
370
    50
100
AcDbLine
 10
5.8599557876587
 20
-6.080016613006599
 30
0.0
 11
7.5999612808228
 21
-8.400023460388199
 31
0.0
  0
LINE
  5
D4
330
18
100
AcDbEntity
  8
PV0001_1
  6
Continuous
 48
0.5
370
    50
100
AcDbLine
 10
7.320546627044699
 20
-5.7405757904053
 30
0.0
 11
9.600024223327599
 21
-8.399967193603499
 31
0.0
  0
LINE
  5
D5
330
18
100
AcDbEntity
  8
PV0001_1
  6
Continuous
 48
0.5
370
    50
100
AcDbLine
 10
5.8600549697876
 20
-5.3227796554565
 30
0.0
 11
7.1999959945679
 21
-3.599998474121099
 31
0.0
  0
LINE
  5
D6
330
18
100
AcDbEntity
  8
PV0001_1
  6
Continuous
 48
0.5
370
    50
100
AcDbLine
 10
7.330977916717499
 20
-5.469062805175799
 30
0.0
 11
9.2000274658203
 21
-3.600013971328699
 31
0.0
  0
LINE
  5
D7
330
18
100
AcDbEntity
  8
PV0001_1
  6
Continuous
 48
0.5
370
    50
100
AcDbLine
 10
7.6000061035156
 20
-8.399993896484399
 30
0.0
 11
9.6000061035156
 21
-8.399993896484399
 31
0.0
  0
LINE
  5
D8
330
18
100
AcDbEntity
  8
PV0001_1
  6
Continuous
 48
0.5
370
    50
100
AcDbLine
 10
7.199996948242199
 20
-3.6000061035156
 30
0.0
 11
9.199996948242199
 21
-3.6000061035156
 31
0.0
  0
LINE
  5
D9
330
18
100
AcDbEntity
  8
PV0001_1
  6
Continuous
 48
0.5
370
    50
100
AcDbLine
 10
4.6000061035156
 20
-6.199996948242199
 30
0.0
 11
4.6000061035156
 21
-8.399993896484399
 31
0.0
  0
LINE
  5
DA
330
18
100
AcDbEntity
  8
PV0001_1
  6
Continuous
 48
0.5
370
    50
100
AcDbLine
 10
15.800003051757
 20
-3.599990844726599
 30
0.0
 11
15.800003051757
 21
-7.199996948242199
 31
0.0
  0
LINE
  5
DB
330
18
100
AcDbEntity
  8
PV0001_1
  6
Continuous
 48
0.5
370
    50
100
AcDbLine
 10
11.0
 20
-3.6000061035156
 30
0.0
 11
11.0
 21
-7.0
 31
0.0
  0
LINE
  5
DC
330
18
100
AcDbEntity
  8
PV0001_1
  6
Continuous
 48
0.5
370
    50
100
AcDbLine
 10
14.399993896484
 20
-3.599990844726599
 30
0.0
 11
14.399993896484
 21
-7.0
 31
0.0
  0
LINE
  5
DD
330
18
100
AcDbEntity
  8
PV0001_1
  6
Continuous
 48
0.5
370
    50
100
AcDbLine
 10
11.600006103515
 20
-7.6000061035156
 30
0.0
 11
13.800003051757
 21
-7.6000061035156
 31
0.0
  0
LINE
  5
DE
330
18
100
AcDbEntity
  8
PV0001_1
  6
Continuous
 48
0.5
370
    50
100
AcDbLine
 10
14.399993896484
 20
-3.6000061035156
 30
0.0
 11
15.800003051757
 21
-3.6000061035156
 31
0.0
  0
LINE
  5
DF
330
18
100
AcDbEntity
  8
PV0001_1
  6
Continuous
 48
0.5
370
    50
100
AcDbLine
 10
16.300003051757
 20
-3.6000061035156
 30
0.0
 11
21.0
 21
-3.6000061035156
 31
0.0
  0
LINE
  5
E0
330
18
100
AcDbEntity
  8
PV0001_1
  6
Continuous
 48
0.5
370
    50
100
AcDbLine
 10
16.300003051757
 20
-8.399993896484399
 30
0.0
 11
17.899993896484
 21
-8.399993896484399
 31
0.0
  0
LINE
  5
E1
330
18
100
AcDbEntity
  8
PV0001_1
  6
Continuous
 48
0.5
370
    50
100
AcDbLine
 10
16.300003051757
 20
-3.599990844726599
 30
0.0
 11
16.300003051757
 21
-8.399993896484399
 31
0.0
  0
LINE
  5
E2
330
18
100
AcDbEntity
  8
PV0001_1
  6
Continuous
 48
0.5
370
    50
100
AcDbLine
 10
20.800003051757
 20
-4.799987792968799
 30
0.0
 11
20.800003051757
 21
-5.5
 31
0.0
  0
LINE
  5
E3
330
18
100
AcDbEntity
  8
PV0001_1
  6
Continuous
 48
0.5
370
    50
100
AcDbLine
 10
17.899993896484
 20
-4.399993896484399
 30
0.0
 11
17.899993896484
 21
-5.899993896484399
 31
0.0
  0
LINE
  5
E4
330
18
100
AcDbEntity
  8
PV0001_1
  6
Continuous
 48
0.5
370
    50
100
AcDbLine
 10
18.300003051757
 20
-6.8000030517578
 30
0.0
 11
20.199996948242
 21
-6.8000030517578
 31
0.0
  0
LINE
  5
E5
330
18
100
AcDbEntity
  8
PV0001_1
  6
Continuous
 48
0.5
370
    50
100
AcDbLine
 10
18.100006103515
 20
-4.199996948242199
 30
0.0
 11
20.199996948242
 21
-4.199996948242199
 31
0.0
  0
LINE
  5
E6
330
18
100
AcDbEntity
  8
PV0001_1
  6
Continuous
 48
0.5
370
    50
100
AcDbLine
 10
18.100006103515
 20
-6.1000061035156
 30
0.0
 11
20.199996948242
 21
-6.1000061035156
 31
0.0
  0
LINE
  5
E7
330
18
100
AcDbEntity
  8
PV0001_1
  6
Continuous
 48
0.5
370
    50
100
AcDbLine
 10
20.800003051757
 20
-8.399993896484399
 30
0.0
 11
22.5
 21
-8.399993896484399
 31
0.0
  0
LINE
  5
E8
330
18
100
AcDbEntity
  8
PV0001_1
  6
Continuous
 48
0.5
370
    50
100
AcDbLine
 10
17.899993896484
 20
-7.199996948242199
 30
0.0
 11
17.899993896484
 21
-8.399993896484399
 31
0.0
  0
LINE
  5
E9
330
18
100
AcDbEntity
  8
PV0001_1
  6
Continuous
 48
0.5
370
    50
100
AcDbLine
 10
24.199996948242
 20
-8.399993896484399
 30
0.0
 11
28.0
 21
-8.399993896484399
 31
0.0
  0
LINE
  5
EA
330
18
100
AcDbEntity
  8
PV0001_1
  6
Continuous
 48
0.5
370
    50
100
AcDbLine
 10
25.199996948242
 20
-4.199996948242199
 30
0.0
 11
27.0
 21
-4.199996948242199
 31
0.0
  0
LINE
  5
EB
330
18
100
AcDbEntity
  8
PV0001_1
  6
Continuous
 48
0.5
370
    50
100
AcDbLine
 10
24.199996948242
 20
-3.6000061035156
 30
0.0
 11
28.0
 21
-3.6000061035156
 31
0.0
  0
LINE
  5
EC
330
18
100
AcDbEntity
  8
PV0001_1
  6
Continuous
 48
0.5
370
    50
100
AcDbLine
 10
20.800003051757
 20
-7.399993896484399
 30
0.0
 11
20.800003051757
 21
-8.399993896484399
 31
0.0
  0
LINE
  5
ED
330
18
100
AcDbEntity
  8
PV0001_1
  6
Continuous
 48
0.5
370
    50
100
AcDbLine
 10
22.800003051757
 20
-5.0
 30
0.0
 11
22.800003051757
 21
-7.0
 31
0.0
  0
LINE
  5
EE
330
18
100
AcDbEntity
  8
PV0001_1
  6
Continuous
 48
0.5
370
    50
100
AcDbLine
 10
29.399993896484
 20
-5.0
 30
0.0
 11
29.399993896484
 21
-7.0
 31
0.0
  0
LINE
  5
EF
330
18
100
AcDbEntity
  8
PV0001_1
  6
Continuous
 48
0.5
370
    50
100
AcDbLine
 10
29.793655395507
 20
-8.399993896484399
 30
0.0
 11
34.800003051757
 21
-8.399993896484399
 31
0.0
  0
LINE
  5
F0
330
18
100
AcDbEntity
  8
PV0001_1
  6
Continuous
 48
0.5
370
    50
100
AcDbLine
 10
31.600006103515
 20
-4.199996948242199
 30
0.0
 11
33.80000305175701
 21
-4.199996948242199
 31
0.0
  0
LINE
  5
F1
330
18
100
AcDbEntity
  8
PV0001_1
  6
Continuous
 48
0.5
370
    50
100
AcDbLine
 10
29.800003051757
 20
-3.6000061035156
 30
0.0
 11
34.800003051757
 21
-3.6000061035156
 31
0.0
  0
LINE
  5
F2
330
18
100
AcDbEntity
  8
PV0001_1
  6
Continuous
 48
0.5
370
    50
100
AcDbLine
 10
25.199996948242
 20
-7.6000061035156
 30
0.0
 11
27.0
 21
-7.6000061035156
 31
0.0
  0
LINE
  5
F3
330
18
100
AcDbEntity
  8
PV0001_1
  6
Continuous
 48
0.5
370
    50
100
AcDbLine
 10
24.399993896484
 20
-5.0
 30
0.0
 11
24.399993896484
 21
-6.799987792968799
 31
0.0
  0
LINE
  5
F4
330
18
100
AcDbEntity
  8
PV0001_1
  6
Continuous
 48
0.5
370
    50
100
AcDbLine
 10
27.800003051757
 20
-5.0
 30
0.0
 11
27.800003051757
 21
-6.799987792968799
 31
0.0
  0
LINE
  5
F5
330
18
100
AcDbEntity
  8
PV0001_1
  6
Continuous
 48
0.5
370
    50
100
AcDbLine
 10
36.199996948242
 20
-4.9999847412109
 30
0.0
 11
36.199996948242
 21
-6.9999847412109
 31
0.0
  0
LINE
  5
F6
330
18
100
AcDbEntity
  8
PV0001_1
  6
Continuous
 48
0.5
370
    50
100
AcDbLine
 10
29.800003051757
 20
-3.599990844726599
 30
0.0
 11
29.800003051757
 21
-8.399993896484399
 31
0.0
  0
LINE
  5
F7
330
18
100
AcDbEntity
  8
PV0001_1
  6
Continuous
 48
0.5
370
    50
100
AcDbLine
 10
31.399993896484
 20
-4.399993896484399
 30
0.0
 11
31.399993896484
 21
-7.399993896484399
 31
0.0
  0
LINE
  5
F8
330
18
100
AcDbEntity
  8
PV0001_1
  6
Continuous
 48
0.5
370
    50
100
AcDbLine
 10
34.600006103515
 20
-4.9999847412109
 30
0.0
 11
34.600006103515
 21
-6.799987792968799
 31
0.0
  0
LINE
  5
F9
330
18
100
AcDbEntity
  8
PV0001_1
  6
Continuous
 48
0.5
370
    50
100
AcDbLine
 10
31.600006103515
 20
-7.6000061035156
 30
0.0
 11
33.80000305175701
 21
-7.6000061035156
 31
0.0
  0
LINE
  5
FA
330
18
100
AcDbEntity
  8
PV0001_1
  6
Continuous
 48
0.5
370
    50
100
AcDbLine
 10
36.199996948242
 20
-8.399993896484399
 30
0.0
 11
37.800003051757
 21
-8.399993896484399
 31
0.0
  0
LINE
  5
FB
330
18
100
AcDbEntity
  8
PV0001_1
  6
Continuous
 48
0.5
370
    50
100
AcDbLine
 10
39.344146728515
 20
-4.199996948242199
 30
0.0
 11
40.25585937499999
 21
-4.199996948242199
 31
0.0
  0
LINE
  5
FC
330
18
100
AcDbEntity
  8
PV0001_1
  6
Continuous
 48
0.5
370
    50
100
AcDbLine
 10
38.199996948242
 20
-3.6000061035156
 30
0.0
 11
41.399993896484
 21
-3.6000061035156
 31
0.0
  0
LINE
  5
FD
330
18
100
AcDbEntity
  8
PV0001_1
  6
Continuous
 48
0.5
370
    50
100
AcDbLine
 10
38.27749633789
 20
-7.399993896484399
 30
0.0
 11
41.322509765625
 21
-7.399993896484399
 31
0.0
  0
LINE
  5
FE
330
18
100
AcDbEntity
  8
PV0001_1
  6
Continuous
 48
0.5
370
    50
100
AcDbLine
 10
38.677490234375
 20
-6.6000061035156
 30
0.0
 11
39.671600341796
 21
-6.6000061035156
 31
0.0
  0
LINE
  5
FF
330
18
100
AcDbEntity
  8
PV0001_1
  6
Continuous
 48
0.5
370
    50
100
AcDbLine
 10
37.800079345703
 20
-8.4000158309937
 30
0.0
 11
38.087825775146
 21
-7.536767959594699
 31
0.0
  0
LINE
  5
100
330
18
100
AcDbEntity
  8
PV0001_1
  6
Continuous
 48
0.5
370
    50
100
AcDbLine
 10
40.445644378662
 20
-4.336717605590799
 30
0.0
 11
41.112312316894
 21
-6.3367171287537
 31
0.0
  0
LINE
  5
101
330
18
100
AcDbEntity
  8
PV0001_1
  6
Continuous
 48
0.5
370
    50
100
AcDbLine
 10
38.199989318847
 20
-3.599988698959399
 30
0.0
 11
36.199989318847
 21
-8.399992942810099
 31
0.0
  0
LINE
  5
102
330
18
100
AcDbEntity
  8
PV0001_1
  6
Continuous
 48
0.5
370
    50
100
AcDbLine
 10
41.399993896484
 20
-3.600009202957199
 30
0.0
 11
43.399993896484
 21
-8.4000062942505
 31
0.0
  0
LINE
  5
103
330
18
100
AcDbEntity
  8
PV0001_1
  6
Continuous
 48
0.5
370
    50
100
AcDbLine
 10
38.487827301025
 20
-6.336763858795199
 30
0.0
 11
39.15449142456
 21
-4.336771965026899
 31
0.0
  0
LINE
  5
104
330
18
100
AcDbEntity
  8
PV0001_1
  6
Continuous
 48
0.5
370
    50
100
AcDbLine
 10
41.51231765747
 20
-7.5367283821106
 30
0.0
 11
41.800060272216
 21
-8.399961471557599
 31
0.0
  0
LINE
  5
105
330
18
100
AcDbEntity
  8
PV0001_1
  6
Continuous
 48
0.5
370
    50
100
AcDbLine
 10
41.800003051757
 20
-8.399993896484399
 30
0.0
 11
43.399993896484
 21
-8.399993896484399
 31
0.0
  0
LINE
  5
106
330
18
100
AcDbEntity
  8
PV0001_1
  6
Continuous
 48
0.5
370
    50
100
AcDbLine
 10
39.671600341796
 20
-6.6000061035156
 30
0.0
 11
40.92251586914
 21
-6.6000061035156
 31
0.0
  0
LINE
  5
107
330
18
100
AcDbEntity
  8
PV0001_1
  6
Continuous
 48
0.5
370
    50
100
AcDbLine
 10
46.399993896484
 20
0.0
 30
0.0
 11
46.399993896484
 21
-12.0
 31
0.0
  0
LINE
  5
108
330
18
100
AcDbEntity
  8
PV0001_1
  6
Continuous
370
    50
100
AcDbLine
 10
0.0
 20
-12.0
 30
0.0
 11
289.30798339843
 21
-12.0
 31
0.0
  0
LINE
  5
109
330
18
100
AcDbEntity
  8
PV0001_1
  6
Continuous
 48
0.5
370
    50
100
AcDbLine
 10
108.39999389648
 20
0.0
 30
0.0
 11
108.39999389648
 21
-12.0
 31
0.0
  0
LINE
  5
10A
330
18
100
AcDbEntity
  8
PV0001_1
  6
Continuous
 48
0.5
370
    50
100
AcDbLine
 10
289.30798339843
 20
0.0
 30
0.0
 11
289.30798339843
 21
-12.0
 31
0.0
  0
LINE
  5
10B
330
18
100
AcDbEntity
  8
PV0001_1
  6
CENTER2
 48
0.5
370
    25
100
AcDbLine
 10
262.46533203125
 20
-6.0
 30
0.0
 11
270.05261230468
 21
-6.0
 31
0.0
  0
LINE
  5
10C
330
18
100
AcDbEntity
  8
PV0001_1
  6
CENTER2
 48
0.5
370
    25
100
AcDbLine
 10
266.30798339843
 20
-2.055191040039099
 30
0.0
 11
266.30798339843
 21
-9.732879638671899
 31
0.0
  0
LINE
  5
10D
330
18
100
AcDbEntity
  8
PV0001_1
  6
CENTER2
 48
0.5
370
    25
100
AcDbLine
 10
274.3935546875
 20
-6.0
 30
0.0
 11
282.82943725585
 21
-6.0
 31
0.0
  0
LINE
  5
10E
330
18
100
AcDbEntity
  8
PV0001_1
  6
Continuous
 48
0.5
370
   100
100
AcDbLine
 10
275.23599243164
 20
-4.380343914032
 30
0.0
 11
281.71600341796
 21
-3.300341606140099
 31
0.0
  0
LINE
  5
10F
330
18
100
AcDbEntity
  8
PV0001_1
  6
Continuous
 48
0.5
370
   100
100
AcDbLine
 10
275.23596191406
 20
-4.3800048828125
 30
0.0
 11
275.23596191406
 21
-7.620040893554699
 31
0.0
  0
LINE
  5
110
330
18
100
AcDbEntity
  8
PV0001_1
  6
Continuous
 48
0.5
370
   100
100
AcDbLine
 10
275.23599243164
 20
-7.620386123657199
 30
0.0
 11
281.71597290039
 21
-8.7003831863403
 31
0.0
  0
LINE
  5
111
330
18
100
AcDbEntity
  8
PV0001_1
  6
Continuous
 48
0.5
370
   100
100
AcDbLine
 10
281.71597290039
 20
-3.3000030517578
 30
0.0
 11
281.71597290039
 21
-8.699996948242199
 31
0.0
  0
LINE
  5
112
330
18
100
AcDbEntity
  8
PV0001_1
  6
Continuous
 48
0.5
370
    50
100
AcDbLine
 10
259.30798339843
 20
0.0
 30
0.0
 11
259.30798339843
 21
-12.0
 31
0.0
  0
LINE
  5
113
330
18
100
AcDbEntity
  8
PV0001_1
  6
Continuous
 48
0.5
370
    50
100
AcDbLine
 10
232.39999389648
 20
0.0
 30
0.0
 11
232.39999389648
 21
-12.0
 31
0.0
  0
LINE
  5
114
330
18
100
AcDbEntity
  8
PV0001_1
  6
Continuous
370
    50
100
AcDbLine
 10
108.39999389648
 20
-24.0
 30
0.0
 11
259.30798339843
 21
-24.0
 31
0.0
  0
LINE
  5
115
330
18
100
AcDbEntity
  8
PV0001_1
  6
Continuous
 48
0.5
370
    50
100
AcDbLine
 10
232.39999389648
 20
-12.0
 30
0.0
 11
232.39999389648
 21
-24.0
 31
0.0
  0
LINE
  5
116
330
18
100
AcDbEntity
  8
PV0001_1
  6
Continuous
 48
0.5
370
    50
100
AcDbLine
 10
108.39999389648
 20
-12.0
 30
0.0
 11
108.39999389648
 21
-24.0
 31
0.0
  0
LINE
  5
117
330
18
100
AcDbEntity
  8
PV0001_1
  6
Continuous
 48
0.5
370
    50
100
AcDbLine
 10
259.30798339843
 20
-12.0
 30
0.0
 11
259.30798339843
 21
-24.0
 31
0.0
  0
LINE
  5
118
330
18
100
AcDbEntity
  8
PV0001_1
  6
Continuous
 48
0.5
370
    50
100
AcDbLine
 10
179.5
 20
-206.0
 30
0.0
 11
173.49998474121
 21
-206.0
 31
0.0
  0
LINE
  5
119
330
18
100
AcDbEntity
  8
PV0001_1
  6
Continuous
 48
0.5
370
    50
100
AcDbLine
 10
179.5
 20
-231.0
 30
0.0
 11
173.49998474121
 21
-231.0
 31
0.0
  0
LINE
  5
11A
330
18
100
AcDbEntity
  8
PV0001_1
  6
Continuous
 48
0.5
370
    50
100
AcDbLine
 10
173.49996948242
 20
-206.0
 30
0.0
 11
173.49996948242
 21
-192.49998474121
 31
0.0
  0
LINE
  5
11B
330
18
100
AcDbEntity
  8
PV0001_1
  6
Continuous
370
    50
100
AcDbLine
 10
147.49996948242
 20
-244.5
 30
0.0
 11
147.49996948242
 21
-192.49998474121
 31
0.0
  0
LINE
  5
11C
330
18
100
AcDbEntity
  8
PV0001_1
  6
Continuous
 48
0.5
370
    50
100
AcDbLine
 10
179.49998474121
 20
-231.0
 30
0.0
 11
179.49998474121
 21
-206.0
 31
0.0
  0
LINE
  5
11D
330
18
100
AcDbEntity
  8
PV0001_1
  6
Continuous
 48
0.5
370
    50
100
AcDbLine
 10
173.49996948242
 20
-244.5
 30
0.0
 11
173.49996948242
 21
-231.0
 31
0.0
  0
LINE
  5
11E
330
18
100
AcDbEntity
  8
PV0001_1
  6
Continuous
 48
0.5
370
    50
100
AcDbLine
 10
173.49998474121
 20
-192.5
 30
0.0
 11
147.49998474121
 21
-192.5
 31
0.0
  0
LINE
  5
11F
330
18
100
AcDbEntity
  8
PV0001_1
  6
Continuous
 48
0.5
370
    50
100
AcDbLine
 10
173.49998474121
 20
-244.5
 30
0.0
 11
147.49998474121
 21
-244.5
 31
0.0
  0
LINE
  5
120
330
18
100
AcDbEntity
  8
PV0001_1
  6
CENTER2
370
    25
100
AcDbLine
 10
175.97064208984
 20
-237.49998474121
 30
0.0
 11
145.18267822265
 21
-237.49998474121
 31
0.0
  0
LINE
  5
121
330
18
100
AcDbEntity
  8
PV0001_1
  6
DASHED2
 48
0.5
370
    50
100
AcDbLine
 10
173.49998474121
 20
-232.0
 30
0.0
 11
161.50001525878
 21
-232.0
 31
0.0
  0
LINE
  5
122
330
18
100
AcDbEntity
  8
PV0001_1
  6
DASHED2
 48
0.5
370
    50
100
AcDbLine
 10
161.50001525878
 20
-234.19999694824
 30
0.0
 11
147.49998474121
 21
-234.19999694824
 31
0.0
  0
LINE
  5
123
330
18
100
AcDbEntity
  8
PV0001_1
  6
DASHED2
 48
0.5
370
    50
100
AcDbLine
 10
173.49998474121
 20
-243.0
 30
0.0
 11
161.50001525878
 21
-243.0
 31
0.0
  0
LINE
  5
124
330
18
100
AcDbEntity
  8
PV0001_1
  6
DASHED2
 48
0.5
370
    50
100
AcDbLine
 10
161.50001525878
 20
-240.80000305175
 30
0.0
 11
147.49998474121
 21
-240.80000305175
 31
0.0
  0
LINE
  5
125
330
18
100
AcDbEntity
  8
PV0001_1
  6
DASHED2
 48
0.5
370
    50
100
AcDbLine
 10
161.5
 20
-242.99998474121
 30
0.0
 11
161.5
 21
-232.0
 31
0.0
  0
LINE
  5
126
330
18
100
AcDbEntity
  8
PV0001_1
  6
DASHED2
 48
0.5
370
    50
100
AcDbLine
 10
173.49998474121
 20
-194.0
 30
0.0
 11
161.50001525878
 21
-194.0
 31
0.0
  0
LINE
  5
127
330
18
100
AcDbEntity
  8
PV0001_1
  6
DASHED2
 48
0.5
370
    50
100
AcDbLine
 10
161.5
 20
-194.0
 30
0.0
 11
161.5
 21
-204.99998474121
 31
0.0
  0
LINE
  5
128
330
18
100
AcDbEntity
  8
PV0001_1
  6
DASHED2
 48
0.5
370
    50
100
AcDbLine
 10
161.50001525878
 20
-196.19999694824
 30
0.0
 11
147.49998474121
 21
-196.19999694824
 31
0.0
  0
LINE
  5
129
330
18
100
AcDbEntity
  8
PV0001_1
  6
CENTER2
370
    25
100
AcDbLine
 10
175.97064208984
 20
-199.50001525878
 30
0.0
 11
145.18267822265
 21
-199.50001525878
 31
0.0
  0
LINE
  5
12A
330
18
100
AcDbEntity
  8
PV0001_1
  6
DASHED2
 48
0.5
370
    50
100
AcDbLine
 10
161.50001525878
 20
-202.80000305175
 30
0.0
 11
147.49998474121
 21
-202.80000305175
 31
0.0
  0
LINE
  5
12B
330
18
100
AcDbEntity
  8
PV0001_1
  6
DASHED2
 48
0.5
370
    50
100
AcDbLine
 10
173.49998474121
 20
-205.0
 30
0.0
 11
161.50001525878
 21
-205.0
 31
0.0
  0
LINE
  5
12C
330
18
100
AcDbEntity
  8
PV0001_1
  6
CENTER2
 48
0.5
370
    25
100
AcDbLine
 10
168.49996948242
 20
-241.5
 30
0.0
 11
168.49996948242
 21
-233.5
 31
0.0
  0
LINE
  5
12D
330
18
100
AcDbEntity
  8
PV0001_1
  6
CENTER2
 48
0.5
370
    25
100
AcDbLine
 10
154.49998474121
 20
-241.5
 30
0.0
 11
154.49998474121
 21
-233.5
 31
0.0
  0
LINE
  5
12E
330
18
100
AcDbEntity
  8
PV0001_1
  6
CENTER2
 48
0.5
370
    25
100
AcDbLine
 10
168.49996948242
 20
-195.49998474121
 30
0.0
 11
168.49996948242
 21
-203.5
 31
0.0
  0
LINE
  5
12F
330
18
100
AcDbEntity
  8
PV0001_1
  6
CENTER2
 48
0.5
370
    25
100
AcDbLine
 10
154.49998474121
 20
-195.49998474121
 30
0.0
 11
154.49998474121
 21
-203.5
 31
0.0
  0
LINE
  5
130
330
18
100
AcDbEntity
  8
PV0001_1
  6
Continuous
 48
0.5
370
    50
100
AcDbLine
 10
169.32182312011
 20
-211.5
 30
0.0
 11
159.67817687988
 21
-211.5
 31
0.0
  0
LINE
  5
131
330
18
100
AcDbEntity
  8
PV0001_1
  6
Continuous
 48
0.5
370
    50
100
AcDbLine
 10
169.32182312011
 20
-225.5
 30
0.0
 11
159.67817687988
 21
-225.5
 31
0.0
  0
LINE
  5
132
330
18
100
AcDbEntity
  8
PV0001_1
  6
Continuous
 48
0.5
370
    50
100
AcDbLine
 10
171.5
 20
-223.32182312011
 30
0.0
 11
171.5
 21
-213.67816162109
 31
0.0
  0
LINE
  5
133
330
18
100
AcDbEntity
  8
PV0001_1
  6
Continuous
 48
0.5
370
    50
100
AcDbLine
 10
157.49996948242
 20
-223.32182312011
 30
0.0
 11
157.49996948242
 21
-213.67816162109
 31
0.0
  0
LINE
  5
134
330
18
100
AcDbEntity
  8
PV0001_1
  6
CENTER2
370
    25
100
AcDbLine
 10
164.49998474121
 20
-247.49998474121
 30
0.0
 11
164.49998474121
 21
-189.5
 31
0.0
  0
LINE
  5
135
330
18
100
AcDbEntity
  8
PV0001_1
  6
CENTER2
370
    25
100
AcDbLine
 10
181.34753417968
 20
-218.5
 30
0.0
 11
145.99868774414
 21
-218.5
 31
0.0
  0
LINE
  5
136
330
18
100
AcDbEntity
  8
PV0001_1
  6
Continuous
370
    50
100
AcDbLine
 10
295.0
 20
-244.5
 30
0.0
 11
295.0
 21
-192.49998474121
 31
0.0
  0
LINE
  5
137
330
18
100
AcDbEntity
  8
PV0001_1
  6
Continuous
370
    50
100
AcDbLine
 10
272.0
 20
-244.5
 30
0.0
 11
272.0
 21
-192.49998474121
 31
0.0
  0
LINE
  5
138
330
18
100
AcDbEntity
  8
PV0001_1
  6
Continuous
 48
0.5
370
    50
100
AcDbLine
 10
265.0
 20
-225.49998474121
 30
0.0
 11
265.0
 21
-211.5
 31
0.0
  0
LINE
  5
139
330
18
100
AcDbEntity
  8
PV0001_1
  6
Continuous
 48
0.5
370
    50
100
AcDbLine
 10
295.0
 20
-192.5
 30
0.0
 11
272.00003051757
 21
-192.5
 31
0.0
  0
LINE
  5
13A
330
18
100
AcDbEntity
  8
PV0001_1
  6
Continuous
 48
0.5
370
    50
100
AcDbLine
 10
295.0
 20
-244.5
 30
0.0
 11
272.00003051757
 21
-244.5
 31
0.0
  0
LINE
  5
13B
330
18
100
AcDbEntity
  8
PV0001_1
  6
Continuous
 48
0.5
370
    50
100
AcDbLine
 10
295.0
 20
-231.0
 30
0.0
 11
272.00003051757
 21
-231.0
 31
0.0
  0
LINE
  5
13C
330
18
100
AcDbEntity
  8
PV0001_1
  6
Continuous
 48
0.5
370
    50
100
AcDbLine
 10
295.0
 20
-206.0
 30
0.0
 11
272.00003051757
 21
-206.0
 31
0.0
  0
LINE
  5
13D
330
18
100
AcDbEntity
  8
PV0001_1
  6
CENTER2
 48
0.5
370
    25
100
AcDbLine
 10
276.0
 20
-237.49998474121
 30
0.0
 11
291.0
 21
-237.49998474121
 31
0.0
  0
LINE
  5
13E
330
18
100
AcDbEntity
  8
PV0001_1
  6
CENTER2
 48
0.5
370
    25
100
AcDbLine
 10
283.5
 20
-244.99998474121
 30
0.0
 11
283.5
 21
-229.99998474121
 31
0.0
  0
LINE
  5
13F
330
18
100
AcDbEntity
  8
PV0001_1
  6
CENTER2
 48
0.5
370
    25
100
AcDbLine
 10
283.5
 20
-192.0
 30
0.0
 11
283.5
 21
-207.0
 31
0.0
  0
LINE
  5
140
330
18
100
AcDbEntity
  8
PV0001_1
  6
CENTER2
 48
0.5
370
    25
100
AcDbLine
 10
276.0
 20
-199.50001525878
 30
0.0
 11
291.0
 21
-199.50001525878
 31
0.0
  0
LINE
  5
141
330
18
100
AcDbEntity
  8
PV0001_1
  6
Continuous
 48
0.5
370
    50
100
AcDbLine
 10
271.49996948242
 20
-224.5
 30
0.0
 11
271.49996948242
 21
-212.49998474121
 31
0.0
  0
LINE
  5
142
330
18
100
AcDbEntity
  8
PV0001_1
  6
Continuous
 48
0.5
370
    50
100
AcDbLine
 10
271.0
 20
-211.5
 30
0.0
 11
265.0
 21
-211.5
 31
0.0
  0
LINE
  5
143
330
18
100
AcDbEntity
  8
PV0001_1
  6
Continuous
 48
0.5
370
    50
100
AcDbLine
 10
271.0
 20
-225.5
 30
0.0
 11
265.0
 21
-225.5
 31
0.0
  0
LINE
  5
144
330
18
100
AcDbEntity
  8
PV0001_1
  6
Continuous
 48
0.5
370
    50
100
AcDbLine
 10
272.00003051757
 20
-212.5
 30
0.0
 11
271.0
 21
-212.5
 31
0.0
  0
LINE
  5
145
330
18
100
AcDbEntity
  8
PV0001_1
  6
Continuous
 48
0.5
370
    50
100
AcDbLine
 10
272.00003051757
 20
-224.5
 30
0.0
 11
271.0
 21
-224.5
 31
0.0
  0
LINE
  5
146
330
18
100
AcDbEntity
  8
PV0001_1
  6
Continuous
 48
0.5
370
    50
100
AcDbLine
 10
271.0
 20
-225.49998474121
 30
0.0
 11
271.0
 21
-211.5
 31
0.0
  0
LINE
  5
147
330
18
100
AcDbEntity
  8
PV0001_1
  6
DASHED2
 48
0.5
370
    50
100
AcDbLine
 10
650.99993896484
 20
-215.64999389648
 30
0.0
 11
651.7999267578099
 21
-215.64999389648
 31
0.0
  0
LINE
  5
148
330
18
100
AcDbEntity
  8
PV0001_1
  6
DASHED2
 48
0.5
370
    50
100
AcDbLine
 10
650.99993896484
 20
-221.35000610351
 30
0.0
 11
651.7999267578099
 21
-221.35000610351
 31
0.0
  0
LINE
  5
149
330
18
100
AcDbEntity
  8
PV0001_1
  6
DASHED2
 48
0.5
370
    50
100
AcDbLine
 10
651.0
 20
-227.00001525878
 30
0.0
 11
645.0
 21
-227.00001525878
 31
0.0
  0
LINE
  5
14A
330
18
100
AcDbEntity
  8
PV0001_1
  6
DASHED2
 48
0.5
370
    50
100
AcDbLine
 10
651.0
 20
-210.0
 30
0.0
 11
645.0
 21
-210.0
 31
0.0
  0
LINE
  5
14B
330
18
100
AcDbEntity
  8
PV0001_1
  6
DASHED2
 48
0.5
370
    50
100
AcDbLine
 10
651.0
 20
-221.5
 30
0.0
 11
645.0
 21
-221.5
 31
0.0
  0
LINE
  5
14C
330
18
100
AcDbEntity
  8
PV0001_1
  6
DASHED2
 48
0.5
370
    50
100
AcDbLine
 10
651.0
 20
-215.5
 30
0.0
 11
645.0
 21
-215.5
 31
0.0
  0
LINE
  5
14D
330
18
100
AcDbEntity
  8
PV0001_1
  6
DASHED2
 48
0.5
370
    50
100
AcDbLine
 10
651.0
 20
-227.00001525878
 30
0.0
 11
651.0
 21
-210.0
 31
0.0
  0
LINE
  5
14E
330
18
100
AcDbEntity
  8
PV0001_1
  6
DASHED2
 48
0.5
370
    50
100
AcDbLine
 10
645.0
 20
-227.00001525878
 30
0.0
 11
645.0
 21
-210.0
 31
0.0
  0
LINE
  5
14F
330
18
100
AcDbEntity
  8
PV0001_1
  6
DASHED2
 48
0.5
370
    50
100
AcDbLine
 10
651.7999267578099
 20
-224.50001525878
 30
0.0
 11
651.0
 21
-224.50001525878
 31
0.0
  0
LINE
  5
150
330
18
100
AcDbEntity
  8
PV0001_1
  6
DASHED2
 48
0.5
370
    50
100
AcDbLine
 10
651.7999267578099
 20
-212.5
 30
0.0
 11
651.0
 21
-212.5
 31
0.0
  0
LINE
  5
151
330
18
100
AcDbEntity
  8
PV0001_1
  6
DASHED2
 48
0.5
370
    50
100
AcDbLine
 10
651.7999877929599
 20
-224.50001525878
 30
0.0
 11
651.7999877929599
 21
-212.49998474121
 31
0.0
  0
LINE
  5
152
330
18
100
AcDbEntity
  8
PV0001_1
  6
Continuous
370
    50
100
AcDbLine
 10
640.5
 20
-244.50001525878
 30
0.0
 11
640.5
 21
-192.5
 31
0.0
  0
LINE
  5
153
330
18
100
AcDbEntity
  8
PV0001_1
  6
Continuous
 48
0.5
370
    50
100
AcDbLine
 10
655.4999999999999
 20
-192.5
 30
0.0
 11
640.5
 21
-192.5
 31
0.0
  0
LINE
  5
154
330
18
100
AcDbEntity
  8
PV0001_1
  6
Continuous
 48
0.5
370
    50
100
AcDbLine
 10
655.4999999999999
 20
-244.50001525878
 30
0.0
 11
640.5
 21
-244.50001525878
 31
0.0
  0
LINE
  5
155
330
18
100
AcDbEntity
  8
PV0001_1
  6
Continuous
370
    50
100
AcDbLine
 10
655.4999999999999
 20
-244.50001525878
 30
0.0
 11
655.4999999999999
 21
-192.5
 31
0.0
  0
LINE
  5
156
330
18
100
AcDbEntity
  8
PV0001_1
  6
CENTER2
 48
0.5
370
    25
100
AcDbLine
 10
638.71026611328
 20
-199.50001525878
 30
0.0
 11
657.2719116210899
 21
-199.50001525878
 31
0.0
  0
LINE
  5
157
330
18
100
AcDbEntity
  8
PV0001_1
  6
CENTER2
 48
0.5
370
    25
100
AcDbLine
 10
638.9224243164
 20
-237.5
 30
0.0
 11
657.2719116210899
 21
-237.5
 31
0.0
  0
LINE
  5
158
330
18
100
AcDbEntity
  8
PV0001_1
  6
CENTER2
 48
0.5
370
    25
100
AcDbLine
 10
648.0
 20
-244.99998474121
 30
0.0
 11
648.0
 21
-229.99998474121
 31
0.0
  0
LINE
  5
159
330
18
100
AcDbEntity
  8
PV0001_1
  6
CENTER2
 48
0.5
370
    25
100
AcDbLine
 10
648.0
 20
-207.0
 30
0.0
 11
648.0
 21
-192.0
 31
0.0
  0
LINE
  5
15A
330
18
100
AcDbEntity
  8
PV0001_1
  6
Continuous
 48
0.5
370
    50
100
AcDbLine
 10
640.5
 20
-206.0
 30
0.0
 11
655.4999999999999
 21
-206.0
 31
0.0
  0
LINE
  5
15B
330
18
100
AcDbEntity
  8
PV0001_1
  6
Continuous
 48
0.5
370
    50
100
AcDbLine
 10
640.5
 20
-231.0
 30
0.0
 11
655.4999999999999
 21
-231.0
 31
0.0
  0
LINE
  5
15C
330
18
100
AcDbEntity
  8
PV0001_1
  6
CENTER2
370
    25
100
AcDbLine
 10
736.3914794921799
 20
-218.5
 30
0.0
 11
773.26251220703
 21
-218.5
 31
0.0
  0
LINE
  5
15D
330
18
100
AcDbEntity
  8
PV0001_1
  6
CENTER2
370
    25
100
AcDbLine
 10
754.0
 20
-189.36608886718
 30
0.0
 11
754.0
 21
-247.32859802246
 31
0.0
  0
LINE
  5
15E
330
18
100
AcDbEntity
  8
PV0001_1
  6
Continuous
 48
0.5
370
    50
100
AcDbLine
 10
745.0
 20
-244.5
 30
0.0
 11
771.0
 21
-244.5
 31
0.0
  0
LINE
  5
15F
330
18
100
AcDbEntity
  8
PV0001_1
  6
Continuous
 48
0.5
370
    50
100
AcDbLine
 10
745.0
 20
-192.5
 30
0.0
 11
771.0
 21
-192.5
 31
0.0
  0
LINE
  5
160
330
18
100
AcDbEntity
  8
PV0001_1
  6
Continuous
370
    50
100
AcDbLine
 10
771.0
 20
-192.5
 30
0.0
 11
771.0
 21
-244.5
 31
0.0
  0
LINE
  5
161
330
18
100
AcDbEntity
  8
PV0001_1
  6
Continuous
 48
0.5
370
    50
100
AcDbLine
 10
739.0
 20
-206.0
 30
0.0
 11
739.0
 21
-231.0
 31
0.0
  0
LINE
  5
162
330
18
100
AcDbEntity
  8
PV0001_1
  6
Continuous
 48
0.5
370
    50
100
AcDbLine
 10
739.0
 20
-231.0
 30
0.0
 11
745.0
 21
-231.0
 31
0.0
  0
LINE
  5
163
330
18
100
AcDbEntity
  8
PV0001_1
  6
Continuous
 48
0.5
370
    50
100
AcDbLine
 10
739.0
 20
-206.0
 30
0.0
 11
745.0
 21
-206.0
 31
0.0
  0
LINE
  5
164
330
18
100
AcDbEntity
  8
PV0001_1
  6
Continuous
 48
0.5
370
    50
100
AcDbLine
 10
745.0
 20
-192.5
 30
0.0
 11
745.0
 21
-206.0
 31
0.0
  0
LINE
  5
165
330
18
100
AcDbEntity
  8
PV0001_1
  6
Continuous
 48
0.5
370
    50
100
AcDbLine
 10
745.0
 20
-231.0
 30
0.0
 11
745.0
 21
-244.5
 31
0.0
  0
LINE
  5
166
330
18
100
AcDbEntity
  8
PV0001_1
  6
CENTER2
370
    25
100
AcDbLine
 10
742.32836914062
 20
-199.50001525878
 30
0.0
 11
773.41876220703
 21
-199.50001525878
 31
0.0
  0
LINE
  5
167
330
18
100
AcDbEntity
  8
PV0001_1
  6
CENTER2
370
    25
100
AcDbLine
 10
742.4846191406199
 20
-237.49998474121
 30
0.0
 11
773.41876220703
 21
-237.49998474121
 31
0.0
  0
LINE
  5
168
330
18
100
AcDbEntity
  8
PV0001_1
  6
DASHED2
 48
0.5
370
    50
100
AcDbLine
 10
757.0
 20
-202.80000305175
 30
0.0
 11
771.0
 21
-202.80000305175
 31
0.0
  0
LINE
  5
169
330
18
100
AcDbEntity
  8
PV0001_1
  6
DASHED2
 48
0.5
370
    50
100
AcDbLine
 10
757.0
 20
-196.19999694824
 30
0.0
 11
771.0
 21
-196.19999694824
 31
0.0
  0
LINE
  5
16A
330
18
100
AcDbEntity
  8
PV0001_1
  6
DASHED2
 48
0.5
370
    50
100
AcDbLine
 10
757.0
 20
-240.80000305175
 30
0.0
 11
771.0
 21
-240.80000305175
 31
0.0
  0
LINE
  5
16B
330
18
100
AcDbEntity
  8
PV0001_1
  6
DASHED2
 48
0.5
370
    50
100
AcDbLine
 10
757.0
 20
-234.19999694824
 30
0.0
 11
771.0
 21
-234.19999694824
 31
0.0
  0
LINE
  5
16C
330
18
100
AcDbEntity
  8
PV0001_1
  6
DASHED2
 48
0.5
370
    50
100
AcDbLine
 10
745.0
 20
-243.0
 30
0.0
 11
757.0
 21
-243.0
 31
0.0
  0
LINE
  5
16D
330
18
100
AcDbEntity
  8
PV0001_1
  6
DASHED2
 48
0.5
370
    50
100
AcDbLine
 10
745.0
 20
-232.0
 30
0.0
 11
757.0
 21
-232.0
 31
0.0
  0
LINE
  5
16E
330
18
100
AcDbEntity
  8
PV0001_1
  6
DASHED2
 48
0.5
370
    50
100
AcDbLine
 10
745.0
 20
-194.0
 30
0.0
 11
757.0
 21
-194.0
 31
0.0
  0
LINE
  5
16F
330
18
100
AcDbEntity
  8
PV0001_1
  6
DASHED2
 48
0.5
370
    50
100
AcDbLine
 10
745.0
 20
-205.0
 30
0.0
 11
757.0
 21
-205.0
 31
0.0
  0
LINE
  5
170
330
18
100
AcDbEntity
  8
PV0001_1
  6
DASHED2
 48
0.5
370
    50
100
AcDbLine
 10
757.0
 20
-194.0
 30
0.0
 11
757.0
 21
-204.99998474121
 31
0.0
  0
LINE
  5
171
330
18
100
AcDbEntity
  8
PV0001_1
  6
DASHED2
 48
0.5
370
    50
100
AcDbLine
 10
757.0
 20
-232.0
 30
0.0
 11
757.0
 21
-242.99998474121
 31
0.0
  0
LINE
  5
172
330
18
100
AcDbEntity
  8
PV0001_1
  6
DASHED2
 48
0.5
370
    50
100
AcDbLine
 10
650.9999999999998
 20
-365.4999999999999
 30
0.0
 11
644.9999999999999
 21
-365.4999999999999
 31
0.0
  0
LINE
  5
173
330
18
100
AcDbEntity
  8
PV0001_1
  6
DASHED2
 48
0.5
370
    50
100
AcDbLine
 10
650.9999999999998
 20
-371.4999999999999
 30
0.0
 11
644.9999999999999
 21
-371.4999999999999
 31
0.0
  0
LINE
  5
174
330
18
100
AcDbEntity
  8
PV0001_1
  6
Continuous
 48
0.5
370
    50
100
AcDbLine
 10
176.98999023437
 20
-301.0
 30
0.0
 11
152.00997924804
 21
-301.0
 31
0.0
  0
LINE
  5
175
330
18
100
AcDbEntity
  8
PV0001_1
  6
Continuous
 48
0.5
370
    50
100
AcDbLine
 10
176.98999023437
 20
-336.0
 30
0.0
 11
152.00997924804
 21
-336.0
 31
0.0
  0
LINE
  5
176
330
18
100
AcDbEntity
  8
PV0001_1
  6
Continuous
 48
0.5
370
    50
100
AcDbLine
 10
181.99998474121
 20
-306.01000976562
 30
0.0
 11
181.99998474121
 21
-330.98999023437
 31
0.0
  0
LINE
  5
177
330
18
100
AcDbEntity
  8
PV0001_1
  6
Continuous
 48
0.5
370
    50
100
AcDbLine
 10
146.99998474121
 20
-306.01000976562
 30
0.0
 11
146.99998474121
 21
-330.98999023437
 31
0.0
  0
LINE
  5
178
330
18
100
AcDbEntity
  8
PV0001_1
  6
CENTER2
370
    25
100
AcDbLine
 10
144.49998474121
 20
-318.5
 30
0.0
 11
184.49998474121
 21
-318.5
 31
0.0
  0
LINE
  5
179
330
18
100
AcDbEntity
  8
PV0001_1
  6
CENTER2
370
    25
100
AcDbLine
 10
164.49998474121
 20
-298.5
 30
0.0
 11
164.49998474121
 21
-338.5
 31
0.0
  0
LINE
  5
17A
330
18
100
AcDbEntity
  8
PV0001_1
  6
CENTER2
370
    25
100
AcDbLine
 10
180.76344299316
 20
-334.76345825195
 30
0.0
 11
148.23652648925
 21
-302.23654174804
 31
0.0
  0
LINE
  5
17B
330
18
100
AcDbEntity
  8
PV0001_1
  6
CENTER2
370
    25
100
AcDbLine
 10
180.76344299316
 20
-302.23654174804
 30
0.0
 11
148.23654174804
 21
-334.76345825195
 31
0.0
  0
LINE
  5
17C
330
18
100
AcDbEntity
  8
PV0001_1
  6
Continuous
 48
0.5
370
    50
100
AcDbLine
 10
157.49998474121
 20
-313.67816162109
 30
0.0
 11
157.49998474121
 21
-323.3218383789
 31
0.0
  0
LINE
  5
17D
330
18
100
AcDbEntity
  8
PV0001_1
  6
Continuous
 48
0.5
370
    50
100
AcDbLine
 10
171.49998474121
 20
-313.67816162109
 30
0.0
 11
171.49998474121
 21
-323.3218383789
 31
0.0
  0
LINE
  5
17E
330
18
100
AcDbEntity
  8
PV0001_1
  6
Continuous
 48
0.5
370
    50
100
AcDbLine
 10
159.67816162109
 20
-325.5
 30
0.0
 11
169.32180786132
 21
-325.5
 31
0.0
  0
LINE
  5
17F
330
18
100
AcDbEntity
  8
PV0001_1
  6
Continuous
 48
0.5
370
    50
100
AcDbLine
 10
159.67816162109
 20
-311.5
 30
0.0
 11
169.32180786132
 21
-311.5
 31
0.0
  0
LINE
  5
180
330
18
100
AcDbEntity
  8
PV0001_1
  6
Continuous
 48
0.5
370
    50
100
AcDbLine
 10
295.0
 20
-304.5
 30
0.0
 11
295.0
 21
-332.5
 31
0.0
  0
LINE
  5
181
330
18
100
AcDbEntity
  8
PV0001_1
  6
Continuous
370
    50
100
AcDbLine
 10
281.0
 20
-301.0
 30
0.0
 11
281.0
 21
-336.0
 31
0.0
  0
LINE
  5
182
330
18
100
AcDbEntity
  8
PV0001_1
  6
Continuous
370
    50
100
AcDbLine
 10
272.0
 20
-301.0
 30
0.0
 11
272.0
 21
-336.0
 31
0.0
  0
LINE
  5
183
330
18
100
AcDbEntity
  8
PV0001_1
  6
Continuous
 48
0.5
370
    50
100
AcDbLine
 10
265.0
 20
-311.5
 30
0.0
 11
265.0
 21
-325.5
 31
0.0
  0
LINE
  5
184
330
18
100
AcDbEntity
  8
PV0001_1
  6
Continuous
 48
0.5
370
    50
100
AcDbLine
 10
295.0
 20
-304.5
 30
0.0
 11
281.0
 21
-304.5
 31
0.0
  0
LINE
  5
185
330
18
100
AcDbEntity
  8
PV0001_1
  6
Continuous
 48
0.5
370
    50
100
AcDbLine
 10
295.0
 20
-332.5
 30
0.0
 11
281.0
 21
-332.5
 31
0.0
  0
LINE
  5
186
330
18
100
AcDbEntity
  8
PV0001_1
  6
Continuous
 48
0.5
370
    50
100
AcDbLine
 10
281.0
 20
-336.0
 30
0.0
 11
272.0
 21
-336.0
 31
0.0
  0
LINE
  5
187
330
18
100
AcDbEntity
  8
PV0001_1
  6
Continuous
 48
0.5
370
    50
100
AcDbLine
 10
281.0
 20
-301.0
 30
0.0
 11
272.0
 21
-301.0
 31
0.0
  0
LINE
  5
188
330
18
100
AcDbEntity
  8
PV0001_1
  6
Continuous
 48
0.5
370
    50
100
AcDbLine
 10
271.0
 20
-311.5
 30
0.0
 11
265.0
 21
-311.5
 31
0.0
  0
LINE
  5
189
330
18
100
AcDbEntity
  8
PV0001_1
  6
Continuous
 48
0.5
370
    50
100
AcDbLine
 10
271.0
 20
-325.5
 30
0.0
 11
265.0
 21
-325.5
 31
0.0
  0
LINE
  5
18A
330
18
100
AcDbEntity
  8
PV0001_1
  6
Continuous
 48
0.5
370
    50
100
AcDbLine
 10
271.5
 20
-312.5
 30
0.0
 11
271.5
 21
-324.5
 31
0.0
  0
LINE
  5
18B
330
18
100
AcDbEntity
  8
PV0001_1
  6
Continuous
 48
0.5
370
    50
100
AcDbLine
 10
271.0
 20
-311.5
 30
0.0
 11
271.0
 21
-325.5
 31
0.0
  0
LINE
  5
18C
330
18
100
AcDbEntity
  8
PV0001_1
  6
Continuous
 48
0.5
370
    50
100
AcDbLine
 10
272.0
 20
-312.5
 30
0.0
 11
271.0
 21
-312.5
 31
0.0
  0
LINE
  5
18D
330
18
100
AcDbEntity
  8
PV0001_1
  6
Continuous
 48
0.5
370
    50
100
AcDbLine
 10
272.0
 20
-324.5
 30
0.0
 11
271.0
 21
-324.5
 31
0.0
  0
LINE
  5
18E
330
18
100
AcDbEntity
  8
PV0001_1
  6
CENTER2
 48
0.5
370
    25
100
AcDbLine
 10
282.63189697265
 20
-330.87438964843
 30
0.0
 11
270.50271606445
 21
-330.87438964843
 31
0.0
  0
LINE
  5
18F
330
18
100
AcDbEntity
  8
PV0001_1
  6
DASHED2
 48
0.5
370
    50
100
AcDbLine
 10
276.0
 20
-334.12438964843
 30
0.0
 11
272.0
 21
-334.12438964843
 31
0.0
  0
LINE
  5
190
330
18
100
AcDbEntity
  8
PV0001_1
  6
DASHED2
 48
0.5
370
    50
100
AcDbLine
 10
276.0
 20
-327.62438964843
 30
0.0
 11
272.0
 21
-327.62438964843
 31
0.0
  0
LINE
  5
191
330
18
100
AcDbEntity
  8
PV0001_1
  6
DASHED2
 48
0.5
370
    50
100
AcDbLine
 10
281.0
 20
-332.57437133789
 30
0.0
 11
276.0
 21
-332.57437133789
 31
0.0
  0
LINE
  5
192
330
18
100
AcDbEntity
  8
PV0001_1
  6
DASHED2
 48
0.5
370
    50
100
AcDbLine
 10
281.0
 20
-329.1743774414
 30
0.0
 11
276.0
 21
-329.1743774414
 31
0.0
  0
LINE
  5
193
330
18
100
AcDbEntity
  8
PV0001_1
  6
DASHED2
 48
0.5
370
    50
100
AcDbLine
 10
276.0
 20
-327.62438964843
 30
0.0
 11
276.0
 21
-334.12438964843
 31
0.0
  0
LINE
  5
194
330
18
100
AcDbEntity
  8
PV0001_1
  6
Continuous
 48
0.5
370
    50
100
AcDbLine
 10
644.9999999999999
 20
-360.0
 30
0.0
 11
644.9999999999999
 21
-377.0
 31
0.0
  0
LINE
  5
195
330
18
100
AcDbEntity
  8
PV0001_1
  6
Continuous
 48
0.5
370
    50
100
AcDbLine
 10
650.9999999999998
 20
-360.0
 30
0.0
 11
650.9999999999998
 21
-377.0
 31
0.0
  0
LINE
  5
196
330
18
100
AcDbEntity
  8
PV0001_1
  6
Continuous
 48
0.5
370
    50
100
AcDbLine
 10
650.9999999999998
 20
-360.0
 30
0.0
 11
644.9999999999999
 21
-360.0
 31
0.0
  0
LINE
  5
197
330
18
100
AcDbEntity
  8
PV0001_1
  6
Continuous
 48
0.5
370
    50
100
AcDbLine
 10
650.9999999999998
 20
-377.0
 30
0.0
 11
644.9999999999999
 21
-377.0
 31
0.0
  0
LINE
  5
198
330
18
100
AcDbEntity
  8
PV0001_1
  6
Continuous
 48
0.5
370
    50
100
AcDbLine
 10
651.7000122070299
 20
-365.6499938964799
 30
0.0
 11
650.9999999999998
 21
-365.6499938964799
 31
0.0
  0
LINE
  5
199
330
18
100
AcDbEntity
  8
PV0001_1
  6
Continuous
 48
0.5
370
    50
100
AcDbLine
 10
651.7000122070299
 20
-371.3500061035099
 30
0.0
 11
650.9999999999998
 21
-371.3500061035099
 31
0.0
  0
LINE
  5
19A
330
18
100
AcDbEntity
  8
PV0001_1
  6
Continuous
 48
0.5
370
    50
100
AcDbLine
 10
651.7000122070299
 20
-362.5
 30
0.0
 11
650.9999999999998
 21
-362.5
 31
0.0
  0
LINE
  5
19B
330
18
100
AcDbEntity
  8
PV0001_1
  6
Continuous
 48
0.5
370
    50
100
AcDbLine
 10
651.7000122070299
 20
-374.5
 30
0.0
 11
650.9999999999998
 21
-374.5
 31
0.0
  0
LINE
  5
19C
330
18
100
AcDbEntity
  8
PV0001_1
  6
Continuous
 48
0.5
370
    50
100
AcDbLine
 10
651.7000122070299
 20
-362.5
 30
0.0
 11
651.7000122070299
 21
-374.5
 31
0.0
  0
LINE
  5
19D
330
18
100
AcDbEntity
  8
PV0001_1
  6
Continuous
 48
0.5
370
    50
100
AcDbLine
 10
273.0
 20
-382.5
 30
0.0
 11
273.0
 21
-354.5
 31
0.0
  0
LINE
  5
19E
330
18
100
AcDbEntity
  8
PV0001_1
  6
Continuous
370
    50
100
AcDbLine
 10
287.0
 20
-386.0
 30
0.0
 11
287.0
 21
-351.0
 31
0.0
  0
LINE
  5
19F
330
18
100
AcDbEntity
  8
PV0001_1
  6
Continuous
370
    50
100
AcDbLine
 10
296.0
 20
-386.0
 30
0.0
 11
296.0
 21
-351.0
 31
0.0
  0
LINE
  5
1A0
330
18
100
AcDbEntity
  8
PV0001_1
  6
Continuous
 48
0.5
370
    50
100
AcDbLine
 10
265.0
 20
-361.5
 30
0.0
 11
265.0
 21
-375.5
 31
0.0
  0
LINE
  5
1A1
330
18
100
AcDbEntity
  8
PV0001_1
  6
Continuous
 48
0.5
370
    50
100
AcDbLine
 10
273.0
 20
-382.5
 30
0.0
 11
287.0
 21
-382.5
 31
0.0
  0
LINE
  5
1A2
330
18
100
AcDbEntity
  8
PV0001_1
  6
Continuous
 48
0.5
370
    50
100
AcDbLine
 10
273.0
 20
-354.5
 30
0.0
 11
287.0
 21
-354.5
 31
0.0
  0
LINE
  5
1A3
330
18
100
AcDbEntity
  8
PV0001_1
  6
Continuous
 48
0.5
370
    50
100
AcDbLine
 10
287.0
 20
-351.0
 30
0.0
 11
296.0
 21
-351.0
 31
0.0
  0
LINE
  5
1A4
330
18
100
AcDbEntity
  8
PV0001_1
  6
Continuous
 48
0.5
370
    50
100
AcDbLine
 10
287.0
 20
-386.0
 30
0.0
 11
296.0
 21
-386.0
 31
0.0
  0
LINE
  5
1A5
330
18
100
AcDbEntity
  8
PV0001_1
  6
Continuous
 48
0.5
370
    50
100
AcDbLine
 10
271.0
 20
-361.5
 30
0.0
 11
265.0
 21
-361.5
 31
0.0
  0
LINE
  5
1A6
330
18
100
AcDbEntity
  8
PV0001_1
  6
Continuous
 48
0.5
370
    50
100
AcDbLine
 10
271.0
 20
-375.5
 30
0.0
 11
265.0
 21
-375.5
 31
0.0
  0
LINE
  5
1A7
330
18
100
AcDbEntity
  8
PV0001_1
  6
Continuous
 48
0.5
370
    50
100
AcDbLine
 10
271.5
 20
-362.5
 30
0.0
 11
271.5
 21
-374.5
 31
0.0
  0
LINE
  5
1A8
330
18
100
AcDbEntity
  8
PV0001_1
  6
Continuous
 48
0.5
370
    50
100
AcDbLine
 10
271.0
 20
-361.5
 30
0.0
 11
271.0
 21
-375.5
 31
0.0
  0
LINE
  5
1A9
330
18
100
AcDbEntity
  8
PV0001_1
  6
Continuous
 48
0.5
370
    50
100
AcDbLine
 10
273.0
 20
-362.5
 30
0.0
 11
271.0
 21
-362.5
 31
0.0
  0
LINE
  5
1AA
330
18
100
AcDbEntity
  8
PV0001_1
  6
Continuous
 48
0.5
370
    50
100
AcDbLine
 10
273.0
 20
-374.5
 30
0.0
 11
271.0
 21
-374.5
 31
0.0
  0
LINE
  5
1AB
330
18
100
AcDbEntity
  8
PV0001_1
  6
CENTER2
 48
0.5
370
    25
100
AcDbLine
 10
285.36810302734
 20
-356.12561035156
 30
0.0
 11
297.49728393554
 21
-356.12561035156
 31
0.0
  0
LINE
  5
1AC
330
18
100
AcDbEntity
  8
PV0001_1
  6
DASHED2
 48
0.5
370
    50
100
AcDbLine
 10
292.0
 20
-352.87561035156
 30
0.0
 11
296.0
 21
-352.87561035156
 31
0.0
  0
LINE
  5
1AD
330
18
100
AcDbEntity
  8
PV0001_1
  6
DASHED2
 48
0.5
370
    50
100
AcDbLine
 10
292.0
 20
-359.37561035156
 30
0.0
 11
296.0
 21
-359.37561035156
 31
0.0
  0
LINE
  5
1AE
330
18
100
AcDbEntity
  8
PV0001_1
  6
DASHED2
 48
0.5
370
    50
100
AcDbLine
 10
287.0
 20
-354.4256286621
 30
0.0
 11
292.0
 21
-354.4256286621
 31
0.0
  0
LINE
  5
1AF
330
18
100
AcDbEntity
  8
PV0001_1
  6
DASHED2
 48
0.5
370
    50
100
AcDbLine
 10
287.0
 20
-357.82562255859
 30
0.0
 11
292.0
 21
-357.82562255859
 31
0.0
  0
LINE
  5
1B0
330
18
100
AcDbEntity
  8
PV0001_1
  6
DASHED2
 48
0.5
370
    50
100
AcDbLine
 10
292.0
 20
-359.37561035156
 30
0.0
 11
292.0
 21
-352.87561035156
 31
0.0
  0
LINE
  5
1B1
330
18
100
AcDbEntity
  8
PV0001_1
  6
PHANTOM2
 48
0.5
370
    25
100
AcDbLine
 10
291.0
 20
-312.75
 30
0.0
 11
291.0
 21
-324.25
 31
0.0
  0
LINE
  5
1B2
330
18
100
AcDbEntity
  8
PV0001_1
  6
PHANTOM2
 48
0.5
370
    25
100
AcDbLine
 10
291.0
 20
-362.75
 30
0.0
 11
291.0
 21
-374.25
 31
0.0
  0
LINE
  5
1B3
330
18
100
AcDbEntity
  8
PV0001_1
  6
Continuous
370
    50
100
AcDbLine
 10
861.0
 20
0.0
 30
0.0
 11
861.0
 21
-436.0
 31
0.0
  0
LINE
  5
1B4
330
18
100
AcDbEntity
  8
PV0001_1
  6
Continuous
370
    50
100
AcDbLine
 10
0.0
 20
-436.0
 30
0.0
 11
861.0
 21
-436.0
 31
0.0
  0
LINE
  5
1B5
330
18
100
AcDbEntity
  8
PV0001_1
  6
Continuous
370
    50
100
AcDbLine
 10
0.0
 20
-436.0
 30
0.0
 11
861.0
 21
-436.0
 31
0.0
  0
LINE
  5
1B6
330
18
100
AcDbEntity
  8
PV0001_1
  6
PHANTOM2
 48
0.5
370
    25
100
AcDbLine
 10
291.0
 20
-212.75
 30
0.0
 11
291.0
 21
-224.25
 31
0.0
  0
LINE
  5
1B7
330
18
100
AcDbEntity
  8
PV0001_1
  6
CENTER2
370
    25
100
AcDbLine
 10
260.88967895507
 20
-218.5
 30
0.0
 11
298.7776184082
 21
-218.5
 31
0.0
  0
LINE
  5
1B8
330
18
100
AcDbEntity
  8
PV0001_1
  6
CENTER2
370
    25
100
AcDbLine
 10
580.4616088867098
 20
-368.5
 30
0.0
 11
655.6844482421799
 21
-368.5
 31
0.0
  0
LINE
  5
1B9
330
18
100
AcDbEntity
  8
PV0001_1
  6
CENTER2
370
    25
100
AcDbLine
 10
260.21072387695
 20
-368.5
 30
0.0
 11
330.71685791015
 21
-368.5
 31
0.0
  0
LINE
  5
1BA
330
18
100
AcDbEntity
  8
PV0001_1
  6
CENTER2
370
    25
100
AcDbLine
 10
579.1699829101499
 20
-218.5
 30
0.0
 11
659.80194091796
 21
-218.5
 31
0.0
  0
LINE
  5
1BB
330
18
100
AcDbEntity
  8
PV0001_1
  6
CENTER2
370
    25
100
AcDbLine
 10
261.42858886718
 20
-318.5
 30
0.0
 11
330.06729125976
 21
-318.5
 31
0.0
  0
LINE
  5
1C2
330
18
100
AcDbEntity
  8
PV0001_1
  6
CENTER2
370
    25
100
AcDbLine
 10
250.21192932128
 20
-138.5
 30
0.0
 11
657.18975830078
 21
-138.5
 31
0.0
  0
LINE
  5
1C4
330
18
100
AcDbEntity
  8
PV0001_1
  6
Continuous
370
    25
100
AcDbLine
 10
472.0
 20
-134.60000610351
 30
0.0
 11
654.0
 21
-134.60000610351
 31
0.0
  0
LINE
  5
1C8
330
18
100
AcDbEntity
  8
PV0001_1
  6
Continuous
370
    25
100
AcDbLine
 10
472.0
 20
-142.39999389648
 30
0.0
 11
654.0
 21
-142.39999389648
 31
0.0
  0
LINE
  5
1C9
330
18
100
AcDbEntity
  8
PV0001_1
  6
Continuous
370
    50
100
AcDbLine
 10
472.0
 20
-133.5
 30
0.0
 11
654.0
 21
-133.5
 31
0.0
  0
LINE
  5
1CB
330
18
100
AcDbEntity
  8
PV0001_1
  6
Continuous
370
    50
100
AcDbLine
 10
472.0
 20
-143.5
 30
0.0
 11
654.0
 21
-143.5
 31
0.0
  0
LINE
  5
1CD
330
18
100
AcDbEntity
  8
PV0001_1
  6
Continuous
 48
0.5
370
    50
100
AcDbLine
 10
654.0
 20
-133.5
 30
0.0
 11
654.0
 21
-143.5
 31
0.0
  0
LINE
  5
1CE
330
18
100
AcDbEntity
  8
PV0001_1
  6
Continuous
 48
0.5
370
    50
100
AcDbLine
 10
254.0
 20
-133.5
 30
0.0
 11
254.0
 21
-143.5
 31
0.0
  0
LINE
  5
1D5
330
18
100
AcDbEntity
  8
PV0001_1
  6
CENTER2
370
    25
100
AcDbLine
 10
249.72531127929
 20
-88.49999999999999
 30
0.0
 11
332.0
 21
-88.49999999999999
 31
0.0
  0
LINE
  5
1D6
330
18
100
AcDbEntity
  8
PV0001_1
  6
Continuous
370
    50
100
AcDbLine
 10
264.0
 20
-84.50000000000001
 30
0.0
 11
298.79998779296
 21
-84.50000000000001
 31
0.0
  0
LINE
  5
1D7
330
18
100
AcDbEntity
  8
PV0001_1
  6
DASHED2
 48
0.5
370
    50
100
AcDbLine
 10
291.0
 20
-82.75
 30
0.0
 11
291.0
 21
-94.25
 31
0.0
  0
LINE
  5
1D8
330
18
100
AcDbEntity
  8
PV0001_1
  6
Continuous
370
    50
100
AcDbLine
 10
264.0
 20
-92.5
 30
0.0
 11
298.79998779296
 21
-92.5
 31
0.0
  0
LINE
  5
1D9
330
18
100
AcDbEntity
  8
PV0001_1
  6
DASHED2
 48
0.5
370
    50
100
AcDbLine
 10
291.0
 20
-94.25
 30
0.0
 11
299.0
 21
-94.25
 31
0.0
  0
LINE
  5
1DA
330
18
100
AcDbEntity
  8
PV0001_1
  6
Continuous
 48
0.5
370
    25
100
AcDbLine
 10
264.0
 20
-85.04149627685499
 30
0.0
 11
273.0
 21
-85.04149627685499
 31
0.0
  0
LINE
  5
1DB
330
18
100
AcDbEntity
  8
PV0001_1
  6
Continuous
 48
0.5
370
    25
100
AcDbLine
 10
264.0
 20
-91.95850372314401
 30
0.0
 11
273.0
 21
-91.95850372314401
 31
0.0
  0
LINE
  5
1DC
330
18
100
AcDbEntity
  8
PV0001_1
  6
Continuous
 48
0.5
370
    50
100
AcDbLine
 10
254.0
 20
-85.5
 30
0.0
 11
264.0
 21
-85.5
 31
0.0
  0
LINE
  5
1DD
330
18
100
AcDbEntity
  8
PV0001_1
  6
CENTER2
370
    25
100
AcDbLine
 10
578.6786499023399
 20
-88.49999999999999
 30
0.0
 11
658.0904541015599
 21
-88.49999999999999
 31
0.0
  0
LINE
  5
1DE
330
18
100
AcDbEntity
  8
PV0001_1
  6
Continuous
 48
0.5
370
    50
100
AcDbLine
 10
273.0
 20
-84.50000000000001
 30
0.0
 11
273.0
 21
-92.5
 31
0.0
  0
LINE
  5
1DF
330
18
100
AcDbEntity
  8
PV0001_1
  6
Continuous
 48
0.5
370
    50
100
AcDbLine
 10
254.0
 20
-85.5
 30
0.0
 11
254.0
 21
-91.5
 31
0.0
  0
LINE
  5
1E0
330
18
100
AcDbEntity
  8
PV0001_1
  6
Continuous
 48
0.5
370
    50
100
AcDbLine
 10
654.0
 20
-85.5
 30
0.0
 11
654.0
 21
-91.5
 31
0.0
  0
LINE
  5
1E1
330
18
100
AcDbEntity
  8
PV0001_1
  6
DASHED2
 48
0.5
370
    50
100
AcDbLine
 10
291.0
 20
-82.75
 30
0.0
 11
299.0
 21
-82.75
 31
0.0
  0
LINE
  5
1E2
330
18
100
AcDbEntity
  8
PV0001_1
  6
Continuous
 48
0.5
370
    50
100
AcDbLine
 10
299.0
 20
-83.49999999999999
 30
0.0
 11
324.0
 21
-83.49999999999999
 31
0.0
  0
LINE
  5
1E3
330
18
100
AcDbEntity
  8
PV0001_1
  6
Continuous
 48
0.5
370
    50
100
AcDbLine
 10
299.0
 20
-93.49999999999999
 30
0.0
 11
324.0
 21
-93.49999999999999
 31
0.0
  0
LINE
  5
1E4
330
18
100
AcDbEntity
  8
PV0001_1
  6
Continuous
 48
0.5
370
    50
100
AcDbLine
 10
254.0
 20
-91.5
 30
0.0
 11
264.0
 21
-91.5
 31
0.0
  0
LINE
  5
1E5
330
18
100
AcDbEntity
  8
PV0001_1
  6
Continuous
 48
0.5
370
    50
100
AcDbLine
 10
651.7999877929599
 20
-85.5
 30
0.0
 11
651.7999877929599
 21
-91.5
 31
0.0
  0
LINE
  5
1E6
330
18
100
AcDbEntity
  8
PV0001_1
  6
Continuous
370
    50
100
AcDbLine
 10
584.0
 20
-83.49999999999999
 30
0.0
 11
645.0
 21
-83.49999999999999
 31
0.0
  0
LINE
  5
1E7
330
18
100
AcDbEntity
  8
PV0001_1
  6
Continuous
370
    25
100
AcDbLine
 10
584.0
 20
-84.40000152587799
 30
0.0
 11
645.0
 21
-84.40000152587799
 31
0.0
  0
LINE
  5
1E8
330
18
100
AcDbEntity
  8
PV0001_1
  6
Continuous
370
    25
100
AcDbLine
 10
584.0
 20
-92.599998474121
 30
0.0
 11
645.0
 21
-92.599998474121
 31
0.0
  0
LINE
  5
1E9
330
18
100
AcDbEntity
  8
PV0001_1
  6
Continuous
370
    50
100
AcDbLine
 10
584.0
 20
-93.49999999999999
 30
0.0
 11
645.0
 21
-93.49999999999999
 31
0.0
  0
LINE
  5
1EA
330
18
100
AcDbEntity
  8
PV0001_1
  6
Continuous
 48
0.5
370
    50
100
AcDbLine
 10
299.0
 20
-82.75
 30
0.0
 11
299.0
 21
-94.25
 31
0.0
  0
LINE
  5
1EB
330
18
100
AcDbEntity
  8
PV0001_1
  6
Continuous
 48
0.5
370
    50
100
AcDbLine
 10
264.0
 20
-84.50000000000001
 30
0.0
 11
264.0
 21
-92.5
 31
0.0
  0
LINE
  5
1EC
330
18
100
AcDbEntity
  8
PV0001_1
  6
Continuous
 48
0.5
370
    25
100
AcDbLine
 10
273.0
 20
-91.95849609375001
 30
0.0
 11
273.93789672851
 21
-92.5
 31
0.0
  0
LINE
  5
1ED
330
18
100
AcDbEntity
  8
PV0001_1
  6
Continuous
 48
0.5
370
    50
100
AcDbLine
 10
645.0
 20
-83.49999999999999
 30
0.0
 11
645.0
 21
-93.49999999999999
 31
0.0
  0
LINE
  5
1EE
330
18
100
AcDbEntity
  8
PV0001_1
  6
Continuous
 48
0.5
370
    25
100
AcDbLine
 10
273.0
 20
-85.04149627685499
 30
0.0
 11
273.93789672851
 21
-84.50000000000001
 31
0.0
  0
LINE
  5
1EF
330
18
100
AcDbEntity
  8
PV0001_1
  6
Continuous
 48
0.5
370
    50
100
AcDbLine
 10
651.0
 20
-85.5
 30
0.0
 11
651.0
 21
-91.5
 31
0.0
  0
LINE
  5
1F0
330
18
100
AcDbEntity
  8
PV0001_1
  6
Continuous
 48
0.5
370
    50
100
AcDbLine
 10
645.20001220703
 20
-85.5
 30
0.0
 11
651.0
 21
-85.5
 31
0.0
  0
LINE
  5
1F1
330
18
100
AcDbEntity
  8
PV0001_1
  6
Continuous
 48
0.5
370
    50
100
AcDbLine
 10
651.0
 20
-91.349998474121
 30
0.0
 11
651.7999877929599
 21
-91.349998474121
 31
0.0
  0
LINE
  5
1F2
330
18
100
AcDbEntity
  8
PV0001_1
  6
Continuous
 48
0.5
370
    50
100
AcDbLine
 10
645.20001220703
 20
-91.5
 30
0.0
 11
651.0
 21
-91.5
 31
0.0
  0
LINE
  5
1F3
330
18
100
AcDbEntity
  8
PV0001_1
  6
Continuous
 48
0.5
370
    50
100
AcDbLine
 10
651.0
 20
-85.65000152587799
 30
0.0
 11
651.7999877929599
 21
-85.65000152587799
 31
0.0
  0
LINE
  5
1F4
330
18
100
AcDbEntity
  8
PV0001_1
  6
Continuous
 48
0.5
370
    50
100
AcDbLine
 10
651.7999877929599
 20
-91.5
 30
0.0
 11
654.0
 21
-91.5
 31
0.0
  0
LINE
  5
1F5
330
18
100
AcDbEntity
  8
PV0001_1
  6
Continuous
 48
0.5
370
    50
100
AcDbLine
 10
651.7999877929599
 20
-85.5
 30
0.0
 11
654.0
 21
-85.5
 31
0.0
  0
LINE
  5
1F6
330
18
100
AcDbEntity
  8
PV0001_1
  6
CENTER2
370
    25
100
AcDbLine
 10
249.72531127929
 20
-218.5
 30
0.0
 11
332.0
 21
-218.5
 31
0.0
  0
LINE
  5
1F7
330
18
100
AcDbEntity
  8
PV0001_1
  6
PHANTOM2
 48
0.5
370
    25
100
AcDbLine
 10
291.0
 20
-312.75
 30
0.0
 11
291.0
 21
-324.25
 31
0.0
  0
LINE
  5
1F8
330
18
100
AcDbEntity
  8
PV0001_1
  6
PHANTOM2
 48
0.5
370
    25
100
AcDbLine
 10
291.0
 20
-212.75
 30
0.0
 11
291.0
 21
-224.25
 31
0.0
  0
LINE
  5
1F9
330
18
100
AcDbEntity
  8
PV0001_1
  6
PHANTOM2
 48
0.5
370
    25
100
AcDbLine
 10
291.0
 20
-362.75
 30
0.0
 11
291.0
 21
-374.25
 31
0.0
  0
LINE
  5
1FA
330
18
100
AcDbEntity
  8
PV0001_1
  6
PHANTOM2
370
    25
100
AcDbLine
 10
264.0
 20
-214.5
 30
0.0
 11
298.79998779296
 21
-214.5
 31
0.0
  0
LINE
  5
1FB
330
18
100
AcDbEntity
  8
PV0001_1
  6
PHANTOM2
 48
0.5
370
    25
100
AcDbLine
 10
291.0
 20
-224.25
 30
0.0
 11
299.0
 21
-224.25
 31
0.0
  0
LINE
  5
1FC
330
18
100
AcDbEntity
  8
PV0001_1
  6
PHANTOM2
370
    25
100
AcDbLine
 10
264.0
 20
-222.5
 30
0.0
 11
298.79998779296
 21
-222.5
 31
0.0
  0
LINE
  5
1FD
330
18
100
AcDbEntity
  8
PV0001_1
  6
PHANTOM2
 48
0.5
370
    25
100
AcDbLine
 10
291.0
 20
-212.75
 30
0.0
 11
291.0
 21
-224.25
 31
0.0
  0
LINE
  5
1FE
330
18
100
AcDbEntity
  8
PV0001_1
  6
PHANTOM2
 48
0.5
370
    25
100
AcDbLine
 10
264.0
 20
-215.04150390625
 30
0.0
 11
273.0
 21
-215.04150390625
 31
0.0
  0
LINE
  5
1FF
330
18
100
AcDbEntity
  8
PV0001_1
  6
PHANTOM2
 48
0.5
370
    25
100
AcDbLine
 10
264.0
 20
-221.95849609375
 30
0.0
 11
273.0
 21
-221.95849609375
 31
0.0
  0
LINE
  5
200
330
18
100
AcDbEntity
  8
PV0001_1
  6
PHANTOM2
 48
0.5
370
    25
100
AcDbLine
 10
254.0
 20
-215.5
 30
0.0
 11
264.0
 21
-215.5
 31
0.0
  0
LINE
  5
201
330
18
100
AcDbEntity
  8
PV0001_1
  6
PHANTOM2
 48
0.5
370
    25
100
AcDbLine
 10
273.0
 20
-214.5
 30
0.0
 11
273.0
 21
-222.5
 31
0.0
  0
LINE
  5
202
330
18
100
AcDbEntity
  8
PV0001_1
  6
PHANTOM2
 48
0.5
370
    25
100
AcDbLine
 10
254.0
 20
-215.5
 30
0.0
 11
254.0
 21
-221.5
 31
0.0
  0
LINE
  5
203
330
18
100
AcDbEntity
  8
PV0001_1
  6
PHANTOM2
 48
0.5
370
    25
100
AcDbLine
 10
654.0
 20
-215.5
 30
0.0
 11
654.0
 21
-221.5
 31
0.0
  0
LINE
  5
204
330
18
100
AcDbEntity
  8
PV0001_1
  6
PHANTOM2
 48
0.5
370
    25
100
AcDbLine
 10
291.0
 20
-212.75
 30
0.0
 11
299.0
 21
-212.75
 31
0.0
  0
LINE
  5
205
330
18
100
AcDbEntity
  8
PV0001_1
  6
PHANTOM2
 48
0.5
370
    25
100
AcDbLine
 10
299.0
 20
-213.5
 30
0.0
 11
324.0
 21
-213.5
 31
0.0
  0
LINE
  5
206
330
18
100
AcDbEntity
  8
PV0001_1
  6
PHANTOM2
 48
0.5
370
    25
100
AcDbLine
 10
299.0
 20
-223.5
 30
0.0
 11
324.0
 21
-223.5
 31
0.0
  0
LINE
  5
207
330
18
100
AcDbEntity
  8
PV0001_1
  6
PHANTOM2
 48
0.5
370
    25
100
AcDbLine
 10
254.0
 20
-221.5
 30
0.0
 11
264.0
 21
-221.5
 31
0.0
  0
LINE
  5
208
330
18
100
AcDbEntity
  8
PV0001_1
  6
PHANTOM2
 48
0.5
370
    25
100
AcDbLine
 10
651.7999877929599
 20
-215.5
 30
0.0
 11
651.7999877929599
 21
-221.5
 31
0.0
  0
LINE
  5
209
330
18
100
AcDbEntity
  8
PV0001_1
  6
PHANTOM2
370
    25
100
AcDbLine
 10
584.0
 20
-213.5
 30
0.0
 11
645.0
 21
-213.5
 31
0.0
  0
LINE
  5
20A
330
18
100
AcDbEntity
  8
PV0001_1
  6
PHANTOM2
370
    25
100
AcDbLine
 10
584.0
 20
-214.39999389648
 30
0.0
 11
645.0
 21
-214.39999389648
 31
0.0
  0
LINE
  5
20B
330
18
100
AcDbEntity
  8
PV0001_1
  6
PHANTOM2
370
    25
100
AcDbLine
 10
584.0
 20
-222.60000610351
 30
0.0
 11
645.0
 21
-222.60000610351
 31
0.0
  0
LINE
  5
20C
330
18
100
AcDbEntity
  8
PV0001_1
  6
PHANTOM2
370
    25
100
AcDbLine
 10
584.0
 20
-223.5
 30
0.0
 11
645.0
 21
-223.5
 31
0.0
  0
LINE
  5
20D
330
18
100
AcDbEntity
  8
PV0001_1
  6
PHANTOM2
 48
0.5
370
    25
100
AcDbLine
 10
299.0
 20
-212.75
 30
0.0
 11
299.0
 21
-224.25
 31
0.0
  0
LINE
  5
20E
330
18
100
AcDbEntity
  8
PV0001_1
  6
PHANTOM2
 48
0.5
370
    25
100
AcDbLine
 10
264.0
 20
-214.5
 30
0.0
 11
264.0
 21
-222.5
 31
0.0
  0
LINE
  5
20F
330
18
100
AcDbEntity
  8
PV0001_1
  6
PHANTOM2
 48
0.5
370
    25
100
AcDbLine
 10
273.0
 20
-221.95849609375
 30
0.0
 11
273.93789672851
 21
-222.5
 31
0.0
  0
LINE
  5
210
330
18
100
AcDbEntity
  8
PV0001_1
  6
PHANTOM2
 48
0.5
370
    25
100
AcDbLine
 10
645.0
 20
-213.5
 30
0.0
 11
645.0
 21
-223.5
 31
0.0
  0
LINE
  5
211
330
18
100
AcDbEntity
  8
PV0001_1
  6
PHANTOM2
 48
0.5
370
    25
100
AcDbLine
 10
273.0
 20
-215.04150390625
 30
0.0
 11
273.93789672851
 21
-214.50001525878
 31
0.0
  0
LINE
  5
212
330
18
100
AcDbEntity
  8
PV0001_1
  6
PHANTOM2
 48
0.5
370
    25
100
AcDbLine
 10
651.0
 20
-215.5
 30
0.0
 11
651.0
 21
-221.5
 31
0.0
  0
LINE
  5
213
330
18
100
AcDbEntity
  8
PV0001_1
  6
PHANTOM2
 48
0.5
370
    25
100
AcDbLine
 10
645.1998291015599
 20
-215.5
 30
0.0
 11
651.0
 21
-215.5
 31
0.0
  0
LINE
  5
214
330
18
100
AcDbEntity
  8
PV0001_1
  6
PHANTOM2
 48
0.5
370
    25
100
AcDbLine
 10
651.0
 20
-221.35000610351
 30
0.0
 11
651.7999877929599
 21
-221.35000610351
 31
0.0
  0
LINE
  5
215
330
18
100
AcDbEntity
  8
PV0001_1
  6
PHANTOM2
 48
0.5
370
    25
100
AcDbLine
 10
645.1998291015599
 20
-221.5
 30
0.0
 11
651.0
 21
-221.5
 31
0.0
  0
LINE
  5
216
330
18
100
AcDbEntity
  8
PV0001_1
  6
PHANTOM2
 48
0.5
370
    25
100
AcDbLine
 10
651.0
 20
-215.64999389648
 30
0.0
 11
651.7999877929599
 21
-215.64999389648
 31
0.0
  0
LINE
  5
217
330
18
100
AcDbEntity
  8
PV0001_1
  6
PHANTOM2
 48
0.5
370
    25
100
AcDbLine
 10
651.7999877929599
 20
-221.5
 30
0.0
 11
654.0
 21
-221.5
 31
0.0
  0
LINE
  5
218
330
18
100
AcDbEntity
  8
PV0001_1
  6
PHANTOM2
 48
0.5
370
    25
100
AcDbLine
 10
651.7999877929599
 20
-215.5
 30
0.0
 11
654.0
 21
-215.5
 31
0.0
  0
LINE
  5
219
330
18
100
AcDbEntity
  8
PV0001_1
  6
PHANTOM2
 48
0.5
370
    25
100
AcDbLine
 10
291.0
 20
-312.75
 30
0.0
 11
291.0
 21
-324.25
 31
0.0
  0
LINE
  5
21A
330
18
100
AcDbEntity
  8
PV0001_1
  6
PHANTOM2
370
    25
100
AcDbLine
 10
264.0
 20
-322.5
 30
0.0
 11
298.79998779296
 21
-322.5
 31
0.0
  0
LINE
  5
21B
330
18
100
AcDbEntity
  8
PV0001_1
  6
PHANTOM2
 48
0.5
370
    25
100
AcDbLine
 10
291.0
 20
-324.25
 30
0.0
 11
299.0
 21
-324.25
 31
0.0
  0
LINE
  5
21C
330
18
100
AcDbEntity
  8
PV0001_1
  6
PHANTOM2
 48
0.5
370
    25
100
AcDbLine
 10
264.0
 20
-315.04150390625
 30
0.0
 11
273.0
 21
-315.04150390625
 31
0.0
  0
LINE
  5
21D
330
18
100
AcDbEntity
  8
PV0001_1
  6
PHANTOM2
370
    25
100
AcDbLine
 10
264.0
 20
-314.5
 30
0.0
 11
298.79998779296
 21
-314.5
 31
0.0
  0
LINE
  5
21E
330
18
100
AcDbEntity
  8
PV0001_1
  6
PHANTOM2
 48
0.5
370
    25
100
AcDbLine
 10
264.0
 20
-321.95849609375
 30
0.0
 11
273.0
 21
-321.95849609375
 31
0.0
  0
LINE
  5
21F
330
18
100
AcDbEntity
  8
PV0001_1
  6
PHANTOM2
 48
0.5
370
    25
100
AcDbLine
 10
254.0
 20
-315.5
 30
0.0
 11
264.0
 21
-315.5
 31
0.0
  0
LINE
  5
220
330
18
100
AcDbEntity
  8
PV0001_1
  6
PHANTOM2
 48
0.5
370
    25
100
AcDbLine
 10
273.0
 20
-314.5
 30
0.0
 11
273.0
 21
-322.5
 31
0.0
  0
LINE
  5
221
330
18
100
AcDbEntity
  8
PV0001_1
  6
PHANTOM2
 48
0.5
370
    25
100
AcDbLine
 10
254.0
 20
-315.5
 30
0.0
 11
254.0
 21
-321.5
 31
0.0
  0
LINE
  5
222
330
18
100
AcDbEntity
  8
PV0001_1
  6
PHANTOM2
 48
0.5
370
    25
100
AcDbLine
 10
653.9999999999999
 20
-365.4999999999999
 30
0.0
 11
653.9999999999999
 21
-371.4999999999999
 31
0.0
  0
LINE
  5
223
330
18
100
AcDbEntity
  8
PV0001_1
  6
PHANTOM2
 48
0.5
370
    25
100
AcDbLine
 10
291.0
 20
-312.75
 30
0.0
 11
299.0
 21
-312.75
 31
0.0
  0
LINE
  5
224
330
18
100
AcDbEntity
  8
PV0001_1
  6
PHANTOM2
 48
0.5
370
    25
100
AcDbLine
 10
299.0
 20
-313.5
 30
0.0
 11
324.0
 21
-313.5
 31
0.0
  0
LINE
  5
225
330
18
100
AcDbEntity
  8
PV0001_1
  6
PHANTOM2
 48
0.5
370
    25
100
AcDbLine
 10
299.0
 20
-323.5
 30
0.0
 11
324.0
 21
-323.5
 31
0.0
  0
LINE
  5
226
330
18
100
AcDbEntity
  8
PV0001_1
  6
PHANTOM2
 48
0.5
370
    25
100
AcDbLine
 10
254.0
 20
-321.5
 30
0.0
 11
264.0
 21
-321.5
 31
0.0
  0
LINE
  5
227
330
18
100
AcDbEntity
  8
PV0001_1
  6
PHANTOM2
 48
0.5
370
    25
100
AcDbLine
 10
651.7999877929598
 20
-365.4999999999999
 30
0.0
 11
651.7999877929598
 21
-371.4999999999999
 31
0.0
  0
LINE
  5
228
330
18
100
AcDbEntity
  8
PV0001_1
  6
PHANTOM2
370
    25
100
AcDbLine
 10
583.9999999999998
 20
-363.4999999999999
 30
0.0
 11
644.9999999999999
 21
-363.4999999999999
 31
0.0
  0
LINE
  5
229
330
18
100
AcDbEntity
  8
PV0001_1
  6
PHANTOM2
370
    25
100
AcDbLine
 10
583.9999999999998
 20
-364.39999389648
 30
0.0
 11
644.9999999999999
 21
-364.39999389648
 31
0.0
  0
LINE
  5
22A
330
18
100
AcDbEntity
  8
PV0001_1
  6
PHANTOM2
370
    25
100
AcDbLine
 10
583.9999999999998
 20
-372.60000610351
 30
0.0
 11
644.9999999999999
 21
-372.60000610351
 31
0.0
  0
LINE
  5
22B
330
18
100
AcDbEntity
  8
PV0001_1
  6
PHANTOM2
370
    25
100
AcDbLine
 10
583.9999999999998
 20
-373.4999999999999
 30
0.0
 11
644.9999999999999
 21
-373.4999999999999
 31
0.0
  0
LINE
  5
22C
330
18
100
AcDbEntity
  8
PV0001_1
  6
PHANTOM2
 48
0.5
370
    25
100
AcDbLine
 10
299.0
 20
-312.75
 30
0.0
 11
299.0
 21
-324.25
 31
0.0
  0
LINE
  5
22D
330
18
100
AcDbEntity
  8
PV0001_1
  6
PHANTOM2
 48
0.5
370
    25
100
AcDbLine
 10
264.0
 20
-314.5
 30
0.0
 11
264.0
 21
-322.5
 31
0.0
  0
LINE
  5
22E
330
18
100
AcDbEntity
  8
PV0001_1
  6
PHANTOM2
 48
0.5
370
    25
100
AcDbLine
 10
273.0
 20
-321.95849609375
 30
0.0
 11
273.93789672851
 21
-322.5
 31
0.0
  0
LINE
  5
22F
330
18
100
AcDbEntity
  8
PV0001_1
  6
PHANTOM2
 48
0.5
370
    25
100
AcDbLine
 10
273.0
 20
-315.04150390625
 30
0.0
 11
273.93789672851
 21
-314.5
 31
0.0
  0
LINE
  5
230
330
18
100
AcDbEntity
  8
PV0001_1
  6
PHANTOM2
 48
0.5
370
    25
100
AcDbLine
 10
645.1998291015598
 20
-365.4999999999999
 30
0.0
 11
650.9999999999998
 21
-365.4999999999999
 31
0.0
  0
LINE
  5
231
330
18
100
AcDbEntity
  8
PV0001_1
  6
PHANTOM2
 48
0.5
370
    25
100
AcDbLine
 10
651.7000122070299
 20
-371.3500061035099
 30
0.0
 11
651.7999877929598
 21
-371.3500061035099
 31
0.0
  0
LINE
  5
232
330
18
100
AcDbEntity
  8
PV0001_1
  6
PHANTOM2
 48
0.5
370
    25
100
AcDbLine
 10
645.1998291015598
 20
-371.4999999999999
 30
0.0
 11
650.9999999999998
 21
-371.4999999999999
 31
0.0
  0
LINE
  5
233
330
18
100
AcDbEntity
  8
PV0001_1
  6
PHANTOM2
 48
0.5
370
    25
100
AcDbLine
 10
651.7000122070299
 20
-365.6499938964799
 30
0.0
 11
651.7999877929598
 21
-365.6499938964799
 31
0.0
  0
LINE
  5
234
330
18
100
AcDbEntity
  8
PV0001_1
  6
PHANTOM2
 48
0.5
370
    25
100
AcDbLine
 10
651.7999877929598
 20
-371.4999999999999
 30
0.0
 11
653.9999999999999
 21
-371.4999999999999
 31
0.0
  0
LINE
  5
235
330
18
100
AcDbEntity
  8
PV0001_1
  6
PHANTOM2
 48
0.5
370
    25
100
AcDbLine
 10
651.7999877929598
 20
-365.4999999999999
 30
0.0
 11
653.9999999999999
 21
-365.4999999999999
 31
0.0
  0
LINE
  5
236
330
18
100
AcDbEntity
  8
PV0001_1
  6
PHANTOM2
 48
0.5
370
    25
100
AcDbLine
 10
291.0
 20
-362.75
 30
0.0
 11
291.0
 21
-374.25
 31
0.0
  0
LINE
  5
237
330
18
100
AcDbEntity
  8
PV0001_1
  6
PHANTOM2
370
    25
100
AcDbLine
 10
264.0
 20
-372.5
 30
0.0
 11
298.79998779296
 21
-372.5
 31
0.0
  0
LINE
  5
238
330
18
100
AcDbEntity
  8
PV0001_1
  6
PHANTOM2
 48
0.5
370
    25
100
AcDbLine
 10
291.0
 20
-374.25
 30
0.0
 11
299.0
 21
-374.25
 31
0.0
  0
LINE
  5
239
330
18
100
AcDbEntity
  8
PV0001_1
  6
PHANTOM2
 48
0.5
370
    25
100
AcDbLine
 10
264.0
 20
-365.04150390625
 30
0.0
 11
273.0
 21
-365.04150390625
 31
0.0
  0
LINE
  5
23A
330
18
100
AcDbEntity
  8
PV0001_1
  6
PHANTOM2
370
    25
100
AcDbLine
 10
264.0
 20
-364.5
 30
0.0
 11
298.79998779296
 21
-364.5
 31
0.0
  0
LINE
  5
23B
330
18
100
AcDbEntity
  8
PV0001_1
  6
PHANTOM2
 48
0.5
370
    25
100
AcDbLine
 10
264.0
 20
-371.95849609375
 30
0.0
 11
273.0
 21
-371.95849609375
 31
0.0
  0
LINE
  5
23C
330
18
100
AcDbEntity
  8
PV0001_1
  6
PHANTOM2
 48
0.5
370
    25
100
AcDbLine
 10
254.0
 20
-365.5
 30
0.0
 11
264.0
 21
-365.5
 31
0.0
  0
LINE
  5
23D
330
18
100
AcDbEntity
  8
PV0001_1
  6
PHANTOM2
 48
0.5
370
    25
100
AcDbLine
 10
254.0
 20
-365.5
 30
0.0
 11
254.0
 21
-371.5
 31
0.0
  0
LINE
  5
23E
330
18
100
AcDbEntity
  8
PV0001_1
  6
PHANTOM2
 48
0.5
370
    25
100
AcDbLine
 10
291.0
 20
-362.75
 30
0.0
 11
299.0
 21
-362.75
 31
0.0
  0
LINE
  5
23F
330
18
100
AcDbEntity
  8
PV0001_1
  6
PHANTOM2
 48
0.5
370
    25
100
AcDbLine
 10
299.0
 20
-363.5
 30
0.0
 11
324.0
 21
-363.5
 31
0.0
  0
LINE
  5
240
330
18
100
AcDbEntity
  8
PV0001_1
  6
PHANTOM2
 48
0.5
370
    25
100
AcDbLine
 10
299.0
 20
-373.5
 30
0.0
 11
324.0
 21
-373.5
 31
0.0
  0
LINE
  5
241
330
18
100
AcDbEntity
  8
PV0001_1
  6
PHANTOM2
 48
0.5
370
    25
100
AcDbLine
 10
254.0
 20
-371.5
 30
0.0
 11
264.0
 21
-371.5
 31
0.0
  0
LINE
  5
242
330
18
100
AcDbEntity
  8
PV0001_1
  6
PHANTOM2
 48
0.5
370
    25
100
AcDbLine
 10
299.0
 20
-362.75
 30
0.0
 11
299.0
 21
-374.25
 31
0.0
  0
LINE
  5
243
330
18
100
AcDbEntity
  8
PV0001_1
  6
PHANTOM2
 48
0.5
370
    25
100
AcDbLine
 10
264.0
 20
-364.5
 30
0.0
 11
264.0
 21
-372.5
 31
0.0
  0
LINE
  5
244
330
18
100
AcDbEntity
  8
PV0001_1
  6
PHANTOM2
 48
0.5
370
    25
100
AcDbLine
 10
273.0
 20
-371.95849609375
 30
0.0
 11
273.93789672851
 21
-372.5
 31
0.0
  0
LINE
  5
245
330
18
100
AcDbEntity
  8
PV0001_1
  6
PHANTOM2
 48
0.5
370
    25
100
AcDbLine
 10
273.0
 20
-365.04150390625
 30
0.0
 11
273.93792724609
 21
-364.5
 31
0.0
  0
ARC
  5
246
330
18
100
AcDbEntity
  8
PV0001_1
  6
Continuous
 48
0.5
370
    50
100
AcDbCircle
 10
7.472381591796899
 20
-5.6104583740234
 30
0.0
 40
0.2000000029802
100
AcDbArc
 50
135.0000549831359
 51
220.6012585677736
  0
ARC
  5
247
330
18
100
AcDbEntity
  8
PV0001_1
  6
Continuous
 48
0.5
370
    50
100
AcDbCircle
 10
5.7021789550781
 20
-5.199996948242199
 30
0.0
 40
0.2000000029802
100
AcDbArc
 50
270.0000179860904
 51
322.1249959578259
  0
ARC
  5
248
330
18
100
AcDbEntity
  8
PV0001_1
  6
Continuous
 48
0.5
370
    50
100
AcDbCircle
 10
5.699996948242199
 20
-6.199996948242199
 30
0.0
 40
0.2000000029802
100
AcDbArc
 50
36.86990755486351
 51
89.99998201390964
  0
ARC
  5
249
330
18
100
AcDbEntity
  8
PV0001_1
  6
Continuous
 48
0.5
370
    50
100
AcDbCircle
 10
4.8000030517578
 20
-5.199996948242199
 30
0.0
 40
0.2000000029802
100
AcDbArc
 50
179.9999776881987
 51
270.0000280040004
  0
ARC
  5
24A
330
18
100
AcDbEntity
  8
PV0001_1
  6
Continuous
 48
0.5
370
    50
100
AcDbCircle
 10
4.8000030517578
 20
-6.199996948242199
 30
0.0
 40
0.2000000029802
100
AcDbArc
 50
89.99998201390964
 51
179.9999640278192
  0
ARC
  5
24B
330
18
100
AcDbEntity
  8
PV0001_1
  6
Continuous
 48
0.5
370
    50
100
AcDbCircle
 10
10.800003051757
 20
-7.199996948242199
 30
0.0
 40
1.2000000476837
100
AcDbArc
 50
179.9999776881987
 51
270.0000280040004
  0
ARC
  5
24C
330
18
100
AcDbEntity
  8
PV0001_1
  6
Continuous
 48
0.5
370
    50
100
AcDbCircle
 10
14.600006103515
 20
-7.199996948242199
 30
0.0
 40
1.2000000476837
100
AcDbArc
 50
270.0000179860904
 51
0.0
  0
ARC
  5
24D
330
18
100
AcDbEntity
  8
PV0001_1
  6
Continuous
 48
0.5
370
    50
100
AcDbCircle
 10
13.800003051757
 20
-7.0
 30
0.0
 40
0.6000000238419
100
AcDbArc
 50
270.0000179860904
 51
0.0
  0
ARC
  5
24E
330
18
100
AcDbEntity
  8
PV0001_1
  6
Continuous
 48
0.5
370
    50
100
AcDbCircle
 10
11.600006103515
 20
-7.0
 30
0.0
 40
0.6000000238419
100
AcDbArc
 50
179.9999776881987
 51
270.0000280040004
  0
ARC
  5
24F
330
18
100
AcDbEntity
  8
PV0001_1
  6
Continuous
 48
0.5
370
    50
100
AcDbCircle
 10
20.5
 20
-8.399993896484399
 30
0.0
 40
2.0
100
AcDbArc
 50
0.0
 51
54.42673123145972
  0
ARC
  5
250
330
18
100
AcDbEntity
  8
PV0001_1
  6
Continuous
 48
0.5
370
    50
100
AcDbCircle
 10
21.0
 20
-5.099990844726599
 30
0.0
 40
1.5
100
AcDbArc
 50
0.0
 51
89.99998201390964
  0
ARC
  5
251
330
18
100
AcDbEntity
  8
PV0001_1
  6
Continuous
 48
0.5
370
    50
100
AcDbCircle
 10
21.0
 20
-5.099990844726599
 30
0.0
 40
1.5
100
AcDbArc
 50
297.304990098971
 51
0.0
  0
ARC
  5
252
330
18
100
AcDbEntity
  8
PV0001_1
  6
Continuous
 48
0.5
370
    50
100
AcDbCircle
 10
18.300003051757
 20
-7.199996948242199
 30
0.0
 40
0.4000000059605
100
AcDbArc
 50
89.99998201390964
 51
179.9999640278192
  0
ARC
  5
253
330
18
100
AcDbEntity
  8
PV0001_1
  6
Continuous
 48
0.5
370
    50
100
AcDbCircle
 10
20.199996948242
 20
-7.399993896484399
 30
0.0
 40
0.6000000238419
100
AcDbArc
 50
0.0
 51
89.99998201390964
  0
ARC
  5
254
330
18
100
AcDbEntity
  8
PV0001_1
  6
Continuous
 48
0.5
370
    50
100
AcDbCircle
 10
21.779830932617
 20
-6.6105804443359
 30
0.0
 40
0.2000000029802
100
AcDbArc
 50
117.3049472966005
 51
234.4267362404176
  0
ARC
  5
255
330
18
100
AcDbEntity
  8
PV0001_1
  6
Continuous
 48
0.5
370
    50
100
AcDbCircle
 10
18.100006103515
 20
-4.399993896484399
 30
0.0
 40
0.2000000029802
100
AcDbArc
 50
89.99998201390964
 51
179.9999640278192
  0
ARC
  5
256
330
18
100
AcDbEntity
  8
PV0001_1
  6
Continuous
 48
0.5
370
    50
100
AcDbCircle
 10
18.100006103515
 20
-5.899993896484399
 30
0.0
 40
0.2000000029802
100
AcDbArc
 50
179.9999776881987
 51
270.0000280040004
  0
ARC
  5
257
330
18
100
AcDbEntity
  8
PV0001_1
  6
Continuous
 48
0.5
370
    50
100
AcDbCircle
 10
20.199996948242
 20
-5.5
 30
0.0
 40
0.6000000238419
100
AcDbArc
 50
270.0000179860904
 51
0.0
  0
ARC
  5
258
330
18
100
AcDbEntity
  8
PV0001_1
  6
Continuous
 48
0.5
370
    50
100
AcDbCircle
 10
20.199996948242
 20
-4.799987792968799
 30
0.0
 40
0.6000000238419
100
AcDbArc
 50
0.0
 51
89.99998201390964
  0
ARC
  5
259
330
18
100
AcDbEntity
  8
PV0001_1
  6
Continuous
 48
0.5
370
    50
100
AcDbCircle
 10
24.199996948242
 20
-7.0
 30
0.0
 40
1.399999976158099
100
AcDbArc
 50
179.9999776881987
 51
270.0000280040004
  0
ARC
  5
25A
330
18
100
AcDbEntity
  8
PV0001_1
  6
Continuous
 48
0.5
370
    50
100
AcDbCircle
 10
28.0
 20
-7.0
 30
0.0
 40
1.399999976158099
100
AcDbArc
 50
270.0000179860904
 51
0.0
  0
ARC
  5
25B
330
18
100
AcDbEntity
  8
PV0001_1
  6
Continuous
 48
0.5
370
    50
100
AcDbCircle
 10
28.0
 20
-5.0
 30
0.0
 40
1.399999976158099
100
AcDbArc
 50
0.0
 51
89.99998201390964
  0
ARC
  5
25C
330
18
100
AcDbEntity
  8
PV0001_1
  6
Continuous
 48
0.5
370
    50
100
AcDbCircle
 10
24.199996948242
 20
-5.0
 30
0.0
 40
1.399999976158099
100
AcDbArc
 50
89.99998201390964
 51
179.9999640278192
  0
ARC
  5
25D
330
18
100
AcDbEntity
  8
PV0001_1
  6
Continuous
 48
0.5
370
    50
100
AcDbCircle
 10
25.199996948242
 20
-5.0
 30
0.0
 40
0.8000000119209
100
AcDbArc
 50
89.99998201390964
 51
179.9999640278192
  0
ARC
  5
25E
330
18
100
AcDbEntity
  8
PV0001_1
  6
Continuous
 48
0.5
370
    50
100
AcDbCircle
 10
25.199996948242
 20
-6.799987792968799
 30
0.0
 40
0.8000000119209
100
AcDbArc
 50
179.9999776881987
 51
270.0000280040004
  0
ARC
  5
25F
330
18
100
AcDbEntity
  8
PV0001_1
  6
Continuous
 48
0.5
370
    50
100
AcDbCircle
 10
27.0
 20
-6.799987792968799
 30
0.0
 40
0.8000000119209
100
AcDbArc
 50
270.0000179860904
 51
0.0
  0
ARC
  5
260
330
18
100
AcDbEntity
  8
PV0001_1
  6
Continuous
 48
0.5
370
    50
100
AcDbCircle
 10
27.0
 20
-5.0
 30
0.0
 40
0.8000000119209
100
AcDbArc
 50
0.0
 51
89.99998201390964
  0
ARC
  5
261
330
18
100
AcDbEntity
  8
PV0001_1
  6
Continuous
 48
0.5
370
    50
100
AcDbCircle
 10
31.600006103515
 20
-4.399993896484399
 30
0.0
 40
0.2000000029802
100
AcDbArc
 50
89.99998201390964
 51
179.9999640278192
  0
ARC
  5
262
330
18
100
AcDbEntity
  8
PV0001_1
  6
Continuous
 48
0.5
370
    50
100
AcDbCircle
 10
31.600006103515
 20
-7.399993896484399
 30
0.0
 40
0.2000000029802
100
AcDbArc
 50
179.9999776881987
 51
270.0000280040004
  0
ARC
  5
263
330
18
100
AcDbEntity
  8
PV0001_1
  6
Continuous
 48
0.5
370
    50
100
AcDbCircle
 10
33.80000305175701
 20
-6.799987792968799
 30
0.0
 40
0.8000000119209
100
AcDbArc
 50
270.0000179860904
 51
0.0
  0
ARC
  5
264
330
18
100
AcDbEntity
  8
PV0001_1
  6
Continuous
 48
0.5
370
    50
100
AcDbCircle
 10
33.80000305175701
 20
-5.0
 30
0.0
 40
0.8000000119209
100
AcDbArc
 50
0.0
 51
89.99998201390964
  0
ARC
  5
265
330
18
100
AcDbEntity
  8
PV0001_1
  6
Continuous
 48
0.5
370
    50
100
AcDbCircle
 10
34.800003051757
 20
-6.9999847412109
 30
0.0
 40
1.399999976158099
100
AcDbArc
 50
270.0000179860904
 51
0.0
  0
ARC
  5
266
330
18
100
AcDbEntity
  8
PV0001_1
  6
Continuous
 48
0.5
370
    50
100
AcDbCircle
 10
34.800003051757
 20
-5.0
 30
0.0
 40
1.399999976158099
100
AcDbArc
 50
0.0
 51
89.99998201390964
  0
ARC
  5
267
330
18
100
AcDbEntity
  8
PV0001_1
  6
Continuous
 48
0.5
370
    50
100
AcDbCircle
 10
38.677490234375
 20
-6.399993896484399
 30
0.0
 40
0.2000000029802
100
AcDbArc
 50
161.5650375711494
 51
270.000000683247
  0
ARC
  5
268
330
18
100
AcDbEntity
  8
PV0001_1
  6
Continuous
 48
0.5
370
    50
100
AcDbCircle
 10
40.92251586914
 20
-6.399993896484399
 30
0.0
 40
0.2000000029802
100
AcDbArc
 50
270.0000179860904
 51
18.4348803528989
  0
ARC
  5
269
330
18
100
AcDbEntity
  8
PV0001_1
  6
Continuous
 48
0.5
370
    50
100
AcDbCircle
 10
39.344146728515
 20
-4.399993896484399
 30
0.0
 40
0.2000000029802
100
AcDbArc
 50
89.99998201390964
 51
161.5651331937947
  0
ARC
  5
26A
330
18
100
AcDbEntity
  8
PV0001_1
  6
Continuous
 48
0.5
370
    50
100
AcDbCircle
 10
40.25585937499999
 20
-4.399993896484399
 30
0.0
 40
0.2000000029802
100
AcDbArc
 50
18.43505281517194
 51
89.99998201390964
  0
ARC
  5
26B
330
18
100
AcDbEntity
  8
PV0001_1
  6
Continuous
 48
0.5
370
    50
100
AcDbCircle
 10
38.27749633789
 20
-7.599990844726599
 30
0.0
 40
0.2000000029802
100
AcDbArc
 50
89.99998201390964
 51
161.5650102503904
  0
ARC
  5
26C
330
18
100
AcDbEntity
  8
PV0001_1
  6
Continuous
 48
0.5
370
    50
100
AcDbCircle
 10
41.322509765625
 20
-7.599990844726599
 30
0.0
 40
0.2000000029802
100
AcDbArc
 50
18.4348803528989
 51
89.99998201390964
  0
CIRCLE
  5
26D
330
18
100
AcDbEntity
  8
PV0001_1
  6
Continuous
 48
0.5
370
   100
100
AcDbCircle
 10
266.30798339843
 20
-6.000061035156299
 30
0.0
 40
2.700000047683699
  0
CIRCLE
  5
26E
330
18
100
AcDbEntity
  8
PV0001_1
  6
Continuous
 48
0.5
370
   100
100
AcDbCircle
 10
266.30798339843
 20
-6.000061035156299
 30
0.0
 40
1.6200001239777
  0
CIRCLE
  5
26F
330
18
100
AcDbEntity
  8
PV0001_1
  6
Continuous
 48
0.5
370
    50
100
AcDbCircle
 10
154.49998474121
 20
-237.50001525878
 30
0.0
 40
2.75
  0
CIRCLE
  5
270
330
18
100
AcDbEntity
  8
PV0001_1
  6
Continuous
 48
0.5
370
    50
100
AcDbCircle
 10
168.49996948242
 20
-237.49998474121
 30
0.0
 40
2.75
  0
CIRCLE
  5
271
330
18
100
AcDbEntity
  8
PV0001_1
  6
Continuous
 48
0.5
370
    50
100
AcDbCircle
 10
168.49996948242
 20
-199.50001525878
 30
0.0
 40
2.75
  0
CIRCLE
  5
272
330
18
100
AcDbEntity
  8
PV0001_1
  6
Continuous
 48
0.5
370
    50
100
AcDbCircle
 10
154.49998474121
 20
-199.50001525878
 30
0.0
 40
2.75
  0
CIRCLE
  5
273
330
18
100
AcDbEntity
  8
PV0001_1
  6
Continuous
370
    50
100
AcDbCircle
 10
164.49998474121
 20
-218.5
 30
0.0
 40
11.94250011444
  0
CIRCLE
  5
274
330
18
100
AcDbEntity
  8
PV0001_1
  6
Continuous
370
    25
100
AcDbCircle
 10
164.49998474121
 20
-218.5
 30
0.0
 40
11.36600112915
  0
ARC
  5
275
330
18
100
AcDbEntity
  8
PV0001_1
  6
Continuous
 48
0.5
370
    50
100
AcDbCircle
 10
164.49998474121
 20
-218.5
 30
0.0
 40
8.5
100
AcDbArc
 50
214.5603150591985
 51
235.4396705971749
  0
ARC
  5
276
330
18
100
AcDbEntity
  8
PV0001_1
  6
Continuous
 48
0.5
370
    50
100
AcDbCircle
 10
164.49998474121
 20
-218.5
 30
0.0
 40
8.5
100
AcDbArc
 50
304.5603380542468
 51
325.4396935922232
  0
ARC
  5
277
330
18
100
AcDbEntity
  8
PV0001_1
  6
Continuous
 48
0.5
370
    50
100
AcDbCircle
 10
164.49998474121
 20
-218.5
 30
0.0
 40
8.5
100
AcDbArc
 50
34.56028250211552
 51
55.43962437971237
  0
ARC
  5
278
330
18
100
AcDbEntity
  8
PV0001_1
  6
Continuous
 48
0.5
370
    50
100
AcDbCircle
 10
164.49998474121
 20
-218.5
 30
0.0
 40
8.5
100
AcDbArc
 50
124.5603157424455
 51
145.4396712804219
  0
CIRCLE
  5
279
330
18
100
AcDbEntity
  8
PV0001_1
  6
CENTER2
370
    25
100
AcDbCircle
 10
164.49998474121
 20
-218.5
 30
0.0
 40
9.0
  0
CIRCLE
  5
27A
330
18
100
AcDbEntity
  8
PV0001_1
  6
Continuous
 48
0.5
370
    50
100
AcDbCircle
 10
155.5
 20
-218.5
 30
0.0
 40
1.399999976158099
  0
CIRCLE
  5
27B
330
18
100
AcDbEntity
  8
PV0001_1
  6
Continuous
 48
0.5
370
    50
100
AcDbCircle
 10
164.49998474121
 20
-227.5
 30
0.0
 40
1.399999976158099
  0
CIRCLE
  5
27C
330
18
100
AcDbEntity
  8
PV0001_1
  6
Continuous
 48
0.5
370
    50
100
AcDbCircle
 10
173.49996948242
 20
-218.5
 30
0.0
 40
1.399999976158099
  0
CIRCLE
  5
27D
330
18
100
AcDbEntity
  8
PV0001_1
  6
Continuous
 48
0.5
370
    50
100
AcDbCircle
 10
164.49998474121
 20
-209.5
 30
0.0
 40
1.399999976158099
  0
CIRCLE
  5
27E
330
18
100
AcDbEntity
  8
PV0001_1
  6
Continuous
370
    50
100
AcDbCircle
 10
283.5
 20
-237.49998474121
 30
0.0
 40
5.5
  0
CIRCLE
  5
27F
330
18
100
AcDbEntity
  8
PV0001_1
  6
Continuous
 48
0.5
370
    50
100
AcDbCircle
 10
283.5
 20
-237.49998474121
 30
0.0
 40
3.2999999523163
  0
CIRCLE
  5
280
330
18
100
AcDbEntity
  8
PV0001_1
  6
Continuous
370
    50
100
AcDbCircle
 10
283.5
 20
-199.49998474121
 30
0.0
 40
5.5
  0
CIRCLE
  5
281
330
18
100
AcDbEntity
  8
PV0001_1
  6
Continuous
 48
0.5
370
    50
100
AcDbCircle
 10
283.5
 20
-199.49998474121
 30
0.0
 40
3.2999999523163
  0
CIRCLE
  5
282
330
18
100
AcDbEntity
  8
PV0001_1
  6
Continuous
 48
0.5
370
    50
100
AcDbCircle
 10
648.0
 20
-237.50003051757
 30
0.0
 40
3.2999999523163
  0
CIRCLE
  5
283
330
18
100
AcDbEntity
  8
PV0001_1
  6
Continuous
 48
0.5
370
    50
100
AcDbCircle
 10
648.0
 20
-199.50001525878
 30
0.0
 40
3.2999999523163
  0
CIRCLE
  5
284
330
18
100
AcDbEntity
  8
PV0001_1
  6
Continuous
370
    50
100
AcDbCircle
 10
648.0
 20
-199.50001525878
 30
0.0
 40
5.5
  0
CIRCLE
  5
285
330
18
100
AcDbEntity
  8
PV0001_1
  6
Continuous
370
    50
100
AcDbCircle
 10
648.0
 20
-237.50003051757
 30
0.0
 40
5.5
  0
CIRCLE
  5
286
330
18
100
AcDbEntity
  8
PV0001_1
  6
Continuous
370
    50
100
AcDbCircle
 10
754.0
 20
-218.5
 30
0.0
 40
8.5
  0
ARC
  5
287
330
18
100
AcDbEntity
  8
PV0001_1
  6
Continuous
 48
0.5
370
    50
100
AcDbCircle
 10
164.49998474121
 20
-318.5
 30
0.0
 40
21.5
100
AcDbArc
 50
125.5159548299782
 51
144.4839912117506
  0
CIRCLE
  5
288
330
18
100
AcDbEntity
  8
PV0001_1
  6
CENTER2
370
    25
100
AcDbCircle
 10
164.49998474121
 20
-318.5
 30
0.0
 40
17.5
  0
ARC
  5
289
330
18
100
AcDbEntity
  8
PV0001_1
  6
Continuous
 48
0.5
370
    50
100
AcDbCircle
 10
164.49998474121
 20
-318.5
 30
0.0
 40
21.5
100
AcDbArc
 50
35.51593183493575
 51
54.48396821670812
  0
ARC
  5
28A
330
18
100
AcDbEntity
  8
PV0001_1
  6
Continuous
 48
0.5
370
    50
100
AcDbCircle
 10
164.49998474121
 20
-318.5
 30
0.0
 40
21.5
100
AcDbArc
 50
305.5159634813999
 51
324.4840135235519
  0
ARC
  5
28B
330
18
100
AcDbEntity
  8
PV0001_1
  6
Continuous
 48
0.5
370
    50
100
AcDbCircle
 10
164.49998474121
 20
-318.5
 30
0.0
 40
21.5
100
AcDbArc
 50
215.5159678071107
 51
234.4840041888831
  0
CIRCLE
  5
28C
330
18
100
AcDbEntity
  8
PV0001_1
  6
Continuous
 48
0.5
370
    50
100
AcDbCircle
 10
152.12561035156
 20
-306.12561035156
 30
0.0
 40
3.25
  0
CIRCLE
  5
28D
330
18
100
AcDbEntity
  8
PV0001_1
  6
Continuous
 48
0.5
370
    50
100
AcDbCircle
 10
152.12561035156
 20
-306.12561035156
 30
0.0
 40
1.7000000476837
  0
CIRCLE
  5
28E
330
18
100
AcDbEntity
  8
PV0001_1
  6
Continuous
 48
0.5
370
    50
100
AcDbCircle
 10
176.87435913085
 20
-306.12561035156
 30
0.0
 40
3.25
  0
CIRCLE
  5
28F
330
18
100
AcDbEntity
  8
PV0001_1
  6
Continuous
 48
0.5
370
    50
100
AcDbCircle
 10
176.87435913085
 20
-306.12561035156
 30
0.0
 40
1.7000000476837
  0
CIRCLE
  5
290
330
18
100
AcDbEntity
  8
PV0001_1
  6
Continuous
 48
0.5
370
    50
100
AcDbCircle
 10
152.12561035156
 20
-330.87438964843
 30
0.0
 40
3.25
  0
CIRCLE
  5
291
330
18
100
AcDbEntity
  8
PV0001_1
  6
Continuous
 48
0.5
370
    50
100
AcDbCircle
 10
152.12561035156
 20
-330.87438964843
 30
0.0
 40
1.7000000476837
  0
CIRCLE
  5
292
330
18
100
AcDbEntity
  8
PV0001_1
  6
Continuous
 48
0.5
370
    50
100
AcDbCircle
 10
176.87435913085
 20
-330.87438964843
 30
0.0
 40
3.25
  0
CIRCLE
  5
293
330
18
100
AcDbEntity
  8
PV0001_1
  6
Continuous
 48
0.5
370
    50
100
AcDbCircle
 10
176.87435913085
 20
-330.87438964843
 30
0.0
 40
1.7000000476837
  0
ARC
  5
294
330
18
100
AcDbEntity
  8
PV0001_1
  6
Continuous
 48
0.5
370
    50
100
AcDbCircle
 10
164.49998474121
 20
-318.5
 30
0.0
 40
8.5
100
AcDbArc
 50
124.5602884216922
 51
145.4396439596628
  0
ARC
  5
295
330
18
100
AcDbEntity
  8
PV0001_1
  6
Continuous
 48
0.5
370
    50
100
AcDbCircle
 10
164.49998474121
 20
-318.5
 30
0.0
 40
8.5
100
AcDbArc
 50
34.56026542664397
 51
55.43962096462036
  0
ARC
  5
296
330
18
100
AcDbEntity
  8
PV0001_1
  6
Continuous
 48
0.5
370
    50
100
AcDbCircle
 10
164.49998474121
 20
-318.5
 30
0.0
 40
8.5
100
AcDbArc
 50
304.5603380542468
 51
325.4396799318436
  0
ARC
  5
297
330
18
100
AcDbEntity
  8
PV0001_1
  6
Continuous
 48
0.5
370
    50
100
AcDbCircle
 10
164.49998474121
 20
-318.5
 30
0.0
 40
8.5
100
AcDbArc
 50
214.5603013988247
 51
235.4396569367954
  0
CIRCLE
  5
298
330
18
100
AcDbEntity
  8
PV0001_1
  6
Continuous
370
    25
100
AcDbCircle
 10
164.49998474121
 20
-318.5
 30
0.0
 40
11.366000175476
  0
CIRCLE
  5
299
330
18
100
AcDbEntity
  8
PV0001_1
  6
Continuous
370
    50
100
AcDbCircle
 10
164.49998474121
 20
-318.5
 30
0.0
 40
11.94250011444
  0
CIRCLE
  5
29A
330
18
100
AcDbEntity
  8
PV0001_1
  6
CENTER2
370
    25
100
AcDbCircle
 10
164.49998474121
 20
-318.5
 30
0.0
 40
9.0
  0
CIRCLE
  5
29B
330
18
100
AcDbEntity
  8
PV0001_1
  6
Continuous
 48
0.5
370
    50
100
AcDbCircle
 10
164.49998474121
 20
-309.5
 30
0.0
 40
1.399999976158099
  0
CIRCLE
  5
29C
330
18
100
AcDbEntity
  8
PV0001_1
  6
Continuous
 48
0.5
370
    50
100
AcDbCircle
 10
173.49998474121
 20
-318.5
 30
0.0
 40
1.399999976158099
  0
CIRCLE
  5
29D
330
18
100
AcDbEntity
  8
PV0001_1
  6
Continuous
 48
0.5
370
    50
100
AcDbCircle
 10
155.49998474121
 20
-318.5
 30
0.0
 40
1.399999976158099
  0
CIRCLE
  5
29E
330
18
100
AcDbEntity
  8
PV0001_1
  6
Continuous
 48
0.5
370
    50
100
AcDbCircle
 10
164.49996948242
 20
-327.5
 30
0.0
 40
1.399999976158099
  0
ARC
  5
2A8
330
18
100
AcDbEntity
  8
PV0001_1
  6
Continuous
 48
0.5
370
    50
100
AcDbCircle
 10
298.79998779296
 20
-84.30000305175701
 30
0.0
 40
0.2000000029802
100
AcDbArc
 50
269.9999974955211
 51
0.0
  0
ARC
  5
2A9
330
18
100
AcDbEntity
  8
PV0001_1
  6
Continuous
 48
0.5
370
    50
100
AcDbCircle
 10
298.79998779296
 20
-92.699996948242
 30
0.0
 40
0.2000000029802
100
AcDbArc
 50
0.0
 51
90.00000250447893
  0
ARC
  5
2AA
330
18
100
AcDbEntity
  8
PV0001_1
  6
Continuous
 48
0.5
370
    50
100
AcDbCircle
 10
645.20001220703
 20
-85.300003051757
 30
0.0
 40
0.2000000029802
100
AcDbArc
 50
179.9999913485783
 51
270.000000683247
  0
ARC
  5
2AB
330
18
100
AcDbEntity
  8
PV0001_1
  6
Continuous
 48
0.5
370
    50
100
AcDbCircle
 10
645.20001220703
 20
-91.699996948242
 30
0.0
 40
0.2000000029802
100
AcDbArc
 50
90.00000250447893
 51
180.0000050089578
  0
ARC
  5
2AC
330
18
100
AcDbEntity
  8
PV0001_1
  6
PHANTOM2
 48
0.5
370
    25
100
AcDbCircle
 10
298.79998779296
 20
-222.69999694824
 30
0.0
 40
0.2000000029802
100
AcDbArc
 50
0.0
 51
90.00000250447893
  0
ARC
  5
2AD
330
18
100
AcDbEntity
  8
PV0001_1
  6
PHANTOM2
 48
0.5
370
    25
100
AcDbCircle
 10
298.79998779296
 20
-214.30000305175
 30
0.0
 40
0.2000000029802
100
AcDbArc
 50
269.9999974955211
 51
0.0
  0
ARC
  5
2AE
330
18
100
AcDbEntity
  8
PV0001_1
  6
PHANTOM2
 48
0.5
370
    25
100
AcDbCircle
 10
645.20001220703
 20
-215.30000305175
 30
0.0
 40
0.2000000029802
100
AcDbArc
 50
180.0000050089578
 51
270.000000683247
  0
ARC
  5
2AF
330
18
100
AcDbEntity
  8
PV0001_1
  6
PHANTOM2
 48
0.5
370
    25
100
AcDbCircle
 10
645.20001220703
 20
-221.69999694824
 30
0.0
 40
0.2000000029802
100
AcDbArc
 50
90.00000250447893
 51
180.0000050089578
  0
ARC
  5
2B0
330
18
100
AcDbEntity
  8
PV0001_1
  6
PHANTOM2
 48
0.5
370
    25
100
AcDbCircle
 10
298.79998779296
 20
-322.70001220703
 30
0.0
 40
0.2000000029802
100
AcDbArc
 50
0.0
 51
90.00000250447893
  0
ARC
  5
2B1
330
18
100
AcDbEntity
  8
PV0001_1
  6
PHANTOM2
 48
0.5
370
    25
100
AcDbCircle
 10
298.79998779296
 20
-314.29998779296
 30
0.0
 40
0.2000000029802
100
AcDbArc
 50
269.9999974955211
 51
0.0
  0
ARC
  5
2B2
330
18
100
AcDbEntity
  8
PV0001_1
  6
PHANTOM2
 48
0.5
370
    25
100
AcDbCircle
 10
645.2000122070298
 20
-365.29998779296
 30
0.0
 40
0.2000000029802
100
AcDbArc
 50
180.0000050089578
 51
270.000000683247
  0
ARC
  5
2B3
330
18
100
AcDbEntity
  8
PV0001_1
  6
PHANTOM2
 48
0.5
370
    25
100
AcDbCircle
 10
645.2000122070298
 20
-371.7000122070299
 30
0.0
 40
0.2000000029802
100
AcDbArc
 50
90.00000250447893
 51
180.0000050089578
  0
ARC
  5
2B4
330
18
100
AcDbEntity
  8
PV0001_1
  6
PHANTOM2
 48
0.5
370
    25
100
AcDbCircle
 10
298.79998779296
 20
-372.70001220703
 30
0.0
 40
0.2000000029802
100
AcDbArc
 50
0.0
 51
90.00000250447893
  0
ARC
  5
2B5
330
18
100
AcDbEntity
  8
PV0001_1
  6
PHANTOM2
 48
0.5
370
    25
100
AcDbCircle
 10
298.79998779296
 20
-364.29998779296
 30
0.0
 40
0.2000000029802
100
AcDbArc
 50
269.9999974955211
 51
0.0
  0
MTEXT
  5
2B6
330
18
100
AcDbEntity
  8
PV0001_1
 62
     7
370
    25
100
AcDbMText
 10
49.82849389314615
 20
-2.0
 30
0.0
 40
3.2
 41
0.0
 71
     4
 72
     5
  1
\T1.40;\W0.61;FILE\U+3000NAME
 73
     1
 44
1.0
1001
ACAD
1000
MTEXTBEGIN
1070
    73
1070
     1
1070
    44
1040
1.0
1070
    74
1070
     0
1000
MTEXTEND
  0
MTEXT
  5
2B7
330
18
100
AcDbEntity
  8
PV0001_1
 62
     7
370
    25
100
AcDbMText
 10
65.54274392127952
 20
-7.5
 30
0.0
 40
4.799999999999999
 41
0.0
 71
     4
 72
     5
  1
\T1.4;\W0.61;GY1005DS
 73
     1
 44
1.0
1001
ACAD
1000
MTEXTBEGIN
1070
    73
1070
     1
1070
    44
1040
1.0
1070
    74
1070
     0
1000
MTEXTEND
  0
MTEXT
  5
2B8
330
18
100
AcDbEntity
  8
PV0001_1
 62
     7
370
    25
100
AcDbMText
 10
111.8284938931421
 20
-2.0
 30
0.0
 40
3.2
 41
0.0
 71
     4
 72
     5
  1
\T1.40;\W0.61;MODEL
 73
     1
 44
1.0
1001
ACAD
1000
MTEXTBEGIN
1070
    73
1070
     1
1070
    44
1040
1.0
1070
    74
1070
     0
1000
MTEXTEND
  0
MTEXT
  5
2B9
330
18
100
AcDbEntity
  8
PV0001_1
 62
     7
370
    25
100
AcDbMText
 10
119.5427439212755
 20
-7.5
 30
0.0
 40
4.799999999999999
 41
0.0
 71
     4
 72
     5
  1
\T1.4;\W0.61;GY1005DS-HUNR-0400A
 73
     1
 44
1.0
1001
ACAD
1000
MTEXTBEGIN
1070
    73
1070
     1
1070
    44
1040
1.0
1070
    74
1070
     0
1000
MTEXTEND
  0
MTEXT
  5
2BA
330
18
100
AcDbEntity
  8
PV0001_1
 62
     7
370
    25
100
AcDbMText
 10
243.5427439212755
 20
-7.5
 30
0.0
 40
4.799999999999999
 41
0.0
 71
     4
 72
     5
  1
\T1.40;\W0.61;400
 73
     1
 44
1.0
1001
ACAD
1000
MTEXTBEGIN
1070
    73
1070
     1
1070
    44
1040
1.0
1070
    74
1070
     0
1000
MTEXTEND
  0
MTEXT
  5
2BB
330
18
100
AcDbEntity
  8
PV0001_1
 62
     7
370
    25
100
AcDbMText
 10
235.8284938931421
 20
-2.0
 30
0.0
 40
3.2
 41
0.0
 71
     4
 72
     5
  1
\T1.40;\W0.61;L
 73
     1
 44
1.0
1001
ACAD
1000
MTEXTBEGIN
1070
    73
1070
     1
1070
    44
1040
1.0
1070
    74
1070
     0
1000
MTEXTEND
  0
MTEXT
  5
2BC
330
18
100
AcDbEntity
  8
PV0001_1
 62
     7
370
    25
100
AcDbMText
 10
111.8284938931421
 20
-14.0
 30
0.0
 40
3.2
 41
0.0
 71
     4
 72
     5
  1
\T1.40;\W0.61;MODEL
 73
     1
 44
1.0
1001
ACAD
1000
MTEXTBEGIN
1070
    73
1070
     1
1070
    44
1040
1.0
1070
    74
1070
     0
1000
MTEXTEND
  0
MTEXT
  5
2BD
330
18
100
AcDbEntity
  8
PV0001_1
 62
     7
370
    25
100
AcDbMText
 10
235.8284938931421
 20
-14.0
 30
0.0
 40
3.2
 41
0.0
 71
     4
 72
     5
  1
\T1.40;\W0.61;L
 73
     1
 44
1.0
1001
ACAD
1000
MTEXTBEGIN
1070
    73
1070
     1
1070
    44
1040
1.0
1070
    74
1070
     0
1000
MTEXTEND
  0
MTEXT
  5
2BE
330
18
100
AcDbEntity
  8
PV0001_1
 62
     7
370
    25
100
AcDbMText
 10
243.5427439212755
 20
-19.5
 30
0.0
 40
4.799999999999999
 41
0.0
 71
     4
 72
     5
  1
\T1.40;\W0.61;600
 73
     1
 44
1.0
1001
ACAD
1000
MTEXTBEGIN
1070
    73
1070
     1
1070
    44
1040
1.0
1070
    74
1070
     0
1000
MTEXTEND
  0
MTEXT
  5
2BF
330
18
100
AcDbEntity
  8
PV0001_1
 62
     7
370
    25
100
AcDbMText
 10
272.8631313443121
 20
-249.01123046875
 30
0.0
 40
3.2
 41
0.0
 71
     4
 72
     5
  1
\T1.40;\W0.61;BUK-8F
 73
     1
 44
1.0
1001
ACAD
1000
MTEXTBEGIN
1070
    73
1070
     1
1070
    44
1040
1.0
1070
    74
1070
     0
1000
MTEXTEND
  0
MTEXT
  5
2C0
330
18
100
AcDbEntity
  8
PV0001_1
 62
     7
370
    25
100
AcDbMText
 10
640.2737148404121
 20
-249.42355346679
 30
0.0
 40
3.2
 41
0.0
 71
     4
 72
     5
  1
\T1.40;\W0.61;BUK-6S
 73
     1
 44
1.0
1001
ACAD
1000
MTEXTBEGIN
1070
    73
1070
     1
1070
    44
1040
1.0
1070
    74
1070
     0
1000
MTEXTEND
  0
MTEXT
  5
2C1
330
18
100
AcDbEntity
  8
PV0001_1
 62
     7
370
    25
100
AcDbMText
 10
273.7190578579821
 20
-339.6636352539
 30
0.0
 40
3.2
 41
0.0
 71
     4
 72
     5
  1
\T1.40;\W0.61;BUM-8
 73
     1
 44
1.0
1001
ACAD
1000
MTEXTBEGIN
1070
    73
1070
     1
1070
    44
1040
1.0
1070
    74
1070
     0
1000
MTEXTEND
  0
MTEXT
  5
2C2
330
18
100
AcDbEntity
  8
PV0001_1
 62
     7
370
    25
100
AcDbMText
 10
642.430941402912
 20
-380.2435302734299
 30
0.0
 40
3.2
 41
0.0
 71
     4
 72
     5
  1
\T1.40;\W0.61;606ZZ
 73
     1
 44
1.0
1001
ACAD
1000
MTEXTBEGIN
1070
    73
1070
     1
1070
    44
1040
1.0
1070
    74
1070
     0
1000
MTEXTEND
  0
MTEXT
  5
2C3
330
18
100
AcDbEntity
  8
PV0001_1
 62
     7
370
    25
100
AcDbMText
 10
285.9419277310321
 20
-389.86450195312
 30
0.0
 40
3.2
 41
0.0
 71
     4
 72
     5
  1
\T1.40;\W0.61;BUM-8
 73
     1
 44
1.0
1001
ACAD
1000
MTEXTBEGIN
1070
    73
1070
     1
1070
    44
1040
1.0
1070
    74
1070
     0
1000
MTEXTEND
  0
MTEXT
  5
2C4
330
18
100
AcDbEntity
  8
PV0001_1
 62
     7
370
    25
100
AcDbMText
 10
119.5427439212755
 20
-19.5
 30
0.0
 40
4.799999999999999
 41
0.0
 71
     4
 72
     5
  1
\T1.4;\W0.61;GY1005DS-HUNR-0600A
 73
     1
 44
1.0
1001
ACAD
1000
MTEXTBEGIN
1070
    73
1070
     1
1070
    44
1040
1.0
1070
    74
1070
     0
1000
MTEXTEND
  0
MTEXT
  5
2C5
330
18
100
AcDbEntity
  8
PV0001_1
 62
     7
370
    25
100
AcDbMText
 10
290.4284999966622
 20
-77.75
 30
0.0
 40
3.2
 41
0.0
 71
     4
 72
     5
  1
\T1.40;\W0.61;OPTIONAL\U+3000COLLAR
 73
     1
 44
1.0
1001
ACAD
1000
MTEXTBEGIN
1070
    73
1070
     1
1070
    44
1040
1.0
1070
    74
1070
     0
1000
MTEXTEND
  0
CIRCLE
  5
2C6
330
18
100
AcDbEntity
  8
PV0001_1
  6
Continuous
 48
0.5
370
    25
100
AcDbCircle
 10
146.99998474121
 20
-318.5
 30
0.0
 40
0.2000000029802
  0
INSERT
  5
2C7
330
18
100
AcDbEntity
  8
PV0001_1
  6
Continuous
100
AcDbBlockReference
  2
*U3
 10
0.0
 20
0.0
 30
0.0
1001
ACAD
1002
{
1000
R14_HATCH_DATA
1000
2C7
1011
1.0
1021
0.0
1031
0.0
1011
0.0
1021
1.0
1031
0.0
1011
0.0
1021
0.0
1031
1.0
1040
0.0
1010
0.0
1020
0.0
1030
1.0
1000
SOLID
1070
     1
1070
     0
1071
        1
1071
        1
1071
        1
1070
     2
1040
146.99998474121
1040
-318.5
1040
0.2000000029802
1040
0.0
1040
6.283185307179586
1070
     1
1071
        0
1070
     0
1070
     1
1071
        1
1040
0.0
1040
0.0
1040
0.0
1002
}
  0
ARC
  5
474
330
18
100
AcDbEntity
  8
PV0001_1
  6
PHANTOM2
 48
0.5
370
    50
100
AcDbCircle
 10
645.20001220703
 20
-321.699996948242
 30
0.0
 40
0.2000000029802
100
AcDbArc
 50
90.00000250448172
 51
180.0000050089569
  0
ARC
  5
475
330
18
100
AcDbEntity
  8
PV0001_1
  6
PHANTOM2
 48
0.5
370
    50
100
AcDbCircle
 10
645.20001220703
 20
-315.300003051757
 30
0.0
 40
0.2000000029802
100
AcDbArc
 50
179.9999913485786
 51
270.0000006832495
  0
LINE
  5
476
330
18
100
AcDbEntity
  8
PV0001_1
  6
PHANTOM2
 48
0.5
370
    50
100
AcDbLine
 10
651.7999877929599
 20
-315.4999999999999
 30
0.0
 11
654.0
 21
-315.4999999999999
 31
0.0
  0
LINE
  5
477
330
18
100
AcDbEntity
  8
PV0001_1
  6
PHANTOM2
 48
0.5
370
    50
100
AcDbLine
 10
651.7999877929599
 20
-321.4999999999999
 30
0.0
 11
654.0
 21
-321.4999999999999
 31
0.0
  0
LINE
  5
478
330
18
100
AcDbEntity
  8
PV0001_1
  6
PHANTOM2
 48
0.5
370
    50
100
AcDbLine
 10
651.0
 20
-315.6500015258779
 30
0.0
 11
651.7999877929599
 21
-315.6500015258779
 31
0.0
  0
LINE
  5
479
330
18
100
AcDbEntity
  8
PV0001_1
  6
PHANTOM2
 48
0.5
370
    50
100
AcDbLine
 10
645.20001220703
 20
-321.4999999999999
 30
0.0
 11
651.0
 21
-321.4999999999999
 31
0.0
  0
LINE
  5
47A
330
18
100
AcDbEntity
  8
PV0001_1
  6
PHANTOM2
 48
0.5
370
    50
100
AcDbLine
 10
651.0
 20
-321.3499984741209
 30
0.0
 11
651.7999877929599
 21
-321.3499984741209
 31
0.0
  0
LINE
  5
47B
330
18
100
AcDbEntity
  8
PV0001_1
  6
PHANTOM2
 48
0.5
370
    50
100
AcDbLine
 10
645.20001220703
 20
-315.4999999999999
 30
0.0
 11
651.0
 21
-315.4999999999999
 31
0.0
  0
LINE
  5
47C
330
18
100
AcDbEntity
  8
PV0001_1
  6
PHANTOM2
 48
0.5
370
    50
100
AcDbLine
 10
651.0
 20
-315.4999999999999
 30
0.0
 11
651.0
 21
-321.4999999999999
 31
0.0
  0
LINE
  5
47D
330
18
100
AcDbEntity
  8
PV0001_1
  6
PHANTOM2
 48
0.5
370
    50
100
AcDbLine
 10
645.0
 20
-313.4999999999999
 30
0.0
 11
645.0
 21
-323.4999999999999
 31
0.0
  0
LINE
  5
47E
330
18
100
AcDbEntity
  8
PV0001_1
  6
PHANTOM2
370
    50
100
AcDbLine
 10
584.0
 20
-323.4999999999999
 30
0.0
 11
645.0
 21
-323.4999999999999
 31
0.0
  0
LINE
  5
47F
330
18
100
AcDbEntity
  8
PV0001_1
  6
PHANTOM2
370
    25
100
AcDbLine
 10
584.0
 20
-322.5999984741209
 30
0.0
 11
645.0
 21
-322.5999984741209
 31
0.0
  0
LINE
  5
480
330
18
100
AcDbEntity
  8
PV0001_1
  6
PHANTOM2
370
    25
100
AcDbLine
 10
584.0
 20
-314.4000015258779
 30
0.0
 11
645.0
 21
-314.4000015258779
 31
0.0
  0
LINE
  5
481
330
18
100
AcDbEntity
  8
PV0001_1
  6
PHANTOM2
370
    50
100
AcDbLine
 10
584.0
 20
-313.4999999999999
 30
0.0
 11
645.0
 21
-313.4999999999999
 31
0.0
  0
LINE
  5
482
330
18
100
AcDbEntity
  8
PV0001_1
  6
PHANTOM2
 48
0.5
370
    50
100
AcDbLine
 10
651.7999877929599
 20
-315.4999999999999
 30
0.0
 11
651.7999877929599
 21
-321.4999999999999
 31
0.0
  0
LINE
  5
483
330
18
100
AcDbEntity
  8
PV0001_1
  6
PHANTOM2
 48
0.5
370
    50
100
AcDbLine
 10
654.0
 20
-315.4999999999999
 30
0.0
 11
654.0
 21
-321.4999999999999
 31
0.0
  0
LINE
  5
484
330
18
100
AcDbEntity
  8
PV0001_1
  6
CENTER2
370
    25
100
AcDbLine
 10
578.6786499023399
 20
-318.5
 30
0.0
 11
658.0904541015599
 21
-318.5
 31
0.0
  0
LINE
  5
4B4
330
18
100
AcDbEntity
  8
0
370
    -2
100
AcDbLine
 10
648.9999999999997
 20
-340.0
 30
0.0
 11
649.0
 21
-332.4999999999999
 31
0.0
  0
LINE
  5
4B5
330
18
100
AcDbEntity
  8
0
370
    -2
100
AcDbLine
 10
654.4999999999999
 20
-327.0
 30
0.0
 11
645.5
 21
-327.0
 31
0.0
  0
LINE
  5
4B6
330
18
100
AcDbEntity
  8
0
370
    -2
100
AcDbLine
 10
648.9999999999997
 20
-340.0
 30
0.0
 11
655.0
 21
-340.0
 31
0.0
  0
LINE
  5
4B7
330
18
100
AcDbEntity
  8
0
370
    -2
100
AcDbLine
 10
649.0
 20
-332.4999999999999
 30
0.0
 11
645.0
 21
-332.4999999999999
 31
0.0
  0
LINE
  5
4B8
330
18
100
AcDbEntity
  8
0
100
AcDbLine
 10
645.0
 20
-327.5
 30
0.0
 11
645.5
 21
-327.0
 31
0.0
  0
LINE
  5
4B9
330
18
100
AcDbEntity
  8
0
100
AcDbLine
 10
654.4999999999999
 20
-327.0
 30
0.0
 11
655.0
 21
-327.5
 31
0.0
  0
MTEXT
  5
4BA
330
18
100
AcDbEntity
  8
PV0001_1
 62
     7
370
    25
100
AcDbMText
 10
643.4015670327108
 20
-345.0891405847169
 30
0.0
 40
3.2
 41
0.0
 71
     4
 72
     5
  1
\T1.4;\W0.61;BUM-6S
 73
     1
 44
1.0
1001
ACAD
1000
MTEXTBEGIN
1070
    73
1070
     1
1070
    44
1040
1.0
1070
    74
1070
     0
1000
MTEXTEND
  0
LINE
  5
4BB
330
18
100
AcDbEntity
  8
0
370
    -2
100
AcDbLine
 10
648.9999999999997
 20
-304.4999999999999
 30
0.0
 11
648.9999999999997
 21
-301.0
 31
0.0
  0
LINE
  5
4BC
330
18
100
AcDbEntity
  8
0
370
    -2
100
AcDbLine
 10
655.0
 20
-340.0
 30
0.0
 11
655.0
 21
-301.0
 31
0.0
  0
LINE
  5
4BD
330
18
100
AcDbEntity
  8
0
370
    -2
100
AcDbLine
 10
655.0
 20
-301.0
 30
0.0
 11
649.0
 21
-301.0
 31
0.0
  0
LINE
  5
4BE
330
18
100
AcDbEntity
  8
0
370
    -2
100
AcDbLine
 10
645.0
 20
-304.4999999999999
 30
0.0
 11
645.0
 21
-332.4999999999999
 31
0.0
  0
LINE
  5
4BF
330
18
100
AcDbEntity
  8
0
370
    -2
100
AcDbLine
 10
654.4999999999999
 20
-310.0
 30
0.0
 11
645.5
 21
-310.0
 31
0.0
  0
LINE
  5
4C0
330
18
100
AcDbEntity
  8
0
370
    -2
100
AcDbLine
 10
648.9999999999997
 20
-304.4999999999999
 30
0.0
 11
645.0
 21
-304.4999999999999
 31
0.0
  0
LINE
  5
4C1
330
18
100
AcDbEntity
  8
0
100
AcDbLine
 10
645.5
 20
-327.0
 30
0.0
 11
645.5
 21
-310.0
 31
0.0
  0
LINE
  5
4C2
330
18
100
AcDbEntity
  8
0
100
AcDbLine
 10
645.5
 20
-310.0
 30
0.0
 11
645.0
 21
-309.5
 31
0.0
  0
LINE
  5
4C3
330
18
100
AcDbEntity
  8
0
100
AcDbLine
 10
655.0
 20
-309.5
 30
0.0
 11
654.4999999999999
 21
-310.0
 31
0.0
  0
LINE
  5
4C4
330
18
100
AcDbEntity
  8
0
100
AcDbLine
 10
654.4999999999999
 20
-310.0
 30
0.0
 11
654.4999999999999
 21
-327.0
 31
0.0
  0
ARC
  5
4C5
330
18
100
AcDbEntity
  8
0
370
    -2
100
AcDbCircle
 10
762.2992294602674
 20
-318.5
 30
0.0
 40
21.5
100
AcDbArc
 50
215.515983764534
 51
234.4840162354596
  0
CIRCLE
  5
4C6
330
18
100
AcDbEntity
  8
0
370
    -2
100
AcDbCircle
 10
749.9248601779422
 20
-330.8743680592038
 30
0.0
 40
3.25
  0
LINE
  5
4C7
330
18
100
AcDbEntity
  8
0
  6
AM_ISO08W050
370
    -2
100
AcDbLine
 10
786.7992294602674
 20
-318.5
 30
0.0
 11
737.7992294602675
 21
-318.5
 31
0.0
  0
CIRCLE
  5
4C8
330
18
100
AcDbEntity
  8
0
370
    -2
100
AcDbCircle
 10
749.9248607895029
 20
-306.1256313292354
 30
0.0
 40
3.25
  0
ARC
  5
4C9
330
18
100
AcDbEntity
  8
0
370
    -2
100
AcDbCircle
 10
762.2992294602674
 20
-318.5
 30
0.0
 40
21.5
100
AcDbArc
 50
125.5159837645404
 51
144.484016235466
  0
LINE
  5
4CA
330
18
100
AcDbEntity
  8
0
  6
AM_ISO08W050
370
    -2
100
AcDbLine
 10
779.6233455993379
 20
-301.1758838609297
 30
0.0
 11
744.9751133211968
 21
-335.8241161390704
 31
0.0
  0
LINE
  5
4CB
330
18
100
AcDbEntity
  8
0
  6
AM_ISO08W050
370
    -2
100
AcDbLine
 10
779.6233455993379
 20
-335.8241161390704
 30
0.0
 11
744.9751133211971
 21
-301.1758838609297
 31
0.0
  0
CIRCLE
  5
4CC
330
18
100
AcDbEntity
  8
0
  6
AM_ISO08W050
370
    -2
100
AcDbCircle
 10
762.2992294602674
 20
-318.5
 30
0.0
 40
17.5
  0
ARC
  5
4CD
330
18
100
AcDbEntity
  8
0
370
    -2
100
AcDbCircle
 10
762.2992294602674
 20
-318.5
 30
0.0
 40
21.5
100
AcDbArc
 50
35.51598376453396
 51
54.48401623545962
  0
LINE
  5
4CE
330
18
100
AcDbEntity
  8
0
370
    -2
100
AcDbLine
 10
774.7892254570643
 20
-300.9999999999999
 30
0.0
 11
749.8092334634707
 21
-301.0
 31
0.0
  0
LINE
  5
4CF
330
18
100
AcDbEntity
  8
0
370
    -2
100
AcDbLine
 10
779.7992294602677
 20
-306.0100040032034
 30
0.0
 11
779.7992294602675
 21
-330.9899959967968
 31
0.0
  0
CIRCLE
  5
4D0
330
18
100
AcDbEntity
  8
0
370
    -2
100
AcDbCircle
 10
762.2992294602674
 20
-318.5
 30
0.0
 40
8.5
  0
CIRCLE
  5
4D1
330
18
100
AcDbEntity
  8
0
  6
DASHED2
370
    -2
100
AcDbCircle
 10
762.2992294602674
 20
-318.5
 30
0.0
 40
14.0
  0
CIRCLE
  5
4D2
330
18
100
AcDbEntity
  8
0
370
    -2
100
AcDbCircle
 10
774.6735981310321
 20
-306.1256313292354
 30
0.0
 40
3.25
  0
CIRCLE
  5
4D3
330
18
100
AcDbEntity
  8
0
370
    -2
100
AcDbCircle
 10
774.6735987425927
 20
-306.125631940796
 30
0.0
 40
1.7
  0
CIRCLE
  5
4D4
330
18
100
AcDbEntity
  8
0
370
    -2
100
AcDbCircle
 10
749.9248614010634
 20
-306.1256319407961
 30
0.0
 40
1.7
  0
LINE
  5
4D5
330
18
100
AcDbEntity
  8
0
370
    -2
100
AcDbLine
 10
774.7892254570643
 20
-336.0
 30
0.0
 11
749.8092334634707
 21
-336.0
 31
0.0
  0
ARC
  5
4D6
330
18
100
AcDbEntity
  8
0
370
    -2
100
AcDbCircle
 10
762.2992294602674
 20
-318.5
 30
0.0
 40
21.5
100
AcDbArc
 50
305.5159837645403
 51
324.4840162354661
  0
CIRCLE
  5
4D7
330
18
100
AcDbEntity
  8
0
370
    -2
100
AcDbCircle
 10
774.6735981310321
 20
-330.8743686707646
 30
0.0
 40
3.25
  0
CIRCLE
  5
4D8
330
18
100
AcDbEntity
  8
0
370
    -2
100
AcDbCircle
 10
774.6735987425927
 20
-330.8743692823253
 30
0.0
 40
1.7
  0
CIRCLE
  5
4D9
330
18
100
AcDbEntity
  8
0
370
    -2
100
AcDbCircle
 10
749.9248607895029
 20
-330.8743686707645
 30
0.0
 40
1.7
  0
LINE
  5
4DA
330
18
100
AcDbEntity
  8
0
370
    -2
100
AcDbLine
 10
744.7992294602674
 20
-306.0100040032031
 30
0.0
 11
744.7992294602674
 21
-330.9899959967968
 31
0.0
  0
LINE
  5
4DB
330
18
100
AcDbEntity
  8
0
  6
AM_ISO08W050
100
AcDbLine
 10
762.2992294602674
 20
-343.0
 30
0.0
 11
762.2992294602674
 21
-294.0
 31
0.0
  0
CIRCLE
  5
4DC
330
18
100
AcDbEntity
  8
0
370
    -2
100
AcDbCircle
 10
762.2992294602674
 20
-318.5
 30
0.0
 40
9.0
  0
LINE
  5
549
330
18
100
AcDbEntity
  8
PV0001_1
  6
DASHED2
 48
0.5
370
    50
100
AcDbLine
 10
651.7999877929599
 20
-324.50001525878
 30
0.0
 11
651.7999877929599
 21
-312.4999847412099
 31
0.0
  0
LINE
  5
54A
330
18
100
AcDbEntity
  8
PV0001_1
  6
DASHED2
 48
0.5
370
    50
100
AcDbLine
 10
651.7999267578099
 20
-312.5
 30
0.0
 11
651.0
 21
-312.5
 31
0.0
  0
LINE
  5
54B
330
18
100
AcDbEntity
  8
PV0001_1
  6
DASHED2
 48
0.5
370
    50
100
AcDbLine
 10
651.0
 20
-327.00001525878
 30
0.0
 11
651.0
 21
-310.0
 31
0.0
  0
LINE
  5
54C
330
18
100
AcDbEntity
  8
PV0001_1
  6
DASHED2
 48
0.5
370
    50
100
AcDbLine
 10
651.0
 20
-310.0
 30
0.0
 11
645.0
 21
-310.0
 31
0.0
  0
LINE
  5
54D
330
18
100
AcDbEntity
  8
PV0001_1
  6
DASHED2
 48
0.5
370
    50
100
AcDbLine
 10
651.7999267578099
 20
-324.50001525878
 30
0.0
 11
651.0
 21
-324.50001525878
 31
0.0
  0
LINE
  5
54E
330
18
100
AcDbEntity
  8
PV0001_1
  6
DASHED2
 48
0.5
370
    50
100
AcDbLine
 10
645.0
 20
-327.00001525878
 30
0.0
 11
645.0
 21
-310.0
 31
0.0
  0
LINE
  5
54F
330
18
100
AcDbEntity
  8
PV0001_1
  6
DASHED2
 48
0.5
370
    50
100
AcDbLine
 10
651.0
 20
-327.00001525878
 30
0.0
 11
645.0
 21
-327.00001525878
 31
0.0
  0
LINE
  5
979
330
18
100
AcDbEntity
  8
0
100
AcDbLine
 10
254.0
 20
-133.5
 30
0.0
 11
439.9999999999999
 21
-133.499999999999
 31
0.0
  0
LINE
  5
97A
330
18
100
AcDbEntity
  8
0
100
AcDbLine
 10
439.9999999999999
 20
-134.60000610351
 30
0.0
 11
254.0
 21
-134.60000610351
 31
0.0
  0
LINE
  5
97B
330
18
100
AcDbEntity
  8
0
100
AcDbLine
 10
254.0
 20
-142.39999389648
 30
0.0
 11
439.9999999999999
 21
-142.39999389648
 31
0.0
  0
LINE
  5
97C
330
18
100
AcDbEntity
  8
0
100
AcDbLine
 10
439.9999999999999
 20
-143.5
 30
0.0
 11
254.0
 21
-143.5
 31
0.0
  0
LINE
  5
A79
330
18
100
AcDbEntity
  8
center
 62
     0
 48
0.5
100
AcDbLine
 10
468.9897225664454
 20
-131.3515980182083
 30
0.0
 11
451.0102774335545
 21
-145.6484019817918
 31
0.0
1001
GENIUS_GENODEF_13
1002
{
1000
HIER
1070
     0
1002
}
1002
{
1000
MANEDIT
1070
     0
1002
}
1002
{
1000
NOSEL
1070
     0
1002
}
1002
{
1000
BEHIND
1070
     0
1002
}
1002
{
1000
OTHER
1070
     0
1002
}
1002
{
1000
REACTOR
1002
}
1001
GENIUS_GENOBJ-N-CEN_13
1002
{
1000
OWNER
1000
GEN
1002
}
  0
LINE
  5
A7B
330
18
100
AcDbEntity
  8
jissen f
 62
     0
100
AcDbLine
 10
439.9999999999999
 20
-117.5
 30
0.0
 11
439.9999999999999
 21
-159.5
 31
0.0
  0
LINE
  5
A7C
330
18
100
AcDbEntity
  8
jissen f
 62
     0
100
AcDbLine
 10
439.9999999999999
 20
-159.5
 30
0.0
 11
447.9999999999999
 21
-159.5
 31
0.0
  0
LINE
  5
A7D
330
18
100
AcDbEntity
  8
jissen f
 62
     0
100
AcDbLine
 10
447.9999999999999
 20
-159.5
 30
0.0
 11
447.9999999999999
 21
-117.5
 31
0.0
  0
LINE
  5
A7E
330
18
100
AcDbEntity
  8
jissen f
 62
     0
100
AcDbLine
 10
447.9999999999999
 20
-117.5
 30
0.0
 11
439.9999999999999
 21
-117.5
 31
0.0
  0
LINE
  5
A7F
330
18
100
AcDbEntity
  8
jissen f
 62
     0
100
AcDbLine
 10
447.9999999999999
 20
-125.5
 30
0.0
 11
472.0
 21
-125.5
 31
0.0
  0
LINE
  5
A80
330
18
100
AcDbEntity
  8
jissen f
 62
     0
100
AcDbLine
 10
471.9999999999999
 20
-151.4999999999999
 30
0.0
 11
447.9999999999999
 21
-151.5
 31
0.0
  0
LINE
  5
A8C
330
18
100
AcDbEntity
  8
jissen f
 62
     0
100
AcDbLine
 10
471.9999999999999
 20
-151.4999999999999
 30
0.0
 11
472.0
 21
-125.5
 31
0.0
  0
CIRCLE
  5
AA5
330
18
100
AcDbEntity
  8
jissen f
 62
     0
100
AcDbCircle
 10
172.99998474121
 20
-123.7775681356643
 30
0.0
 40
2.25
  0
LINE
  5
AA6
330
18
100
AcDbEntity
  8
center
 62
     0
 48
0.5
100
AcDbLine
 10
175.6984847412102
 20
-119.1036290314398
 30
0.0
 11
153.30148474121
 21
-157.8963709685597
 31
0.0
1001
GENIUS_GENOBJ-N-CEN_13
1002
{
1000
OWNER
1000
GEN
1002
}
1001
GENIUS_GENODEF_13
1002
{
1000
HIER
1070
     0
1002
}
1002
{
1000
MANEDIT
1070
     0
1002
}
1002
{
1000
NOSEL
1070
     0
1002
}
1002
{
1000
BEHIND
1070
     0
1002
}
1002
{
1000
OTHER
1070
     0
1002
}
1002
{
1000
REACTOR
1002
}
  0
LINE
  5
AA7
330
18
100
AcDbEntity
  8
center
 62
     0
 48
0.5
100
AcDbLine
 10
153.3014847412098
 20
-119.1036290314398
 30
0.0
 11
175.6984847412099
 21
-157.8963709685597
 31
0.0
1001
GENIUS_GENOBJ-N-CEN_13
1002
{
1000
OWNER
1000
GEN
1002
}
1001
GENIUS_GENODEF_13
1002
{
1000
HIER
1070
     0
1002
}
1002
{
1000
MANEDIT
1070
     0
1002
}
1002
{
1000
NOSEL
1070
     0
1002
}
1002
{
1000
BEHIND
1070
     0
1002
}
1002
{
1000
OTHER
1070
     0
1002
}
1002
{
1000
REACTOR
1002
}
  0
LINE
  5
AA8
330
18
100
AcDbEntity
  8
center
 62
     0
 48
0.5
100
AcDbLine
 10
146.10298474121
 20
-138.4999999999998
 30
0.0
 11
182.8969847412099
 21
-138.4999999999998
 31
0.0
1001
GENIUS_GENOBJ-N-CEN_13
1002
{
1000
OWNER
1000
GEN
1002
}
1001
GENIUS_GENODEF_13
1002
{
1000
HIER
1070
     0
1002
}
1002
{
1000
MANEDIT
1070
     0
1002
}
1002
{
1000
NOSEL
1070
     0
1002
}
1002
{
1000
BEHIND
1070
     0
1002
}
1002
{
1000
OTHER
1070
     0
1002
}
1002
{
1000
REACTOR
1002
}
  0
LINE
  5
AA9
330
18
100
AcDbEntity
  8
center
 62
     0
 48
0.5
100
AcDbLine
 10
164.49998474121
 20
-116.1029999999997
 30
0.0
 11
164.49998474121
 21
-160.8969999999997
 31
0.0
1001
GENIUS_GENODEF_13
1002
{
1000
HIER
1070
     0
1002
}
1002
{
1000
MANEDIT
1070
     0
1002
}
1002
{
1000
NOSEL
1070
     0
1002
}
1002
{
1000
BEHIND
1070
     0
1002
}
1002
{
1000
OTHER
1070
     0
1002
}
1002
{
1000
REACTOR
1002
}
1001
GENIUS_GENOBJ-N-CEN_13
1002
{
1000
OWNER
1000
GEN
1002
}
  0
ARC
  5
AAC
330
18
100
AcDbEntity
  8
jissen f
 62
     0
100
AcDbCircle
 10
164.49998474121
 20
-138.4999999999998
 30
0.0
 40
21.0
100
AcDbArc
 50
231.7533801216571
 51
308.2466198783429
  0
CIRCLE
  5
AAD
330
18
100
AcDbEntity
  8
outline
  6
DASHED2
 62
     0
 48
0.5
100
AcDbCircle
 10
164.49998474121
 20
-138.4999999999998
 30
0.0
 40
13.0
  0
LINE
  5
AAE
330
18
100
AcDbEntity
  8
jissen f
 62
     0
100
AcDbLine
 10
151.49998474121
 20
-122.0075774975292
 30
0.0
 11
151.4999847412098
 21
-154.9924225024704
 31
0.0
  0
LINE
  5
AAF
330
18
100
AcDbEntity
  8
jissen f
 62
     0
100
AcDbLine
 10
177.49998474121
 20
-122.0075774975292
 30
0.0
 11
177.4999847412098
 21
-154.9924225024704
 31
0.0
  0
CIRCLE
  5
AB0
330
18
100
AcDbEntity
  8
center
 62
     0
 48
0.5
100
AcDbCircle
 10
164.49998474121
 20
-138.4999999999998
 30
0.0
 40
17.0
  0
CIRCLE
  5
AB1
330
18
100
AcDbEntity
  8
jissen f
 62
     0
100
AcDbCircle
 10
155.99998474121
 20
-123.7775681356643
 30
0.0
 40
2.25
  0
CIRCLE
  5
AB2
330
18
100
AcDbEntity
  8
jissen f
 62
     0
100
AcDbCircle
 10
172.99998474121
 20
-153.2224318643353
 30
0.0
 40
2.25
  0
CIRCLE
  5
AB3
330
18
100
AcDbEntity
  8
jissen f
 62
     0
100
AcDbCircle
 10
155.99998474121
 20
-153.2224318643353
 30
0.0
 40
2.25
  0
ARC
  5
AB4
330
18
100
AcDbEntity
  8
jissen f
 62
     0
100
AcDbCircle
 10
164.49998474121
 20
-138.4999999999998
 30
0.0
 40
21.0
100
AcDbArc
 50
51.75338012165709
 51
128.2466198783429
  0
CIRCLE
  5
C3A
330
18
100
AcDbEntity
  8
0
 62
     0
100
AcDbCircle
 10
164.4999847412099
 20
-138.4999999999998
 30
0.0
 40
5.0
  0
ENDSEC
  0
SECTION
  2
OBJECTS
  0
DICTIONARY
  5
C
330
0
100
AcDbDictionary
281
     1
  3
ACAD_COLOR
350
349
  3
ACAD_GROUP
350
D
  3
ACAD_LAYOUT
350
5E
  3
ACAD_MATERIAL
350
348
  3
ACAD_MLINESTYLE
350
1B
  3
ACAD_PLOTSETTINGS
350
5F
  3
ACAD_PLOTSTYLENAME
350
5C
  3
ACAD_TABLESTYLE
350
81C
  3
ACDBHEADERROUNDTRIPXREC
350
D76
  3
AcDbVariableDictionary
350
86D
  3
AcmDictionary
350
3C2
  3
AMG
350
34F
  3
AMGSNAPSETTINGS
350
450
  3
SAKAE_DICT
350
2EC
  0
DICTIONARY
  5
32F
330
18
100
AcDbDictionary
280
     1
281
     1
  3
ACAD_LAYOUTSELFREF
360
330
  0
DICTIONARY
  5
32D
330
15
100
AcDbDictionary
280
     1
281
     1
  3
ACAD_LAYOUTSELFREF
360
32E
  0
DICTIONARY
  5
349
102
{ACAD_REACTORS
330
C
102
}
330
C
100
AcDbDictionary
281
     1
  0
DICTIONARY
  5
D
102
{ACAD_REACTORS
330
C
102
}
330
C
100
AcDbDictionary
281
     1
  0
DICTIONARY
  5
5E
102
{ACAD_REACTORS
330
C
102
}
330
C
100
AcDbDictionary
281
     1
  3
Model
350
60
  3
ﾚｲｱｳﾄ1
350
61
  0
DICTIONARY
  5
348
102
{ACAD_REACTORS
330
C
102
}
330
C
100
AcDbDictionary
281
     1
  0
DICTIONARY
  5
1B
102
{ACAD_REACTORS
330
C
102
}
330
C
100
AcDbDictionary
281
     1
  3
STANDARD
350
1C
  0
DICTIONARY
  5
5F
102
{ACAD_REACTORS
330
C
102
}
330
C
100
AcDbDictionary
281
     1
  0
ACDBDICTIONARYWDFLT
  5
5C
102
{ACAD_REACTORS
330
C
102
}
330
C
100
AcDbDictionary
281
     1
  3
Normal
350
5D
100
AcDbDictionaryWithDefault
340
5D
1001
ACAD
1000
TREAT_AS_HARD
1070
     0
  0
DICTIONARY
  5
81C
102
{ACAD_REACTORS
330
C
102
}
330
C
100
AcDbDictionary
281
     1
  3
Standard
350
81D
  0
DICTIONARY
  5
D76
102
{ACAD_REACTORS
330
C
102
}
330
C
100
AcDbDictionary
281
     1
  0
DICTIONARY
  5
86D
102
{ACAD_REACTORS
330
C
102
}
330
C
100
AcDbDictionary
281
     1
  3
CTABLESTYLE
350
86E
  3
DIMASSOC
350
C8B
  3
PROJECTNAME
350
C8C
  0
DICTIONARY
  5
3C2
102
{ACAD_REACTORS
330
C
102
}
330
C
100
AcDbDictionary
281
     1
  3
AcmStdDictionary
350
3CC
  3
AMDTSECTSYM_ARROWCOLOR
350
83A
  0
DICTIONARY
  5
34F
102
{ACAD_REACTORS
330
C
102
}
330
C
100
AcDbDictionary
281
     1
  0
DICTIONARY
  5
450
102
{ACAD_REACTORS
330
C
102
}
330
C
100
AcDbDictionary
281
     1
  0
DICTIONARY
  5
2EC
102
{ACAD_REACTORS
330
C
102
}
330
C
100
AcDbDictionary
281
     1
  3
XREC1
350
2ED
  0
XRECORD
  5
330
102
{ACAD_REACTORS
330
32F
102
}
330
32F
100
AcDbXrecord
280
     1
340
18
  0
XRECORD
  5
32E
102
{ACAD_REACTORS
330
32D
102
}
330
32D
100
AcDbXrecord
280
     1
340
15
  0
LAYOUT
  5
60
102
{ACAD_XDICTIONARY
360
D77
102
}
102
{ACAD_REACTORS
330
5E
102
}
330
5E
100
AcDbPlotSettings
  1

  2
none_device
  4
ANSI_A_(8.50_x_11.00_Inches)
  6

 40
6.349999904632568
 41
19.04999923706055
 42
6.350006103515625
 43
19.04998779296875
 44
215.8999938964844
 45
279.3999938964844
 46
0.0
 47
0.0
 48
0.0
 49
0.0
140
0.0
141
0.0
142
1.0
143
1.0
 70
 11936
 72
     0
 73
     1
 74
     0
  7

 75
     0
147
1.0
148
1.166901962778297
149
-544.7787025703799
100
AcDbLayout
  1
Model
 70
     1
 71
     0
 10
0.0
 20
0.0
 11
12.0
 21
9.0
 12
0.0
 22
0.0
 32
0.0
 14
0.0
 24
0.0
 34
0.0
 15
0.0
 25
0.0
 35
0.0
146
0.0
 13
0.0
 23
0.0
 33
0.0
 16
1.0
 26
0.0
 36
0.0
 17
0.0
 27
1.0
 37
0.0
 76
     0
330
18
  0
LAYOUT
  5
61
102
{ACAD_XDICTIONARY
360
D79
102
}
102
{ACAD_REACTORS
330
5E
102
}
330
5E
100
AcDbPlotSettings
  1

  2
\\BLUEWAVE2\EPSON LP-9200SX
  4

  6

 40
0.0
 41
0.0
 42
0.0
 43
0.0
 44
0.0
 45
0.0
 46
0.0
 47
0.0
 48
0.0
 49
0.0
140
0.0
141
0.0
142
1.0
143
1.0
 70
   688
 72
     0
 73
     0
 74
     5
  7

 75
    16
147
1.0
148
0.0
149
0.0
100
AcDbLayout
  1
ﾚｲｱｳﾄ1
 70
     1
 71
     1
 10
0.0
 20
0.0
 11
420.0
 21
297.0
 12
0.0
 22
0.0
 32
0.0
 14
1.000000000000000E+20
 24
1.000000000000000E+20
 34
1.000000000000000E+20
 15
-1.000000000000000E+20
 25
-1.000000000000000E+20
 35
-1.000000000000000E+20
146
0.0
 13
0.0
 23
0.0
 33
0.0
 16
1.0
 26
0.0
 36
0.0
 17
0.0
 27
1.0
 37
0.0
 76
     0
330
15
  0
MLINESTYLE
  5
1C
102
{ACAD_REACTORS
330
1B
102
}
330
1B
100
AcDbMlineStyle
  2
STANDARD
 70
     0
  3

 62
   256
 51
90.0
 52
90.0
 71
     2
 49
0.5
 62
   256
  6
BYLAYER
 49
-0.5
 62
   256
  6
BYLAYER
  0
ACDBPLACEHOLDER
  5
5D
102
{ACAD_REACTORS
330
5C
102
}
330
5C
  0
TABLESTYLE
  5
81D
102
{ACAD_REACTORS
330
81C
102
}
330
81C
100
AcDbTableStyle
  3
Standard
 70
     0
 71
     0
 40
1.5
 41
1.5
280
     0
281
     0
  7
STANDARD
140
4.5
170
     2
 62
     0
 63
     7
283
     0
274
    -2
284
     1
 64
     0
275
    -2
285
     1
 65
     0
276
    -2
286
     1
 66
     0
277
    -2
287
     1
 67
     0
278
    -2
288
     1
 68
     0
279
    -2
289
     1
 69
     0
  7
STANDARD
140
6.0
170
     5
 62
     0
 63
     7
283
     0
274
    -2
284
     1
 64
     0
275
    -2
285
     1
 65
     0
276
    -2
286
     1
 66
     0
277
    -2
287
     1
 67
     0
278
    -2
288
     1
 68
     0
279
    -2
289
     1
 69
     0
  7
STANDARD
140
4.5
170
     5
 62
     0
 63
     7
283
     0
274
    -2
284
     1
 64
     0
275
    -2
285
     1
 65
     0
276
    -2
286
     1
 66
     0
277
    -2
287
     1
 67
     0
278
    -2
288
     1
 68
     0
279
    -2
289
     1
 69
     0
  0
DICTIONARYVAR
  5
86E
102
{ACAD_REACTORS
330
86D
102
}
330
86D
100
DictionaryVariables
280
     0
  1
STANDARD
  0
DICTIONARYVAR
  5
C8B
102
{ACAD_REACTORS
330
86D
102
}
330
86D
100
DictionaryVariables
280
     0
  1
1
  0
DICTIONARYVAR
  5
C8C
102
{ACAD_REACTORS
330
86D
102
}
330
86D
100
DictionaryVariables
280
     0
  1

  0
DICTIONARY
  5
3CC
102
{ACAD_REACTORS
330
3C2
102
}
330
3C2
100
AcDbDictionary
281
     1
  0
XRECORD
  5
83A
102
{ACAD_REACTORS
330
3C2
102
}
330
3C2
100
AcDbXrecord
280
     1
 90
-1023410169
  0
XRECORD
  5
2ED
102
{ACAD_REACTORS
330
2EC
102
}
330
2EC
100
AcDbXrecord
280
     1
  1
PV
 40
1.0
 50
0.0
 51
0.0
 52
0.0
 53
0.0
  0
DICTIONARY
  5
D77
330
60
100
AcDbDictionary
280
     1
281
     1
  3
ACAD_XREC_ROUNDTRIP
360
D78
  0
DICTIONARY
  5
D79
330
61
100
AcDbDictionary
280
     1
281
     1
  3
ACAD_XREC_ROUNDTRIP
360
D7A
  0
XRECORD
  5
D78
102
{ACAD_REACTORS
330
D77
102
}
330
D77
100
AcDbXrecord
280
     1
102
SHADEPLOT
 70
     0
102
SHADEPLOTRESLEVEL
 70
     2
102
SHADEPLOTCUSTOMDPI
 70
   300
  0
XRECORD
  5
D7A
102
{ACAD_REACTORS
330
D79
102
}
330
D79
100
AcDbXrecord
280
     1
102
SHADEPLOT
 70
     0
102
SHADEPLOTRESLEVEL
 70
     2
102
SHADEPLOTCUSTOMDPI
 70
   300
  0
ENDSEC
  0
EOF
