  0
SECTION
  2
HEADER
  9
$ACADVER
  1
AC1015
  9
$ACADMAINTVER
 70
    20
  9
$DWGCODEPAGE
  3
ANSI_932
  9
$INSBASE
 10
0.0
 20
0.0
 30
0.0
  9
$EXTMIN
 10
0.0
 20
-436.0
 30
0.0
  9
$EXTMAX
 10
636.0
 20
0.0
 30
0.0
  9
$LIMMIN
 10
0.0
 20
0.0
  9
$LIMMAX
 10
0.0
 20
0.0
  9
$ORTHOMODE
 70
     0
  9
$REGENMODE
 70
     1
  9
$FILLMODE
 70
     1
  9
$QTEXTMODE
 70
     0
  9
$MIRRTEXT
 70
     1
  9
$LTSCALE
 40
1.0
  9
$ATTMODE
 70
     1
  9
$TEXTSIZE
 40
2.5
  9
$TRACEWID
 40
1.0
  9
$TEXTSTYLE
  7
CONVERT
  9
$CLAYER
  8
0
  9
$CELTYPE
  6
BYLAYER
  9
$CECOLOR
 62
   256
  9
$CELTSCALE
 40
1.0
  9
$DISPSILH
 70
     0
  9
$DIMSCALE
 40
1.0
  9
$DIMASZ
 40
3.0
  9
$DIMEXO
 40
1.0
  9
$DIMDLI
 40
7.0
  9
$DIMRND
 40
0.0
  9
$DIMDLE
 40
0.0
  9
$DIMEXE
 40
2.0
  9
$DIMTP
 40
0.0
  9
$DIMTM
 40
0.0
  9
$DIMTXT
 40
2.799999999999999
  9
$DIMCEN
 40
0.0
  9
$DIMTSZ
 40
0.0
  9
$DIMTOL
 70
     0
  9
$DIMLIM
 70
     0
  9
$DIMTIH
 70
     0
  9
$DIMTOH
 70
     0
  9
$DIMSE1
 70
     0
  9
$DIMSE2
 70
     0
  9
$DIMTAD
 70
     1
  9
$DIMZIN
 70
     0
  9
$DIMBLK
  1

  9
$DIMASO
 70
     1
  9
$DIMSHO
 70
     1
  9
$DIMPOST
  1

  9
$DIMAPOST
  1

  9
$DIMALT
 70
     0
  9
$DIMALTD
 70
     4
  9
$DIMALTF
 40
0.0394
  9
$DIMLFAC
 40
1.0
  9
$DIMTOFL
 70
     1
  9
$DIMTVP
 40
0.0
  9
$DIMTIX
 70
     0
  9
$DIMSOXD
 70
     0
  9
$DIMSAH
 70
     1
  9
$DIMBLK1
  1
Open30
  9
$DIMBLK2
  1
Open30
  9
$DIMSTYLE
  2
STANDARD
  9
$DIMCLRD
 70
    44
  9
$DIMCLRE
 70
    44
  9
$DIMCLRT
 70
    44
  9
$DIMTFAC
 40
1.0
  9
$DIMGAP
 40
0.7
  9
$DIMJUST
 70
     0
  9
$DIMSD1
 70
     0
  9
$DIMSD2
 70
     0
  9
$DIMTOLJ
 70
     1
  9
$DIMTZIN
 70
     0
  9
$DIMALTZ
 70
     0
  9
$DIMALTTZ
 70
     0
  9
$DIMUPT
 70
     0
  9
$DIMDEC
 70
     3
  9
$DIMTDEC
 70
     3
  9
$DIMALTU
 70
     8
  9
$DIMALTTD
 70
     4
  9
$DIMTXSTY
  7
STANDARD
  9
$DIMAUNIT
 70
     0
  9
$DIMADEC
 70
     0
  9
$DIMALTRND
 40
0.0
  9
$DIMAZIN
 70
     0
  9
$DIMDSEP
 70
    46
  9
$DIMATFIT
 70
     0
  9
$DIMFRAC
 70
     0
  9
$DIMLDRBLK
  1
Open30
  9
$DIMLUNIT
 70
     2
  9
$DIMLWD
 70
    -2
  9
$DIMLWE
 70
    -2
  9
$DIMTMOVE
 70
     0
  9
$LUNITS
 70
     2
  9
$LUPREC
 70
     4
  9
$SKETCHINC
 40
1.0
  9
$FILLETRAD
 40
10.0
  9
$AUNITS
 70
     0
  9
$AUPREC
 70
     0
  9
$MENU
  1
.
  9
$ELEVATION
 40
0.0
  9
$PELEVATION
 40
0.0
  9
$THICKNESS
 40
0.0
  9
$LIMCHECK
 70
     0
  9
$CHAMFERA
 40
10.0
  9
$CHAMFERB
 40
10.0
  9
$CHAMFERC
 40
20.0
  9
$CHAMFERD
 40
0.0
  9
$SKPOLY
 70
     0
  9
$TDCREATE
 40
2451067.751276933
  9
$TDUCREATE
 40
2451067.376276933
  9
$TDUPDATE
 40
2454174.422517199
  9
$TDUUPDATE
 40
2454174.047517199
  9
$TDINDWG
 40
0.0931026736
  9
$TDUSRTIMER
 40
0.0931026736
  9
$USRTIMER
 70
     1
  9
$ANGBASE
 50
0.0
  9
$ANGDIR
 70
     0
  9
$PDMODE
 70
     1
  9
$PDSIZE
 40
0.0
  9
$PLINEWID
 40
0.0
  9
$SPLFRAME
 70
     0
  9
$SPLINETYPE
 70
     6
  9
$SPLINESEGS
 70
     8
  9
$HANDSEED
  5
1791
  9
$SURFTAB1
 70
     6
  9
$SURFTAB2
 70
     6
  9
$SURFTYPE
 70
     6
  9
$SURFU
 70
     6
  9
$SURFV
 70
     6
  9
$UCSBASE
  2

  9
$UCSNAME
  2

  9
$UCSORG
 10
0.0
 20
0.0
 30
0.0
  9
$UCSXDIR
 10
1.0
 20
0.0
 30
0.0
  9
$UCSYDIR
 10
0.0
 20
1.0
 30
0.0
  9
$UCSORTHOREF
  2

  9
$UCSORTHOVIEW
 70
     0
  9
$UCSORGTOP
 10
0.0
 20
0.0
 30
0.0
  9
$UCSORGBOTTOM
 10
0.0
 20
0.0
 30
0.0
  9
$UCSORGLEFT
 10
0.0
 20
0.0
 30
0.0
  9
$UCSORGRIGHT
 10
0.0
 20
0.0
 30
0.0
  9
$UCSORGFRONT
 10
0.0
 20
0.0
 30
0.0
  9
$UCSORGBACK
 10
0.0
 20
0.0
 30
0.0
  9
$PUCSBASE
  2

  9
$PUCSNAME
  2

  9
$PUCSORG
 10
0.0
 20
0.0
 30
0.0
  9
$PUCSXDIR
 10
1.0
 20
0.0
 30
0.0
  9
$PUCSYDIR
 10
0.0
 20
1.0
 30
0.0
  9
$PUCSORTHOREF
  2

  9
$PUCSORTHOVIEW
 70
     0
  9
$PUCSORGTOP
 10
0.0
 20
0.0
 30
0.0
  9
$PUCSORGBOTTOM
 10
0.0
 20
0.0
 30
0.0
  9
$PUCSORGLEFT
 10
0.0
 20
0.0
 30
0.0
  9
$PUCSORGRIGHT
 10
0.0
 20
0.0
 30
0.0
  9
$PUCSORGFRONT
 10
0.0
 20
0.0
 30
0.0
  9
$PUCSORGBACK
 10
0.0
 20
0.0
 30
0.0
  9
$USERI1
 70
     0
  9
$USERI2
 70
     0
  9
$USERI3
 70
     0
  9
$USERI4
 70
     0
  9
$USERI5
 70
     0
  9
$USERR1
 40
0.0
  9
$USERR2
 40
0.0
  9
$USERR3
 40
0.0
  9
$USERR4
 40
0.0
  9
$USERR5
 40
0.0
  9
$WORLDVIEW
 70
     1
  9
$SHADEDGE
 70
     3
  9
$SHADEDIF
 70
    70
  9
$TILEMODE
 70
     1
  9
$MAXACTVP
 70
    48
  9
$PINSBASE
 10
0.0
 20
0.0
 30
0.0
  9
$PLIMCHECK
 70
     0
  9
$PEXTMIN
 10
1.000000000000000E+20
 20
1.000000000000000E+20
 30
1.000000000000000E+20
  9
$PEXTMAX
 10
-1.000000000000000E+20
 20
-1.000000000000000E+20
 30
-1.000000000000000E+20
  9
$PLIMMIN
 10
0.0
 20
0.0
  9
$PLIMMAX
 10
420.0
 20
297.0
  9
$UNITMODE
 70
     0
  9
$VISRETAIN
 70
     1
  9
$PLINEGEN
 70
     0
  9
$PSLTSCALE
 70
     1
  9
$TREEDEPTH
 70
  3020
  9
$CMLSTYLE
  2
STANDARD
  9
$CMLJUST
 70
     0
  9
$CMLSCALE
 40
20.0
  9
$PROXYGRAPHICS
 70
     1
  9
$MEASUREMENT
 70
     1
  9
$CELWEIGHT
370
    -1
  9
$ENDCAPS
280
     0
  9
$JOINSTYLE
280
     0
  9
$LWDISPLAY
290
     0
  9
$INSUNITS
 70
     0
  9
$HYPERLINKBASE
  1

  9
$STYLESHEET
  1
kutoda-monochrome.ctb
  9
$XEDIT
290
     1
  9
$CEPSNTYPE
380
     0
  9
$PSTYLEMODE
290
     1
  9
$FINGERPRINTGUID
  2
{881B1582-4BC7-11D3-AB9D-00805F8B7187}
  9
$VERSIONGUID
  2
{E071725F-05EB-4166-A4E7-D4EF5DD85C84}
  9
$EXTNAMES
290
     1
  9
$PSVPSCALE
 40
0.0
  9
$OLESTARTUP
290
     0
  0
ENDSEC
  0
SECTION
  2
CLASSES
  0
CLASS
  1
ACDBDICTIONARYWDFLT
  2
AcDbDictionaryWithDefault
  3
ObjectDBX Classes
 90
        0
280
     0
281
     0
  0
CLASS
  1
ACDBPLACEHOLDER
  2
AcDbPlaceHolder
  3
ObjectDBX Classes
 90
        0
280
     0
281
     0
  0
CLASS
  1
LAYOUT
  2
AcDbLayout
  3
ObjectDBX Classes
 90
        0
280
     0
281
     0
  0
CLASS
  1
ACME_DOCUMENT
  2
AcMeDbDoc
  3
AcMeServices
 90
        0
280
     0
281
     0
  0
CLASS
  1
AMGSETTINGSOBJ
  2
AmgSettingsObj
  3
"AcadM|Product Description: AutoCAD Mechanical 2000|Company: Autodesk"
 90
        0
280
     0
281
     0
  0
CLASS
  1
AMGOBJPROPCFG
  2
AmgObjPropCfg
  3
"AmgLay|Product Description: AutoCAD Mechanical 2000|Company: Autodesk"
 90
        1
280
     0
281
     0
  0
CLASS
  1
ACMESCOPE
  2
AcMeScope
  3
AcMeServices
 90
        0
280
     0
281
     0
  0
CLASS
  1
ACMECOMMANDHISTORY
  2
AcMeCommandHistory
  3
AcMeServices
 90
        0
280
     0
281
     0
  0
CLASS
  1
DICTIONARYVAR
  2
AcDbDictionaryVar
  3
ObjectDBX Classes
 90
        0
280
     0
281
     0
  0
CLASS
  1
ACIMSYSVARMAN
  2
AcImSysVarManager
  3
AcMeServices
 90
        0
280
     0
281
     0
  0
CLASS
  1
ACIMREALSYSVAR
  2
AcImRealSysVar
  3
AcMeServices
 90
        0
280
     0
281
     0
  0
CLASS
  1
ACIMINTSYSVAR
  2
AcImIntSysVar
  3
AcMeServices
 90
        0
280
     0
281
     0
  0
CLASS
  1
ACMEDRAWINGMAN
  2
AcMeDrawingMan
  3
AcMeServices
 90
        0
280
     0
281
     0
  0
CLASS
  1
ACMEVIEW
  2
AcMeView
  3
AcMeServices
 90
        0
280
     0
281
     0
  0
CLASS
  1
ACDBENTITYCACHE
  2
AcMeEntityCache
  3
AcMeServices
 90
        0
280
     0
281
     0
  0
CLASS
  1
GSMANAGER
  2
AcMeGSManager
  3
AcMeServices
 90
        0
280
     0
281
     0
  0
CLASS
  1
AMDTINTERNALREACTOR
  2
AmdtInternalReactor
  3
AcMeServices
 90
        0
280
     0
281
     0
  0
CLASS
  1
ACMESTATEMGR
  2
AcMeStateMgr
  3
AcMeServices
 90
        0
280
     0
281
     0
  0
CLASS
  1
ACGREFMASTER
  2
AcGrefMaster
  3
AcAttribServices
 90
        0
280
     0
281
     0
  0
CLASS
  1
ACME_DATABASE
  2
AcMeDbDatabase
  3
AcMeServices
 90
        0
280
     0
281
     0
  0
CLASS
  1
ACRFINSADJUSTERMGR
  2
AcRfInsAdjusterMgr
  3
AcMeServices
 90
        0
280
     0
281
     0
  0
CLASS
  1
ACGREFACADMASTER
  2
AcGrefacadMaster
  3
AcGrefServices
 90
        0
280
     0
281
     0
  0
CLASS
  1
AMIMASTER
  2
AmiMaster
  3
AmiServices
 90
        0
280
     0
281
     0
  0
CLASS
  1
ACMDATADICTIONARY
  2
AcmDataDictionary
  3
"AcmSymBB|Product Description: AutoCAD Mechanical 2004 DX|Company: Autodesk"
 90
        0
280
     0
281
     0
  0
CLASS
  1
ACMDATAENTRYBLOCK
  2
AcmDataEntryBlock
  3
"AcmSymBB|Product Description: AutoCAD Mechanical 2004 DX|Company: Autodesk"
 90
    32768
280
     0
281
     0
  0
CLASS
  1
ACMSTANDARDANSI
  2
AcmStandardANSI
  3
"Amdt_StdImp|Product Description: AutoCAD Mechanical 2004 DX|Company: Autodesk"
 90
        0
280
     0
281
     0
  0
CLASS
  1
ACMSURFSTANDARDANSI
  2
AcmSurfTextStdANSI
  3
"Amdt_StdImp|Product Description: AutoCAD Mechanical 2004 DX|Company: Autodesk"
 90
        0
280
     0
281
     0
  0
CLASS
  1
ACMFCFSTANDARDANSI
  2
AcmFCFStdANSI
  3
"Amdt_StdImp|Product Description: AutoCAD Mechanical 2004 DX|Company: Autodesk"
 90
        0
280
     0
281
     0
  0
CLASS
  1
ACMWELDSTANDARDANSI
  2
AcmWeldingStdANSI
  3
"Amdt_StdImp|Product Description: AutoCAD Mechanical 2004 DX|Company: Autodesk"
 90
        0
280
     0
281
     0
  0
CLASS
  1
ACMIDSTANDARDANSI
  2
AcmIdStdANSI
  3
"Amdt_StdImp|Product Description: AutoCAD Mechanical 2004 DX|Company: Autodesk"
 90
        0
280
     0
281
     0
  0
CLASS
  1
ACMDATUMSTANDARDANSI
  2
AcmDatumStdANSI
  3
"Amdt_StdImp|Product Description: AutoCAD Mechanical 2004 DX|Company: Autodesk"
 90
        0
280
     0
281
     0
  0
CLASS
  1
ACMBOMSTANDARDANSI
  2
AcmBOMStdANSI
  3
"Amdt_StdImp|Product Description: AutoCAD Mechanical 2004 DX|Company: Autodesk"
 90
        0
280
     0
281
     0
  0
CLASS
  1
ACMDETAILSTANDARDANSI
  2
AmdtDetailSymStdANSI
  3
"Amdt_StdImp|Product Description: AutoCAD Mechanical 2004 DX|Company: Autodesk"
 90
        0
280
     0
281
     0
  0
CLASS
  1
ACMSECTIONSTANDARDANSI
  2
AmdtSectionSymStdANSI
  3
"Amdt_StdImp|Product Description: AutoCAD Mechanical 2004 DX|Company: Autodesk"
 90
        0
280
     0
281
     0
  0
CLASS
  1
ACMCENTERLINESTANDARDANSI
  2
AmdtCenterLineStdANSI
  3
"Amdt_StdImp|Product Description: AutoCAD Mechanical 2004 DX|Company: Autodesk"
 90
        0
280
     0
281
     0
  0
CLASS
  1
ACAMGLAYSTD
  2
AcAmgLayStd
  3
"AcAmgLayStd|Product Description: AutoCAD Mechanical 2000|Company: Autodesk"
 90
        0
280
     0
281
     0
  0
CLASS
  1
ACAMGDIMSTD
  2
AcAmgDimStd
  3
"AcAmgDimStd|Product Description: AutoCAD Mechanical 2000|Company: Autodesk"
 90
        0
280
     0
281
     0
  0
CLASS
  1
ACAMGTITLESTD
  2
AcAmgTitleStd
  3
"TITLEAPP"
 90
        0
280
     0
281
     0
  0
CLASS
  1
ACMSTANDARDISO
  2
AcmStandardISO
  3
"Amdt_StdImp|Product Description: AutoCAD Mechanical 2004 DX|Company: Autodesk"
 90
        0
280
     0
281
     0
  0
CLASS
  1
AMDTEDGESTANDARDISO
  2
AmdtEdgeStdISO
  3
"Amdt_StdImp|Product Description: AutoCAD Mechanical 2004 DX|Company: Autodesk"
 90
        0
280
     0
281
     0
  0
CLASS
  1
ACMSURFSTANDARDISO
  2
AcmSurfTextStdISO
  3
"Amdt_StdImp|Product Description: AutoCAD Mechanical 2004 DX|Company: Autodesk"
 90
        0
280
     0
281
     0
  0
CLASS
  1
ACMFCFSTANDARDISO
  2
AcmFCFStdISO
  3
"Amdt_StdImp|Product Description: AutoCAD Mechanical 2004 DX|Company: Autodesk"
 90
        0
280
     0
281
     0
  0
CLASS
  1
ACMWELDSTANDARDISO
  2
AcmWeldingStdISO
  3
"Amdt_StdImp|Product Description: AutoCAD Mechanical 2004 DX|Company: Autodesk"
 90
        0
280
     0
281
     0
  0
CLASS
  1
ACMIDSTANDARDISO
  2
AcmIdStdISO
  3
"Amdt_StdImp|Product Description: AutoCAD Mechanical 2004 DX|Company: Autodesk"
 90
        0
280
     0
281
     0
  0
CLASS
  1
ACMDATUMSTANDARDISO
  2
AcmDatumStdISO
  3
"Amdt_StdImp|Product Description: AutoCAD Mechanical 2004 DX|Company: Autodesk"
 90
        0
280
     0
281
     0
  0
CLASS
  1
ACMBOMSTANDARDISO
  2
AcmBOMStdISO
  3
"Amdt_StdImp|Product Description: AutoCAD Mechanical 2004 DX|Company: Autodesk"
 90
        0
280
     0
281
     0
  0
CLASS
  1
ACMDETAILSTANDARDISO
  2
AmdtDetailSymStdISO
  3
"Amdt_StdImp|Product Description: AutoCAD Mechanical 2004 DX|Company: Autodesk"
 90
        0
280
     0
281
     0
  0
CLASS
  1
ACMSECTIONSTANDARDISO
  2
AmdtSectionSymStdISO
  3
"Amdt_StdImp|Product Description: AutoCAD Mechanical 2004 DX|Company: Autodesk"
 90
        0
280
     0
281
     0
  0
CLASS
  1
ACMCENTERLINESTANDARDISO
  2
AmdtCenterLineStdISO
  3
"Amdt_StdImp|Product Description: AutoCAD Mechanical 2004 DX|Company: Autodesk"
 90
        0
280
     0
281
     0
  0
CLASS
  1
ACMSTANDARDJIS
  2
AcmStandardJIS
  3
"Amdt_StdImp|Product Description: AutoCAD Mechanical 2004 DX|Company: Autodesk"
 90
        0
280
     0
281
     0
  0
CLASS
  1
ACMSURFSTANDARDJIS
  2
AcmSurfTextStdJIS
  3
"Amdt_StdImp|Product Description: AutoCAD Mechanical 2004 DX|Company: Autodesk"
 90
        0
280
     0
281
     0
  0
CLASS
  1
ACMFCFSTANDARDJIS
  2
AcmFCFStdJIS
  3
"Amdt_StdImp|Product Description: AutoCAD Mechanical 2004 DX|Company: Autodesk"
 90
        0
280
     0
281
     0
  0
CLASS
  1
ACMWELDSTANDARDJIS
  2
AcmWeldingStdJIS
  3
"Amdt_StdImp|Product Description: AutoCAD Mechanical 2004 DX|Company: Autodesk"
 90
        0
280
     0
281
     0
  0
CLASS
  1
ACMIDSTANDARDJIS
  2
AcmIdStdJIS
  3
"Amdt_StdImp|Product Description: AutoCAD Mechanical 2004 DX|Company: Autodesk"
 90
        0
280
     0
281
     0
  0
CLASS
  1
ACMDATUMSTANDARDJIS
  2
AcmDatumStdJIS
  3
"Amdt_StdImp|Product Description: AutoCAD Mechanical 2004 DX|Company: Autodesk"
 90
        0
280
     0
281
     0
  0
CLASS
  1
ACMBOMSTANDARDJIS
  2
AcmBOMStdJIS
  3
"Amdt_StdImp|Product Description: AutoCAD Mechanical 2004 DX|Company: Autodesk"
 90
        0
280
     0
281
     0
  0
CLASS
  1
ACMDETAILSTANDARDJIS
  2
AmdtDetailSymStdJIS
  3
"Amdt_StdImp|Product Description: AutoCAD Mechanical 2004 DX|Company: Autodesk"
 90
        0
280
     0
281
     0
  0
CLASS
  1
ACMSECTIONSTANDARDJIS
  2
AmdtSectionSymStdJIS
  3
"Amdt_StdImp|Product Description: AutoCAD Mechanical 2004 DX|Company: Autodesk"
 90
        0
280
     0
281
     0
  0
CLASS
  1
ACMCENTERLINESTANDARDJIS
  2
AmdtCenterLineStdJIS
  3
"Amdt_StdImp|Product Description: AutoCAD Mechanical 2004 DX|Company: Autodesk"
 90
        0
280
     0
281
     0
  0
CLASS
  1
ACMTHREADLINESTANDARDJIS
  2
AmdtThreadLineStdJIS
  3
"Amdt_StdImp|Product Description: AutoCAD Mechanical 2004 DX|Company: Autodesk"
 90
        0
280
     0
281
     0
  0
CLASS
  1
ACIMSTRSYSVAR
  2
AcImStrSysVar
  3
AcMeServices
 90
        0
280
     0
281
     0
  0
CLASS
  1
ACAMGFILTERDAT
  2
AcAmgFilterDat
  3
"AcadM|Product Description: AutoCAD Mechanical 2000|Company: Autodesk"
 90
    32768
280
     0
281
     0
  0
CLASS
  1
LAYER_INDEX
  2
AcDbLayerIndex
  3
ObjectDBX Classes
 90
    32768
280
     0
281
     0
  0
CLASS
  1
IDBUFFER
  2
AcDbIdBuffer
  3
ObjectDBX Classes
 90
    32768
280
     0
281
     0
  0
CLASS
  1
AMDTFORMULAUPDATEDISPATCHER
  2
AmdtFormulaUpdateDispatcher
  3
AcMeServices
 90
    32768
280
     0
281
     0
  0
CLASS
  1
AM_DRAWING_MGR
  2
AcDmDwgMgr
  3
AcMechDwgViewMgmt
 90
        0
280
     0
281
     0
  0
CLASS
  1
AM_DWG_DOCUMENT
  2
AcDmDwgDocument
  3
AcMechDwgViewMgmt
 90
        0
280
     0
281
     0
  0
CLASS
  1
AM_DWG_SHEET
  2
AcDmSheet
  3
AcMechDwgViewMgmt
 90
        0
280
     0
281
     0
  0
CLASS
  1
AM_VIEWDIMPARMAP
  2
AcDmViewDimParMap
  3
AcMechDwgViewMgmt
 90
        0
280
     0
281
     0
  0
CLASS
  1
AM_DWGMGR_NAME
  2
AcDmDwgMgrName
  3
AcMechDwgViewMgmt
 90
        0
280
     0
281
     0
  0
CLASS
  1
AMDTMENUSTATEMGR
  2
AmdtMenuStateMgr
  3
McadcomServices
 90
        0
280
     0
281
     0
  0
CLASS
  1
AMDTMCOMMENUSTATE
  2
AmdtMcomMenuState
  3
McadcomServices
 90
        0
280
     0
281
     0
  0
CLASS
  1
MAPIAMMOUDLE
  2
MApiAmModule
  3
MApiAmServices
 90
        0
280
     0
281
     0
  0
CLASS
  1
AMDTADMENUSTATE
  2
AmdtAdMenuState
  3
DesignerServices
 90
        0
280
     0
281
     0
  0
CLASS
  1
ADAPPL
  2
AcAdAppl
  3
DesignerServices
 90
        0
280
     0
281
     0
  0
CLASS
  1
DEPMGR
  2
AcAdDepMgr
  3
DesignerServices
 90
        0
280
     0
281
     0
  0
CLASS
  1
PARAMMGR
  2
AcAdParamMgr
  3
DesignerServices
 90
        0
280
     0
281
     0
  0
CLASS
  1
PARAMSCOPE
  2
AcAdParamScope
  3
DesignerServices
 90
        0
280
     0
281
     0
  0
CLASS
  1
NAMEDAPPL
  2
AcAdNamedAppl
  3
DesignerServices
 90
        0
280
     0
281
     0
  0
CLASS
  1
AMDTDMMENUSTATE
  2
AmdtDmMenuState
  3
AcMechDwgViewMgmt
 90
        0
280
     0
281
     0
  0
CLASS
  1
AMDTAMMENUSTATE
  2
AmdtAmMenuState
  3
DesignerAssemblies
 90
        0
280
     0
281
     0
  0
CLASS
  1
ACAMPROJECT
  2
AcAmProject
  3
DesignerAssemblies
 90
        0
280
     0
281
     0
  0
CLASS
  1
ACAMGRCOMPDEF
  2
AcAmGrCompDef
  3
DesignerAssemblies
 90
        0
280
     0
281
     0
  0
CLASS
  1
ACCMCONTEXT
  2
AcCmContext
  3
DesignerAssemblies
 90
        0
280
     0
281
     0
  0
CLASS
  1
ACAMCOMPDEF
  2
AcAmCompDef
  3
DesignerAssemblies
 90
        0
280
     0
281
     0
  0
CLASS
  1
ACAMCOMPDEFMGR
  2
AcAmCompDefMgr
  3
DesignerAssemblies
 90
        0
280
     0
281
     0
  0
CLASS
  1
AMCONTEXTMGR
  2
AcAmContextMgr
  3
DesignerAssemblies
 90
        0
280
     0
281
     0
  0
CLASS
  1
ACAMCONTEXTMODELER
  2
AcAmContextModeler
  3
DesignerAssemblies
 90
        0
280
     0
281
     0
  0
CLASS
  1
CATALOGSTATE
  2
AcAmCatalogState
  3
DesignerAssemblies
 90
        0
280
     0
281
     0
  0
CLASS
  1
ACAMGRCOMPDEFSET
  2
AcAmGrCompDefSet
  3
DesignerAssemblies
 90
        0
280
     0
281
     0
  0
CLASS
  1
AMDTBROWSERDBTAB
  2
AmdtBrowserDbTab
  3
McadcomServices
 90
        0
280
     0
281
     0
  0
CLASS
  1
CBROWSERAPPOBJECT
  2
CBrowserAppObject
  3
McadcomServices
 90
        0
280
     0
281
     0
  0
CLASS
  1
DM_PLACEHOLDER
  2
AcDmSelsetPlaceholder
  3
AcMechDwgViewMgmt
 90
        0
280
     0
281
     0
  0
CLASS
  1
ACMNOTESTANDARDANSI
  2
AmdtNoteStdANSI
  3
"Amdt_StdImp|Product Description: AutoCAD Mechanical 2004 DX|Company: Autodesk"
 90
        0
280
     0
281
     0
  0
CLASS
  1
ACMTHREADLINESTANDARDANSI
  2
AmdtThreadLineStdANSI
  3
"Amdt_StdImp|Product Description: AutoCAD Mechanical 2004 DX|Company: Autodesk"
 90
        0
280
     0
281
     0
  0
CLASS
  1
ACMNOTESTANDARDISO
  2
AmdtNoteStdISO
  3
"Amdt_StdImp|Product Description: AutoCAD Mechanical 2004 DX|Company: Autodesk"
 90
        0
280
     0
281
     0
  0
CLASS
  1
ACMTHREADLINESTANDARDISO
  2
AmdtThreadLineStdISO
  3
"Amdt_StdImp|Product Description: AutoCAD Mechanical 2004 DX|Company: Autodesk"
 90
        0
280
     0
281
     0
  0
CLASS
  1
ACMNOTESTANDARDJIS
  2
AmdtNoteStdJIS
  3
"Amdt_StdImp|Product Description: AutoCAD Mechanical 2004 DX|Company: Autodesk"
 90
        0
280
     0
281
     0
  0
CLASS
  1
TABLESTYLE
  2
AcDbTableStyle
  3
ObjectDBX Classes
 90
     2047
280
     0
281
     0
  0
CLASS
  1
AMDTEDGESTANDARDISO13715
  2
AmdtEdgeStdISO13715
  3
"Amdt_StdImp|Product Description: AutoCAD Mechanical 2004 DX|Company: Autodesk"
 90
    32768
280
     0
281
     0
  0
CLASS
  1
AMDTNOTETEMPLATEDB
  2
AmdtNoteTemplateDB
  3
AMDT_STDIMP_MODULE_NAME
 90
    32768
280
     0
281
     0
  0
CLASS
  1
ACAMGHOLECHARTSTDISO
  2
AcAmgHoleChartStdISO
  3
ACMSYMBB_MODULE_NAME
 90
    32768
280
     0
281
     0
  0
ENDSEC
  0
SECTION
  2
TABLES
  0
TABLE
  2
VPORT
  5
8
330
0
100
AcDbSymbolTable
 70
     3
  0
VPORT
  5
178A
330
8
100
AcDbSymbolTableRecord
100
AcDbViewportTableRecord
  2
*Active
 70
     0
 10
0.0
 20
0.0
 11
1.0
 21
1.0
 12
324.6270640474551
 22
-217.9999989848584
 13
0.0
 23
0.0
 14
10.0
 24
10.0
 15
10.0
 25
10.0
 16
0.0
 26
0.0
 36
1.0
 17
0.0
 27
0.0
 37
0.0
 40
507.8143927197724
 41
1.285904255319148
 42
50.0
 43
0.0
 44
0.0
 50
0.0
 51
0.0
 71
     0
 72
   100
 73
     1
 74
     1
 75
     0
 76
     0
 77
     0
 78
     0
281
     0
 65
     1
110
0.0
120
0.0
130
0.0
111
1.0
121
0.0
131
0.0
112
0.0
122
1.0
132
0.0
 79
     0
146
0.0
  0
ENDTAB
  0
TABLE
  2
LTYPE
  5
5
330
0
100
AcDbSymbolTable
 70
    23
  0
LTYPE
  5
12
330
5
100
AcDbSymbolTableRecord
100
AcDbLinetypeTableRecord
  2
BYBLOCK
 70
     0
  3

 72
    65
 73
     0
 40
0.0
  0
LTYPE
  5
13
330
5
100
AcDbSymbolTableRecord
100
AcDbLinetypeTableRecord
  2
BYLAYER
 70
     0
  3

 72
    65
 73
     0
 40
0.0
  0
LTYPE
  5
14
330
5
100
AcDbSymbolTableRecord
100
AcDbLinetypeTableRecord
  2
CONTINUOUS
 70
     0
  3
Solid line
 72
    65
 73
     0
 40
0.0
  0
LTYPE
  5
22
330
5
100
AcDbSymbolTableRecord
100
AcDbLinetypeTableRecord
  2
CENTER
 70
     0
  3
__ . __
 72
    65
 73
     4
 40
7.0
 49
4.0
 74
     0
 49
-1.0
 74
     0
 49
1.0
 74
     0
 49
-1.0
 74
     0
  0
LTYPE
  5
23
330
5
100
AcDbSymbolTableRecord
100
AcDbLinetypeTableRecord
  2
CENTER2
 70
     0
  3
Center (.5x) ___ _ ___ _ ___ _ ___ _ ___ _ ___
 72
    65
 73
     4
 40
28.575
 49
19.05
 74
     0
 49
-3.174999999999999
 74
     0
 49
3.174999999999999
 74
     0
 49
-3.174999999999999
 74
     0
  0
LTYPE
  5
24
330
5
100
AcDbSymbolTableRecord
100
AcDbLinetypeTableRecord
  2
PHANTOM
 70
     0
  3
Phantom ______  __  __  ______  __  __  ______
 72
    65
 73
     6
 40
63.5
 49
31.75
 74
     0
 49
-6.349999999999999
 74
     0
 49
6.349999999999999
 74
     0
 49
-6.349999999999999
 74
     0
 49
6.349999999999999
 74
     0
 49
-6.349999999999999
 74
     0
  0
LTYPE
  5
25
330
5
100
AcDbSymbolTableRecord
100
AcDbLinetypeTableRecord
  2
PHANTOM2
 70
     0
  3
Phantom (.5x) ___ _ _ ___ _ _ ___ _ _ ___ _ _
 72
    65
 73
     6
 40
31.75
 49
15.875
 74
     0
 49
-3.174999999999999
 74
     0
 49
3.174999999999999
 74
     0
 49
-3.174999999999999
 74
     0
 49
3.174999999999999
 74
     0
 49
-3.174999999999999
 74
     0
  0
LTYPE
  5
26
330
5
100
AcDbSymbolTableRecord
100
AcDbLinetypeTableRecord
  2
DASHED
 70
     0
  3
Dashed __ __ __ __ __ __ __ __ __ __ __ __ __ _
 72
    65
 73
     2
 40
19.05
 49
12.7
 74
     0
 49
-6.349999999999999
 74
     0
  0
LTYPE
  5
27
330
5
100
AcDbSymbolTableRecord
100
AcDbLinetypeTableRecord
  2
DASHED2
 70
     0
  3
Dashed (.5x) _ _ _ _ _ _ _ _ _ _ _ _ _ _ _ _ _
 72
    65
 73
     2
 40
9.524999999999998
 49
6.349999999999999
 74
     0
 49
-3.174999999999999
 74
     0
  0
LTYPE
  5
671
330
5
100
AcDbSymbolTableRecord
100
AcDbLinetypeTableRecord
  2
AM_ISO02W050
 70
     0
  3
__ __ __ __ __ __ __ __ __ __ __ __ __ __ __
 72
    65
 73
     2
 40
7.5
 49
6.0
 74
     0
 49
-1.5
 74
     0
  0
LTYPE
  5
672
330
5
100
AcDbSymbolTableRecord
100
AcDbLinetypeTableRecord
  2
AM_ISO08W050
 70
     0
  3
____ . ____ . ____ . ____ . ____ . ____ . ____
 72
    65
 73
     4
 40
18.0
 49
12.0
 74
     0
 49
-1.5
 74
     0
 49
3.0
 74
     0
 49
-1.5
 74
     0
  0
LTYPE
  5
673
330
5
100
AcDbSymbolTableRecord
100
AcDbLinetypeTableRecord
  2
AM_ISO09W050
 70
     0
  3
_____ . . _____ . . _____ . . ____ .. ____
 72
    65
 73
     6
 40
22.5
 49
12.0
 74
     0
 49
-1.5
 74
     0
 49
3.0
 74
     0
 49
-1.5
 74
     0
 49
3.0
 74
     0
 49
-1.5
 74
     0
  0
LTYPE
  5
674
330
5
100
AcDbSymbolTableRecord
100
AcDbLinetypeTableRecord
  2
Amconstr
 70
     0
  3
_______________________
 72
    65
 73
     2
 40
9999.0
 49
9999.0
 74
     0
 49
0.0
 74
     0
  0
LTYPE
  5
675
330
5
100
AcDbSymbolTableRecord
100
AcDbLinetypeTableRecord
  2
AM_ISO02W050x2
 70
     0
  3
 _ _ _ _ _ _ _ _ _ _ _ _
 72
    65
 73
     2
 40
3.75
 49
3.0
 74
     0
 49
-0.75
 74
     0
  0
LTYPE
  5
676
330
5
100
AcDbSymbolTableRecord
100
AcDbLinetypeTableRecord
  2
AM_ISO08W050x2
 70
     0
  3
__ . __ . __ . __ . __ . __
 72
    65
 73
     4
 40
9.0
 49
6.0
 74
     0
 49
-0.75
 74
     0
 49
1.5
 74
     0
 49
-0.75
 74
     0
  0
LTYPE
  5
677
330
5
100
AcDbSymbolTableRecord
100
AcDbLinetypeTableRecord
  2
Amzigzag
 70
     0
  3
/\/-/\/-/\/-/\/-/\/-/\/
 72
    65
 73
     2
 40
11.0001
 49
0.0001
 74
     4
 75
   135
340
21
 46
0.04
 50
0.0
 44
0.0
 45
0.0
 49
-11.0
 74
     0
  0
LTYPE
  5
6A0
330
5
100
AcDbSymbolTableRecord
100
AcDbLinetypeTableRecord
  2
ACANSTGB
 70
     0
  3
__ . . __ . .
 72
    65
 73
     6
 40
0.35433070866
 49
0.15748031496
 74
     0
 49
-0.03937007874
 74
     0
 49
0.03937007874
 74
     0
 49
-0.03937007874
 74
     0
 49
0.03937007874
 74
     0
 49
-0.03937007874
 74
     0
  0
LTYPE
  5
6A1
330
5
100
AcDbSymbolTableRecord
100
AcDbLinetypeTableRecord
  2
ACANSTGL
 70
     0
  3
_ _ _ _ _
 72
    65
 73
     2
 40
0.11811023622
 49
0.07874015748
 74
     0
 49
-0.03937007874
 74
     0
  0
LTYPE
  5
6BB
330
5
100
AcDbSymbolTableRecord
100
AcDbLinetypeTableRecord
  2
ACISOWELD
 70
     0
  3
_ _ _ _ _
 72
    65
 73
     2
 40
2.0
 49
2.0
 74
     0
 49
-1.0
 74
     0
  0
LTYPE
  5
6BE
330
5
100
AcDbSymbolTableRecord
100
AcDbLinetypeTableRecord
  2
ACISOTGB
 70
     0
  3
__ . . __ . .
 72
    65
 73
     6
 40
9.0
 49
4.0
 74
     0
 49
-1.0
 74
     0
 49
1.0
 74
     0
 49
-1.0
 74
     0
 49
1.0
 74
     0
 49
-1.0
 74
     0
  0
LTYPE
  5
6BF
330
5
100
AcDbSymbolTableRecord
100
AcDbLinetypeTableRecord
  2
ACISOTGL
 70
     0
  3
_ _ _ _ _
 72
    65
 73
     2
 40
3.0
 49
2.0
 74
     0
 49
-1.0
 74
     0
  0
LTYPE
  5
6D7
330
5
100
AcDbSymbolTableRecord
100
AcDbLinetypeTableRecord
  2
ACJISTGB
 70
     0
  3
__ . . __ . .
 72
    65
 73
     6
 40
9.0
 49
4.0
 74
     0
 49
-1.0
 74
     0
 49
1.0
 74
     0
 49
-1.0
 74
     0
 49
1.0
 74
     0
 49
-1.0
 74
     0
  0
LTYPE
  5
6D8
330
5
100
AcDbSymbolTableRecord
100
AcDbLinetypeTableRecord
  2
ACJISTGL
 70
     0
  3
_ _ _ _ _
 72
    65
 73
     2
 40
3.0
 49
2.0
 74
     0
 49
-1.0
 74
     0
  0
LTYPE
  5
9F7
330
5
100
AcDbSymbolTableRecord
100
AcDbLinetypeTableRecord
  2
kuroda_ittensasen1
 70
     0
  3
long-dash short-dash ____ __ ____ __ ____ _
 72
    65
 73
     4
 40
19.0
 49
13.0
 74
     0
 49
-2.0
 74
     0
 49
2.0
 74
     0
 49
-2.0
 74
     0
  0
LTYPE
  5
E34
330
5
100
AcDbSymbolTableRecord
100
AcDbLinetypeTableRecord
  2
HIDDEN
 70
     0
  3
Hidden __ __ __ __ __ __ __ __ __ __ __ __ __ _
 72
    65
 73
     2
 40
9.524999999999998
 49
6.349999999999999
 74
     0
 49
-3.174999999999999
 74
     0
  0
ENDTAB
  0
TABLE
  2
LAYER
  5
2
330
0
100
AcDbSymbolTable
 70
    10
  0
LAYER
  5
E
330
2
100
AcDbSymbolTableRecord
100
AcDbLayerTableRecord
  2
0
 70
     0
 62
     7
  6
CONTINUOUS
370
    -3
390
5D
  0
LAYER
  5
74
330
2
100
AcDbSymbolTableRecord
100
AcDbLayerTableRecord
  2
Defpoints
 70
     0
 62
     7
  6
CONTINUOUS
290
     0
370
    -3
390
5D
  0
LAYER
  5
75
330
2
100
AcDbSymbolTableRecord
100
AcDbLayerTableRecord
  2
PV0001_1
 70
     0
 62
     7
  6
CONTINUOUS
370
    -3
390
5D
  0
LAYER
  5
6E9
330
2
100
AcDbSymbolTableRecord
100
AcDbLayerTableRecord
  2
outline
 70
     0
 62
     4
  6
CONTINUOUS
370
    50
390
5D
  0
LAYER
  5
7C0
330
2
100
AcDbSymbolTableRecord
100
AcDbLayerTableRecord
  2
AM_CL
 70
     0
 62
     1
  6
Amconstr
370
    25
390
5D
  0
LAYER
  5
7C8
330
2
100
AcDbSymbolTableRecord
100
AcDbLayerTableRecord
  2
center
 70
     0
 62
     2
  6
CENTER2
370
    25
390
5D
  0
LAYER
  5
A9F
330
2
100
AcDbSymbolTableRecord
100
AcDbLayerTableRecord
  2
AM_5
 70
     0
 62
     3
  6
CONTINUOUS
370
    25
390
5D
  0
LAYER
  5
D56
330
2
100
AcDbSymbolTableRecord
100
AcDbLayerTableRecord
  2
dimension
 70
     0
 62
     7
  6
CONTINUOUS
370
    25
390
5D
  0
LAYER
  5
F18
330
2
100
AcDbSymbolTableRecord
100
AcDbLayerTableRecord
  2
D10001D5_1
 70
     0
 62
     7
  6
CONTINUOUS
370
    -3
390
5D
  0
LAYER
  5
F19
330
2
100
AcDbSymbolTableRecord
100
AcDbLayerTableRecord
  2
LV2691D5_1
 70
     0
 62
     7
  6
CONTINUOUS
370
    -3
390
5D
  0
ENDTAB
  0
TABLE
  2
STYLE
  5
3
330
0
100
AcDbSymbolTable
 70
    10
  0
STYLE
  5
F
330
3
100
AcDbSymbolTableRecord
100
AcDbTextStyleTableRecord
  2
STANDARD
 70
     0
 40
0.0
 41
1.0
 50
0.0
 71
     0
 42
2.5
  3
monotxt.shx
  4
extfont.shx
  0
STYLE
  5
21
330
3
100
AcDbSymbolTableRecord
100
AcDbTextStyleTableRecord
  2

 70
     1
 40
0.0
 41
1.0
 50
0.0
 71
     0
 42
2.5
  3
ltypeshp.shx
  4

  0
STYLE
  5
30
330
3
100
AcDbSymbolTableRecord
100
AcDbTextStyleTableRecord
  2
DIM
 70
     0
 40
0.0
 41
1.0
 50
0.0
 71
     0
 42
2.5
  3
monotxt.shx
  4
extfont.shx
  0
STYLE
  5
31
330
3
100
AcDbSymbolTableRecord
100
AcDbTextStyleTableRecord
  2
CONVERT
 70
     0
 40
0.0
 41
1.0
 50
0.0
 71
     0
 42
2.5
  3
monotxt.shx
  4
extfont.shx
  0
STYLE
  5
699
330
3
100
AcDbSymbolTableRecord
100
AcDbTextStyleTableRecord
  2
ACANSTS
 70
     0
 40
1.0
 41
1.0
 50
0.0
 71
     0
 42
5.0
  3
romans.shx
  4
extfont.shx
  0
STYLE
  5
69C
330
3
100
AcDbSymbolTableRecord
100
AcDbTextStyleTableRecord
  2
ACANSGDT
 70
     0
 40
0.0
 41
1.0
 50
0.0
 71
     0
 42
5.0
  3
amgdtans.shx
  4

  0
STYLE
  5
6B5
330
3
100
AcDbSymbolTableRecord
100
AcDbTextStyleTableRecord
  2
ACISOTS
 70
     0
 40
1.0
 41
1.0
 50
0.0
 71
     0
 42
2.5
  3
isocp.shx
  4
extfont.shx
  0
STYLE
  5
6B9
330
3
100
AcDbSymbolTableRecord
100
AcDbTextStyleTableRecord
  2
ACISOGDT
 70
     0
 40
0.0
 41
1.0
 50
0.0
 71
     0
 42
2.5
  3
amgdt.shx
  4

  0
STYLE
  5
6D0
330
3
100
AcDbSymbolTableRecord
100
AcDbTextStyleTableRecord
  2
ACJISTS
 70
     0
 40
1.0
 41
1.0
 50
0.0
 71
     0
 42
2.5
  3
isocp.shx
  4
bigfont.shx
  0
STYLE
  5
6D3
330
3
100
AcDbSymbolTableRecord
100
AcDbTextStyleTableRecord
  2
ACJISGDT
 70
     0
 40
0.0
 41
1.0
 50
0.0
 71
     0
 42
2.5
  3
amgdt.shx
  4

  0
ENDTAB
  0
TABLE
  2
VIEW
  5
6
330
0
100
AcDbSymbolTable
 70
     0
  0
ENDTAB
  0
TABLE
  2
UCS
  5
7
330
0
100
AcDbSymbolTable
 70
     0
  0
ENDTAB
  0
TABLE
  2
APPID
  5
9
330
0
100
AcDbSymbolTable
 70
    28
  0
APPID
  5
10
330
9
100
AcDbSymbolTableRecord
100
AcDbRegAppTableRecord
  2
ACAD
 70
     0
  0
APPID
  5
657
330
9
100
AcDbSymbolTableRecord
100
AcDbRegAppTableRecord
  2
MCAD_NO_VIS
 70
     0
  0
APPID
  5
658
330
9
100
AcDbSymbolTableRecord
100
AcDbRegAppTableRecord
  2
ACAD_TEMP_GRAPHIC
 70
     0
  0
APPID
  5
659
330
9
100
AcDbSymbolTableRecord
100
AcDbRegAppTableRecord
  2
GENIUS_GENREC_14
 70
     0
  0
APPID
  5
65A
330
9
100
AcDbSymbolTableRecord
100
AcDbRegAppTableRecord
  2
GENIUS_GENODEF_13
 70
     0
  0
APPID
  5
65B
330
9
100
AcDbSymbolTableRecord
100
AcDbRegAppTableRecord
  2
GENIUS_GENOBJ-N-REC_13
 70
     0
  0
APPID
  5
65C
330
9
100
AcDbSymbolTableRecord
100
AcDbRegAppTableRecord
  2
GENIUS_GENOBJ-N-CEN_13
 70
     0
  0
APPID
  5
65D
330
9
100
AcDbSymbolTableRecord
100
AcDbRegAppTableRecord
  2
GENIUS_GENDTOL_13
 70
     0
  0
APPID
  5
65E
330
9
100
AcDbSymbolTableRecord
100
AcDbRegAppTableRecord
  2
GENIUS_GENDIMSH_14
 70
     0
  0
APPID
  5
65F
330
9
100
AcDbSymbolTableRecord
100
AcDbRegAppTableRecord
  2
ACATTRIBSERVICES
 70
     0
  0
APPID
  5
660
330
9
100
AcDbSymbolTableRecord
100
AcDbRegAppTableRecord
  2
GENIUS_GENFIL_13
 70
     0
  0
APPID
  5
661
330
9
100
AcDbSymbolTableRecord
100
AcDbRegAppTableRecord
  2
GENIUS_GENOBJ-N-CHA_13
 70
     0
  0
APPID
  5
662
330
9
100
AcDbSymbolTableRecord
100
AcDbRegAppTableRecord
  2
GENIUS_GENOLIS_13
 70
     0
  0
APPID
  5
663
330
9
100
AcDbSymbolTableRecord
100
AcDbRegAppTableRecord
  2
GENIUS_GENOENT_13
 70
     0
  0
APPID
  5
664
330
9
100
AcDbSymbolTableRecord
100
AcDbRegAppTableRecord
  2
GENIUS_GENOREF_13
 70
     0
  0
APPID
  5
665
330
9
100
AcDbSymbolTableRecord
100
AcDbRegAppTableRecord
  2
GENIUS_GENOBJ-N-CRS_13
 70
     0
  0
APPID
  5
666
330
9
100
AcDbSymbolTableRecord
100
AcDbRegAppTableRecord
  2
GENIUS_GENOBJ-N-TIT_13
 70
     0
  0
APPID
  5
667
330
9
100
AcDbSymbolTableRecord
100
AcDbRegAppTableRecord
  2
GENIUS_GENTITLE_13
 70
     0
  0
APPID
  5
668
330
9
100
AcDbSymbolTableRecord
100
AcDbRegAppTableRecord
  2
GENIUS_GENSCREG_15
 70
     0
  0
APPID
  5
669
330
9
100
AcDbSymbolTableRecord
100
AcDbRegAppTableRecord
  2
GENIUS_GENOBJ-N-SDF_13
 70
     0
  0
APPID
  5
66A
330
9
100
AcDbSymbolTableRecord
100
AcDbRegAppTableRecord
  2
GENIUS_GENTRA_14
 70
     0
  0
APPID
  5
66B
330
9
100
AcDbSymbolTableRecord
100
AcDbRegAppTableRecord
  2
GENIUS_GENOBJ-N-FIL_13
 70
     0
  0
APPID
  5
E14
330
9
100
AcDbSymbolTableRecord
100
AcDbRegAppTableRecord
  2
AD_DRAW
 70
     0
  0
APPID
  5
E15
330
9
100
AcDbSymbolTableRecord
100
AcDbRegAppTableRecord
  2
DESIGNERASSEMBLIES
 70
     0
  0
APPID
  5
E16
330
9
100
AcDbSymbolTableRecord
100
AcDbRegAppTableRecord
  2
ACADM_DIM_EDIT
 70
     0
  0
APPID
  5
E17
330
9
100
AcDbSymbolTableRecord
100
AcDbRegAppTableRecord
  2
AMDT_DM_ADJ
 70
     0
  0
APPID
  5
15DD
330
9
100
AcDbSymbolTableRecord
100
AcDbRegAppTableRecord
  2
ACAD_DSTYLE_DIMARC_LENGTH_SYMBOL
 70
     0
  0
APPID
  5
15DE
330
9
100
AcDbSymbolTableRecord
100
AcDbRegAppTableRecord
  2
ACAD_DSTYLE_DIMJOGGED_JOGANGLE_SYMBOL
 70
     0
  0
ENDTAB
  0
TABLE
  2
DIMSTYLE
  5
A
330
0
100
AcDbSymbolTable
 70
    28
100
AcDbDimStyleTable
 71
     1
340
1D
  0
DIMSTYLE
105
1D
102
{ACAD_REACTORS
330
AAE
102
}
330
A
100
AcDbSymbolTableRecord
100
AcDbDimStyleTableRecord
  2
STANDARD
 70
     0
 41
3.0
 42
1.0
 43
7.0
 44
2.0
 73
     0
 74
     0
 77
     1
140
2.799999999999999
141
0.0
143
0.0394
147
0.7
171
     4
172
     1
173
     1
176
    44
177
    44
178
    44
271
     3
272
     3
273
     8
274
     4
289
     0
340
F
341
32
343
32
344
32
  0
DIMSTYLE
105
6A9
330
A
100
AcDbSymbolTableRecord
100
AcDbDimStyleTableRecord
  2
AM_ANSI
 70
     0
  4
mm
 41
0.1
 42
0.05
 43
0.5
 44
0.1
 47
0.1
 48
0.1
 78
     7
 79
     2
140
0.12
141
0.0
146
0.71
147
0.06
176
   256
177
   256
178
     2
274
     4
340
F
371
    -1
372
    -1
1001
ACAD_DSTYLE_DIMARC_LENGTH_SYMBOL
1070
   379
1070
     1
1001
ACAD_DSTYLE_DIMJOGGED_JOGANGLE_SYMBOL
1070
   384
1040
0.7853981633974483
  0
DIMSTYLE
105
6AA
330
A
100
AcDbSymbolTableRecord
100
AcDbDimStyleTableRecord
  2
AM_ANSI$3
 70
     0
  4
mm
 41
0.1
 42
0.05
 43
0.5
 44
0.1
 47
0.1
 48
0.1
 78
     7
 79
     2
140
0.12
141
0.0
146
0.71
147
0.06
176
   256
177
   256
178
     2
274
     4
288
     1
289
     0
340
F
371
    -1
372
    -1
1001
ACAD_DSTYLE_DIMARC_LENGTH_SYMBOL
1070
   379
1070
     1
1001
ACAD_DSTYLE_DIMJOGGED_JOGANGLE_SYMBOL
1070
   384
1040
0.7853981633974483
  0
DIMSTYLE
105
6AB
330
A
100
AcDbSymbolTableRecord
100
AcDbDimStyleTableRecord
  2
AM_ANSI$4
 70
     0
  4
mm
 41
0.1
 42
0.05
 43
0.5
 44
0.1
 47
0.1
 48
0.1
 78
     7
 79
     2
140
0.12
141
0.0
146
0.71
147
0.06
176
   256
177
   256
178
     2
274
     4
288
     1
289
     0
340
F
371
    -1
372
    -1
1001
ACAD_DSTYLE_DIMARC_LENGTH_SYMBOL
1070
   379
1070
     1
1001
ACAD_DSTYLE_DIMJOGGED_JOGANGLE_SYMBOL
1070
   384
1040
0.7853981633974483
  0
DIMSTYLE
105
6AC
330
A
100
AcDbSymbolTableRecord
100
AcDbDimStyleTableRecord
  2
AM_ANSI$7
 70
     0
  4
mm
 41
0.1
 42
0.05
 43
0.5
 44
0.1
 47
0.1
 48
0.1
 78
     7
 79
     2
140
0.24
141
0.0
146
0.71
147
0.06
176
   256
177
   256
178
     2
274
     4
340
F
371
    -1
372
    -1
1001
ACAD_DSTYLE_DIMARC_LENGTH_SYMBOL
1070
   379
1070
     1
1001
ACAD_DSTYLE_DIMJOGGED_JOGANGLE_SYMBOL
1070
   384
1040
0.7853981633974483
  0
DIMSTYLE
105
6AD
330
A
100
AcDbSymbolTableRecord
100
AcDbDimStyleTableRecord
  2
AM_ANSI$SF
 70
     0
  4
mm
 41
0.1
 42
0.05
 43
0.5
 44
0.1
 47
0.1
 48
0.1
 75
     1
 76
     1
 78
     7
 79
     2
140
0.12
141
0.0
146
0.71
147
0.06
176
   256
177
   256
178
     2
274
     4
340
F
371
    -1
372
    -1
1001
ACAD_DSTYLE_DIMARC_LENGTH_SYMBOL
1070
   379
1070
     1
1001
ACAD_DSTYLE_DIMJOGGED_JOGANGLE_SYMBOL
1070
   384
1040
0.7853981633974483
  0
DIMSTYLE
105
6AE
330
A
100
AcDbSymbolTableRecord
100
AcDbDimStyleTableRecord
  2
AM_ANSI$SH
 70
     0
  4
mm
 41
0.1
 42
0.05
 43
0.5
 44
0.1
 47
0.1
 48
0.1
 75
     1
 76
     1
 78
     7
 79
     2
140
0.12
141
0.0
146
0.71
147
0.06
173
     1
176
   256
177
   256
178
     2
274
     4
340
F
343
6AF
371
    -1
372
    -1
1001
ACAD_DSTYLE_DIMARC_LENGTH_SYMBOL
1070
   379
1070
     1
1001
ACAD_DSTYLE_DIMJOGGED_JOGANGLE_SYMBOL
1070
   384
1040
0.7853981633974483
  0
DIMSTYLE
105
6C7
330
A
100
AcDbSymbolTableRecord
100
AcDbDimStyleTableRecord
  2
AM_ISO
 70
     0
  4
"
 41
2.5
 42
1.0
 43
10.0
 44
1.0
 47
0.1
 48
0.1
 73
     0
 74
     0
 77
     1
 78
     8
 79
     2
140
3.5
141
0.0
143
0.0393701
146
0.71
147
1.5
172
     1
176
   256
177
   256
178
     2
271
     2
272
     3
274
     4
283
     0
284
     8
340
F
371
    -1
372
    -1
1001
ACAD_DSTYLE_DIMARC_LENGTH_SYMBOL
1070
   379
1070
     1
1001
ACAD_DSTYLE_DIMJOGGED_JOGANGLE_SYMBOL
1070
   384
1040
0.7853981633974483
  0
DIMSTYLE
105
6C8
330
A
100
AcDbSymbolTableRecord
100
AcDbDimStyleTableRecord
  2
AM_ISO$3
 70
     0
  4
"
 41
2.5
 42
1.0
 43
10.0
 44
1.0
 47
0.1
 48
0.1
 73
     0
 77
     1
 78
     8
 79
     2
140
3.5
141
0.0
143
0.0393701
146
0.71
147
1.5
176
   256
177
   256
178
     2
271
     2
272
     3
274
     4
283
     0
284
     8
288
     1
289
     0
340
F
371
    -1
372
    -1
1001
ACAD_DSTYLE_DIMARC_LENGTH_SYMBOL
1070
   379
1070
     1
1001
ACAD_DSTYLE_DIMJOGGED_JOGANGLE_SYMBOL
1070
   384
1040
0.7853981633974483
  0
DIMSTYLE
105
6C9
330
A
100
AcDbSymbolTableRecord
100
AcDbDimStyleTableRecord
  2
AM_ISO$4
 70
     0
  4
"
 41
2.5
 42
1.0
 43
10.0
 44
1.0
 47
0.1
 48
0.1
 73
     0
 77
     1
 78
     8
 79
     2
140
3.5
141
0.0
143
0.0393701
146
0.71
147
1.5
176
   256
177
   256
178
     2
271
     2
272
     3
274
     4
283
     0
284
     8
288
     1
289
     0
340
F
371
    -1
372
    -1
1001
ACAD_DSTYLE_DIMARC_LENGTH_SYMBOL
1070
   379
1070
     1
1001
ACAD_DSTYLE_DIMJOGGED_JOGANGLE_SYMBOL
1070
   384
1040
0.7853981633974483
  0
DIMSTYLE
105
6CA
330
A
100
AcDbSymbolTableRecord
100
AcDbDimStyleTableRecord
  2
AM_ISO$6
 70
     0
  4
"
 41
2.5
 42
1.0
 43
10.0
 44
1.0
 47
0.1
 48
0.1
 73
     0
 74
     0
 78
     8
 79
     2
140
3.5
141
0.0
143
0.0393701
146
0.71
147
1.5
172
     1
176
   256
177
   256
178
     2
271
     2
272
     3
274
     4
283
     0
284
     8
340
F
371
    -1
372
    -1
1001
ACAD_DSTYLE_DIMARC_LENGTH_SYMBOL
1070
   379
1070
     1
1001
ACAD_DSTYLE_DIMJOGGED_JOGANGLE_SYMBOL
1070
   384
1040
0.7853981633974483
  0
DIMSTYLE
105
6CB
330
A
100
AcDbSymbolTableRecord
100
AcDbDimStyleTableRecord
  2
AM_ISO$7
 70
     0
  4
"
 41
2.5
 42
1.0
 43
10.0
 44
1.0
 47
0.1
 48
0.1
 73
     0
 74
     0
 77
     1
 78
     8
 79
     2
140
5.0
141
0.0
143
0.0393701
146
0.71
147
1.5
172
     1
176
   256
177
   256
178
     2
271
     2
272
     3
274
     4
283
     0
284
     8
340
F
371
    -1
372
    -1
1001
ACAD_DSTYLE_DIMARC_LENGTH_SYMBOL
1070
   379
1070
     1
1001
ACAD_DSTYLE_DIMJOGGED_JOGANGLE_SYMBOL
1070
   384
1040
0.7853981633974483
  0
DIMSTYLE
105
6CC
330
A
100
AcDbSymbolTableRecord
100
AcDbDimStyleTableRecord
  2
AM_ISO$SF
 70
     0
  4
"
 41
2.5
 42
1.0
 43
10.0
 44
1.0
 47
0.1
 48
0.1
 73
     0
 74
     0
 75
     1
 76
     1
 77
     1
 78
     8
 79
     2
140
3.5
141
0.0
143
0.0393701
146
0.71
147
1.5
172
     1
176
   256
177
   256
178
     2
271
     2
272
     3
274
     4
283
     0
284
     8
340
F
371
    -1
372
    -1
1001
ACAD_DSTYLE_DIMARC_LENGTH_SYMBOL
1070
   379
1070
     1
1001
ACAD_DSTYLE_DIMJOGGED_JOGANGLE_SYMBOL
1070
   384
1040
0.7853981633974483
  0
DIMSTYLE
105
6CD
330
A
100
AcDbSymbolTableRecord
100
AcDbDimStyleTableRecord
  2
AM_ISO$SH
 70
     0
  4
"
 41
2.5
 42
1.0
 43
10.0
 44
1.0
 47
0.1
 48
0.1
 73
     0
 74
     0
 75
     1
 76
     1
 77
     1
 78
     8
 79
     2
140
3.5
141
0.0
143
0.0393701
144
2.0
146
0.71
147
1.5
172
     1
173
     1
176
   256
177
   256
178
     2
271
     2
272
     3
274
     4
283
     0
284
     8
340
F
343
6AF
371
    -1
372
    -1
1001
ACAD_DSTYLE_DIMARC_LENGTH_SYMBOL
1070
   379
1070
     1
1001
ACAD_DSTYLE_DIMJOGGED_JOGANGLE_SYMBOL
1070
   384
1040
0.7853981633974483
  0
DIMSTYLE
105
6E6
330
A
100
AcDbSymbolTableRecord
100
AcDbDimStyleTableRecord
  2
kuroda_sunpo
 70
     0
  4
"
 41
2.5
 42
1.0
 43
8.0
 44
1.0
 47
0.1
 48
0.1
 73
     0
 74
     0
 77
     3
 78
     8
 79
     2
140
3.2
141
0.0
143
0.0393701
146
0.71
147
1.5
172
     1
176
     7
177
     7
178
     7
179
     2
271
     3
272
     3
275
     1
283
     0
340
F
341
A7
342
A7
371
    -1
372
    -1
  0
DIMSTYLE
105
6EE
330
A
100
AcDbSymbolTableRecord
100
AcDbDimStyleTableRecord
  2
kuroda_sunpo$3
 70
     0
  4
"
 41
2.5
 42
1.0
 43
8.0
 44
1.0
 47
0.1
 48
0.1
 73
     0
 77
     3
 78
     8
 79
     2
140
3.2
141
0.0
143
0.0393701
146
0.71
147
1.5
176
     7
177
     7
178
     7
179
     2
271
     3
272
     3
275
     1
283
     0
288
     1
289
     0
340
F
341
A7
342
A7
371
    -1
372
    -1
  0
DIMSTYLE
105
6EF
330
A
100
AcDbSymbolTableRecord
100
AcDbDimStyleTableRecord
  2
kuroda_sunpo$4
 70
     0
  4
"
 41
2.5
 42
1.0
 43
8.0
 44
1.0
 47
0.1
 48
0.1
 73
     0
 77
     3
 78
     8
 79
     2
140
3.2
141
0.0
143
0.0393701
146
0.71
147
1.5
176
     7
177
     7
178
     7
179
     2
271
     3
272
     3
275
     1
283
     0
288
     1
289
     0
340
F
341
A7
342
A7
371
    -1
372
    -1
  0
DIMSTYLE
105
6F0
330
A
100
AcDbSymbolTableRecord
100
AcDbDimStyleTableRecord
  2
kuroda_sunpo$6
 70
     0
  4
"
 41
2.5
 42
1.0
 43
8.0
 44
1.0
 47
0.1
 48
0.1
 73
     0
 74
     0
 78
     8
 79
     2
140
3.2
141
0.0
143
0.0393701
146
0.71
147
1.5
172
     1
176
     7
177
     7
178
     7
179
     2
271
     3
272
     3
275
     1
283
     0
340
F
341
A7
342
A7
371
    -1
372
    -1
  0
DIMSTYLE
105
6F1
330
A
100
AcDbSymbolTableRecord
100
AcDbDimStyleTableRecord
  2
kuroda_sunpo$SF
 70
     0
  4
"
 41
2.5
 42
1.0
 43
8.0
 44
1.0
 47
0.1
 48
0.1
 73
     0
 74
     0
 75
     1
 76
     1
 77
     3
 78
     8
 79
     2
140
5.0
141
0.0
143
0.0393701
146
0.71
147
1.5
172
     1
176
   256
177
   256
178
     7
179
     2
271
     3
272
     3
275
     1
283
     0
340
F
341
32
342
32
371
    -1
372
    -1
  0
DIMSTYLE
105
6F8
330
A
100
AcDbSymbolTableRecord
100
AcDbDimStyleTableRecord
  2
kuroda_sunpo$SH
 70
     0
  4
"
 41
2.5
 42
1.0
 43
8.0
 44
1.0
 47
0.1
 48
0.1
 73
     0
 74
     0
 75
     1
 76
     1
 77
     3
 78
     8
 79
     2
140
5.0
141
0.0
143
0.0393701
144
2.0
146
0.71
147
1.5
172
     1
173
     1
176
   256
177
   256
178
     7
179
     2
271
     3
272
     3
275
     1
283
     0
340
F
341
32
342
32
343
6AF
371
    -1
372
    -1
  0
DIMSTYLE
105
70A
330
A
100
AcDbSymbolTableRecord
100
AcDbDimStyleTableRecord
  2
JIS-KURODA
 70
     0
  4
"
 41
2.5
 42
1.0
 43
10.0
 44
1.0
 47
0.1
 48
0.1
 73
     0
 74
     0
 77
     3
 78
     8
 79
     2
140
3.2
141
0.0
143
0.0393701
146
0.71
147
1.5
172
     1
174
     1
176
     7
177
     7
178
     7
271
     2
272
     2
283
     0
284
     8
340
F
341
A7
342
A7
371
    -1
372
    -1
1001
ACAD_DSTYLE_DIMARC_LENGTH_SYMBOL
1070
   379
1070
     1
1001
ACAD_DSTYLE_DIMJOGGED_JOGANGLE_SYMBOL
1070
   384
1040
0.7853981633974483
  0
DIMSTYLE
105
70B
330
A
100
AcDbSymbolTableRecord
100
AcDbDimStyleTableRecord
  2
JIS-KURODA$2
 70
     0
  4
"
 41
2.5
 42
1.0
 43
10.0
 44
1.0
 47
0.1
 48
0.1
 73
     0
 74
     0
 77
     3
 78
     8
 79
     2
140
3.2
141
0.0
143
0.0393701
146
0.71
147
1.5
172
     1
174
     1
176
     7
177
     7
178
     7
271
     2
272
     2
283
     0
284
     8
340
F
341
A7
342
A7
371
    -1
372
    -1
1001
ACAD_DSTYLE_DIMARC_LENGTH_SYMBOL
1070
   379
1070
     1
1001
ACAD_DSTYLE_DIMJOGGED_JOGANGLE_SYMBOL
1070
   384
1040
0.7853981633974483
  0
DIMSTYLE
105
70C
330
A
100
AcDbSymbolTableRecord
100
AcDbDimStyleTableRecord
  2
JIS-KURODA$3
 70
     0
  4
"
 41
2.5
 42
1.0
 43
10.0
 44
1.0
 47
0.1
 48
0.1
 73
     0
 74
     0
 77
     3
 78
     8
 79
     2
140
3.2
141
0.0
143
0.0393701
146
0.71
147
1.5
172
     1
176
     7
177
     7
178
     7
271
     2
272
     2
283
     0
284
     8
288
     1
289
     2
340
F
341
32
342
A7
371
    -1
372
    -1
1001
ACAD_DSTYLE_DIMARC_LENGTH_SYMBOL
1070
   379
1070
     1
1001
ACAD_DSTYLE_DIMJOGGED_JOGANGLE_SYMBOL
1070
   384
1040
0.7853981633974483
  0
DIMSTYLE
105
70D
330
A
100
AcDbSymbolTableRecord
100
AcDbDimStyleTableRecord
  2
JIS-KURODA$4
 70
     0
  4
"
 41
2.5
 42
1.0
 43
10.0
 44
1.0
 47
0.1
 48
0.1
 73
     0
 77
     3
 78
     8
 79
     2
140
3.2
141
0.0
143
0.0393701
146
0.71
147
1.5
173
     1
176
     7
177
     7
178
     7
271
     2
272
     2
279
     1
283
     0
284
     8
288
     1
289
     0
340
F
341
32
343
32
344
A7
371
    -1
372
    -1
1001
ACAD_DSTYLE_DIMARC_LENGTH_SYMBOL
1070
   379
1070
     1
1001
ACAD_DSTYLE_DIMJOGGED_JOGANGLE_SYMBOL
1070
   384
1040
0.7853981633974483
  0
DIMSTYLE
105
70E
330
A
100
AcDbSymbolTableRecord
100
AcDbDimStyleTableRecord
  2
JIS-KURODA$6
 70
     0
  4
"
 41
2.5
 42
1.0
 43
10.0
 44
1.0
 47
0.1
 48
0.1
 73
     0
 74
     0
 78
     8
 79
     2
140
3.2
141
0.0
143
0.0393701
146
0.71
147
1.5
172
     1
176
     7
177
     7
178
     7
271
     2
272
     2
279
     1
283
     0
284
     8
340
F
341
32
342
32
371
    -1
372
    -1
1001
ACAD_DSTYLE_DIMARC_LENGTH_SYMBOL
1070
   379
1070
     1
1001
ACAD_DSTYLE_DIMJOGGED_JOGANGLE_SYMBOL
1070
   384
1040
0.7853981633974483
  0
DIMSTYLE
105
70F
330
A
100
AcDbSymbolTableRecord
100
AcDbDimStyleTableRecord
  2
JIS-KURODA$7
 70
     0
  4
"
 41
2.5
 42
1.0
 43
10.0
 44
1.0
 47
0.1
 48
0.1
 73
     0
 74
     0
 77
     3
 78
     8
 79
     2
140
4.000000000000003
141
0.0
143
0.0393701
146
0.71
147
1.5
172
     1
176
     7
177
     7
178
     7
271
     2
272
     2
279
     1
283
     0
284
     8
340
F
341
A7
342
32
371
    -1
372
    -1
1001
ACAD_DSTYLE_DIMARC_LENGTH_SYMBOL
1070
   379
1070
     1
1001
ACAD_DSTYLE_DIMJOGGED_JOGANGLE_SYMBOL
1070
   384
1040
0.7853981633974483
  0
DIMSTYLE
105
710
330
A
100
AcDbSymbolTableRecord
100
AcDbDimStyleTableRecord
  2
JIS-KURODA$SF
 70
     0
  4
"
 41
2.5
 42
1.0
 43
10.0
 44
1.0
 47
0.1
 48
0.1
 73
     0
 74
     0
 75
     1
 76
     1
 77
     3
 78
     8
 79
     2
140
3.5
141
0.0
143
0.0393701
146
0.71
147
1.5
172
     1
176
   256
177
   256
178
     7
271
     2
272
     3
274
     4
283
     0
284
     8
340
F
341
32
342
32
343
32
344
32
371
    -1
372
    -1
1001
ACAD_DSTYLE_DIMARC_LENGTH_SYMBOL
1070
   379
1070
     1
1001
ACAD_DSTYLE_DIMJOGGED_JOGANGLE_SYMBOL
1070
   384
1040
0.7853981633974483
  0
DIMSTYLE
105
711
330
A
100
AcDbSymbolTableRecord
100
AcDbDimStyleTableRecord
  2
JIS-KURODA$SH
 70
     0
  4
"
 41
2.5
 42
1.0
 43
10.0
 44
1.0
 47
0.1
 48
0.1
 73
     0
 74
     0
 75
     1
 76
     1
 77
     3
 78
     8
 79
     2
140
3.5
141
0.0
143
0.0393701
144
2.0
146
0.71
147
1.5
172
     1
173
     1
176
   256
177
   256
178
     7
271
     2
272
     3
274
     4
283
     0
284
     8
340
F
341
32
342
32
343
6AF
344
32
371
    -1
372
    -1
1001
ACAD_DSTYLE_DIMARC_LENGTH_SYMBOL
1070
   379
1070
     1
1001
ACAD_DSTYLE_DIMJOGGED_JOGANGLE_SYMBOL
1070
   384
1040
0.7853981633974483
  0
ENDTAB
  0
TABLE
  2
BLOCK_RECORD
  5
1
330
0
100
AcDbSymbolTable
 70
     6
  0
BLOCK_RECORD
  5
18
102
{ACAD_XDICTIONARY
360
625
102
}
330
1
100
AcDbSymbolTableRecord
100
AcDbBlockTableRecord
  2
*MODEL_SPACE
340
60
  0
BLOCK_RECORD
  5
15
102
{ACAD_XDICTIONARY
360
623
102
}
330
1
100
AcDbSymbolTableRecord
100
AcDbBlockTableRecord
  2
*PAPER_SPACE
340
61
  0
BLOCK_RECORD
  5
32
330
1
100
AcDbSymbolTableRecord
100
AcDbBlockTableRecord
  2
_Open30
340
0
  0
BLOCK_RECORD
  5
A7
330
1
100
AcDbSymbolTableRecord
100
AcDbBlockTableRecord
  2
_Open
340
0
  0
BLOCK_RECORD
  5
6AF
330
1
100
AcDbSymbolTableRecord
100
AcDbBlockTableRecord
  2
GENAXEH
340
0
  0
BLOCK_RECORD
  5
AAF
330
1
100
AcDbSymbolTableRecord
100
AcDbBlockTableRecord
  2
*D3
340
0
  0
BLOCK_RECORD
  5
1244
102
{ACAD_XDICTIONARY
360
1302
102
}
330
1
100
AcDbSymbolTableRecord
100
AcDbBlockTableRecord
  2
A$C12DD249A
340
0
  0
ENDTAB
  0
ENDSEC
  0
SECTION
  2
BLOCKS
  0
BLOCK
  5
19
330
18
100
AcDbEntity
  8
0
100
AcDbBlockBegin
  2
*MODEL_SPACE
 70
     0
 10
0.0
 20
0.0
 30
0.0
  3
*MODEL_SPACE
  1

  0
ENDBLK
  5
1A
330
18
100
AcDbEntity
  8
0
100
AcDbBlockEnd
  0
BLOCK
  5
16
330
15
100
AcDbEntity
 67
     1
  8
0
100
AcDbBlockBegin
  2
*PAPER_SPACE
 70
     0
 10
0.0
 20
0.0
 30
0.0
  3
*PAPER_SPACE
  1

  0
ENDBLK
  5
17
330
15
100
AcDbEntity
 67
     1
  8
0
100
AcDbBlockEnd
  0
BLOCK
  5
1745
330
32
100
AcDbEntity
  8
0
100
AcDbBlockBegin
  2
_Open30
 70
     0
 10
0.0
 20
0.0
 30
0.0
  3
_Open30
  1

  0
LINE
  5
1746
330
32
100
AcDbEntity
  8
0
 62
     0
370
    -2
100
AcDbLine
 10
-1.0
 20
0.26794919
 30
0.0
 11
0.0
 21
0.0
 31
0.0
  0
LINE
  5
1747
330
32
100
AcDbEntity
  8
0
 62
     0
370
    -2
100
AcDbLine
 10
0.0
 20
0.0
 30
0.0
 11
-1.0
 21
-0.26794919
 31
0.0
  0
LINE
  5
1748
330
32
100
AcDbEntity
  8
0
 62
     0
370
    -2
100
AcDbLine
 10
0.0
 20
0.0
 30
0.0
 11
-1.0
 21
0.0
 31
0.0
  0
ENDBLK
  5
1749
330
32
100
AcDbEntity
  8
0
100
AcDbBlockEnd
  0
BLOCK
  5
173A
330
A7
100
AcDbEntity
  8
0
100
AcDbBlockBegin
  2
_Open
 70
     0
 10
0.0
 20
0.0
 30
0.0
  3
_Open
  1

  0
LINE
  5
173B
330
A7
100
AcDbEntity
  8
outline
 62
     0
370
    -2
100
AcDbLine
 10
-1.0
 20
0.1666666666666666
 30
0.0
 11
0.0
 21
0.0
 31
0.0
  0
LINE
  5
173D
330
A7
100
AcDbEntity
  8
outline
 62
     0
370
    -2
100
AcDbLine
 10
-1.0
 20
-0.1666666666666666
 30
0.0
 11
0.0
 21
0.0
 31
0.0
  0
LINE
  5
173E
330
A7
100
AcDbEntity
  8
outline
 62
     0
370
    -2
100
AcDbLine
 10
0.0
 20
0.0
 30
0.0
 11
-1.0
 21
0.0
 31
0.0
  0
ENDBLK
  5
173F
330
A7
100
AcDbEntity
  8
0
100
AcDbBlockEnd
  0
BLOCK
  5
16FF
330
6AF
100
AcDbEntity
  8
0
100
AcDbBlockBegin
  2
GENAXEH
 70
     0
 10
0.0
 20
0.0
 30
0.0
  3
GENAXEH
  1

  0
LINE
  5
1700
330
6AF
100
AcDbEntity
  8
0
100
AcDbLine
 10
-1.0
 20
0.0
 30
0.0
 11
1.0
 21
0.0
 31
0.0
  0
ENDBLK
  5
1701
330
6AF
100
AcDbEntity
  8
0
100
AcDbBlockEnd
  0
BLOCK
  5
AB9
330
AAF
100
AcDbEntity
  8
0
100
AcDbBlockBegin
  2
*D3
 70
     1
 10
0.0
 20
0.0
 30
0.0
  3
*D3
  1

  0
LINE
  5
11D6
330
AAF
100
AcDbEntity
  8
AM_5
 62
    44
370
    -2
100
AcDbLine
 10
241.118061489714
 20
-141.75
 30
0.0
 11
241.118061489714
 21
-159.5000009999994
 31
0.0
  0
LINE
  5
11D7
330
AAF
100
AcDbEntity
  8
AM_5
 62
    44
370
    -2
100
AcDbLine
 10
451.1180614897138
 20
-142.5000000000001
 30
0.0
 11
451.1180614897138
 21
-159.5000009999994
 31
0.0
  0
LINE
  5
11D8
330
AAF
100
AcDbEntity
  8
AM_5
 62
    44
370
    -2
100
AcDbLine
 10
244.1180614897139
 20
-157.5000009999994
 30
0.0
 11
448.1180614897139
 21
-157.5000009999994
 31
0.0
  0
INSERT
  5
11D9
330
AAF
100
AcDbEntity
  8
AM_5
 62
    44
370
    -2
100
AcDbBlockReference
  2
_Open30
 10
241.118061489714
 20
-157.5000009999994
 30
0.0
 41
3.0
 42
3.0
 43
3.0
 50
180.0
  0
INSERT
  5
11DA
330
AAF
100
AcDbEntity
  8
AM_5
 62
    44
370
    -2
100
AcDbBlockReference
  2
_Open30
 10
451.1180614897138
 20
-157.5000009999994
 30
0.0
 41
3.0
 42
3.0
 43
3.0
  0
MTEXT
  5
11DB
330
AAF
100
AcDbEntity
  8
AM_5
 62
    44
100
AcDbMText
 10
346.1180614897139
 20
-155.4000009999994
 30
0.0
 40
2.799999999999999
 41
0.0
 71
     5
 72
     1
  1
\A1;L
 73
     1
 44
1.0
1001
ACAD
1000
MTEXTBEGIN
1070
    73
1070
     1
1070
    44
1040
1.0
1070
    74
1070
     0
1000
MTEXTEND
  0
POINT
  5
11DC
330
AAF
100
AcDbEntity
  8
Defpoints
 62
     0
100
AcDbPoint
 10
241.118061489714
 20
-140.75
 30
0.0
  0
POINT
  5
11DD
330
AAF
100
AcDbEntity
  8
Defpoints
 62
     0
100
AcDbPoint
 10
451.1180614897138
 20
-141.5000000000001
 30
0.0
  0
POINT
  5
11DE
330
AAF
100
AcDbEntity
  8
Defpoints
 62
     0
100
AcDbPoint
 10
451.1180614897138
 20
-157.5000009999994
 30
0.0
  0
ENDBLK
  5
ABA
330
AAF
100
AcDbEntity
  8
0
100
AcDbBlockEnd
  0
BLOCK
  5
1303
330
1244
100
AcDbEntity
  8
0
100
AcDbBlockBegin
  2
A$C12DD249A
 70
     0
 10
0.0
 20
0.0
 30
0.0
  3
A$C12DD249A
  1

  0
MTEXT
  5
1245
330
1244
100
AcDbEntity
  8
PV0001_1
 62
     7
370
    25
100
AcDbMText
 10
118.4640529751721
 20
-185.1434765665825
 30
0.0
 40
3.2
 41
0.0
 71
     4
 72
     5
  1
\T1.40;\W0.61;BUM-6
 73
     1
 44
1.0
1001
ACAD
1000
MTEXTBEGIN
1070
    73
1070
     1
1070
    44
1040
1.0
1070
    74
1070
     0
1000
MTEXTEND
  0
MTEXT
  5
1246
330
1244
100
AcDbEntity
  8
PV0001_1
 62
     7
370
    25
100
AcDbMText
 10
104.4640529751721
 20
-122.27130126953
 30
0.0
 40
3.2
 41
0.0
 71
     4
 72
     5
  1
\T1.40;\W0.61;BUM-6
 73
     1
 44
1.0
1001
ACAD
1000
MTEXTBEGIN
1070
    73
1070
     1
1070
    44
1040
1.0
1070
    74
1070
     0
1000
MTEXTEND
  0
MTEXT
  5
1247
330
1244
100
AcDbEntity
  8
PV0001_1
 62
     7
370
    25
100
AcDbMText
 10
107.6132839322121
 20
-29.69296264648
 30
0.0
 40
3.2
 41
0.0
 71
     4
 72
     5
  1
\T1.40;\W0.61;BUK-6
 73
     1
 44
1.0
1001
ACAD
1000
MTEXTBEGIN
1070
    73
1070
     1
1070
    44
1040
1.0
1070
    74
1070
     0
1000
MTEXTEND
  0
ARC
  5
1248
330
1244
100
AcDbEntity
  8
PV0001_1
  6
PHANTOM2
 48
0.5
370
    25
100
AcDbCircle
 10
127.30004882812
 20
-0.1048736572199971
 30
0.0
 40
0.2000000029802
100
AcDbArc
 50
269.9999974955215
 51
0.0
  0
ARC
  5
1249
330
1244
100
AcDbEntity
  8
PV0001_1
  6
PHANTOM2
 48
0.5
370
    25
100
AcDbCircle
 10
127.30004882812
 20
-6.504867553709999
 30
0.0
 40
0.2000000029802
100
AcDbArc
 50
0.0
 51
90.00000250447845
  0
ARC
  5
124A
330
1244
100
AcDbEntity
  8
PV0001_1
  6
PHANTOM2
 48
0.5
370
    25
100
AcDbCircle
 10
127.30004882812
 20
-100.10485839843
 30
0.0
 40
0.2000000029802
100
AcDbArc
 50
269.9999974955215
 51
0.0
  0
ARC
  5
124B
330
1244
100
AcDbEntity
  8
PV0001_1
  6
PHANTOM2
 48
0.5
370
    25
100
AcDbCircle
 10
127.30004882812
 20
-106.5048828125
 30
0.0
 40
0.2000000029802
100
AcDbArc
 50
0.0
 51
90.00000250447845
  0
ARC
  5
124C
330
1244
100
AcDbEntity
  8
PV0001_1
  6
PHANTOM2
 48
0.5
370
    25
100
AcDbCircle
 10
127.30004882812
 20
-162.9770336954825
 30
0.0
 40
0.2000000029802
100
AcDbArc
 50
269.9999974955215
 51
0.0
  0
ARC
  5
124D
330
1244
100
AcDbEntity
  8
PV0001_1
  6
PHANTOM2
 48
0.5
370
    25
100
AcDbCircle
 10
127.30004882812
 20
-169.3770581095525
 30
0.0
 40
0.2000000029802
100
AcDbArc
 50
0.0
 51
90.00000250447845
  0
ARC
  5
124E
330
1244
100
AcDbEntity
  8
PV0001_1
  6
Continuous
 48
0.5
370
    50
100
AcDbCircle
 10
-5.999954223629998
 20
-103.30487060547
 30
0.0
 40
17.5
100
AcDbArc
 50
126.8699032291531
 51
143.1300974540944
  0
CIRCLE
  5
124F
330
1244
100
AcDbEntity
  8
PV0001_1
  6
Continuous
 48
0.5
370
    50
100
AcDbCircle
 10
1.000045776370001
 20
-103.30487060547
 30
0.0
 40
1.0
  0
CIRCLE
  5
1250
330
1244
100
AcDbEntity
  8
PV0001_1
  6
Continuous
 48
0.5
370
    50
100
AcDbCircle
 10
-5.999954223629998
 20
-110.30487060547
 30
0.0
 40
1.0
  0
CIRCLE
  5
1251
330
1244
100
AcDbEntity
  8
PV0001_1
  6
Continuous
 48
0.5
370
    50
100
AcDbCircle
 10
-12.99995422363
 20
-103.30487060547
 30
0.0
 40
1.0
  0
CIRCLE
  5
1252
330
1244
100
AcDbEntity
  8
PV0001_1
  6
Continuous
 48
0.5
370
    50
100
AcDbCircle
 10
-5.999954223629998
 20
-96.30487060547
 30
0.0
 40
1.0
  0
CIRCLE
  5
1253
330
1244
100
AcDbEntity
  8
PV0001_1
  6
Continuous
370
    25
100
AcDbCircle
 10
-5.999954223629998
 20
-103.30487060547
 30
0.0
 40
8.8734998703003
  0
CIRCLE
  5
1254
330
1244
100
AcDbEntity
  8
PV0001_1
  6
CENTER2
370
    25
100
AcDbCircle
 10
-5.999954223629998
 20
-103.30487060547
 30
0.0
 40
7.0
  0
CIRCLE
  5
1255
330
1244
100
AcDbEntity
  8
PV0001_1
  6
Continuous
370
    50
100
AcDbCircle
 10
-5.999954223629998
 20
-103.30487060547
 30
0.0
 40
9.442000389099099
  0
CIRCLE
  5
1256
330
1244
100
AcDbEntity
  8
PV0001_1
  6
Continuous
 48
0.5
370
    50
100
AcDbCircle
 10
-15.89944458008
 20
-113.2043762207
 30
0.0
 40
2.75
  0
CIRCLE
  5
1257
330
1244
100
AcDbEntity
  8
PV0001_1
  6
Continuous
 48
0.5
370
    50
100
AcDbCircle
 10
-15.89944458008
 20
-93.40539550781
 30
0.0
 40
2.75
  0
CIRCLE
  5
1258
330
1244
100
AcDbEntity
  8
PV0001_1
  6
Continuous
 48
0.5
370
    50
100
AcDbCircle
 10
3.899520874019998
 20
-93.40536499023
 30
0.0
 40
2.75
  0
CIRCLE
  5
1259
330
1244
100
AcDbEntity
  8
PV0001_1
  6
Continuous
 48
0.5
370
    50
100
AcDbCircle
 10
3.899536132809998
 20
-113.20434570312
 30
0.0
 40
2.75
  0
CIRCLE
  5
125A
330
1244
100
AcDbEntity
  8
PV0001_1
  6
Continuous
 48
0.5
370
    50
100
AcDbCircle
 10
3.899536132809998
 20
-113.20434570312
 30
0.0
 40
1.450000166893
  0
CIRCLE
  5
125B
330
1244
100
AcDbEntity
  8
PV0001_1
  6
Continuous
 48
0.5
370
    50
100
AcDbCircle
 10
-15.89944458008
 20
-113.2043762207
 30
0.0
 40
1.450000166893
  0
CIRCLE
  5
125C
330
1244
100
AcDbEntity
  8
PV0001_1
  6
Continuous
 48
0.5
370
    50
100
AcDbCircle
 10
-15.89944458008
 20
-93.40539550781
 30
0.0
 40
1.450000166893
  0
CIRCLE
  5
125D
330
1244
100
AcDbEntity
  8
PV0001_1
  6
Continuous
 48
0.5
370
    50
100
AcDbCircle
 10
3.899520874019998
 20
-93.40536499023
 30
0.0
 40
1.450000166893
  0
CIRCLE
  5
125E
330
1244
100
AcDbEntity
  8
PV0001_1
  6
CENTER2
370
    25
100
AcDbCircle
 10
-5.999954223629998
 20
-103.30487060547
 30
0.0
 40
14.0
  0
ARC
  5
125F
330
1244
100
AcDbEntity
  8
PV0001_1
  6
Continuous
 48
0.5
370
    50
100
AcDbCircle
 10
-5.999954223629998
 20
-103.30487060547
 30
0.0
 40
17.5
100
AcDbArc
 50
306.8698982201943
 51
323.1301061055158
  0
ARC
  5
1260
330
1244
100
AcDbEntity
  8
PV0001_1
  6
Continuous
 48
0.5
370
    50
100
AcDbCircle
 10
-5.999954223629998
 20
-103.30487060547
 30
0.0
 40
17.5
100
AcDbArc
 50
216.8698752251466
 51
233.1300831104669
  0
ARC
  5
1261
330
1244
100
AcDbEntity
  8
PV0001_1
  6
Continuous
 48
0.5
370
    50
100
AcDbCircle
 10
-5.999954223629998
 20
-103.30487060547
 30
0.0
 40
17.5
100
AcDbArc
 50
36.86989389448422
 51
53.13010177980443
  0
ARC
  5
1262
330
1244
100
AcDbEntity
  8
PV0001_1
  6
Continuous
 48
0.5
370
    50
100
AcDbCircle
 10
-5.999954223629998
 20
-103.30487060547
 30
0.0
 40
6.8499999046326
100
AcDbArc
 50
118.8469034828654
 51
151.1528239928142
  0
ARC
  5
1263
330
1244
100
AcDbEntity
  8
PV0001_1
  6
Continuous
 48
0.5
370
    50
100
AcDbCircle
 10
-5.999954223629998
 20
-103.30487060547
 30
0.0
 40
6.8499999046326
100
AcDbArc
 50
298.846884813532
 51
331.1533380782326
  0
ARC
  5
1264
330
1244
100
AcDbEntity
  8
PV0001_1
  6
Continuous
 48
0.5
370
    50
100
AcDbCircle
 10
-5.999954223629998
 20
-103.30487060547
 30
0.0
 40
6.8499999046326
100
AcDbArc
 50
208.8470940449198
 51
241.1532058001596
  0
ARC
  5
1265
330
1244
100
AcDbEntity
  8
PV0001_1
  6
Continuous
 48
0.5
370
    50
100
AcDbCircle
 10
-5.999954223629998
 20
-103.30487060547
 30
0.0
 40
6.8499999046326
100
AcDbArc
 50
28.84764888409974
 51
61.15321080911876
  0
CIRCLE
  5
1266
330
1244
100
AcDbEntity
  8
PV0001_1
  6
CENTER2
370
    25
100
AcDbCircle
 10
-5.999954223629998
 20
-3.30487060547
 30
0.0
 40
7.0
  0
CIRCLE
  5
1267
330
1244
100
AcDbEntity
  8
PV0001_1
  6
Continuous
370
    50
100
AcDbCircle
 10
-5.999954223629998
 20
-3.30487060547
 30
0.0
 40
9.442000389099099
  0
ARC
  5
1268
330
1244
100
AcDbEntity
  8
PV0001_1
  6
Continuous
 48
0.5
370
    50
100
AcDbCircle
 10
-5.999954223629998
 20
-3.30487060547
 30
0.0
 40
6.8499999046326
100
AcDbArc
 50
118.846821520598
 51
151.1527420305426
  0
ARC
  5
1269
330
1244
100
AcDbEntity
  8
PV0001_1
  6
Continuous
 48
0.5
370
    50
100
AcDbCircle
 10
-5.999954223629998
 20
-3.30487060547
 30
0.0
 40
6.8499999046326
100
AcDbArc
 50
298.8468096814508
 51
331.1532629461518
  0
ARC
  5
126A
330
1244
100
AcDbEntity
  8
PV0001_1
  6
Continuous
 48
0.5
370
    50
100
AcDbCircle
 10
-5.999954223629998
 20
-3.30487060547
 30
0.0
 40
6.8499999046326
100
AcDbArc
 50
208.8470120826488
 51
241.1531238378895
  0
ARC
  5
126B
330
1244
100
AcDbEntity
  8
PV0001_1
  6
Continuous
 48
0.5
370
    50
100
AcDbCircle
 10
-5.999954223629998
 20
-3.30487060547
 30
0.0
 40
6.8499999046326
100
AcDbArc
 50
28.84764888409974
 51
61.15313567703571
  0
CIRCLE
  5
126C
330
1244
100
AcDbEntity
  8
PV0001_1
  6
Continuous
 48
0.5
370
    50
100
AcDbCircle
 10
-5.999954223629998
 20
3.695129394529999
 30
0.0
 40
1.0
  0
CIRCLE
  5
126D
330
1244
100
AcDbEntity
  8
PV0001_1
  6
Continuous
 48
0.5
370
    50
100
AcDbCircle
 10
-5.999954223629998
 20
-10.30487060547
 30
0.0
 40
1.0
  0
CIRCLE
  5
126E
330
1244
100
AcDbEntity
  8
PV0001_1
  6
Continuous
 48
0.5
370
    50
100
AcDbCircle
 10
1.000045776370001
 20
-3.30487060547
 30
0.0
 40
1.0
  0
CIRCLE
  5
126F
330
1244
100
AcDbEntity
  8
PV0001_1
  6
Continuous
 48
0.5
370
    50
100
AcDbCircle
 10
-12.99995422363
 20
-3.30487060547
 30
0.0
 40
1.0
  0
CIRCLE
  5
1270
330
1244
100
AcDbEntity
  8
PV0001_1
  6
Continuous
 48
0.5
370
    50
100
AcDbCircle
 10
114.00006103516
 20
-18.30487060547
 30
0.0
 40
2.75
  0
CIRCLE
  5
1271
330
1244
100
AcDbEntity
  8
PV0001_1
  6
Continuous
 48
0.5
370
    50
100
AcDbCircle
 10
114.00006103516
 20
-18.30487060547
 30
0.0
 40
4.750000476837199
  0
CIRCLE
  5
1272
330
1244
100
AcDbEntity
  8
PV0001_1
  6
Continuous
 48
0.5
370
    50
100
AcDbCircle
 10
114.00006103516
 20
11.69512939453
 30
0.0
 40
4.750000476837199
  0
CIRCLE
  5
1273
330
1244
100
AcDbEntity
  8
PV0001_1
  6
Continuous
 48
0.5
370
    50
100
AcDbCircle
 10
114.00006103516
 20
11.69512939453
 30
0.0
 40
2.75
  0
LINE
  5
1274
330
1244
100
AcDbEntity
  8
PV0001_1
  6
PHANTOM2
 48
0.5
370
    25
100
AcDbLine
 10
105.00006103516
 20
-163.5830212443125
 30
0.0
 11
105.70327758789
 21
-163.1770459025225
 31
0.0
  0
LINE
  5
1275
330
1244
100
AcDbEntity
  8
PV0001_1
  6
PHANTOM2
 48
0.5
370
    25
100
AcDbLine
 10
105.00006103516
 20
-168.7710400431425
 30
0.0
 11
105.70327758789
 21
-169.1770459025225
 31
0.0
  0
LINE
  5
1276
330
1244
100
AcDbEntity
  8
PV0001_1
  6
PHANTOM2
 48
0.5
370
    25
100
AcDbLine
 10
98.00006103516
 20
-168.7710400431425
 30
0.0
 11
105.00006103516
 21
-168.7710400431425
 31
0.0
  0
LINE
  5
1277
330
1244
100
AcDbEntity
  8
PV0001_1
  6
PHANTOM2
 48
0.5
370
    25
100
AcDbLine
 10
98.00006103516
 20
-163.5830517618925
 30
0.0
 11
105.00006103516
 21
-163.5830517618925
 31
0.0
  0
LINE
  5
1278
330
1244
100
AcDbEntity
  8
PV0001_1
  6
PHANTOM2
 48
0.5
370
    25
100
AcDbLine
 10
98.00006103516
 20
-169.1770459025225
 30
0.0
 11
127.30004882812
 21
-169.1770459025225
 31
0.0
  0
LINE
  5
1279
330
1244
100
AcDbEntity
  8
PV0001_1
  6
PHANTOM2
 48
0.5
370
    25
100
AcDbLine
 10
98.00006103516
 20
-163.1770459025225
 30
0.0
 11
127.30004882812
 21
-163.1770459025225
 31
0.0
  0
LINE
  5
127A
330
1244
100
AcDbEntity
  8
PV0001_1
  6
PHANTOM2
 48
0.5
370
    25
100
AcDbLine
 10
90.50006103516
 20
-168.4270459025225
 30
0.0
 11
98.00006103516
 21
-168.4270459025225
 31
0.0
  0
LINE
  5
127B
330
1244
100
AcDbEntity
  8
PV0001_1
  6
PHANTOM2
 48
0.5
370
    25
100
AcDbLine
 10
120.50006103516
 20
-161.4270459025225
 30
0.0
 11
120.50006103516
 21
-170.9270459025225
 31
0.0
  0
LINE
  5
127C
330
1244
100
AcDbEntity
  8
PV0001_1
  6
PHANTOM2
 48
0.5
370
    25
100
AcDbLine
 10
90.50006103516
 20
-163.9270459025225
 30
0.0
 11
90.50006103516
 21
-168.4270459025225
 31
0.0
  0
LINE
  5
127D
330
1244
100
AcDbEntity
  8
PV0001_1
  6
PHANTOM2
 48
0.5
370
    25
100
AcDbLine
 10
98.00006103516
 20
-163.1770459025225
 30
0.0
 11
98.00006103516
 21
-169.1770459025225
 31
0.0
  0
LINE
  5
127E
330
1244
100
AcDbEntity
  8
PV0001_1
  6
PHANTOM2
 48
0.5
370
    25
100
AcDbLine
 10
120.50006103516
 20
-170.9270459025225
 30
0.0
 11
127.50006103516
 21
-170.9270459025225
 31
0.0
  0
LINE
  5
127F
330
1244
100
AcDbEntity
  8
PV0001_1
  6
PHANTOM2
 48
0.5
370
    25
100
AcDbLine
 10
127.50006103516
 20
-161.4270459025225
 30
0.0
 11
127.50006103516
 21
-170.9270459025225
 31
0.0
  0
LINE
  5
1280
330
1244
100
AcDbEntity
  8
PV0001_1
  6
PHANTOM2
 48
0.5
370
    25
100
AcDbLine
 10
90.50006103516
 20
-163.9270459025225
 30
0.0
 11
98.00006103516
 21
-163.9270459025225
 31
0.0
  0
LINE
  5
1281
330
1244
100
AcDbEntity
  8
PV0001_1
  6
PHANTOM2
 48
0.5
370
    25
100
AcDbLine
 10
120.50006103516
 20
-161.4270459025225
 30
0.0
 11
127.50006103516
 21
-161.4270459025225
 31
0.0
  0
LINE
  5
1282
330
1244
100
AcDbEntity
  8
PV0001_1
  6
PHANTOM2
 48
0.5
370
    25
100
AcDbLine
 10
105.00006103516
 20
-100.71084594726
 30
0.0
 11
105.70327758789
 21
-100.30487060547
 31
0.0
  0
LINE
  5
1283
330
1244
100
AcDbEntity
  8
PV0001_1
  6
PHANTOM2
 48
0.5
370
    25
100
AcDbLine
 10
105.00006103516
 20
-105.89886474609
 30
0.0
 11
105.70327758789
 21
-106.30487060547
 31
0.0
  0
LINE
  5
1284
330
1244
100
AcDbEntity
  8
PV0001_1
  6
PHANTOM2
 48
0.5
370
    25
100
AcDbLine
 10
98.00006103516
 20
-105.89886474609
 30
0.0
 11
105.00006103516
 21
-105.89886474609
 31
0.0
  0
LINE
  5
1285
330
1244
100
AcDbEntity
  8
PV0001_1
  6
PHANTOM2
 48
0.5
370
    25
100
AcDbLine
 10
98.00006103516
 20
-100.71087646484
 30
0.0
 11
105.00006103516
 21
-100.71087646484
 31
0.0
  0
LINE
  5
1286
330
1244
100
AcDbEntity
  8
PV0001_1
  6
PHANTOM2
 48
0.5
370
    25
100
AcDbLine
 10
98.00006103516
 20
-106.30487060547
 30
0.0
 11
127.30004882812
 21
-106.30487060547
 31
0.0
  0
LINE
  5
1287
330
1244
100
AcDbEntity
  8
PV0001_1
  6
PHANTOM2
 48
0.5
370
    25
100
AcDbLine
 10
98.00006103516
 20
-100.30487060547
 30
0.0
 11
127.30004882812
 21
-100.30487060547
 31
0.0
  0
LINE
  5
1288
330
1244
100
AcDbEntity
  8
PV0001_1
  6
PHANTOM2
 48
0.5
370
    25
100
AcDbLine
 10
90.50006103516
 20
-105.55487060547
 30
0.0
 11
98.00006103516
 21
-105.55487060547
 31
0.0
  0
LINE
  5
1289
330
1244
100
AcDbEntity
  8
PV0001_1
  6
PHANTOM2
 48
0.5
370
    25
100
AcDbLine
 10
120.50006103516
 20
-98.55487060547
 30
0.0
 11
120.50006103516
 21
-108.05487060547
 31
0.0
  0
LINE
  5
128A
330
1244
100
AcDbEntity
  8
PV0001_1
  6
PHANTOM2
 48
0.5
370
    25
100
AcDbLine
 10
90.50006103516
 20
-101.05487060547
 30
0.0
 11
90.50006103516
 21
-105.55487060547
 31
0.0
  0
LINE
  5
128B
330
1244
100
AcDbEntity
  8
PV0001_1
  6
PHANTOM2
 48
0.5
370
    25
100
AcDbLine
 10
98.00006103516
 20
-100.30487060547
 30
0.0
 11
98.00006103516
 21
-106.30487060547
 31
0.0
  0
LINE
  5
128C
330
1244
100
AcDbEntity
  8
PV0001_1
  6
PHANTOM2
 48
0.5
370
    25
100
AcDbLine
 10
120.50006103516
 20
-108.05487060547
 30
0.0
 11
127.50006103516
 21
-108.05487060547
 31
0.0
  0
LINE
  5
128D
330
1244
100
AcDbEntity
  8
PV0001_1
  6
PHANTOM2
 48
0.5
370
    25
100
AcDbLine
 10
105.00006103516
 20
-100.30487060547
 30
0.0
 11
105.00006103516
 21
-106.30487060547
 31
0.0
  0
LINE
  5
128E
330
1244
100
AcDbEntity
  8
PV0001_1
  6
PHANTOM2
 48
0.5
370
    25
100
AcDbLine
 10
127.50006103516
 20
-98.55487060547
 30
0.0
 11
127.50006103516
 21
-108.05487060547
 31
0.0
  0
LINE
  5
128F
330
1244
100
AcDbEntity
  8
PV0001_1
  6
PHANTOM2
 48
0.5
370
    25
100
AcDbLine
 10
90.50006103516
 20
-101.05487060547
 30
0.0
 11
98.00006103516
 21
-101.05487060547
 31
0.0
  0
LINE
  5
1290
330
1244
100
AcDbEntity
  8
PV0001_1
  6
PHANTOM2
 48
0.5
370
    25
100
AcDbLine
 10
120.50006103516
 20
-98.55487060547
 30
0.0
 11
127.50006103516
 21
-98.55487060547
 31
0.0
  0
LINE
  5
1291
330
1244
100
AcDbEntity
  8
PV0001_1
  6
PHANTOM2
 48
0.5
370
    25
100
AcDbLine
 10
105.00006103516
 20
-0.710861206049998
 30
0.0
 11
105.70327758789
 21
-0.3048553466800001
 31
0.0
  0
LINE
  5
1292
330
1244
100
AcDbEntity
  8
PV0001_1
  6
PHANTOM2
 48
0.5
370
    25
100
AcDbLine
 10
105.00006103516
 20
-5.898864746089998
 30
0.0
 11
105.70327758789
 21
-6.30487060547
 31
0.0
  0
LINE
  5
1293
330
1244
100
AcDbEntity
  8
PV0001_1
  6
PHANTOM2
 48
0.5
370
    25
100
AcDbLine
 10
98.00006103516
 20
-5.898864746089998
 30
0.0
 11
105.00006103516
 21
-5.898864746089998
 31
0.0
  0
LINE
  5
1294
330
1244
100
AcDbEntity
  8
PV0001_1
  6
PHANTOM2
 48
0.5
370
    25
100
AcDbLine
 10
98.00006103516
 20
-0.7108764648399984
 30
0.0
 11
105.00006103516
 21
-0.7108764648399984
 31
0.0
  0
LINE
  5
1295
330
1244
100
AcDbEntity
  8
PV0001_1
  6
PHANTOM2
 48
0.5
370
    25
100
AcDbLine
 10
98.00006103516
 20
-6.30487060547
 30
0.0
 11
127.30004882812
 21
-6.30487060547
 31
0.0
  0
LINE
  5
1296
330
1244
100
AcDbEntity
  8
PV0001_1
  6
PHANTOM2
 48
0.5
370
    25
100
AcDbLine
 10
98.00006103516
 20
-0.3048706054700005
 30
0.0
 11
127.30004882812
 21
-0.3048706054700005
 31
0.0
  0
LINE
  5
1297
330
1244
100
AcDbEntity
  8
PV0001_1
  6
PHANTOM2
 48
0.5
370
    25
100
AcDbLine
 10
90.50006103516
 20
-5.55487060547
 30
0.0
 11
98.00006103516
 21
-5.55487060547
 31
0.0
  0
LINE
  5
1298
330
1244
100
AcDbEntity
  8
PV0001_1
  6
PHANTOM2
 48
0.5
370
    25
100
AcDbLine
 10
120.50006103516
 20
1.445129394529999
 30
0.0
 11
120.50006103516
 21
-8.05487060547
 31
0.0
  0
LINE
  5
1299
330
1244
100
AcDbEntity
  8
PV0001_1
  6
PHANTOM2
 48
0.5
370
    25
100
AcDbLine
 10
90.50006103516
 20
-1.05487060547
 30
0.0
 11
90.50006103516
 21
-5.55487060547
 31
0.0
  0
LINE
  5
129A
330
1244
100
AcDbEntity
  8
PV0001_1
  6
PHANTOM2
 48
0.5
370
    25
100
AcDbLine
 10
98.00006103516
 20
-0.3048706054700005
 30
0.0
 11
98.00006103516
 21
-6.30487060547
 31
0.0
  0
LINE
  5
129B
330
1244
100
AcDbEntity
  8
PV0001_1
  6
PHANTOM2
 48
0.5
370
    25
100
AcDbLine
 10
120.50006103516
 20
-8.05487060547
 30
0.0
 11
127.50006103516
 21
-8.05487060547
 31
0.0
  0
LINE
  5
129C
330
1244
100
AcDbEntity
  8
PV0001_1
  6
PHANTOM2
 48
0.5
370
    25
100
AcDbLine
 10
105.00006103516
 20
-0.3048706054700005
 30
0.0
 11
105.00006103516
 21
-6.30487060547
 31
0.0
  0
LINE
  5
129D
330
1244
100
AcDbEntity
  8
PV0001_1
  6
PHANTOM2
 48
0.5
370
    25
100
AcDbLine
 10
127.50006103516
 20
1.445129394529999
 30
0.0
 11
127.50006103516
 21
-8.05487060547
 31
0.0
  0
LINE
  5
129E
330
1244
100
AcDbEntity
  8
PV0001_1
  6
PHANTOM2
 48
0.5
370
    25
100
AcDbLine
 10
90.50006103516
 20
-1.05487060547
 30
0.0
 11
98.00006103516
 21
-1.05487060547
 31
0.0
  0
LINE
  5
129F
330
1244
100
AcDbEntity
  8
PV0001_1
  6
PHANTOM2
 48
0.5
370
    25
100
AcDbLine
 10
120.50006103516
 20
1.445129394529999
 30
0.0
 11
127.50006103516
 21
1.445129394529999
 31
0.0
  0
LINE
  5
12A0
330
1244
100
AcDbEntity
  8
PV0001_1
  6
DASHED2
 48
0.5
370
    50
100
AcDbLine
 10
121.50006103516
 20
-157.7271252482225
 30
0.0
 11
118.00006103516
 21
-157.7271252482225
 31
0.0
  0
LINE
  5
12A1
330
1244
100
AcDbEntity
  8
PV0001_1
  6
DASHED2
 48
0.5
370
    50
100
AcDbLine
 10
121.50006103516
 20
-154.8271313517325
 30
0.0
 11
118.00006103516
 21
-154.8271313517325
 31
0.0
  0
LINE
  5
12A2
330
1244
100
AcDbEntity
  8
PV0001_1
  6
DASHED2
 48
0.5
370
    50
100
AcDbLine
 10
125.00006103516
 20
-153.5271435587725
 30
0.0
 11
121.50006103516
 21
-153.5271435587725
 31
0.0
  0
LINE
  5
12A3
330
1244
100
AcDbEntity
  8
PV0001_1
  6
DASHED2
 48
0.5
370
    50
100
AcDbLine
 10
125.00006103516
 20
-159.0271435587725
 30
0.0
 11
121.50006103516
 21
-159.0271435587725
 31
0.0
  0
LINE
  5
12A4
330
1244
100
AcDbEntity
  8
PV0001_1
  6
DASHED2
 48
0.5
370
    50
100
AcDbLine
 10
121.50006103516
 20
-159.0271435587725
 30
0.0
 11
121.50006103516
 21
-153.5271435587725
 31
0.0
  0
LINE
  5
12A5
330
1244
100
AcDbEntity
  8
PV0001_1
  6
CENTER2
 48
0.5
370
    25
100
AcDbLine
 10
127.05758666992
 20
-156.2771435587725
 30
0.0
 11
115.8583984375
 21
-156.2771435587725
 31
0.0
  0
LINE
  5
12A6
330
1244
100
AcDbEntity
  8
PV0001_1
  6
Continuous
 48
0.5
370
    50
100
AcDbLine
 10
103.00006103516
 20
-160.1771374552525
 30
0.0
 11
98.50006103516001
 21
-160.1771374552525
 31
0.0
  0
LINE
  5
12A7
330
1244
100
AcDbEntity
  8
PV0001_1
  6
Continuous
 48
0.5
370
    50
100
AcDbLine
 10
118.00006103516
 20
-177.1770459025225
 30
0.0
 11
105.00006103516
 21
-177.1770459025225
 31
0.0
  0
LINE
  5
12A8
330
1244
100
AcDbEntity
  8
PV0001_1
  6
Continuous
 48
0.5
370
    50
100
AcDbLine
 10
125.00006103516
 20
-180.1770459025225
 30
0.0
 11
118.00006103516
 21
-180.1770459025225
 31
0.0
  0
LINE
  5
12A9
330
1244
100
AcDbEntity
  8
PV0001_1
  6
Continuous
 48
0.5
370
    50
100
AcDbLine
 10
103.00006103516
 20
-161.1770459025225
 30
0.0
 11
105.00006103516
 21
-161.1770459025225
 31
0.0
  0
LINE
  5
12AA
330
1244
100
AcDbEntity
  8
PV0001_1
  6
Continuous
 48
0.5
370
    50
100
AcDbLine
 10
103.00006103516
 20
-172.1769543497825
 30
0.0
 11
98.50006103516001
 21
-172.1769543497825
 31
0.0
  0
LINE
  5
12AB
330
1244
100
AcDbEntity
  8
PV0001_1
  6
Continuous
 48
0.5
370
    50
100
AcDbLine
 10
118.00006103516
 20
-155.1770459025225
 30
0.0
 11
105.00006103516
 21
-155.1770459025225
 31
0.0
  0
LINE
  5
12AC
330
1244
100
AcDbEntity
  8
PV0001_1
  6
Continuous
 48
0.5
370
    50
100
AcDbLine
 10
118.00006103516
 20
-180.1770459025225
 30
0.0
 11
118.00006103516
 21
-152.1770459025225
 31
0.0
  0
LINE
  5
12AD
330
1244
100
AcDbEntity
  8
PV0001_1
  6
Continuous
 48
0.5
370
    50
100
AcDbLine
 10
125.00006103516
 20
-152.1770459025225
 30
0.0
 11
118.00006103516
 21
-152.1770459025225
 31
0.0
  0
LINE
  5
12AE
330
1244
100
AcDbEntity
  8
PV0001_1
  6
Continuous
 48
0.5
370
    50
100
AcDbLine
 10
105.00006103516
 20
-177.1770459025225
 30
0.0
 11
105.00006103516
 21
-155.1770459025225
 31
0.0
  0
LINE
  5
12AF
330
1244
100
AcDbEntity
  8
PV0001_1
  6
Continuous
 48
0.5
370
    50
100
AcDbLine
 10
98.50006103516001
 20
-160.1771374552525
 30
0.0
 11
98.50006103516001
 21
-172.1769543497825
 31
0.0
  0
LINE
  5
12B0
330
1244
100
AcDbEntity
  8
PV0001_1
  6
Continuous
 48
0.5
370
    50
100
AcDbLine
 10
103.50006103516
 20
-161.1770459025225
 30
0.0
 11
103.50006103516
 21
-171.1770459025225
 31
0.0
  0
LINE
  5
12B1
330
1244
100
AcDbEntity
  8
PV0001_1
  6
Continuous
 48
0.5
370
    50
100
AcDbLine
 10
125.00006103516
 20
-180.1770459025225
 30
0.0
 11
125.00006103516
 21
-152.1770459025225
 31
0.0
  0
LINE
  5
12B2
330
1244
100
AcDbEntity
  8
PV0001_1
  6
Continuous
 48
0.5
370
    50
100
AcDbLine
 10
103.00006103516
 20
-160.1771374552525
 30
0.0
 11
103.00006103516
 21
-172.1769543497825
 31
0.0
  0
LINE
  5
12B3
330
1244
100
AcDbEntity
  8
PV0001_1
  6
Continuous
 48
0.5
370
    50
100
AcDbLine
 10
103.00006103516
 20
-171.1770459025225
 30
0.0
 11
105.00006103516
 21
-171.1770459025225
 31
0.0
  0
LINE
  5
12B4
330
1244
100
AcDbEntity
  8
PV0001_1
  6
CENTER2
 48
0.5
370
    25
100
AcDbLine
 10
120.50006103516
 20
-161.4270459025225
 30
0.0
 11
120.50006103516
 21
-170.9270459025225
 31
0.0
  0
LINE
  5
12B5
330
1244
100
AcDbEntity
  8
PV0001_1
  6
DASHED2
 48
0.5
370
    50
100
AcDbLine
 10
107.50006103516
 20
-111.75479125976
 30
0.0
 11
111.00006103516
 21
-111.75479125976
 31
0.0
  0
LINE
  5
12B6
330
1244
100
AcDbEntity
  8
PV0001_1
  6
DASHED2
 48
0.5
370
    50
100
AcDbLine
 10
107.50006103516
 20
-114.65478515625
 30
0.0
 11
111.00006103516
 21
-114.65478515625
 31
0.0
  0
LINE
  5
12B7
330
1244
100
AcDbEntity
  8
PV0001_1
  6
DASHED2
 48
0.5
370
    50
100
AcDbLine
 10
104.00006103516
 20
-115.95477294922
 30
0.0
 11
107.50006103516
 21
-115.95477294922
 31
0.0
  0
LINE
  5
12B8
330
1244
100
AcDbEntity
  8
PV0001_1
  6
DASHED2
 48
0.5
370
    50
100
AcDbLine
 10
104.00006103516
 20
-110.45477294922
 30
0.0
 11
107.50006103516
 21
-110.45477294922
 31
0.0
  0
LINE
  5
12B9
330
1244
100
AcDbEntity
  8
PV0001_1
  6
DASHED2
 48
0.5
370
    50
100
AcDbLine
 10
107.50006103516
 20
-110.45477294922
 30
0.0
 11
107.50006103516
 21
-115.95477294922
 31
0.0
  0
LINE
  5
12BA
330
1244
100
AcDbEntity
  8
PV0001_1
  6
CENTER2
 48
0.5
370
    25
100
AcDbLine
 10
101.94253540039
 20
-113.20477294922
 30
0.0
 11
113.14172363281
 21
-113.20477294922
 31
0.0
  0
LINE
  5
12BB
330
1244
100
AcDbEntity
  8
PV0001_1
  6
Continuous
 48
0.5
370
    50
100
AcDbLine
 10
103.00006103516
 20
-97.3049621582
 30
0.0
 11
98.50006103516001
 21
-97.3049621582
 31
0.0
  0
LINE
  5
12BC
330
1244
100
AcDbEntity
  8
PV0001_1
  6
Continuous
 48
0.5
370
    50
100
AcDbLine
 10
111.00006103516
 20
-92.30487060547
 30
0.0
 11
124.00006103516
 21
-92.30487060547
 31
0.0
  0
LINE
  5
12BD
330
1244
100
AcDbEntity
  8
PV0001_1
  6
Continuous
 48
0.5
370
    50
100
AcDbLine
 10
104.00006103516
 20
-89.30487060546999
 30
0.0
 11
111.00006103516
 21
-89.30487060546999
 31
0.0
  0
LINE
  5
12BE
330
1244
100
AcDbEntity
  8
PV0001_1
  6
Continuous
 48
0.5
370
    50
100
AcDbLine
 10
103.00006103516
 20
-98.30487060547
 30
0.0
 11
104.00006103516
 21
-98.30487060547
 31
0.0
  0
LINE
  5
12BF
330
1244
100
AcDbEntity
  8
PV0001_1
  6
Continuous
 48
0.5
370
    50
100
AcDbLine
 10
103.00006103516
 20
-109.30477905273
 30
0.0
 11
98.50006103516001
 21
-109.30477905273
 31
0.0
  0
LINE
  5
12C0
330
1244
100
AcDbEntity
  8
PV0001_1
  6
Continuous
 48
0.5
370
    50
100
AcDbLine
 10
111.00006103516
 20
-114.30487060547
 30
0.0
 11
124.00006103516
 21
-114.30487060547
 31
0.0
  0
LINE
  5
12C1
330
1244
100
AcDbEntity
  8
PV0001_1
  6
Continuous
 48
0.5
370
    50
100
AcDbLine
 10
111.00006103516
 20
-89.30487060546999
 30
0.0
 11
111.00006103516
 21
-117.30487060547
 31
0.0
  0
LINE
  5
12C2
330
1244
100
AcDbEntity
  8
PV0001_1
  6
Continuous
 48
0.5
370
    50
100
AcDbLine
 10
104.00006103516
 20
-117.30487060547
 30
0.0
 11
111.00006103516
 21
-117.30487060547
 31
0.0
  0
LINE
  5
12C3
330
1244
100
AcDbEntity
  8
PV0001_1
  6
Continuous
 48
0.5
370
    50
100
AcDbLine
 10
124.00006103516
 20
-92.30487060547
 30
0.0
 11
124.00006103516
 21
-114.30487060547
 31
0.0
  0
LINE
  5
12C4
330
1244
100
AcDbEntity
  8
PV0001_1
  6
Continuous
 48
0.5
370
    50
100
AcDbLine
 10
98.50006103516001
 20
-97.3049621582
 30
0.0
 11
98.50006103516001
 21
-109.30477905273
 31
0.0
  0
LINE
  5
12C5
330
1244
100
AcDbEntity
  8
PV0001_1
  6
Continuous
 48
0.5
370
    50
100
AcDbLine
 10
103.50006103516
 20
-98.30487060547
 30
0.0
 11
103.50006103516
 21
-108.30487060547
 31
0.0
  0
LINE
  5
12C6
330
1244
100
AcDbEntity
  8
PV0001_1
  6
Continuous
 48
0.5
370
    50
100
AcDbLine
 10
104.00006103516
 20
-89.30487060546999
 30
0.0
 11
104.00006103516
 21
-117.30487060547
 31
0.0
  0
LINE
  5
12C7
330
1244
100
AcDbEntity
  8
PV0001_1
  6
Continuous
 48
0.5
370
    50
100
AcDbLine
 10
103.00006103516
 20
-97.3049621582
 30
0.0
 11
103.00006103516
 21
-109.30477905273
 31
0.0
  0
LINE
  5
12C8
330
1244
100
AcDbEntity
  8
PV0001_1
  6
Continuous
 48
0.5
370
    50
100
AcDbLine
 10
103.00006103516
 20
-108.30487060547
 30
0.0
 11
104.00006103516
 21
-108.30487060547
 31
0.0
  0
LINE
  5
12C9
330
1244
100
AcDbEntity
  8
PV0001_1
  6
CENTER2
370
    25
100
AcDbLine
 10
8.142181396479998
 20
-89.16278076172
 30
0.0
 11
-20.14204406738
 21
-117.44702148437
 31
0.0
  0
LINE
  5
12CA
330
1244
100
AcDbEntity
  8
PV0001_1
  6
CENTER2
370
    25
100
AcDbLine
 10
-20.14207458496
 20
-89.16281127929
 30
0.0
 11
8.142196655269998
 21
-117.44705200195
 31
0.0
  0
LINE
  5
12CB
330
1244
100
AcDbEntity
  8
PV0001_1
  6
Continuous
 48
0.5
370
    50
100
AcDbLine
 10
4.50003051758
 20
-117.30487060547
 30
0.0
 11
-16.49996948242
 21
-117.30487060547
 31
0.0
  0
LINE
  5
12CC
330
1244
100
AcDbEntity
  8
PV0001_1
  6
Continuous
 48
0.5
370
    50
100
AcDbLine
 10
4.50003051758
 20
-89.30487060546999
 30
0.0
 11
-16.49996948242
 21
-89.30487060546999
 31
0.0
  0
LINE
  5
12CD
330
1244
100
AcDbEntity
  8
PV0001_1
  6
Continuous
 48
0.5
370
    50
100
AcDbLine
 10
-19.99995422363
 20
-92.80487060547001
 30
0.0
 11
-19.99995422363
 21
-113.80487060547
 31
0.0
  0
LINE
  5
12CE
330
1244
100
AcDbEntity
  8
PV0001_1
  6
Continuous
 48
0.5
370
    50
100
AcDbLine
 10
8.000045776370001
 20
-92.80487060547001
 30
0.0
 11
8.000045776370001
 21
-113.80487060547
 31
0.0
  0
LINE
  5
12CF
330
1244
100
AcDbEntity
  8
PV0001_1
  6
CENTER2
370
    25
100
AcDbLine
 10
-5.999954223629998
 20
-85.80487060547
 30
0.0
 11
-5.999954223629998
 21
-120.80487060547
 31
0.0
  0
LINE
  5
12D0
330
1244
100
AcDbEntity
  8
PV0001_1
  6
CENTER2
370
    25
100
AcDbLine
 10
11.50003051758
 20
-103.30487060547
 30
0.0
 11
-23.49996948242
 21
-103.30487060547
 31
0.0
  0
LINE
  5
12D1
330
1244
100
AcDbEntity
  8
PV0001_1
  6
Continuous
 48
0.5
370
    50
100
AcDbLine
 10
0.0
 20
-100.0
 30
0.0
 11
0.0
 21
-106.60977172851
 31
0.0
  0
LINE
  5
12D2
330
1244
100
AcDbEntity
  8
PV0001_1
  6
Continuous
 48
0.5
370
    50
100
AcDbLine
 10
-12.0
 20
-99.99993896483999
 30
0.0
 11
-12.0
 21
-106.60983276367
 31
0.0
  0
LINE
  5
12D3
330
1244
100
AcDbEntity
  8
PV0001_1
  6
Continuous
 48
0.5
370
    50
100
AcDbLine
 10
-9.30485534668
 20
-97.30477905273
 30
0.0
 11
-2.695037841800001
 21
-97.30477905273
 31
0.0
  0
LINE
  5
12D4
330
1244
100
AcDbEntity
  8
PV0001_1
  6
Continuous
 48
0.5
370
    50
100
AcDbLine
 10
-9.304840087889999
 20
-109.30477905273
 30
0.0
 11
-2.69499206543
 21
-109.30477905273
 31
0.0
  0
LINE
  5
12D5
330
1244
100
AcDbEntity
  8
PV0001_1
  6
CENTER2
 48
0.5
370
    25
100
AcDbLine
 10
120.50006103516
 20
-98.55487060547
 30
0.0
 11
120.50006103516
 21
-108.05487060547
 31
0.0
  0
LINE
  5
12D6
330
1244
100
AcDbEntity
  8
PV0001_1
  6
Continuous
 48
0.5
370
    50
100
AcDbLine
 10
0.0
 20
0.0
 30
0.0
 11
0.0
 21
-6.609771728509997
 31
0.0
  0
LINE
  5
12D7
330
1244
100
AcDbEntity
  8
PV0001_1
  6
Continuous
 48
0.5
370
    50
100
AcDbLine
 10
-12.0
 20
0.0000610351600017
 30
0.0
 11
-12.0
 21
-6.609832763669999
 31
0.0
  0
LINE
  5
12D8
330
1244
100
AcDbEntity
  8
PV0001_1
  6
Continuous
 48
0.5
370
    50
100
AcDbLine
 10
-9.30485534668
 20
2.695220947270001
 30
0.0
 11
-2.695037841800001
 21
2.695220947270001
 31
0.0
  0
LINE
  5
12D9
330
1244
100
AcDbEntity
  8
PV0001_1
  6
Continuous
 48
0.5
370
    50
100
AcDbLine
 10
-9.304840087889999
 20
-9.304779052729998
 30
0.0
 11
-2.69499206543
 21
-9.304779052729998
 31
0.0
  0
LINE
  5
12DA
330
1244
100
AcDbEntity
  8
PV0001_1
  6
DASHED2
 48
0.5
370
    50
100
AcDbLine
 10
1.00003051758
 20
-13.55487060547
 30
0.0
 11
-9.999969482419999
 21
-13.55487060547
 31
0.0
  0
LINE
  5
12DB
330
1244
100
AcDbEntity
  8
PV0001_1
  6
DASHED2
 48
0.5
370
    50
100
AcDbLine
 10
-9.999984741209999
 20
-15.55487060547
 30
0.0
 11
-18.99998474121
 21
-15.55487060547
 31
0.0
  0
LINE
  5
12DC
330
1244
100
AcDbEntity
  8
PV0001_1
  6
DASHED2
 48
0.5
370
    50
100
AcDbLine
 10
1.00001525879
 20
-23.05487060547
 30
0.0
 11
-9.999984741209999
 21
-23.05487060547
 31
0.0
  0
LINE
  5
12DD
330
1244
100
AcDbEntity
  8
PV0001_1
  6
DASHED2
 48
0.5
370
    50
100
AcDbLine
 10
-9.999954223629998
 20
-13.55487060547
 30
0.0
 11
-9.999954223629998
 21
-23.05487060547
 31
0.0
  0
LINE
  5
12DE
330
1244
100
AcDbEntity
  8
PV0001_1
  6
DASHED2
 48
0.5
370
    50
100
AcDbLine
 10
-9.999984741209999
 20
-21.05487060547
 30
0.0
 11
-18.99998474121
 21
-21.05487060547
 31
0.0
  0
LINE
  5
12DF
330
1244
100
AcDbEntity
  8
PV0001_1
  6
DASHED2
 48
0.5
370
    50
100
AcDbLine
 10
-9.999954223629998
 20
6.945129394529999
 30
0.0
 11
-9.999954223629998
 21
16.44512939453
 31
0.0
  0
LINE
  5
12E0
330
1244
100
AcDbEntity
  8
PV0001_1
  6
DASHED2
 48
0.5
370
    50
100
AcDbLine
 10
1.000045776370001
 20
16.44512939453
 30
0.0
 11
-9.999954223629998
 21
16.44512939453
 31
0.0
  0
LINE
  5
12E1
330
1244
100
AcDbEntity
  8
PV0001_1
  6
DASHED2
 48
0.5
370
    50
100
AcDbLine
 10
1.00003051758
 20
6.945129394529999
 30
0.0
 11
-9.999969482419999
 21
6.945129394529999
 31
0.0
  0
LINE
  5
12E2
330
1244
100
AcDbEntity
  8
PV0001_1
  6
DASHED2
 48
0.5
370
    50
100
AcDbLine
 10
-9.999954223629998
 20
8.945129394529999
 30
0.0
 11
-18.99995422363
 21
8.945129394529999
 31
0.0
  0
LINE
  5
12E3
330
1244
100
AcDbEntity
  8
PV0001_1
  6
DASHED2
 48
0.5
370
    50
100
AcDbLine
 10
-9.999954223629998
 20
14.44512939453
 30
0.0
 11
-18.99995422363
 21
14.44512939453
 31
0.0
  0
LINE
  5
12E4
330
1244
100
AcDbEntity
  8
PV0001_1
  6
CENTER2
 48
0.5
370
    25
100
AcDbLine
 10
4.000045776370001
 20
11.69512939453
 30
0.0
 11
-21.99995422363
 21
11.69512939453
 31
0.0
  0
LINE
  5
12E5
330
1244
100
AcDbEntity
  8
PV0001_1
  6
CENTER2
 48
0.5
370
    25
100
AcDbLine
 10
4.000045776370001
 20
-18.30487060547
 30
0.0
 11
-21.99995422363
 21
-18.30487060547
 31
0.0
  0
LINE
  5
12E6
330
1244
100
AcDbEntity
  8
PV0001_1
  6
Continuous
 48
0.5
370
    50
100
AcDbLine
 10
1.000045776370001
 20
5.695129394529999
 30
0.0
 11
1.000045776370001
 21
17.69512939453
 31
0.0
  0
LINE
  5
12E7
330
1244
100
AcDbEntity
  8
PV0001_1
  6
Continuous
 48
0.5
370
    50
100
AcDbLine
 10
1.000045776370001
 20
-24.30487060547
 30
0.0
 11
1.000045776370001
 21
-12.30487060547
 31
0.0
  0
LINE
  5
12E8
330
1244
100
AcDbEntity
  8
PV0001_1
  6
Continuous
 48
0.5
370
    50
100
AcDbLine
 10
6.000045776370001
 20
5.695129394529999
 30
0.0
 11
1.000045776370001
 21
5.695129394529999
 31
0.0
  0
LINE
  5
12E9
330
1244
100
AcDbEntity
  8
PV0001_1
  6
Continuous
 48
0.5
370
    50
100
AcDbLine
 10
6.000045776370001
 20
-12.30487060547
 30
0.0
 11
1.000045776370001
 21
-12.30487060547
 31
0.0
  0
LINE
  5
12EA
330
1244
100
AcDbEntity
  8
PV0001_1
  6
Continuous
 48
0.5
370
    50
100
AcDbLine
 10
6.000045776370001
 20
-12.30487060547
 30
0.0
 11
6.000045776370001
 21
5.695129394529999
 31
0.0
  0
LINE
  5
12EB
330
1244
100
AcDbEntity
  8
PV0001_1
  6
Continuous
370
    50
100
AcDbLine
 10
-18.99995422363
 20
-24.30487060547
 30
0.0
 11
-18.99995422363
 21
17.69512939453
 31
0.0
  0
LINE
  5
12EC
330
1244
100
AcDbEntity
  8
PV0001_1
  6
CENTER2
370
    25
100
AcDbLine
 10
9.000045776370001
 20
-3.30487060547
 30
0.0
 11
-21.99995422363
 21
-3.30487060547
 31
0.0
  0
LINE
  5
12ED
330
1244
100
AcDbEntity
  8
PV0001_1
  6
CENTER2
370
    25
100
AcDbLine
 10
-5.999954223629998
 20
-27.30487060547
 30
0.0
 11
-5.999954223629998
 21
20.69512939453
 31
0.0
  0
LINE
  5
12EE
330
1244
100
AcDbEntity
  8
PV0001_1
  6
Continuous
 48
0.5
370
    50
100
AcDbLine
 10
-18.99995422363
 20
-24.30487060547
 30
0.0
 11
1.000045776370001
 21
-24.30487060547
 31
0.0
  0
LINE
  5
12EF
330
1244
100
AcDbEntity
  8
PV0001_1
  6
Continuous
 48
0.5
370
    50
100
AcDbLine
 10
-18.99995422363
 20
17.69512939453
 30
0.0
 11
1.000045776370001
 21
17.69512939453
 31
0.0
  0
LINE
  5
12F0
330
1244
100
AcDbEntity
  8
PV0001_1
  6
Continuous
 48
0.5
370
    50
100
AcDbLine
 10
103.00006103516
 20
2.695037841800001
 30
0.0
 11
98.50006103516001
 21
2.695037841800001
 31
0.0
  0
LINE
  5
12F1
330
1244
100
AcDbEntity
  8
PV0001_1
  6
Continuous
 48
0.5
370
    50
100
AcDbLine
 10
103.00006103516
 20
1.695129394529999
 30
0.0
 11
104.00006103516
 21
1.695129394529999
 31
0.0
  0
LINE
  5
12F2
330
1244
100
AcDbEntity
  8
PV0001_1
  6
Continuous
 48
0.5
370
    50
100
AcDbLine
 10
103.00006103516
 20
2.695037841800001
 30
0.0
 11
103.00006103516
 21
-9.304779052729998
 31
0.0
  0
LINE
  5
12F3
330
1244
100
AcDbEntity
  8
PV0001_1
  6
Continuous
 48
0.5
370
    50
100
AcDbLine
 10
103.50006103516
 20
1.695129394529999
 30
0.0
 11
103.50006103516
 21
-8.30487060547
 31
0.0
  0
LINE
  5
12F4
330
1244
100
AcDbEntity
  8
PV0001_1
  6
Continuous
 48
0.5
370
    50
100
AcDbLine
 10
103.00006103516
 20
-8.30487060547
 30
0.0
 11
104.00006103516
 21
-8.30487060547
 31
0.0
  0
LINE
  5
12F5
330
1244
100
AcDbEntity
  8
PV0001_1
  6
Continuous
 48
0.5
370
    50
100
AcDbLine
 10
104.00006103516
 20
5.695129394529999
 30
0.0
 11
124.00006103516
 21
5.695129394529999
 31
0.0
  0
LINE
  5
12F6
330
1244
100
AcDbEntity
  8
PV0001_1
  6
Continuous
 48
0.5
370
    50
100
AcDbLine
 10
103.00006103516
 20
-9.304779052729998
 30
0.0
 11
98.50006103516001
 21
-9.304779052729998
 31
0.0
  0
LINE
  5
12F7
330
1244
100
AcDbEntity
  8
PV0001_1
  6
Continuous
 48
0.5
370
    50
100
AcDbLine
 10
98.50006103516001
 20
2.695037841800001
 30
0.0
 11
98.50006103516001
 21
-9.304779052729998
 31
0.0
  0
LINE
  5
12F8
330
1244
100
AcDbEntity
  8
PV0001_1
  6
Continuous
370
    50
100
AcDbLine
 10
124.00006103516
 20
17.69512939453
 30
0.0
 11
124.00006103516
 21
-24.30487060547
 31
0.0
  0
LINE
  5
12F9
330
1244
100
AcDbEntity
  8
PV0001_1
  6
Continuous
370
    50
100
AcDbLine
 10
104.00006103516
 20
17.69512939453
 30
0.0
 11
104.00006103516
 21
-24.30487060547
 31
0.0
  0
LINE
  5
12FA
330
1244
100
AcDbEntity
  8
PV0001_1
  6
CENTER2
 48
0.5
370
    25
100
AcDbLine
 10
114.00006103516
 20
17.69512939453
 30
0.0
 11
114.00006103516
 21
5.695129394529999
 31
0.0
  0
LINE
  5
12FB
330
1244
100
AcDbEntity
  8
PV0001_1
  6
CENTER2
 48
0.5
370
    25
100
AcDbLine
 10
120.00006103516
 20
11.69512939453
 30
0.0
 11
108.00006103516
 21
11.69512939453
 31
0.0
  0
LINE
  5
12FC
330
1244
100
AcDbEntity
  8
PV0001_1
  6
CENTER2
 48
0.5
370
    25
100
AcDbLine
 10
114.00006103516
 20
-12.30487060547
 30
0.0
 11
114.00006103516
 21
-24.30487060547
 31
0.0
  0
LINE
  5
12FD
330
1244
100
AcDbEntity
  8
PV0001_1
  6
Continuous
 48
0.5
370
    50
100
AcDbLine
 10
104.00006103516
 20
17.69512939453
 30
0.0
 11
124.00006103516
 21
17.69512939453
 31
0.0
  0
LINE
  5
12FE
330
1244
100
AcDbEntity
  8
PV0001_1
  6
CENTER2
 48
0.5
370
    25
100
AcDbLine
 10
120.00006103516
 20
-18.30487060547
 30
0.0
 11
108.00006103516
 21
-18.30487060547
 31
0.0
  0
LINE
  5
12FF
330
1244
100
AcDbEntity
  8
PV0001_1
  6
Continuous
 48
0.5
370
    50
100
AcDbLine
 10
104.00006103516
 20
-24.30487060547
 30
0.0
 11
124.00006103516
 21
-24.30487060547
 31
0.0
  0
LINE
  5
1300
330
1244
100
AcDbEntity
  8
PV0001_1
  6
Continuous
 48
0.5
370
    50
100
AcDbLine
 10
104.00006103516
 20
-12.30487060547
 30
0.0
 11
124.00006103516
 21
-12.30487060547
 31
0.0
  0
LINE
  5
1301
330
1244
100
AcDbEntity
  8
PV0001_1
  6
CENTER2
 48
0.5
370
    25
100
AcDbLine
 10
120.50006103516
 20
1.445129394529999
 30
0.0
 11
120.50006103516
 21
-8.05487060547
 31
0.0
  0
ENDBLK
  5
1304
330
1244
100
AcDbEntity
  8
0
100
AcDbBlockEnd
  0
ENDSEC
  0
SECTION
  2
ENTITIES
  0
LINE
  5
114
330
18
100
AcDbEntity
  8
PV0001_1
  6
Continuous
370
    50
100
AcDbLine
 10
0.0
 20
0.0
 30
0.0
 11
636.0
 21
0.0
 31
0.0
  0
LINE
  5
115
330
18
100
AcDbEntity
  8
PV0001_1
  6
Continuous
370
    50
100
AcDbLine
 10
0.0
 20
0.0
 30
0.0
 11
0.0
 21
-436.0
 31
0.0
  0
LINE
  5
116
330
18
100
AcDbEntity
  8
PV0001_1
  6
Continuous
 48
0.5
370
    50
100
AcDbLine
 10
3.0
 20
-8.399993896484399
 30
0.0
 11
4.6000061035156
 21
-8.399993896484399
 31
0.0
  0
LINE
  5
117
330
18
100
AcDbEntity
  8
PV0001_1
  6
Continuous
 48
0.5
370
    50
100
AcDbLine
 10
3.0
 20
-3.6000061035156
 30
0.0
 11
3.0
 21
-8.399993896484399
 31
0.0
  0
LINE
  5
118
330
18
100
AcDbEntity
  8
PV0001_1
  6
Continuous
 48
0.5
370
    50
100
AcDbLine
 10
3.0
 20
-3.6000061035156
 30
0.0
 11
4.6000061035156
 21
-3.6000061035156
 31
0.0
  0
LINE
  5
119
330
18
100
AcDbEntity
  8
PV0001_1
  6
Continuous
 48
0.5
370
    50
100
AcDbLine
 10
4.6000061035156
 20
-3.6000061035156
 30
0.0
 11
4.6000061035156
 21
-5.199996948242199
 31
0.0
  0
LINE
  5
11A
330
18
100
AcDbEntity
  8
PV0001_1
  6
Continuous
 48
0.5
370
    50
100
AcDbLine
 10
9.6000061035156
 20
-3.6000061035156
 30
0.0
 11
9.6000061035156
 21
-7.199996948242199
 31
0.0
  0
LINE
  5
11B
330
18
100
AcDbEntity
  8
PV0001_1
  6
Continuous
 48
0.5
370
    50
100
AcDbLine
 10
10.800003051757
 20
-8.399993896484399
 30
0.0
 11
14.600006103515
 21
-8.399993896484399
 31
0.0
  0
LINE
  5
11C
330
18
100
AcDbEntity
  8
PV0001_1
  6
Continuous
 48
0.5
370
    50
100
AcDbLine
 10
9.6000061035156
 20
-3.6000061035156
 30
0.0
 11
11.0
 21
-3.6000061035156
 31
0.0
  0
LINE
  5
11D
330
18
100
AcDbEntity
  8
PV0001_1
  6
Continuous
 48
0.5
370
    50
100
AcDbLine
 10
4.8000030517578
 20
-6.0
 30
0.0
 11
5.699996948242199
 21
-6.0
 31
0.0
  0
LINE
  5
11E
330
18
100
AcDbEntity
  8
PV0001_1
  6
Continuous
 48
0.5
370
    50
100
AcDbLine
 10
4.8000030517578
 20
-5.399993896484399
 30
0.0
 11
5.7021789550781
 21
-5.399993896484399
 31
0.0
  0
LINE
  5
11F
330
18
100
AcDbEntity
  8
PV0001_1
  6
Continuous
 48
0.5
370
    50
100
AcDbLine
 10
5.8599557876587
 20
-6.080016613006599
 30
0.0
 11
7.5999612808228
 21
-8.400023460388199
 31
0.0
  0
LINE
  5
120
330
18
100
AcDbEntity
  8
PV0001_1
  6
Continuous
 48
0.5
370
    50
100
AcDbLine
 10
7.320546627044699
 20
-5.7405757904053
 30
0.0
 11
9.600024223327599
 21
-8.399967193603499
 31
0.0
  0
LINE
  5
121
330
18
100
AcDbEntity
  8
PV0001_1
  6
Continuous
 48
0.5
370
    50
100
AcDbLine
 10
5.8600549697876
 20
-5.3227796554565
 30
0.0
 11
7.1999959945679
 21
-3.599998474121099
 31
0.0
  0
LINE
  5
122
330
18
100
AcDbEntity
  8
PV0001_1
  6
Continuous
 48
0.5
370
    50
100
AcDbLine
 10
7.330977916717499
 20
-5.469062805175799
 30
0.0
 11
9.2000274658203
 21
-3.600013971328699
 31
0.0
  0
LINE
  5
123
330
18
100
AcDbEntity
  8
PV0001_1
  6
Continuous
 48
0.5
370
    50
100
AcDbLine
 10
7.6000061035156
 20
-8.399993896484399
 30
0.0
 11
9.6000061035156
 21
-8.399993896484399
 31
0.0
  0
LINE
  5
124
330
18
100
AcDbEntity
  8
PV0001_1
  6
Continuous
 48
0.5
370
    50
100
AcDbLine
 10
7.199996948242199
 20
-3.6000061035156
 30
0.0
 11
9.199996948242199
 21
-3.6000061035156
 31
0.0
  0
LINE
  5
125
330
18
100
AcDbEntity
  8
PV0001_1
  6
Continuous
 48
0.5
370
    50
100
AcDbLine
 10
4.6000061035156
 20
-6.199996948242199
 30
0.0
 11
4.6000061035156
 21
-8.399993896484399
 31
0.0
  0
LINE
  5
126
330
18
100
AcDbEntity
  8
PV0001_1
  6
Continuous
 48
0.5
370
    50
100
AcDbLine
 10
15.800003051757
 20
-3.599990844726599
 30
0.0
 11
15.800003051757
 21
-7.199996948242199
 31
0.0
  0
LINE
  5
127
330
18
100
AcDbEntity
  8
PV0001_1
  6
Continuous
 48
0.5
370
    50
100
AcDbLine
 10
11.0
 20
-3.6000061035156
 30
0.0
 11
11.0
 21
-7.0
 31
0.0
  0
LINE
  5
128
330
18
100
AcDbEntity
  8
PV0001_1
  6
Continuous
 48
0.5
370
    50
100
AcDbLine
 10
14.399993896484
 20
-3.599990844726599
 30
0.0
 11
14.399993896484
 21
-7.0
 31
0.0
  0
LINE
  5
129
330
18
100
AcDbEntity
  8
PV0001_1
  6
Continuous
 48
0.5
370
    50
100
AcDbLine
 10
11.600006103515
 20
-7.6000061035156
 30
0.0
 11
13.800003051757
 21
-7.6000061035156
 31
0.0
  0
LINE
  5
12A
330
18
100
AcDbEntity
  8
PV0001_1
  6
Continuous
 48
0.5
370
    50
100
AcDbLine
 10
14.399993896484
 20
-3.6000061035156
 30
0.0
 11
15.800003051757
 21
-3.6000061035156
 31
0.0
  0
LINE
  5
12B
330
18
100
AcDbEntity
  8
PV0001_1
  6
Continuous
 48
0.5
370
    50
100
AcDbLine
 10
16.300003051757
 20
-3.6000061035156
 30
0.0
 11
21.0
 21
-3.6000061035156
 31
0.0
  0
LINE
  5
12C
330
18
100
AcDbEntity
  8
PV0001_1
  6
Continuous
 48
0.5
370
    50
100
AcDbLine
 10
16.300003051757
 20
-8.399993896484399
 30
0.0
 11
17.899993896484
 21
-8.399993896484399
 31
0.0
  0
LINE
  5
12D
330
18
100
AcDbEntity
  8
PV0001_1
  6
Continuous
 48
0.5
370
    50
100
AcDbLine
 10
16.300003051757
 20
-3.599990844726599
 30
0.0
 11
16.300003051757
 21
-8.399993896484399
 31
0.0
  0
LINE
  5
12E
330
18
100
AcDbEntity
  8
PV0001_1
  6
Continuous
 48
0.5
370
    50
100
AcDbLine
 10
20.800003051757
 20
-4.799987792968799
 30
0.0
 11
20.800003051757
 21
-5.5
 31
0.0
  0
LINE
  5
12F
330
18
100
AcDbEntity
  8
PV0001_1
  6
Continuous
 48
0.5
370
    50
100
AcDbLine
 10
17.899993896484
 20
-4.399993896484399
 30
0.0
 11
17.899993896484
 21
-5.899993896484399
 31
0.0
  0
LINE
  5
130
330
18
100
AcDbEntity
  8
PV0001_1
  6
Continuous
 48
0.5
370
    50
100
AcDbLine
 10
18.300003051757
 20
-6.8000030517578
 30
0.0
 11
20.199996948242
 21
-6.8000030517578
 31
0.0
  0
LINE
  5
131
330
18
100
AcDbEntity
  8
PV0001_1
  6
Continuous
 48
0.5
370
    50
100
AcDbLine
 10
18.100006103515
 20
-4.199996948242199
 30
0.0
 11
20.199996948242
 21
-4.199996948242199
 31
0.0
  0
LINE
  5
132
330
18
100
AcDbEntity
  8
PV0001_1
  6
Continuous
 48
0.5
370
    50
100
AcDbLine
 10
18.100006103515
 20
-6.1000061035156
 30
0.0
 11
20.199996948242
 21
-6.1000061035156
 31
0.0
  0
LINE
  5
133
330
18
100
AcDbEntity
  8
PV0001_1
  6
Continuous
 48
0.5
370
    50
100
AcDbLine
 10
20.800003051757
 20
-8.399993896484399
 30
0.0
 11
22.5
 21
-8.399993896484399
 31
0.0
  0
LINE
  5
134
330
18
100
AcDbEntity
  8
PV0001_1
  6
Continuous
 48
0.5
370
    50
100
AcDbLine
 10
17.899993896484
 20
-7.199996948242199
 30
0.0
 11
17.899993896484
 21
-8.399993896484399
 31
0.0
  0
LINE
  5
135
330
18
100
AcDbEntity
  8
PV0001_1
  6
Continuous
 48
0.5
370
    50
100
AcDbLine
 10
24.199996948242
 20
-8.399993896484399
 30
0.0
 11
28.0
 21
-8.399993896484399
 31
0.0
  0
LINE
  5
136
330
18
100
AcDbEntity
  8
PV0001_1
  6
Continuous
 48
0.5
370
    50
100
AcDbLine
 10
25.199996948242
 20
-4.199996948242199
 30
0.0
 11
27.0
 21
-4.199996948242199
 31
0.0
  0
LINE
  5
137
330
18
100
AcDbEntity
  8
PV0001_1
  6
Continuous
 48
0.5
370
    50
100
AcDbLine
 10
24.199996948242
 20
-3.6000061035156
 30
0.0
 11
28.0
 21
-3.6000061035156
 31
0.0
  0
LINE
  5
138
330
18
100
AcDbEntity
  8
PV0001_1
  6
Continuous
 48
0.5
370
    50
100
AcDbLine
 10
20.800003051757
 20
-7.399993896484399
 30
0.0
 11
20.800003051757
 21
-8.399993896484399
 31
0.0
  0
LINE
  5
139
330
18
100
AcDbEntity
  8
PV0001_1
  6
Continuous
 48
0.5
370
    50
100
AcDbLine
 10
22.800003051757
 20
-5.0
 30
0.0
 11
22.800003051757
 21
-7.0
 31
0.0
  0
LINE
  5
13A
330
18
100
AcDbEntity
  8
PV0001_1
  6
Continuous
 48
0.5
370
    50
100
AcDbLine
 10
29.399993896484
 20
-5.0
 30
0.0
 11
29.399993896484
 21
-7.0
 31
0.0
  0
LINE
  5
13B
330
18
100
AcDbEntity
  8
PV0001_1
  6
Continuous
 48
0.5
370
    50
100
AcDbLine
 10
29.793655395507
 20
-8.399993896484399
 30
0.0
 11
34.800003051757
 21
-8.399993896484399
 31
0.0
  0
LINE
  5
13C
330
18
100
AcDbEntity
  8
PV0001_1
  6
Continuous
 48
0.5
370
    50
100
AcDbLine
 10
31.600006103515
 20
-4.199996948242199
 30
0.0
 11
33.80000305175701
 21
-4.199996948242199
 31
0.0
  0
LINE
  5
13D
330
18
100
AcDbEntity
  8
PV0001_1
  6
Continuous
 48
0.5
370
    50
100
AcDbLine
 10
29.800003051757
 20
-3.6000061035156
 30
0.0
 11
34.800003051757
 21
-3.6000061035156
 31
0.0
  0
LINE
  5
13E
330
18
100
AcDbEntity
  8
PV0001_1
  6
Continuous
 48
0.5
370
    50
100
AcDbLine
 10
25.199996948242
 20
-7.6000061035156
 30
0.0
 11
27.0
 21
-7.6000061035156
 31
0.0
  0
LINE
  5
13F
330
18
100
AcDbEntity
  8
PV0001_1
  6
Continuous
 48
0.5
370
    50
100
AcDbLine
 10
24.399993896484
 20
-5.0
 30
0.0
 11
24.399993896484
 21
-6.799987792968799
 31
0.0
  0
LINE
  5
140
330
18
100
AcDbEntity
  8
PV0001_1
  6
Continuous
 48
0.5
370
    50
100
AcDbLine
 10
27.800003051757
 20
-5.0
 30
0.0
 11
27.800003051757
 21
-6.799987792968799
 31
0.0
  0
LINE
  5
141
330
18
100
AcDbEntity
  8
PV0001_1
  6
Continuous
 48
0.5
370
    50
100
AcDbLine
 10
36.199996948242
 20
-4.9999847412109
 30
0.0
 11
36.199996948242
 21
-6.9999847412109
 31
0.0
  0
LINE
  5
142
330
18
100
AcDbEntity
  8
PV0001_1
  6
Continuous
 48
0.5
370
    50
100
AcDbLine
 10
29.800003051757
 20
-3.599990844726599
 30
0.0
 11
29.800003051757
 21
-8.399993896484399
 31
0.0
  0
LINE
  5
143
330
18
100
AcDbEntity
  8
PV0001_1
  6
Continuous
 48
0.5
370
    50
100
AcDbLine
 10
31.399993896484
 20
-4.399993896484399
 30
0.0
 11
31.399993896484
 21
-7.399993896484399
 31
0.0
  0
LINE
  5
144
330
18
100
AcDbEntity
  8
PV0001_1
  6
Continuous
 48
0.5
370
    50
100
AcDbLine
 10
34.600006103515
 20
-4.9999847412109
 30
0.0
 11
34.600006103515
 21
-6.799987792968799
 31
0.0
  0
LINE
  5
145
330
18
100
AcDbEntity
  8
PV0001_1
  6
Continuous
 48
0.5
370
    50
100
AcDbLine
 10
31.600006103515
 20
-7.6000061035156
 30
0.0
 11
33.80000305175701
 21
-7.6000061035156
 31
0.0
  0
LINE
  5
146
330
18
100
AcDbEntity
  8
PV0001_1
  6
Continuous
 48
0.5
370
    50
100
AcDbLine
 10
36.199996948242
 20
-8.399993896484399
 30
0.0
 11
37.800003051757
 21
-8.399993896484399
 31
0.0
  0
LINE
  5
147
330
18
100
AcDbEntity
  8
PV0001_1
  6
Continuous
 48
0.5
370
    50
100
AcDbLine
 10
39.344146728515
 20
-4.199996948242199
 30
0.0
 11
40.25585937499999
 21
-4.199996948242199
 31
0.0
  0
LINE
  5
148
330
18
100
AcDbEntity
  8
PV0001_1
  6
Continuous
 48
0.5
370
    50
100
AcDbLine
 10
38.199996948242
 20
-3.6000061035156
 30
0.0
 11
41.399993896484
 21
-3.6000061035156
 31
0.0
  0
LINE
  5
149
330
18
100
AcDbEntity
  8
PV0001_1
  6
Continuous
 48
0.5
370
    50
100
AcDbLine
 10
38.27749633789
 20
-7.399993896484399
 30
0.0
 11
41.322509765625
 21
-7.399993896484399
 31
0.0
  0
LINE
  5
14A
330
18
100
AcDbEntity
  8
PV0001_1
  6
Continuous
 48
0.5
370
    50
100
AcDbLine
 10
38.677490234375
 20
-6.6000061035156
 30
0.0
 11
39.671600341796
 21
-6.6000061035156
 31
0.0
  0
LINE
  5
14B
330
18
100
AcDbEntity
  8
PV0001_1
  6
Continuous
 48
0.5
370
    50
100
AcDbLine
 10
37.800079345703
 20
-8.4000158309937
 30
0.0
 11
38.087825775146
 21
-7.536767959594699
 31
0.0
  0
LINE
  5
14C
330
18
100
AcDbEntity
  8
PV0001_1
  6
Continuous
 48
0.5
370
    50
100
AcDbLine
 10
40.445644378662
 20
-4.336717605590799
 30
0.0
 11
41.112312316894
 21
-6.3367171287537
 31
0.0
  0
LINE
  5
14D
330
18
100
AcDbEntity
  8
PV0001_1
  6
Continuous
 48
0.5
370
    50
100
AcDbLine
 10
38.199989318847
 20
-3.599988698959399
 30
0.0
 11
36.199989318847
 21
-8.399992942810099
 31
0.0
  0
LINE
  5
14E
330
18
100
AcDbEntity
  8
PV0001_1
  6
Continuous
 48
0.5
370
    50
100
AcDbLine
 10
41.399993896484
 20
-3.600009202957199
 30
0.0
 11
43.399993896484
 21
-8.4000062942505
 31
0.0
  0
LINE
  5
14F
330
18
100
AcDbEntity
  8
PV0001_1
  6
Continuous
 48
0.5
370
    50
100
AcDbLine
 10
38.487827301025
 20
-6.336763858795199
 30
0.0
 11
39.15449142456
 21
-4.336771965026899
 31
0.0
  0
LINE
  5
150
330
18
100
AcDbEntity
  8
PV0001_1
  6
Continuous
 48
0.5
370
    50
100
AcDbLine
 10
41.51231765747
 20
-7.5367283821106
 30
0.0
 11
41.800060272216
 21
-8.399961471557599
 31
0.0
  0
LINE
  5
151
330
18
100
AcDbEntity
  8
PV0001_1
  6
Continuous
 48
0.5
370
    50
100
AcDbLine
 10
41.800003051757
 20
-8.399993896484399
 30
0.0
 11
43.399993896484
 21
-8.399993896484399
 31
0.0
  0
LINE
  5
152
330
18
100
AcDbEntity
  8
PV0001_1
  6
Continuous
 48
0.5
370
    50
100
AcDbLine
 10
39.671600341796
 20
-6.6000061035156
 30
0.0
 11
40.92251586914
 21
-6.6000061035156
 31
0.0
  0
LINE
  5
153
330
18
100
AcDbEntity
  8
PV0001_1
  6
Continuous
 48
0.5
370
    50
100
AcDbLine
 10
46.399993896484
 20
0.0
 30
0.0
 11
46.399993896484
 21
-12.0
 31
0.0
  0
LINE
  5
154
330
18
100
AcDbEntity
  8
PV0001_1
  6
Continuous
370
    50
100
AcDbLine
 10
0.0
 20
-12.0
 30
0.0
 11
289.30798339843
 21
-12.0
 31
0.0
  0
LINE
  5
155
330
18
100
AcDbEntity
  8
PV0001_1
  6
Continuous
 48
0.5
370
    50
100
AcDbLine
 10
108.39999389648
 20
0.0
 30
0.0
 11
108.39999389648
 21
-12.0
 31
0.0
  0
LINE
  5
156
330
18
100
AcDbEntity
  8
PV0001_1
  6
Continuous
 48
0.5
370
    50
100
AcDbLine
 10
289.30798339843
 20
0.0
 30
0.0
 11
289.30798339843
 21
-12.0
 31
0.0
  0
LINE
  5
157
330
18
100
AcDbEntity
  8
PV0001_1
  6
CENTER2
 48
0.5
370
    25
100
AcDbLine
 10
262.46533203125
 20
-6.0
 30
0.0
 11
270.05261230468
 21
-6.0
 31
0.0
  0
LINE
  5
158
330
18
100
AcDbEntity
  8
PV0001_1
  6
CENTER2
 48
0.5
370
    25
100
AcDbLine
 10
266.30798339843
 20
-2.055191040039099
 30
0.0
 11
266.30798339843
 21
-9.732879638671899
 31
0.0
  0
LINE
  5
159
330
18
100
AcDbEntity
  8
PV0001_1
  6
CENTER2
 48
0.5
370
    25
100
AcDbLine
 10
274.3935546875
 20
-6.0
 30
0.0
 11
282.82943725585
 21
-6.0
 31
0.0
  0
LINE
  5
15A
330
18
100
AcDbEntity
  8
PV0001_1
  6
Continuous
 48
0.5
370
   100
100
AcDbLine
 10
275.23599243164
 20
-4.380343914032
 30
0.0
 11
281.71600341796
 21
-3.300341606140099
 31
0.0
  0
LINE
  5
15B
330
18
100
AcDbEntity
  8
PV0001_1
  6
Continuous
 48
0.5
370
   100
100
AcDbLine
 10
275.23596191406
 20
-4.3800048828125
 30
0.0
 11
275.23596191406
 21
-7.620040893554699
 31
0.0
  0
LINE
  5
15C
330
18
100
AcDbEntity
  8
PV0001_1
  6
Continuous
 48
0.5
370
   100
100
AcDbLine
 10
275.23599243164
 20
-7.620386123657199
 30
0.0
 11
281.71597290039
 21
-8.7003831863403
 31
0.0
  0
LINE
  5
15D
330
18
100
AcDbEntity
  8
PV0001_1
  6
Continuous
 48
0.5
370
   100
100
AcDbLine
 10
281.71597290039
 20
-3.3000030517578
 30
0.0
 11
281.71597290039
 21
-8.699996948242199
 31
0.0
  0
LINE
  5
15E
330
18
100
AcDbEntity
  8
PV0001_1
  6
Continuous
 48
0.5
370
    50
100
AcDbLine
 10
259.30798339843
 20
0.0
 30
0.0
 11
259.30798339843
 21
-12.0
 31
0.0
  0
LINE
  5
15F
330
18
100
AcDbEntity
  8
PV0001_1
  6
Continuous
 48
0.5
370
    50
100
AcDbLine
 10
232.39999389648
 20
0.0
 30
0.0
 11
232.39999389648
 21
-12.0
 31
0.0
  0
LINE
  5
160
330
18
100
AcDbEntity
  8
PV0001_1
  6
Continuous
370
    50
100
AcDbLine
 10
108.39999389648
 20
-24.0
 30
0.0
 11
259.30798339843
 21
-24.0
 31
0.0
  0
LINE
  5
161
330
18
100
AcDbEntity
  8
PV0001_1
  6
Continuous
 48
0.5
370
    50
100
AcDbLine
 10
232.39999389648
 20
-12.0
 30
0.0
 11
232.39999389648
 21
-24.0
 31
0.0
  0
LINE
  5
162
330
18
100
AcDbEntity
  8
PV0001_1
  6
Continuous
 48
0.5
370
    50
100
AcDbLine
 10
108.39999389648
 20
-12.0
 30
0.0
 11
108.39999389648
 21
-24.0
 31
0.0
  0
LINE
  5
163
330
18
100
AcDbEntity
  8
PV0001_1
  6
Continuous
 48
0.5
370
    50
100
AcDbLine
 10
259.30798339843
 20
-12.0
 30
0.0
 11
259.30798339843
 21
-24.0
 31
0.0
  0
LINE
  5
1FF
330
18
100
AcDbEntity
  8
PV0001_1
  6
Continuous
370
    50
100
AcDbLine
 10
636.0
 20
0.0
 30
0.0
 11
636.0
 21
-436.0
 31
0.0
  0
LINE
  5
200
330
18
100
AcDbEntity
  8
PV0001_1
  6
Continuous
370
    50
100
AcDbLine
 10
0.0
 20
-436.0
 30
0.0
 11
636.0
 21
-436.0
 31
0.0
  0
LINE
  5
299
330
18
100
AcDbEntity
  8
PV0001_1
  6
Continuous
370
    50
100
AcDbLine
 10
108.39999389648
 20
-36.0
 30
0.0
 11
259.30798339843
 21
-36.0
 31
0.0
  0
LINE
  5
29A
330
18
100
AcDbEntity
  8
PV0001_1
  6
Continuous
 48
0.5
370
    50
100
AcDbLine
 10
108.39999389648
 20
-24.0
 30
0.0
 11
108.39999389648
 21
-36.0
 31
0.0
  0
LINE
  5
29B
330
18
100
AcDbEntity
  8
PV0001_1
  6
Continuous
 48
0.5
370
    50
100
AcDbLine
 10
259.30798339843
 20
-24.0
 30
0.0
 11
259.30798339843
 21
-36.0
 31
0.0
  0
LINE
  5
29C
330
18
100
AcDbEntity
  8
PV0001_1
  6
Continuous
 48
0.5
370
    50
100
AcDbLine
 10
232.39999389648
 20
-24.0
 30
0.0
 11
232.39999389648
 21
-36.0
 31
0.0
  0
LINE
  5
29D
330
18
100
AcDbEntity
  8
PV0001_1
  6
Continuous
370
    50
100
AcDbLine
 10
108.39999389648
 20
-48.0
 30
0.0
 11
259.30798339843
 21
-48.0
 31
0.0
  0
LINE
  5
29E
330
18
100
AcDbEntity
  8
PV0001_1
  6
Continuous
 48
0.5
370
    50
100
AcDbLine
 10
232.39999389648
 20
-36.0
 30
0.0
 11
232.39999389648
 21
-48.0
 31
0.0
  0
LINE
  5
29F
330
18
100
AcDbEntity
  8
PV0001_1
  6
Continuous
 48
0.5
370
    50
100
AcDbLine
 10
108.39999389648
 20
-36.0
 30
0.0
 11
108.39999389648
 21
-48.0
 31
0.0
  0
LINE
  5
2A0
330
18
100
AcDbEntity
  8
PV0001_1
  6
Continuous
 48
0.5
370
    50
100
AcDbLine
 10
259.30798339843
 20
-36.0
 30
0.0
 11
259.30798339843
 21
-48.0
 31
0.0
  0
ARC
  5
468
330
18
100
AcDbEntity
  8
PV0001_1
  6
Continuous
 48
0.5
370
    50
100
AcDbCircle
 10
7.472381591796899
 20
-5.6104583740234
 30
0.0
 40
0.2000000029802
100
AcDbArc
 50
135.0000549831359
 51
220.6012585677736
  0
ARC
  5
469
330
18
100
AcDbEntity
  8
PV0001_1
  6
Continuous
 48
0.5
370
    50
100
AcDbCircle
 10
5.7021789550781
 20
-5.199996948242199
 30
0.0
 40
0.2000000029802
100
AcDbArc
 50
270.0000179860904
 51
322.1249959578259
  0
ARC
  5
46A
330
18
100
AcDbEntity
  8
PV0001_1
  6
Continuous
 48
0.5
370
    50
100
AcDbCircle
 10
5.699996948242199
 20
-6.199996948242199
 30
0.0
 40
0.2000000029802
100
AcDbArc
 50
36.86990755486351
 51
89.99998201390964
  0
ARC
  5
46B
330
18
100
AcDbEntity
  8
PV0001_1
  6
Continuous
 48
0.5
370
    50
100
AcDbCircle
 10
4.8000030517578
 20
-5.199996948242199
 30
0.0
 40
0.2000000029802
100
AcDbArc
 50
179.9999776881987
 51
270.0000280040004
  0
ARC
  5
46C
330
18
100
AcDbEntity
  8
PV0001_1
  6
Continuous
 48
0.5
370
    50
100
AcDbCircle
 10
4.8000030517578
 20
-6.199996948242199
 30
0.0
 40
0.2000000029802
100
AcDbArc
 50
89.99998201390964
 51
179.9999640278192
  0
ARC
  5
46D
330
18
100
AcDbEntity
  8
PV0001_1
  6
Continuous
 48
0.5
370
    50
100
AcDbCircle
 10
10.800003051757
 20
-7.199996948242199
 30
0.0
 40
1.2000000476837
100
AcDbArc
 50
179.9999776881987
 51
270.0000280040004
  0
ARC
  5
46E
330
18
100
AcDbEntity
  8
PV0001_1
  6
Continuous
 48
0.5
370
    50
100
AcDbCircle
 10
14.600006103515
 20
-7.199996948242199
 30
0.0
 40
1.2000000476837
100
AcDbArc
 50
270.0000179860904
 51
0.0
  0
ARC
  5
46F
330
18
100
AcDbEntity
  8
PV0001_1
  6
Continuous
 48
0.5
370
    50
100
AcDbCircle
 10
13.800003051757
 20
-7.0
 30
0.0
 40
0.6000000238419
100
AcDbArc
 50
270.0000179860904
 51
0.0
  0
ARC
  5
470
330
18
100
AcDbEntity
  8
PV0001_1
  6
Continuous
 48
0.5
370
    50
100
AcDbCircle
 10
11.600006103515
 20
-7.0
 30
0.0
 40
0.6000000238419
100
AcDbArc
 50
179.9999776881987
 51
270.0000280040004
  0
ARC
  5
471
330
18
100
AcDbEntity
  8
PV0001_1
  6
Continuous
 48
0.5
370
    50
100
AcDbCircle
 10
20.5
 20
-8.399993896484399
 30
0.0
 40
2.0
100
AcDbArc
 50
0.0
 51
54.42673123145972
  0
ARC
  5
472
330
18
100
AcDbEntity
  8
PV0001_1
  6
Continuous
 48
0.5
370
    50
100
AcDbCircle
 10
21.0
 20
-5.099990844726599
 30
0.0
 40
1.5
100
AcDbArc
 50
0.0
 51
89.99998201390964
  0
ARC
  5
473
330
18
100
AcDbEntity
  8
PV0001_1
  6
Continuous
 48
0.5
370
    50
100
AcDbCircle
 10
21.0
 20
-5.099990844726599
 30
0.0
 40
1.5
100
AcDbArc
 50
297.304990098971
 51
0.0
  0
ARC
  5
474
330
18
100
AcDbEntity
  8
PV0001_1
  6
Continuous
 48
0.5
370
    50
100
AcDbCircle
 10
18.300003051757
 20
-7.199996948242199
 30
0.0
 40
0.4000000059605
100
AcDbArc
 50
89.99998201390964
 51
179.9999640278192
  0
ARC
  5
475
330
18
100
AcDbEntity
  8
PV0001_1
  6
Continuous
 48
0.5
370
    50
100
AcDbCircle
 10
20.199996948242
 20
-7.399993896484399
 30
0.0
 40
0.6000000238419
100
AcDbArc
 50
0.0
 51
89.99998201390964
  0
ARC
  5
476
330
18
100
AcDbEntity
  8
PV0001_1
  6
Continuous
 48
0.5
370
    50
100
AcDbCircle
 10
21.779830932617
 20
-6.6105804443359
 30
0.0
 40
0.2000000029802
100
AcDbArc
 50
117.3049472966005
 51
234.4267362404176
  0
ARC
  5
477
330
18
100
AcDbEntity
  8
PV0001_1
  6
Continuous
 48
0.5
370
    50
100
AcDbCircle
 10
18.100006103515
 20
-4.399993896484399
 30
0.0
 40
0.2000000029802
100
AcDbArc
 50
89.99998201390964
 51
179.9999640278192
  0
ARC
  5
478
330
18
100
AcDbEntity
  8
PV0001_1
  6
Continuous
 48
0.5
370
    50
100
AcDbCircle
 10
18.100006103515
 20
-5.899993896484399
 30
0.0
 40
0.2000000029802
100
AcDbArc
 50
179.9999776881987
 51
270.0000280040004
  0
ARC
  5
479
330
18
100
AcDbEntity
  8
PV0001_1
  6
Continuous
 48
0.5
370
    50
100
AcDbCircle
 10
20.199996948242
 20
-5.5
 30
0.0
 40
0.6000000238419
100
AcDbArc
 50
270.0000179860904
 51
0.0
  0
ARC
  5
47A
330
18
100
AcDbEntity
  8
PV0001_1
  6
Continuous
 48
0.5
370
    50
100
AcDbCircle
 10
20.199996948242
 20
-4.799987792968799
 30
0.0
 40
0.6000000238419
100
AcDbArc
 50
0.0
 51
89.99998201390964
  0
ARC
  5
47B
330
18
100
AcDbEntity
  8
PV0001_1
  6
Continuous
 48
0.5
370
    50
100
AcDbCircle
 10
24.199996948242
 20
-7.0
 30
0.0
 40
1.399999976158099
100
AcDbArc
 50
179.9999776881987
 51
270.0000280040004
  0
ARC
  5
47C
330
18
100
AcDbEntity
  8
PV0001_1
  6
Continuous
 48
0.5
370
    50
100
AcDbCircle
 10
28.0
 20
-7.0
 30
0.0
 40
1.399999976158099
100
AcDbArc
 50
270.0000179860904
 51
0.0
  0
ARC
  5
47D
330
18
100
AcDbEntity
  8
PV0001_1
  6
Continuous
 48
0.5
370
    50
100
AcDbCircle
 10
28.0
 20
-5.0
 30
0.0
 40
1.399999976158099
100
AcDbArc
 50
0.0
 51
89.99998201390964
  0
ARC
  5
47E
330
18
100
AcDbEntity
  8
PV0001_1
  6
Continuous
 48
0.5
370
    50
100
AcDbCircle
 10
24.199996948242
 20
-5.0
 30
0.0
 40
1.399999976158099
100
AcDbArc
 50
89.99998201390964
 51
179.9999640278192
  0
ARC
  5
47F
330
18
100
AcDbEntity
  8
PV0001_1
  6
Continuous
 48
0.5
370
    50
100
AcDbCircle
 10
25.199996948242
 20
-5.0
 30
0.0
 40
0.8000000119209
100
AcDbArc
 50
89.99998201390964
 51
179.9999640278192
  0
ARC
  5
480
330
18
100
AcDbEntity
  8
PV0001_1
  6
Continuous
 48
0.5
370
    50
100
AcDbCircle
 10
25.199996948242
 20
-6.799987792968799
 30
0.0
 40
0.8000000119209
100
AcDbArc
 50
179.9999776881987
 51
270.0000280040004
  0
ARC
  5
481
330
18
100
AcDbEntity
  8
PV0001_1
  6
Continuous
 48
0.5
370
    50
100
AcDbCircle
 10
27.0
 20
-6.799987792968799
 30
0.0
 40
0.8000000119209
100
AcDbArc
 50
270.0000179860904
 51
0.0
  0
ARC
  5
482
330
18
100
AcDbEntity
  8
PV0001_1
  6
Continuous
 48
0.5
370
    50
100
AcDbCircle
 10
27.0
 20
-5.0
 30
0.0
 40
0.8000000119209
100
AcDbArc
 50
0.0
 51
89.99998201390964
  0
ARC
  5
483
330
18
100
AcDbEntity
  8
PV0001_1
  6
Continuous
 48
0.5
370
    50
100
AcDbCircle
 10
31.600006103515
 20
-4.399993896484399
 30
0.0
 40
0.2000000029802
100
AcDbArc
 50
89.99998201390964
 51
179.9999640278192
  0
ARC
  5
484
330
18
100
AcDbEntity
  8
PV0001_1
  6
Continuous
 48
0.5
370
    50
100
AcDbCircle
 10
31.600006103515
 20
-7.399993896484399
 30
0.0
 40
0.2000000029802
100
AcDbArc
 50
179.9999776881987
 51
270.0000280040004
  0
ARC
  5
485
330
18
100
AcDbEntity
  8
PV0001_1
  6
Continuous
 48
0.5
370
    50
100
AcDbCircle
 10
33.80000305175701
 20
-6.799987792968799
 30
0.0
 40
0.8000000119209
100
AcDbArc
 50
270.0000179860904
 51
0.0
  0
ARC
  5
486
330
18
100
AcDbEntity
  8
PV0001_1
  6
Continuous
 48
0.5
370
    50
100
AcDbCircle
 10
33.80000305175701
 20
-5.0
 30
0.0
 40
0.8000000119209
100
AcDbArc
 50
0.0
 51
89.99998201390964
  0
ARC
  5
487
330
18
100
AcDbEntity
  8
PV0001_1
  6
Continuous
 48
0.5
370
    50
100
AcDbCircle
 10
34.800003051757
 20
-6.9999847412109
 30
0.0
 40
1.399999976158099
100
AcDbArc
 50
270.0000179860904
 51
0.0
  0
ARC
  5
488
330
18
100
AcDbEntity
  8
PV0001_1
  6
Continuous
 48
0.5
370
    50
100
AcDbCircle
 10
34.800003051757
 20
-5.0
 30
0.0
 40
1.399999976158099
100
AcDbArc
 50
0.0
 51
89.99998201390964
  0
ARC
  5
489
330
18
100
AcDbEntity
  8
PV0001_1
  6
Continuous
 48
0.5
370
    50
100
AcDbCircle
 10
38.677490234375
 20
-6.399993896484399
 30
0.0
 40
0.2000000029802
100
AcDbArc
 50
161.5650375711494
 51
270.000000683247
  0
ARC
  5
48A
330
18
100
AcDbEntity
  8
PV0001_1
  6
Continuous
 48
0.5
370
    50
100
AcDbCircle
 10
40.92251586914
 20
-6.399993896484399
 30
0.0
 40
0.2000000029802
100
AcDbArc
 50
270.0000179860904
 51
18.4348803528989
  0
ARC
  5
48B
330
18
100
AcDbEntity
  8
PV0001_1
  6
Continuous
 48
0.5
370
    50
100
AcDbCircle
 10
39.344146728515
 20
-4.399993896484399
 30
0.0
 40
0.2000000029802
100
AcDbArc
 50
89.99998201390964
 51
161.5651331937947
  0
ARC
  5
48C
330
18
100
AcDbEntity
  8
PV0001_1
  6
Continuous
 48
0.5
370
    50
100
AcDbCircle
 10
40.25585937499999
 20
-4.399993896484399
 30
0.0
 40
0.2000000029802
100
AcDbArc
 50
18.43505281517194
 51
89.99998201390964
  0
ARC
  5
48D
330
18
100
AcDbEntity
  8
PV0001_1
  6
Continuous
 48
0.5
370
    50
100
AcDbCircle
 10
38.27749633789
 20
-7.599990844726599
 30
0.0
 40
0.2000000029802
100
AcDbArc
 50
89.99998201390964
 51
161.5650102503904
  0
ARC
  5
48E
330
18
100
AcDbEntity
  8
PV0001_1
  6
Continuous
 48
0.5
370
    50
100
AcDbCircle
 10
41.322509765625
 20
-7.599990844726599
 30
0.0
 40
0.2000000029802
100
AcDbArc
 50
18.4348803528989
 51
89.99998201390964
  0
CIRCLE
  5
48F
330
18
100
AcDbEntity
  8
PV0001_1
  6
Continuous
 48
0.5
370
   100
100
AcDbCircle
 10
266.30798339843
 20
-6.000061035156299
 30
0.0
 40
2.700000047683699
  0
CIRCLE
  5
490
330
18
100
AcDbEntity
  8
PV0001_1
  6
Continuous
 48
0.5
370
   100
100
AcDbCircle
 10
266.30798339843
 20
-6.000061035156299
 30
0.0
 40
1.6200001239777
  0
MTEXT
  5
544
330
18
100
AcDbEntity
  8
PV0001_1
 62
     7
370
    25
100
AcDbMText
 10
49.82849389314615
 20
-2.0
 30
0.0
 40
3.2
 41
0.0
 71
     4
 72
     5
  1
\T1.40;\W0.61;FILE\U+3000NAME
 73
     1
 44
1.0
1001
ACAD
1000
MTEXTBEGIN
1070
    73
1070
     1
1070
    44
1040
1.0
1070
    74
1070
     0
1000
MTEXTEND
  0
MTEXT
  5
545
330
18
100
AcDbEntity
  8
PV0001_1
 62
     7
370
    25
100
AcDbMText
 10
65.54274392127952
 20
-7.5
 30
0.0
 40
4.799999999999999
 41
0.0
 71
     4
 72
     5
  1
\T1.4;\W0.61;DP0601JS
 73
     1
 44
1.0
1001
ACAD
1000
MTEXTBEGIN
1070
    73
1070
     1
1070
    44
1040
1.0
1070
    74
1070
     0
1000
MTEXTEND
  0
MTEXT
  5
546
330
18
100
AcDbEntity
  8
PV0001_1
 62
     7
370
    25
100
AcDbMText
 10
111.8284938931421
 20
-2.0
 30
0.0
 40
3.2
 41
0.0
 71
     4
 72
     5
  1
\T1.40;\W0.61;MODEL
 73
     1
 44
1.0
1001
ACAD
1000
MTEXTBEGIN
1070
    73
1070
     1
1070
    44
1040
1.0
1070
    74
1070
     0
1000
MTEXTEND
  0
MTEXT
  5
547
330
18
100
AcDbEntity
  8
PV0001_1
 62
     7
370
    25
100
AcDbMText
 10
119.5427439212755
 20
-7.5
 30
0.0
 40
4.799999999999999
 41
0.0
 71
     4
 72
     5
  1
\T1.4;\W0.61;DP0601JS-HDNR-0130B-C3S
 73
     1
 44
1.0
1001
ACAD
1000
MTEXTBEGIN
1070
    73
1070
     1
1070
    44
1040
1.0
1070
    74
1070
     0
1000
MTEXTEND
  0
MTEXT
  5
548
330
18
100
AcDbEntity
  8
PV0001_1
 62
     7
370
    25
100
AcDbMText
 10
243.5427439212755
 20
-7.5
 30
0.0
 40
4.799999999999999
 41
0.0
 71
     4
 72
     5
  1
\T1.4;\W0.61;130
 73
     1
 44
1.0
1001
ACAD
1000
MTEXTBEGIN
1070
    73
1070
     1
1070
    44
1040
1.0
1070
    74
1070
     0
1000
MTEXTEND
  0
MTEXT
  5
549
330
18
100
AcDbEntity
  8
PV0001_1
 62
     7
370
    25
100
AcDbMText
 10
235.8284938931421
 20
-2.0
 30
0.0
 40
3.2
 41
0.0
 71
     4
 72
     5
  1
\T1.40;\W0.61;L
 73
     1
 44
1.0
1001
ACAD
1000
MTEXTBEGIN
1070
    73
1070
     1
1070
    44
1040
1.0
1070
    74
1070
     0
1000
MTEXTEND
  0
MTEXT
  5
54A
330
18
100
AcDbEntity
  8
PV0001_1
 62
     7
370
    25
100
AcDbMText
 10
119.5427439212755
 20
-19.5
 30
0.0
 40
4.799999999999999
 41
0.0
 71
     4
 72
     5
  1
\T1.4;\W0.61;DP0601JS-HDNR-0130B-C3F
 73
     1
 44
1.0
1001
ACAD
1000
MTEXTBEGIN
1070
    73
1070
     1
1070
    44
1040
1.0
1070
    74
1070
     0
1000
MTEXTEND
  0
MTEXT
  5
54B
330
18
100
AcDbEntity
  8
PV0001_1
 62
     7
370
    25
100
AcDbMText
 10
111.8284938931421
 20
-14.0
 30
0.0
 40
3.2
 41
0.0
 71
     4
 72
     5
  1
\T1.40;\W0.61;MODEL
 73
     1
 44
1.0
1001
ACAD
1000
MTEXTBEGIN
1070
    73
1070
     1
1070
    44
1040
1.0
1070
    74
1070
     0
1000
MTEXTEND
  0
MTEXT
  5
54C
330
18
100
AcDbEntity
  8
PV0001_1
 62
     7
370
    25
100
AcDbMText
 10
235.8284938931421
 20
-14.0
 30
0.0
 40
3.2
 41
0.0
 71
     4
 72
     5
  1
\T1.40;\W0.61;L
 73
     1
 44
1.0
1001
ACAD
1000
MTEXTBEGIN
1070
    73
1070
     1
1070
    44
1040
1.0
1070
    74
1070
     0
1000
MTEXTEND
  0
MTEXT
  5
54D
330
18
100
AcDbEntity
  8
PV0001_1
 62
     7
370
    25
100
AcDbMText
 10
243.5427439212755
 20
-19.5
 30
0.0
 40
4.799999999999999
 41
0.0
 71
     4
 72
     5
  1
\T1.4;\W0.61;130
 73
     1
 44
1.0
1001
ACAD
1000
MTEXTBEGIN
1070
    73
1070
     1
1070
    44
1040
1.0
1070
    74
1070
     0
1000
MTEXTEND
  0
MTEXT
  5
555
330
18
100
AcDbEntity
  8
PV0001_1
 62
     7
370
    25
100
AcDbMText
 10
119.5427439212755
 20
-31.5
 30
0.0
 40
4.799999999999999
 41
0.0
 71
     4
 72
     5
  1
\T1.4;\W0.61;DP0601JS-HDNR-0210B-C3S
 73
     1
 44
1.0
1001
ACAD
1000
MTEXTBEGIN
1070
    73
1070
     1
1070
    44
1040
1.0
1070
    74
1070
     0
1000
MTEXTEND
  0
MTEXT
  5
556
330
18
100
AcDbEntity
  8
PV0001_1
 62
     7
370
    25
100
AcDbMText
 10
111.8284938931421
 20
-26.0
 30
0.0
 40
3.2
 41
0.0
 71
     4
 72
     5
  1
\T1.40;\W0.61;MODEL
 73
     1
 44
1.0
1001
ACAD
1000
MTEXTBEGIN
1070
    73
1070
     1
1070
    44
1040
1.0
1070
    74
1070
     0
1000
MTEXTEND
  0
MTEXT
  5
557
330
18
100
AcDbEntity
  8
PV0001_1
 62
     7
370
    25
100
AcDbMText
 10
235.8284938931421
 20
-26.0
 30
0.0
 40
3.2
 41
0.0
 71
     4
 72
     5
  1
\T1.40;\W0.61;L
 73
     1
 44
1.0
1001
ACAD
1000
MTEXTBEGIN
1070
    73
1070
     1
1070
    44
1040
1.0
1070
    74
1070
     0
1000
MTEXTEND
  0
MTEXT
  5
558
330
18
100
AcDbEntity
  8
PV0001_1
 62
     7
370
    25
100
AcDbMText
 10
243.5427439212755
 20
-31.5
 30
0.0
 40
4.799999999999999
 41
0.0
 71
     4
 72
     5
  1
\T1.4;\W0.61;210
 73
     1
 44
1.0
1001
ACAD
1000
MTEXTBEGIN
1070
    73
1070
     1
1070
    44
1040
1.0
1070
    74
1070
     0
1000
MTEXTEND
  0
MTEXT
  5
559
330
18
100
AcDbEntity
  8
PV0001_1
 62
     7
370
    25
100
AcDbMText
 10
119.5427439212755
 20
-43.5
 30
0.0
 40
4.799999999999999
 41
0.0
 71
     4
 72
     5
  1
\T1.4;\W0.61;DP0601JS-HDNR-0210B-C3F
 73
     1
 44
1.0
1001
ACAD
1000
MTEXTBEGIN
1070
    73
1070
     1
1070
    44
1040
1.0
1070
    74
1070
     0
1000
MTEXTEND
  0
MTEXT
  5
55A
330
18
100
AcDbEntity
  8
PV0001_1
 62
     7
370
    25
100
AcDbMText
 10
111.8284938931421
 20
-38.0
 30
0.0
 40
3.2
 41
0.0
 71
     4
 72
     5
  1
\T1.40;\W0.61;MODEL
 73
     1
 44
1.0
1001
ACAD
1000
MTEXTBEGIN
1070
    73
1070
     1
1070
    44
1040
1.0
1070
    74
1070
     0
1000
MTEXTEND
  0
MTEXT
  5
55B
330
18
100
AcDbEntity
  8
PV0001_1
 62
     7
370
    25
100
AcDbMText
 10
235.8284938931421
 20
-38.0
 30
0.0
 40
3.2
 41
0.0
 71
     4
 72
     5
  1
\T1.40;\W0.61;L
 73
     1
 44
1.0
1001
ACAD
1000
MTEXTBEGIN
1070
    73
1070
     1
1070
    44
1040
1.0
1070
    74
1070
     0
1000
MTEXTEND
  0
MTEXT
  5
55C
330
18
100
AcDbEntity
  8
PV0001_1
 62
     7
370
    25
100
AcDbMText
 10
243.5427439212755
 20
-43.5
 30
0.0
 40
4.799999999999999
 41
0.0
 71
     4
 72
     5
  1
\T1.4;\W0.61;210
 73
     1
 44
1.0
1001
ACAD
1000
MTEXTBEGIN
1070
    73
1070
     1
1070
    44
1040
1.0
1070
    74
1070
     0
1000
MTEXTEND
  0
LINE
  5
7F7
330
18
100
AcDbEntity
  8
PV0001_1
100
AcDbLine
 10
278.1180614897139
 20
-141.4999999999999
 30
0.0
 11
311.1180614897139
 21
-141.4999999999999
 31
0.0
  0
LINE
  5
7F8
330
18
100
AcDbEntity
  8
PV0001_1
100
AcDbLine
 10
278.1180614897139
 20
-135.5
 30
0.0
 11
311.1180614897139
 21
-135.5
 31
0.0
  0
LINE
  5
7FB
330
18
100
AcDbEntity
  8
PV0001_1
  6
CENTER2
 48
0.3
100
AcDbLine
 10
237.3163744048527
 20
-138.4999999999999
 30
0.0
 11
455.4258754911784
 21
-138.5
 31
0.0
1001
GENIUS_GENODEF_13
1002
{
1000
HIER
1070
     0
1002
}
1002
{
1000
MANEDIT
1070
     0
1002
}
1002
{
1000
NOSEL
1070
     0
1002
}
1002
{
1000
BEHIND
1070
     0
1002
}
1002
{
1000
OTHER
1070
     0
1002
}
1002
{
1000
REACTOR
1002
}
1001
GENIUS_GENOBJ-N-CEN_13
1002
{
1000
OWNER
1000
GEN
1002
}
  0
LINE
  5
7FC
330
18
100
AcDbEntity
  8
PV0001_1
100
AcDbLine
 10
271.1180614897139
 20
-135.4999999999999
 30
0.0
 11
248.6180614897139
 21
-135.4999999999999
 31
0.0
  0
LINE
  5
7FD
330
18
100
AcDbEntity
  8
PV0001_1
100
AcDbLine
 10
248.6180614897139
 20
-141.5
 30
0.0
 11
271.1180614897139
 21
-141.5
 31
0.0
  0
LINE
  5
7FE
330
18
100
AcDbEntity
  8
PV0001_1
100
AcDbLine
 10
248.6180614897139
 20
-135.9755
 30
0.0
 11
255.6180614897139
 21
-135.9755
 31
0.0
  0
LINE
  5
7FF
330
18
100
AcDbEntity
  8
PV0001_1
100
AcDbLine
 10
248.6180614897139
 20
-141.0244999999999
 30
0.0
 11
255.6180614897139
 21
-141.0244999999999
 31
0.0
  0
LINE
  5
800
330
18
100
AcDbEntity
  8
PV0001_1
100
AcDbLine
 10
248.6180614897139
 20
-135.4999999999999
 30
0.0
 11
248.6180614897139
 21
-141.5
 31
0.0
  0
LINE
  5
801
330
18
100
AcDbEntity
  8
PV0001_1
100
AcDbLine
 10
241.118061489714
 20
-140.75
 30
0.0
 11
248.6180614897139
 21
-140.75
 31
0.0
  0
LINE
  5
802
330
18
100
AcDbEntity
  8
PV0001_1
100
AcDbLine
 10
248.6180614897139
 20
-136.2499999999999
 30
0.0
 11
241.1180614897139
 21
-136.2499999999999
 31
0.0
  0
LINE
  5
803
330
18
100
AcDbEntity
  8
PV0001_1
100
AcDbLine
 10
241.1180614897139
 20
-136.25
 30
0.0
 11
241.118061489714
 21
-140.75
 31
0.0
  0
LINE
  5
804
330
18
100
AcDbEntity
  8
PV0001_1
100
AcDbLine
 10
255.6180614897139
 20
-141.0244999999999
 30
0.0
 11
256.441651648713
 21
-141.5
 31
0.0
  0
LINE
  5
805
330
18
100
AcDbEntity
  8
PV0001_1
100
AcDbLine
 10
255.6180614897139
 20
-135.5
 30
0.0
 11
255.6180614897139
 21
-141.5
 31
0.0
  0
LINE
  5
806
330
18
100
AcDbEntity
  8
PV0001_1
100
AcDbLine
 10
255.6180614897139
 20
-135.9755
 30
0.0
 11
256.4416516487129
 21
-135.5
 31
0.0
  0
LINE
  5
807
330
18
100
AcDbEntity
  8
PV0001_1
  6
CENTER2
 48
0.5
100
AcDbLine
 10
276.6180614897139
 20
-131.920870875771
 30
0.0
 11
276.6180614897139
 21
-146.044
 31
0.0
1001
GENIUS_GENODEF_13
1002
{
1000
HIER
1070
     0
1002
}
1002
{
1000
MANEDIT
1070
     0
1002
}
1002
{
1000
NOSEL
1070
     0
1002
}
1002
{
1000
BEHIND
1070
     0
1002
}
1002
{
1000
OTHER
1070
     0
1002
}
1002
{
1000
REACTOR
1002
}
1001
GENIUS_GENOBJ-N-CEN_13
1002
{
1000
OWNER
1000
GEN
1002
}
  0
LINE
  5
808
330
18
100
AcDbEntity
  8
PV0001_1
100
AcDbLine
 10
278.1180614897139
 20
-143.2499999999999
 30
0.0
 11
278.1180614897139
 21
-133.7499999999999
 31
0.0
  0
LINE
  5
809
330
18
100
AcDbEntity
  8
PV0001_1
100
AcDbLine
 10
271.1180614897139
 20
-133.7499999999999
 30
0.0
 11
271.1180614897139
 21
-143.2499999999999
 31
0.0
  0
LINE
  5
80A
330
18
100
AcDbEntity
  8
PV0001_1
100
AcDbLine
 10
281.1180614897139
 20
-135.5
 30
0.0
 11
281.1180614897139
 21
-141.4999999999999
 31
0.0
  0
LINE
  5
80B
330
18
100
AcDbEntity
  8
PV0001_1
100
AcDbLine
 10
271.1180614897139
 20
-143.2499999999999
 30
0.0
 11
278.118061489714
 21
-143.25
 31
0.0
  0
LINE
  5
80D
330
18
100
AcDbEntity
  8
PV0001_1
100
AcDbLine
 10
278.118061489714
 20
-133.7499999999999
 30
0.0
 11
271.1180614897139
 21
-133.7499999999999
 31
0.0
  0
LINE
  5
80E
330
18
100
AcDbEntity
  8
PV0001_1
100
AcDbLine
 10
278.1180614897139
 20
-135.93826230851
 30
0.0
 11
275.1180614897139
 21
-135.93826230851
 31
0.0
  0
LINE
  5
80F
330
18
100
AcDbEntity
  8
PV0001_1
100
AcDbLine
 10
275.1180614897139
 20
-141.0617376914898
 30
0.0
 11
278.1180614897139
 21
-141.0617376914898
 31
0.0
  0
LINE
  5
810
330
18
100
AcDbEntity
  8
PV0001_1
100
AcDbLine
 10
278.1180614897139
 20
-141.0617376914898
 30
0.0
 11
275.1180614897139
 21
-135.93826230851
 31
0.0
  0
LINE
  5
811
330
18
100
AcDbEntity
  8
PV0001_1
100
AcDbLine
 10
275.1180614897139
 20
-141.0617376914898
 30
0.0
 11
278.0761013812638
 21
-135.93826230851
 31
0.0
  0
LINE
  5
812
330
18
100
AcDbEntity
  8
PV0001_1
100
AcDbLine
 10
275.1180614897139
 20
-135.93826230851
 30
0.0
 11
275.1180614897139
 21
-141.0617376914898
 31
0.0
  0
LINE
  5
816
330
18
100
AcDbEntity
  8
PV0001_1
100
AcDbLine
 10
325.6180614897139
 20
-141.4999999999998
 30
0.0
 11
451.1180614897138
 21
-141.5000000000001
 31
0.0
  0
LINE
  5
817
330
18
100
AcDbEntity
  8
PV0001_1
100
AcDbLine
 10
325.6180614897139
 20
-135.4999999999999
 30
0.0
 11
451.1180614897138
 21
-135.5
 31
0.0
  0
LINE
  5
818
330
18
100
AcDbEntity
  8
PV0001_1
100
AcDbLine
 10
314.6180614897139
 20
-127.4999999999994
 30
0.0
 11
314.6180614897139
 21
-149.4999999999994
 31
0.0
  0
LINE
  5
819
330
18
100
AcDbEntity
  8
PV0001_1
100
AcDbLine
 10
311.1180614897139
 20
-149.4999999999994
 30
0.0
 11
311.1180614897139
 21
-127.4999999999994
 31
0.0
  0
LINE
  5
81A
330
18
100
AcDbEntity
  8
PV0001_1
100
AcDbLine
 10
314.6180614897139
 20
-149.4999999999994
 30
0.0
 11
311.1180614897139
 21
-149.4999999999994
 31
0.0
  0
LINE
  5
81B
330
18
100
AcDbEntity
  8
PV0001_1
100
AcDbLine
 10
325.6180614897139
 20
-143.4999999999995
 30
0.0
 11
325.6180614897139
 21
-133.4999999999994
 31
0.0
  0
LINE
  5
81C
330
18
100
AcDbEntity
  8
PV0001_1
100
AcDbLine
 10
314.6180614897139
 20
-143.4999999999994
 30
0.0
 11
325.6180614897139
 21
-143.4999999999994
 31
0.0
  0
LINE
  5
81D
330
18
100
AcDbEntity
  8
PV0001_1
100
AcDbLine
 10
325.6180614897139
 20
-133.4999999999994
 30
0.0
 11
314.6180614897139
 21
-133.4999999999994
 31
0.0
  0
LINE
  5
81E
330
18
100
AcDbEntity
  8
PV0001_1
100
AcDbLine
 10
451.1180614897138
 20
-135.5
 30
0.0
 11
451.1180614897138
 21
-141.5000000000001
 31
0.0
  0
LINE
  5
81F
330
18
100
AcDbEntity
  8
PV0001_1
100
AcDbLine
 10
311.1180614897139
 20
-127.4999999999994
 30
0.0
 11
314.6180614897139
 21
-127.4999999999994
 31
0.0
  0
LINE
  5
843
330
18
100
AcDbEntity
  8
PV0001_1
  6
CENTER2
 48
0.5
100
AcDbLine
 10
276.6180614897139
 20
-100.956
 30
0.0
 11
276.6180614897139
 21
-116.6330547730747
 31
0.0
1001
GENIUS_GENODEF_13
1002
{
1000
HIER
1070
     0
1002
}
1002
{
1000
MANEDIT
1070
     0
1002
}
1002
{
1000
NOSEL
1070
     0
1002
}
1002
{
1000
BEHIND
1070
     0
1002
}
1002
{
1000
OTHER
1070
     0
1002
}
1002
{
1000
REACTOR
1002
}
1001
GENIUS_GENOBJ-N-CEN_13
1002
{
1000
OWNER
1000
GEN
1002
}
  0
LINE
  5
844
330
18
100
AcDbEntity
  8
PV0001_1
  6
CENTER2
 48
0.5
100
AcDbLine
 10
269.8240614897139
 20
-108.5
 30
0.0
 11
283.4120614897139
 21
-108.5
 31
0.0
1001
GENIUS_GENOBJ-N-CEN_13
1002
{
1000
OWNER
1000
GEN
1002
}
1001
GENIUS_GENODEF_13
1002
{
1000
HIER
1070
     0
1002
}
1002
{
1000
MANEDIT
1070
     0
1002
}
1002
{
1000
NOSEL
1070
     0
1002
}
1002
{
1000
BEHIND
1070
     0
1002
}
1002
{
1000
OTHER
1070
     0
1002
}
1002
{
1000
REACTOR
1002
}
  0
ARC
  5
845
330
18
100
AcDbEntity
  8
PV0001_1
100
AcDbCircle
 10
276.6180614897139
 20
-108.5
 30
0.0
 40
4.75
100
AcDbArc
 50
212.6368975035525
 51
327.3631024964475
  0
ARC
  5
846
330
18
100
AcDbEntity
  8
PV0001_1
100
AcDbCircle
 10
276.6180614897139
 20
-108.5
 30
0.0
 40
4.75
100
AcDbArc
 50
32.63689750355252
 51
147.3631024964475
  0
LINE
  5
847
330
18
100
AcDbEntity
  8
PV0001_1
100
AcDbLine
 10
272.6180614897139
 20
-105.9382623085101
 30
0.0
 11
272.6180614897139
 21
-111.0617376914899
 31
0.0
  0
LINE
  5
848
330
18
100
AcDbEntity
  8
PV0001_1
100
AcDbLine
 10
280.6180614897139
 20
-105.9382623085101
 30
0.0
 11
280.6180614897139
 21
-111.0617376914899
 31
0.0
  0
ARC
  5
A0B
330
18
100
AcDbEntity
  8
PV0001_1
100
AcDbCircle
 10
151.6180462309239
 20
-138.5
 30
0.0
 40
11.0
100
AcDbArc
 50
50.47880364135794
 51
129.521196358641
  0
CIRCLE
  5
A0C
330
18
100
AcDbEntity
  8
PV0001_1
100
AcDbCircle
 10
147.6180462309239
 20
-131.5717967697245
 30
0.0
 40
1.7
  0
LINE
  5
A0D
330
18
100
AcDbEntity
  8
PV0001_1
  6
kuroda_ittensasen1
 48
0.5
100
AcDbLine
 10
141.3240462309239
 20
-138.5
 30
0.0
 11
161.9120462309239
 21
-138.5
 31
0.0
1001
GENIUS_GENOBJ-N-CEN_13
1002
{
1000
OWNER
1000
GEN
1002
}
1001
GENIUS_GENODEF_13
1002
{
1000
HIER
1070
     0
1002
}
1002
{
1000
MANEDIT
1070
     0
1002
}
1002
{
1000
NOSEL
1070
     0
1002
}
1002
{
1000
BEHIND
1070
     0
1002
}
1002
{
1000
OTHER
1070
     0
1002
}
1002
{
1000
REACTOR
1002
}
  0
CIRCLE
  5
A0E
330
18
100
AcDbEntity
  8
PV0001_1
100
AcDbCircle
 10
147.6180462309239
 20
-145.4282032302755
 30
0.0
 40
1.7
  0
ARC
  5
A0F
330
18
100
AcDbEntity
  8
PV0001_1
100
AcDbCircle
 10
151.6180462309239
 20
-138.5
 30
0.0
 40
11.0
100
AcDbArc
 50
230.478803641359
 51
309.5211963586421
  0
CIRCLE
  5
A10
330
18
100
AcDbEntity
  8
PV0001_1
  6
kuroda_ittensasen1
 48
0.3
100
AcDbCircle
 10
151.6180462309239
 20
-138.5
 30
0.0
 40
8.0
  0
LINE
  5
A11
330
18
100
AcDbEntity
  8
PV0001_1
  6
kuroda_ittensasen1
 48
0.5
100
AcDbLine
 10
157.9544904268527
 20
-127.5249567133264
 30
0.0
 11
145.2816020349951
 21
-149.4750432866735
 31
0.0
1001
GENIUS_GENOBJ-N-CEN_13
1002
{
1000
OWNER
1000
GEN
1002
}
1001
GENIUS_GENODEF_13
1002
{
1000
HIER
1070
     0
1002
}
1002
{
1000
MANEDIT
1070
     0
1002
}
1002
{
1000
NOSEL
1070
     0
1002
}
1002
{
1000
BEHIND
1070
     0
1002
}
1002
{
1000
OTHER
1070
     0
1002
}
1002
{
1000
REACTOR
1002
}
  0
LINE
  5
A12
330
18
100
AcDbEntity
  8
PV0001_1
  6
kuroda_ittensasen1
 48
0.5
100
AcDbLine
 10
145.2816020349951
 20
-127.5249567133264
 30
0.0
 11
157.9544904268527
 21
-149.4750432866735
 31
0.0
1001
GENIUS_GENOBJ-N-CEN_13
1002
{
1000
OWNER
1000
GEN
1002
}
1001
GENIUS_GENODEF_13
1002
{
1000
HIER
1070
     0
1002
}
1002
{
1000
MANEDIT
1070
     0
1002
}
1002
{
1000
NOSEL
1070
     0
1002
}
1002
{
1000
BEHIND
1070
     0
1002
}
1002
{
1000
OTHER
1070
     0
1002
}
1002
{
1000
REACTOR
1002
}
  0
LINE
  5
A13
330
18
100
AcDbEntity
  8
PV0001_1
100
AcDbLine
 10
144.6180462309239
 20
-130.0147186257614
 30
0.0
 11
144.6180462309239
 21
-146.9852813742386
 31
0.0
  0
CIRCLE
  5
A14
330
18
100
AcDbEntity
  8
PV0001_1
100
AcDbCircle
 10
151.6180462309239
 20
-138.5
 30
0.0
 40
3.0
  0
LINE
  5
A15
330
18
100
AcDbEntity
  8
PV0001_1
100
AcDbLine
 10
158.6180462309239
 20
-130.0147186257614
 30
0.0
 11
158.6180462309239
 21
-146.9852813742386
 31
0.0
  0
LINE
  5
A16
330
18
100
AcDbEntity
  8
PV0001_1
  6
kuroda_ittensasen1
 48
0.5
100
AcDbLine
 10
151.6180462309239
 20
-125.8271116081424
 30
0.0
 11
151.6180462309239
 21
-151.1728883918575
 31
0.0
1001
GENIUS_GENODEF_13
1002
{
1000
HIER
1070
     0
1002
}
1002
{
1000
MANEDIT
1070
     0
1002
}
1002
{
1000
NOSEL
1070
     0
1002
}
1002
{
1000
BEHIND
1070
     0
1002
}
1002
{
1000
OTHER
1070
     0
1002
}
1002
{
1000
REACTOR
1002
}
1001
GENIUS_GENOBJ-N-CEN_13
1002
{
1000
OWNER
1000
GEN
1002
}
  0
CIRCLE
  5
A17
330
18
100
AcDbEntity
  8
PV0001_1
100
AcDbCircle
 10
155.6180462309239
 20
-145.4282032302755
 30
0.0
 40
1.7
  0
CIRCLE
  5
A18
330
18
100
AcDbEntity
  8
PV0001_1
100
AcDbCircle
 10
155.6180462309239
 20
-131.5717967697245
 30
0.0
 40
1.7
  0
DIMENSION
  5
AAE
330
18
100
AcDbEntity
  8
AM_5
100
AcDbDimension
  2
*D3
 10
451.1180614897138
 20
-157.5000009999994
 30
0.0
 11
346.1180614897139
 21
-155.4000009999994
 31
0.0
 70
    32
  1
L
 71
     5
 42
210.0
  3
STANDARD
100
AcDbAlignedDimension
 13
241.118061489714
 23
-140.75
 33
0.0
 14
451.1180614897138
 24
-141.5000000000001
 34
0.0
 50
0.0000000000001132
100
AcDbRotatedDimension
  0
LINE
  5
D4D
330
18
100
AcDbEntity
  8
0
100
AcDbLine
 10
451.1180614897138
 20
-135.8499999999999
 30
0.0
 11
325.6180614897139
 21
-135.8499999999999
 31
0.0
  0
LINE
  5
D4E
330
18
100
AcDbEntity
  8
0
100
AcDbLine
 10
451.1180614897138
 20
-141.15
 30
0.0
 11
325.6180614897139
 21
-141.15
 31
0.0
  0
LINE
  5
D4F
330
18
100
AcDbEntity
  8
0
100
AcDbLine
 10
311.1180614897139
 20
-135.8499999999999
 30
0.0
 11
281.1180614897139
 21
-135.8499999999999
 31
0.0
  0
LINE
  5
D50
330
18
100
AcDbEntity
  8
0
100
AcDbLine
 10
281.1180614897139
 20
-135.8499999999999
 30
0.0
 11
280.1564443929049
 21
-135.5
 31
0.0
  0
LINE
  5
D51
330
18
100
AcDbEntity
  8
0
100
AcDbLine
 10
311.1180614897139
 20
-141.15
 30
0.0
 11
281.1180614897139
 21
-141.15
 31
0.0
  0
LINE
  5
D52
330
18
100
AcDbEntity
  8
0
100
AcDbLine
 10
281.1180614897139
 20
-141.15
 30
0.0
 11
280.1564443929049
 21
-141.4999999999999
 31
0.0
  0
LINE
  5
103C
330
18
100
AcDbEntity
  8
PV0001_1
  6
PHANTOM2
 62
     0
100
AcDbLine
 10
451.1180614897138
 20
-284.171028689383
 30
0.0
 11
411.1262487458009
 21
-284.171028689383
 31
0.0
  0
LINE
  5
103D
330
18
100
AcDbEntity
  8
PV0001_1
  6
PHANTOM2
 62
     0
 48
0.5
100
AcDbLine
 10
451.1180614897138
 20
-284.171028689383
 30
0.0
 11
451.1180614897138
 21
-278.171028689383
 31
0.0
  0
LINE
  5
103E
330
18
100
AcDbEntity
  8
PV0001_1
  6
PHANTOM2
 62
     0
100
AcDbLine
 10
451.1180614897138
 20
-278.5670285978304
 30
0.0
 11
411.1262487458009
 21
-278.5670285978303
 31
0.0
  0
LINE
  5
103F
330
18
100
AcDbEntity
  8
PV0001_1
  6
PHANTOM2
 62
     0
 48
0.5
100
AcDbLine
 10
451.1180614897138
 20
-283.7750287809356
 30
0.0
 11
411.1262487458009
 21
-283.7750287809356
 31
0.0
  0
LINE
  5
1040
330
18
100
AcDbEntity
  8
PV0001_1
  6
PHANTOM2
 62
     0
 48
0.5
100
AcDbLine
 10
451.1180614897138
 20
-278.171028689383
 30
0.0
 11
411.1262487458009
 21
-278.171028689383
 31
0.0
  0
LINE
  5
1041
330
18
100
AcDbEntity
  8
center
 62
     0
100
AcDbLine
 10
457.4263088706969
 20
-281.171028689383
 30
0.0
 11
402.2752704577106
 21
-281.171028689383
 31
0.0
1001
GENIUS_GENODEF_13
1002
{
1000
HIER
1070
     0
1002
}
1002
{
1000
MANEDIT
1070
     0
1002
}
1002
{
1000
NOSEL
1070
     0
1002
}
1002
{
1000
BEHIND
1070
     0
1002
}
1002
{
1000
OTHER
1070
     0
1002
}
1002
{
1000
REACTOR
1002
}
1001
GENIUS_GENOBJ-N-CEN_13
1002
{
1000
OWNER
1000
GEN
1002
}
  0
LINE
  5
1042
330
18
100
AcDbEntity
  8
center
 62
     0
100
AcDbLine
 10
457.4263088706969
 20
-201.0939735878732
 30
0.0
 11
402.2752704577106
 21
-201.0939735878732
 31
0.0
1001
GENIUS_GENODEF_13
1002
{
1000
HIER
1070
     0
1002
}
1002
{
1000
MANEDIT
1070
     0
1002
}
1002
{
1000
NOSEL
1070
     0
1002
}
1002
{
1000
BEHIND
1070
     0
1002
}
1002
{
1000
OTHER
1070
     0
1002
}
1002
{
1000
REACTOR
1002
}
1001
GENIUS_GENOBJ-N-CEN_13
1002
{
1000
OWNER
1000
GEN
1002
}
  0
LINE
  5
1043
330
18
100
AcDbEntity
  8
PV0001_1
  6
PHANTOM2
 62
     0
 48
0.5
100
AcDbLine
 10
451.1180614897138
 20
-198.0939735878731
 30
0.0
 11
411.1262487458009
 21
-198.0939735878731
 31
0.0
  0
LINE
  5
1044
330
18
100
AcDbEntity
  8
PV0001_1
  6
PHANTOM2
 62
     0
 48
0.5
100
AcDbLine
 10
451.1180614897138
 20
-203.6979736794259
 30
0.0
 11
411.1262487458009
 21
-203.6979736794259
 31
0.0
  0
LINE
  5
1045
330
18
100
AcDbEntity
  8
PV0001_1
  6
PHANTOM2
 62
     0
100
AcDbLine
 10
451.1180614897138
 20
-198.4899734963205
 30
0.0
 11
411.1262487458009
 21
-198.4899734963205
 31
0.0
  0
LINE
  5
1046
330
18
100
AcDbEntity
  8
PV0001_1
  6
PHANTOM2
 62
     0
 48
0.5
100
AcDbLine
 10
451.1180614897138
 20
-204.0939735878732
 30
0.0
 11
451.1180614897138
 21
-198.0939735878731
 31
0.0
  0
LINE
  5
1047
330
18
100
AcDbEntity
  8
PV0001_1
  6
PHANTOM2
 62
     0
100
AcDbLine
 10
451.1180614897138
 20
-204.0939735878732
 30
0.0
 11
411.1262487458009
 21
-204.0939735878732
 31
0.0
  0
MTEXT
  5
137F
330
18
100
AcDbEntity
  8
PV0001_1
 62
     7
370
    25
100
AcDbMText
 10
258.2312843867661
 20
-227.4820656288832
 30
0.0
 40
3.2
 41
0.0
 71
     4
 72
     5
  1
\T1.40;\W0.61;BUK-6
 73
     1
 44
1.0
1001
ACAD
1000
MTEXTBEGIN
1070
    73
1070
     1
1070
    44
1040
1.0
1070
    74
1070
     0
1000
MTEXTEND
  0
CIRCLE
  5
1382
330
18
100
AcDbEntity
  8
PV0001_1
  6
CENTER2
370
    25
100
AcDbCircle
 10
151.6180462309239
 20
-201.0939735878732
 30
0.0
 40
7.0
  0
CIRCLE
  5
1383
330
18
100
AcDbEntity
  8
PV0001_1
  6
Continuous
370
    50
100
AcDbCircle
 10
151.6180462309239
 20
-201.0939735878732
 30
0.0
 40
9.442000389099099
  0
ARC
  5
1384
330
18
100
AcDbEntity
  8
PV0001_1
  6
Continuous
 48
0.5
370
    50
100
AcDbCircle
 10
151.6180462309239
 20
-201.0939735878732
 30
0.0
 40
6.8499999046326
100
AcDbArc
 50
118.846821520598
 51
151.1527420305426
  0
ARC
  5
1385
330
18
100
AcDbEntity
  8
PV0001_1
  6
Continuous
 48
0.5
370
    50
100
AcDbCircle
 10
151.6180462309239
 20
-201.0939735878732
 30
0.0
 40
6.8499999046326
100
AcDbArc
 50
298.8468096814522
 51
331.1532629461518
  0
ARC
  5
1386
330
18
100
AcDbEntity
  8
PV0001_1
  6
Continuous
 48
0.5
370
    50
100
AcDbCircle
 10
151.6180462309239
 20
-201.0939735878732
 30
0.0
 40
6.8499999046326
100
AcDbArc
 50
208.8470120826488
 51
241.1531238378881
  0
ARC
  5
1387
330
18
100
AcDbEntity
  8
PV0001_1
  6
Continuous
 48
0.5
370
    50
100
AcDbCircle
 10
151.6180462309239
 20
-201.0939735878732
 30
0.0
 40
6.8499999046326
100
AcDbArc
 50
28.84764888409974
 51
61.15313567703571
  0
CIRCLE
  5
1388
330
18
100
AcDbEntity
  8
PV0001_1
  6
Continuous
 48
0.5
370
    50
100
AcDbCircle
 10
151.6180462309239
 20
-194.0939735878732
 30
0.0
 40
1.0
  0
CIRCLE
  5
1389
330
18
100
AcDbEntity
  8
PV0001_1
  6
Continuous
 48
0.5
370
    50
100
AcDbCircle
 10
151.6180462309239
 20
-208.0939735878732
 30
0.0
 40
1.0
  0
CIRCLE
  5
138A
330
18
100
AcDbEntity
  8
PV0001_1
  6
Continuous
 48
0.5
370
    50
100
AcDbCircle
 10
158.6180462309239
 20
-201.0939735878732
 30
0.0
 40
1.0
  0
CIRCLE
  5
138B
330
18
100
AcDbEntity
  8
PV0001_1
  6
Continuous
 48
0.5
370
    50
100
AcDbCircle
 10
144.6180462309239
 20
-201.0939735878732
 30
0.0
 40
1.0
  0
CIRCLE
  5
138C
330
18
100
AcDbEntity
  8
PV0001_1
  6
Continuous
 48
0.5
370
    50
100
AcDbCircle
 10
264.6180614897139
 20
-216.0939735878732
 30
0.0
 40
2.75
  0
CIRCLE
  5
138D
330
18
100
AcDbEntity
  8
PV0001_1
  6
Continuous
 48
0.5
370
    50
100
AcDbCircle
 10
264.6180614897139
 20
-216.0939735878732
 30
0.0
 40
4.750000476837199
  0
CIRCLE
  5
138E
330
18
100
AcDbEntity
  8
PV0001_1
  6
Continuous
 48
0.5
370
    50
100
AcDbCircle
 10
264.6180614897139
 20
-186.0939735878731
 30
0.0
 40
4.750000476837199
  0
CIRCLE
  5
138F
330
18
100
AcDbEntity
  8
PV0001_1
  6
Continuous
 48
0.5
370
    50
100
AcDbCircle
 10
264.6180614897139
 20
-186.0939735878731
 30
0.0
 40
2.75
  0
LINE
  5
1390
330
18
100
AcDbEntity
  8
PV0001_1
  6
PHANTOM2
 48
0.5
370
    25
100
AcDbLine
 10
255.6180614897139
 20
-198.4999641884531
 30
0.0
 11
256.321278042444
 21
-198.0939583290831
 31
0.0
  0
LINE
  5
1391
330
18
100
AcDbEntity
  8
PV0001_1
  6
PHANTOM2
 48
0.5
370
    25
100
AcDbLine
 10
255.6180614897139
 20
-203.6879677284932
 30
0.0
 11
256.321278042444
 21
-204.0939735878732
 31
0.0
  0
LINE
  5
1392
330
18
100
AcDbEntity
  8
PV0001_1
  6
PHANTOM2
 48
0.5
370
    25
100
AcDbLine
 10
248.6180614897139
 20
-203.6879677284932
 30
0.0
 11
255.6180614897139
 21
-203.6879677284932
 31
0.0
  0
LINE
  5
1393
330
18
100
AcDbEntity
  8
PV0001_1
  6
PHANTOM2
 48
0.5
370
    25
100
AcDbLine
 10
248.6180614897139
 20
-198.4999794472431
 30
0.0
 11
255.6180614897139
 21
-198.4999794472431
 31
0.0
  0
LINE
  5
1394
330
18
100
AcDbEntity
  8
PV0001_1
  6
PHANTOM2
 48
0.5
370
    25
100
AcDbLine
 10
248.6180614897139
 20
-204.0939735878732
 30
0.0
 11
271.1180614897139
 21
-204.0939735878732
 31
0.0
  0
LINE
  5
1395
330
18
100
AcDbEntity
  8
PV0001_1
  6
PHANTOM2
 48
0.5
370
    25
100
AcDbLine
 10
248.6180614897139
 20
-198.0939735878731
 30
0.0
 11
271.1180614897139
 21
-198.0939735878732
 31
0.0
  0
LINE
  5
1396
330
18
100
AcDbEntity
  8
PV0001_1
  6
PHANTOM2
 48
0.5
370
    25
100
AcDbLine
 10
241.1180614897139
 20
-203.3439735878732
 30
0.0
 11
248.6180614897139
 21
-203.3439735878732
 31
0.0
  0
LINE
  5
1397
330
18
100
AcDbEntity
  8
PV0001_1
  6
PHANTOM2
 48
0.5
370
    25
100
AcDbLine
 10
271.1180614897139
 20
-196.3439735878731
 30
0.0
 11
271.1180614897139
 21
-205.8439735878732
 31
0.0
  0
LINE
  5
1398
330
18
100
AcDbEntity
  8
PV0001_1
  6
PHANTOM2
 48
0.5
370
    25
100
AcDbLine
 10
241.1180614897139
 20
-198.8439735878731
 30
0.0
 11
241.1180614897139
 21
-203.3439735878732
 31
0.0
  0
LINE
  5
1399
330
18
100
AcDbEntity
  8
PV0001_1
  6
PHANTOM2
 48
0.5
370
    25
100
AcDbLine
 10
248.6180614897139
 20
-198.0939735878731
 30
0.0
 11
248.6180614897139
 21
-204.0939735878732
 31
0.0
  0
LINE
  5
139A
330
18
100
AcDbEntity
  8
PV0001_1
  6
PHANTOM2
 48
0.5
370
    25
100
AcDbLine
 10
271.1180614897139
 20
-205.8439735878732
 30
0.0
 11
278.1180614897139
 21
-205.8439735878732
 31
0.0
  0
LINE
  5
139B
330
18
100
AcDbEntity
  8
PV0001_1
  6
PHANTOM2
 48
0.5
370
    25
100
AcDbLine
 10
255.6180614897139
 20
-198.0939735878731
 30
0.0
 11
255.6180614897139
 21
-204.0939735878732
 31
0.0
  0
LINE
  5
139D
330
18
100
AcDbEntity
  8
PV0001_1
  6
PHANTOM2
 48
0.5
370
    25
100
AcDbLine
 10
241.1180614897139
 20
-198.8439735878731
 30
0.0
 11
248.6180614897139
 21
-198.8439735878731
 31
0.0
  0
LINE
  5
139E
330
18
100
AcDbEntity
  8
PV0001_1
  6
PHANTOM2
 48
0.5
370
    25
100
AcDbLine
 10
271.1180614897139
 20
-196.3439735878731
 30
0.0
 11
278.1180614897139
 21
-196.3439735878731
 31
0.0
  0
LINE
  5
139F
330
18
100
AcDbEntity
  8
PV0001_1
  6
Continuous
 48
0.5
370
    50
100
AcDbLine
 10
157.6180004545539
 20
-197.7891029824031
 30
0.0
 11
157.6180004545539
 21
-204.3988747109132
 31
0.0
  0
LINE
  5
13A0
330
18
100
AcDbEntity
  8
PV0001_1
  6
Continuous
 48
0.5
370
    50
100
AcDbLine
 10
145.6180004545539
 20
-197.7890419472431
 30
0.0
 11
145.6180004545539
 21
-204.3989357460731
 31
0.0
  0
LINE
  5
13A1
330
18
100
AcDbEntity
  8
PV0001_1
  6
Continuous
 48
0.5
370
    50
100
AcDbLine
 10
148.3131451078739
 20
-195.0938820351331
 30
0.0
 11
154.9229626127539
 21
-195.0938820351331
 31
0.0
  0
LINE
  5
13A2
330
18
100
AcDbEntity
  8
PV0001_1
  6
Continuous
 48
0.5
370
    50
100
AcDbLine
 10
148.3131603666639
 20
-207.0938820351332
 30
0.0
 11
154.9230083891239
 21
-207.0938820351332
 31
0.0
  0
LINE
  5
13A3
330
18
100
AcDbEntity
  8
PV0001_1
  6
DASHED2
 48
0.5
370
    50
100
AcDbLine
 10
158.6180309721339
 20
-211.3439735878732
 30
0.0
 11
147.6180309721339
 21
-211.3439735878732
 31
0.0
  0
LINE
  5
13A4
330
18
100
AcDbEntity
  8
PV0001_1
  6
DASHED2
 48
0.5
370
    50
100
AcDbLine
 10
147.6180157133439
 20
-213.3439735878732
 30
0.0
 11
138.6180157133439
 21
-213.3439735878732
 31
0.0
  0
LINE
  5
13A5
330
18
100
AcDbEntity
  8
PV0001_1
  6
DASHED2
 48
0.5
370
    50
100
AcDbLine
 10
158.6180157133439
 20
-220.8439735878731
 30
0.0
 11
147.6180157133439
 21
-220.8439735878731
 31
0.0
  0
LINE
  5
13A6
330
18
100
AcDbEntity
  8
PV0001_1
  6
DASHED2
 48
0.5
370
    50
100
AcDbLine
 10
147.6180462309239
 20
-211.3439735878732
 30
0.0
 11
147.6180462309239
 21
-220.8439735878731
 31
0.0
  0
LINE
  5
13A7
330
18
100
AcDbEntity
  8
PV0001_1
  6
DASHED2
 48
0.5
370
    50
100
AcDbLine
 10
147.6180157133439
 20
-218.8439735878731
 30
0.0
 11
138.6180157133439
 21
-218.8439735878731
 31
0.0
  0
LINE
  5
13A8
330
18
100
AcDbEntity
  8
PV0001_1
  6
DASHED2
 48
0.5
370
    50
100
AcDbLine
 10
147.6180462309239
 20
-190.8439735878731
 30
0.0
 11
147.6180462309239
 21
-181.3439735878731
 31
0.0
  0
LINE
  5
13A9
330
18
100
AcDbEntity
  8
PV0001_1
  6
DASHED2
 48
0.5
370
    50
100
AcDbLine
 10
158.6180462309239
 20
-181.3439735878731
 30
0.0
 11
147.6180462309239
 21
-181.3439735878731
 31
0.0
  0
LINE
  5
13AA
330
18
100
AcDbEntity
  8
PV0001_1
  6
DASHED2
 48
0.5
370
    50
100
AcDbLine
 10
158.6180309721339
 20
-190.8439735878731
 30
0.0
 11
147.6180309721339
 21
-190.8439735878731
 31
0.0
  0
LINE
  5
13AB
330
18
100
AcDbEntity
  8
PV0001_1
  6
DASHED2
 48
0.5
370
    50
100
AcDbLine
 10
147.6180462309239
 20
-188.8439735878731
 30
0.0
 11
138.6180462309239
 21
-188.8439735878731
 31
0.0
  0
LINE
  5
13AC
330
18
100
AcDbEntity
  8
PV0001_1
  6
DASHED2
 48
0.5
370
    50
100
AcDbLine
 10
147.6180462309239
 20
-183.3439735878732
 30
0.0
 11
138.6180462309239
 21
-183.3439735878732
 31
0.0
  0
LINE
  5
13AD
330
18
100
AcDbEntity
  8
PV0001_1
  6
CENTER2
 48
0.5
370
    25
100
AcDbLine
 10
161.6180462309239
 20
-186.0939735878731
 30
0.0
 11
135.6180462309239
 21
-186.0939735878731
 31
0.0
  0
LINE
  5
13AE
330
18
100
AcDbEntity
  8
PV0001_1
  6
CENTER2
 48
0.5
370
    25
100
AcDbLine
 10
161.6180462309239
 20
-216.0939735878732
 30
0.0
 11
135.6180462309239
 21
-216.0939735878732
 31
0.0
  0
LINE
  5
13AF
330
18
100
AcDbEntity
  8
PV0001_1
  6
Continuous
 48
0.5
370
    50
100
AcDbLine
 10
158.6180462309239
 20
-192.0939735878731
 30
0.0
 11
158.6180462309239
 21
-180.0939735878731
 31
0.0
  0
LINE
  5
13B0
330
18
100
AcDbEntity
  8
PV0001_1
  6
Continuous
 48
0.5
370
    50
100
AcDbLine
 10
158.6180462309239
 20
-222.0939735878732
 30
0.0
 11
158.6180462309239
 21
-210.0939735878732
 31
0.0
  0
LINE
  5
13B1
330
18
100
AcDbEntity
  8
PV0001_1
  6
Continuous
 48
0.5
370
    50
100
AcDbLine
 10
163.6180462309239
 20
-192.0939735878731
 30
0.0
 11
158.6180462309239
 21
-192.0939735878731
 31
0.0
  0
LINE
  5
13B2
330
18
100
AcDbEntity
  8
PV0001_1
  6
Continuous
 48
0.5
370
    50
100
AcDbLine
 10
163.6180462309239
 20
-210.0939735878732
 30
0.0
 11
158.6180462309239
 21
-210.0939735878732
 31
0.0
  0
LINE
  5
13B3
330
18
100
AcDbEntity
  8
PV0001_1
  6
Continuous
 48
0.5
370
    50
100
AcDbLine
 10
163.6180462309239
 20
-210.0939735878732
 30
0.0
 11
163.6180462309239
 21
-192.0939735878731
 31
0.0
  0
LINE
  5
13B4
330
18
100
AcDbEntity
  8
PV0001_1
  6
Continuous
370
    50
100
AcDbLine
 10
138.6180462309239
 20
-222.0939735878732
 30
0.0
 11
138.6180462309239
 21
-180.0939735878731
 31
0.0
  0
LINE
  5
13B5
330
18
100
AcDbEntity
  8
PV0001_1
  6
CENTER2
370
    25
100
AcDbLine
 10
166.6180462309239
 20
-201.0939735878732
 30
0.0
 11
135.6180462309239
 21
-201.0939735878732
 31
0.0
  0
LINE
  5
13B6
330
18
100
AcDbEntity
  8
PV0001_1
  6
CENTER2
370
    25
100
AcDbLine
 10
151.6180462309239
 20
-225.0939735878731
 30
0.0
 11
151.6180462309239
 21
-177.0939735878731
 31
0.0
  0
LINE
  5
13B7
330
18
100
AcDbEntity
  8
PV0001_1
  6
Continuous
 48
0.5
370
    50
100
AcDbLine
 10
138.6180462309239
 20
-222.0939735878732
 30
0.0
 11
158.6180462309239
 21
-222.0939735878732
 31
0.0
  0
LINE
  5
13B8
330
18
100
AcDbEntity
  8
PV0001_1
  6
Continuous
 48
0.5
370
    50
100
AcDbLine
 10
138.6180462309239
 20
-180.0939735878731
 30
0.0
 11
158.6180462309239
 21
-180.0939735878731
 31
0.0
  0
LINE
  5
13B9
330
18
100
AcDbEntity
  8
PV0001_1
  6
Continuous
 48
0.5
370
    50
100
AcDbLine
 10
253.6180614897139
 20
-195.0940651406031
 30
0.0
 11
249.1180614897139
 21
-195.0940651406031
 31
0.0
  0
LINE
  5
13BA
330
18
100
AcDbEntity
  8
PV0001_1
  6
Continuous
 48
0.5
370
    50
100
AcDbLine
 10
253.6180614897139
 20
-196.0939735878731
 30
0.0
 11
254.6180614897139
 21
-196.0939735878731
 31
0.0
  0
LINE
  5
13BB
330
18
100
AcDbEntity
  8
PV0001_1
  6
Continuous
 48
0.5
370
    50
100
AcDbLine
 10
253.6180614897139
 20
-195.0940651406031
 30
0.0
 11
253.6180614897139
 21
-207.0938820351332
 31
0.0
  0
LINE
  5
13BC
330
18
100
AcDbEntity
  8
PV0001_1
  6
Continuous
 48
0.5
370
    50
100
AcDbLine
 10
254.118061489714
 20
-196.0939735878731
 30
0.0
 11
254.118061489714
 21
-206.0939735878732
 31
0.0
  0
LINE
  5
13BD
330
18
100
AcDbEntity
  8
PV0001_1
  6
Continuous
 48
0.5
370
    50
100
AcDbLine
 10
253.6180614897139
 20
-206.0939735878732
 30
0.0
 11
254.6180614897139
 21
-206.0939735878732
 31
0.0
  0
LINE
  5
13BE
330
18
100
AcDbEntity
  8
PV0001_1
  6
Continuous
 48
0.5
370
    50
100
AcDbLine
 10
254.6180614897139
 20
-192.0939735878731
 30
0.0
 11
274.6180614897139
 21
-192.0939735878731
 31
0.0
  0
LINE
  5
13BF
330
18
100
AcDbEntity
  8
PV0001_1
  6
Continuous
 48
0.5
370
    50
100
AcDbLine
 10
253.6180614897139
 20
-207.0938820351332
 30
0.0
 11
249.1180614897139
 21
-207.0938820351332
 31
0.0
  0
LINE
  5
13C0
330
18
100
AcDbEntity
  8
PV0001_1
  6
Continuous
 48
0.5
370
    50
100
AcDbLine
 10
249.1180614897139
 20
-195.0940651406031
 30
0.0
 11
249.1180614897139
 21
-207.0938820351332
 31
0.0
  0
LINE
  5
13C1
330
18
100
AcDbEntity
  8
PV0001_1
  6
Continuous
370
    50
100
AcDbLine
 10
274.6180614897139
 20
-180.0939735878731
 30
0.0
 11
274.6180614897139
 21
-222.0939735878732
 31
0.0
  0
LINE
  5
13C2
330
18
100
AcDbEntity
  8
PV0001_1
  6
Continuous
370
    50
100
AcDbLine
 10
254.6180614897139
 20
-180.0939735878731
 30
0.0
 11
254.6180614897139
 21
-222.0939735878732
 31
0.0
  0
LINE
  5
13C3
330
18
100
AcDbEntity
  8
PV0001_1
  6
CENTER2
 48
0.5
370
    25
100
AcDbLine
 10
264.6180614897139
 20
-180.0939735878731
 30
0.0
 11
264.6180614897139
 21
-192.0939735878731
 31
0.0
  0
LINE
  5
13C4
330
18
100
AcDbEntity
  8
PV0001_1
  6
CENTER2
 48
0.5
370
    25
100
AcDbLine
 10
270.6180614897139
 20
-186.0939735878731
 30
0.0
 11
258.6180614897139
 21
-186.0939735878731
 31
0.0
  0
LINE
  5
13C5
330
18
100
AcDbEntity
  8
PV0001_1
  6
CENTER2
 48
0.5
370
    25
100
AcDbLine
 10
264.6180614897139
 20
-210.0939735878732
 30
0.0
 11
264.6180614897139
 21
-222.0939735878732
 31
0.0
  0
LINE
  5
13C6
330
18
100
AcDbEntity
  8
PV0001_1
  6
Continuous
 48
0.5
370
    50
100
AcDbLine
 10
254.6180614897139
 20
-180.0939735878731
 30
0.0
 11
274.6180614897139
 21
-180.0939735878731
 31
0.0
  0
LINE
  5
13C7
330
18
100
AcDbEntity
  8
PV0001_1
  6
CENTER2
 48
0.5
370
    25
100
AcDbLine
 10
270.6180614897139
 20
-216.0939735878732
 30
0.0
 11
258.6180614897139
 21
-216.0939735878732
 31
0.0
  0
LINE
  5
13C8
330
18
100
AcDbEntity
  8
PV0001_1
  6
Continuous
 48
0.5
370
    50
100
AcDbLine
 10
254.6180614897139
 20
-222.0939735878732
 30
0.0
 11
274.6180614897139
 21
-222.0939735878732
 31
0.0
  0
LINE
  5
13C9
330
18
100
AcDbEntity
  8
PV0001_1
  6
Continuous
 48
0.5
370
    50
100
AcDbLine
 10
254.6180614897139
 20
-210.0939735878732
 30
0.0
 11
274.6180614897139
 21
-210.0939735878732
 31
0.0
  0
LINE
  5
13CA
330
18
100
AcDbEntity
  8
PV0001_1
  6
CENTER2
 48
0.5
370
    25
100
AcDbLine
 10
271.1180614897139
 20
-196.3439735878731
 30
0.0
 11
271.1180614897139
 21
-205.8439735878732
 31
0.0
  0
LINE
  5
13F0
330
18
100
AcDbEntity
  8
0
  6
PHANTOM2
100
AcDbLine
 10
311.1180614897139
 20
-198.4439735878731
 30
0.0
 11
281.1180614897139
 21
-198.4439735878731
 31
0.0
  0
LINE
  5
13F1
330
18
100
AcDbEntity
  8
PV0001_1
  6
PHANTOM2
100
AcDbLine
 10
278.1180614897139
 20
-198.0939735878732
 30
0.0
 11
311.1180614897139
 21
-198.0939735878732
 31
0.0
  0
LINE
  5
13F2
330
18
100
AcDbEntity
  8
0
  6
PHANTOM2
100
AcDbLine
 10
311.1180614897139
 20
-203.7439735878732
 30
0.0
 11
281.1180614897139
 21
-203.7439735878732
 31
0.0
  0
LINE
  5
13F3
330
18
100
AcDbEntity
  8
PV0001_1
  6
PHANTOM2
100
AcDbLine
 10
278.1180614897139
 20
-204.0939735878732
 30
0.0
 11
311.1180614897139
 21
-204.0939735878732
 31
0.0
  0
LINE
  5
13F4
330
18
100
AcDbEntity
  8
0
  6
PHANTOM2
100
AcDbLine
 10
281.1180614897139
 20
-203.7439735878732
 30
0.0
 11
280.1564443929049
 21
-204.0939735878732
 31
0.0
  0
LINE
  5
13F5
330
18
100
AcDbEntity
  8
0
  6
PHANTOM2
100
AcDbLine
 10
281.1180614897139
 20
-198.4439735878731
 30
0.0
 11
280.1564443929049
 21
-198.0939735878732
 31
0.0
  0
LINE
  5
13F6
330
18
100
AcDbEntity
  8
PV0001_1
  6
PHANTOM2
100
AcDbLine
 10
281.1180614897139
 20
-198.0939735878732
 30
0.0
 11
281.1180614897139
 21
-204.0939735878732
 31
0.0
  0
LINE
  5
13F7
330
18
100
AcDbEntity
  8
0
  6
PHANTOM2
100
AcDbLine
 10
278.1180614897139
 20
-196.3439735878731
 30
0.0
 11
278.1180614897139
 21
-205.8439735878732
 31
0.0
  0
MTEXT
  5
1479
330
18
100
AcDbEntity
  8
PV0001_1
 62
     7
370
    25
100
AcDbMText
 10
269.0820534297261
 20
-363.0096346504955
 30
0.0
 40
3.2
 41
0.0
 71
     4
 72
     5
  1
\T1.40;\W0.61;BUM-6
 73
     1
 44
1.0
1001
ACAD
1000
MTEXTBEGIN
1070
    73
1070
     1
1070
    44
1040
1.0
1070
    74
1070
     0
1000
MTEXTEND
  0
MTEXT
  5
147A
330
18
100
AcDbEntity
  8
PV0001_1
 62
     7
370
    25
100
AcDbMText
 10
255.0820534297261
 20
-300.137459353443
 30
0.0
 40
3.2
 41
0.0
 71
     4
 72
     5
  1
\T1.40;\W0.61;BUM-6
 73
     1
 44
1.0
1001
ACAD
1000
MTEXTBEGIN
1070
    73
1070
     1
1070
    44
1040
1.0
1070
    74
1070
     0
1000
MTEXTEND
  0
ARC
  5
147F
330
18
100
AcDbEntity
  8
PV0001_1
  6
Continuous
 48
0.5
370
    50
100
AcDbCircle
 10
151.6180309721389
 20
-281.171028689383
 30
0.0
 40
17.5
100
AcDbArc
 50
126.8699032291531
 51
143.1300974540931
  0
CIRCLE
  5
1480
330
18
100
AcDbEntity
  8
PV0001_1
  6
Continuous
 48
0.5
370
    50
100
AcDbCircle
 10
158.6180309721389
 20
-281.171028689383
 30
0.0
 40
1.0
  0
CIRCLE
  5
1481
330
18
100
AcDbEntity
  8
PV0001_1
  6
Continuous
 48
0.5
370
    50
100
AcDbCircle
 10
151.6180309721389
 20
-288.171028689383
 30
0.0
 40
1.0
  0
CIRCLE
  5
1482
330
18
100
AcDbEntity
  8
PV0001_1
  6
Continuous
 48
0.5
370
    50
100
AcDbCircle
 10
144.6180309721389
 20
-281.171028689383
 30
0.0
 40
1.0
  0
CIRCLE
  5
1483
330
18
100
AcDbEntity
  8
PV0001_1
  6
Continuous
 48
0.5
370
    50
100
AcDbCircle
 10
151.6180309721389
 20
-274.171028689383
 30
0.0
 40
1.0
  0
CIRCLE
  5
1484
330
18
100
AcDbEntity
  8
PV0001_1
  6
Continuous
370
    25
100
AcDbCircle
 10
151.6180309721389
 20
-281.171028689383
 30
0.0
 40
8.8734998703003
  0
CIRCLE
  5
1485
330
18
100
AcDbEntity
  8
PV0001_1
  6
CENTER2
370
    25
100
AcDbCircle
 10
151.6180309721389
 20
-281.171028689383
 30
0.0
 40
7.0
  0
CIRCLE
  5
1486
330
18
100
AcDbEntity
  8
PV0001_1
  6
Continuous
370
    50
100
AcDbCircle
 10
151.6180309721389
 20
-281.171028689383
 30
0.0
 40
9.442000389099099
  0
CIRCLE
  5
1487
330
18
100
AcDbEntity
  8
PV0001_1
  6
Continuous
 48
0.5
370
    50
100
AcDbCircle
 10
141.7185406156889
 20
-291.070534304613
 30
0.0
 40
2.75
  0
CIRCLE
  5
1488
330
18
100
AcDbEntity
  8
PV0001_1
  6
Continuous
 48
0.5
370
    50
100
AcDbCircle
 10
141.7185406156889
 20
-271.271553591723
 30
0.0
 40
2.75
  0
CIRCLE
  5
1489
330
18
100
AcDbEntity
  8
PV0001_1
  6
Continuous
 48
0.5
370
    50
100
AcDbCircle
 10
161.5175060697889
 20
-271.271523074143
 30
0.0
 40
2.75
  0
CIRCLE
  5
148A
330
18
100
AcDbEntity
  8
PV0001_1
  6
Continuous
 48
0.5
370
    50
100
AcDbCircle
 10
161.5175213285789
 20
-291.070503787033
 30
0.0
 40
2.75
  0
CIRCLE
  5
148B
330
18
100
AcDbEntity
  8
PV0001_1
  6
Continuous
 48
0.5
370
    50
100
AcDbCircle
 10
161.5175213285789
 20
-291.070503787033
 30
0.0
 40
1.450000166893
  0
CIRCLE
  5
148C
330
18
100
AcDbEntity
  8
PV0001_1
  6
Continuous
 48
0.5
370
    50
100
AcDbCircle
 10
141.7185406156889
 20
-291.070534304613
 30
0.0
 40
1.450000166893
  0
CIRCLE
  5
148D
330
18
100
AcDbEntity
  8
PV0001_1
  6
Continuous
 48
0.5
370
    50
100
AcDbCircle
 10
141.7185406156889
 20
-271.271553591723
 30
0.0
 40
1.450000166893
  0
CIRCLE
  5
148E
330
18
100
AcDbEntity
  8
PV0001_1
  6
Continuous
 48
0.5
370
    50
100
AcDbCircle
 10
161.5175060697889
 20
-271.271523074143
 30
0.0
 40
1.450000166893
  0
CIRCLE
  5
148F
330
18
100
AcDbEntity
  8
PV0001_1
  6
CENTER2
370
    25
100
AcDbCircle
 10
151.6180309721389
 20
-281.171028689383
 30
0.0
 40
14.0
  0
ARC
  5
1490
330
18
100
AcDbEntity
  8
PV0001_1
  6
Continuous
 48
0.5
370
    50
100
AcDbCircle
 10
151.6180309721389
 20
-281.171028689383
 30
0.0
 40
17.5
100
AcDbArc
 50
306.8698982201943
 51
323.1301061055158
  0
ARC
  5
1491
330
18
100
AcDbEntity
  8
PV0001_1
  6
Continuous
 48
0.5
370
    50
100
AcDbCircle
 10
151.6180309721389
 20
-281.171028689383
 30
0.0
 40
17.5
100
AcDbArc
 50
216.8698752251476
 51
233.1300831104679
  0
ARC
  5
1492
330
18
100
AcDbEntity
  8
PV0001_1
  6
Continuous
 48
0.5
370
    50
100
AcDbCircle
 10
151.6180309721389
 20
-281.171028689383
 30
0.0
 40
17.5
100
AcDbArc
 50
36.86989389448422
 51
53.13010177980574
  0
ARC
  5
1493
330
18
100
AcDbEntity
  8
PV0001_1
  6
Continuous
 48
0.5
370
    50
100
AcDbCircle
 10
151.6180309721389
 20
-281.171028689383
 30
0.0
 40
6.8499999046326
100
AcDbArc
 50
118.8469034828639
 51
151.1528239928164
  0
ARC
  5
1494
330
18
100
AcDbEntity
  8
PV0001_1
  6
Continuous
 48
0.5
370
    50
100
AcDbCircle
 10
151.6180309721389
 20
-281.171028689383
 30
0.0
 40
6.8499999046326
100
AcDbArc
 50
298.8468848135342
 51
331.1533380782348
  0
ARC
  5
1495
330
18
100
AcDbEntity
  8
PV0001_1
  6
Continuous
 48
0.5
370
    50
100
AcDbCircle
 10
151.6180309721389
 20
-281.171028689383
 30
0.0
 40
6.8499999046326
100
AcDbArc
 50
208.8470940449198
 51
241.153205800161
  0
ARC
  5
1496
330
18
100
AcDbEntity
  8
PV0001_1
  6
Continuous
 48
0.5
370
    50
100
AcDbCircle
 10
151.6180309721389
 20
-281.171028689383
 30
0.0
 40
6.8499999046326
100
AcDbArc
 50
28.84764888409974
 51
61.15321080911956
  0
LINE
  5
1497
330
18
100
AcDbEntity
  8
PV0001_1
  6
PHANTOM2
 48
0.5
370
    25
100
AcDbLine
 10
255.6180614897139
 20
-341.4491793282255
 30
0.0
 11
256.321278042444
 21
-341.0432039864355
 31
0.0
  0
LINE
  5
1498
330
18
100
AcDbEntity
  8
PV0001_1
  6
PHANTOM2
 48
0.5
370
    25
100
AcDbLine
 10
255.6180614897139
 20
-346.6371981270555
 30
0.0
 11
256.321278042444
 21
-347.0432039864355
 31
0.0
  0
LINE
  5
1499
330
18
100
AcDbEntity
  8
PV0001_1
  6
PHANTOM2
 48
0.5
370
    25
100
AcDbLine
 10
248.6180614897139
 20
-346.6371981270555
 30
0.0
 11
255.6180614897139
 21
-346.6371981270555
 31
0.0
  0
LINE
  5
149A
330
18
100
AcDbEntity
  8
PV0001_1
  6
PHANTOM2
 48
0.5
370
    25
100
AcDbLine
 10
248.6180614897139
 20
-341.4492098458055
 30
0.0
 11
255.6180614897139
 21
-341.4492098458055
 31
0.0
  0
LINE
  5
149B
330
18
100
AcDbEntity
  8
PV0001_1
  6
PHANTOM2
 48
0.5
370
    25
100
AcDbLine
 10
248.6180614897139
 20
-347.0432039864355
 30
0.0
 11
271.1180614897139
 21
-347.0432039864355
 31
0.0
  0
LINE
  5
149C
330
18
100
AcDbEntity
  8
PV0001_1
  6
PHANTOM2
 48
0.5
370
    25
100
AcDbLine
 10
248.6180614897139
 20
-341.0432039864355
 30
0.0
 11
271.1180614897139
 21
-341.0432039864355
 31
0.0
  0
LINE
  5
149D
330
18
100
AcDbEntity
  8
PV0001_1
  6
PHANTOM2
 48
0.5
370
    25
100
AcDbLine
 10
241.1180614897139
 20
-346.2932039864355
 30
0.0
 11
248.6180614897139
 21
-346.2932039864355
 31
0.0
  0
LINE
  5
149E
330
18
100
AcDbEntity
  8
PV0001_1
  6
PHANTOM2
 48
0.5
370
    25
100
AcDbLine
 10
271.1180614897139
 20
-339.2932039864355
 30
0.0
 11
271.1180614897139
 21
-348.7932039864355
 31
0.0
  0
LINE
  5
14A3
330
18
100
AcDbEntity
  8
PV0001_1
  6
PHANTOM2
 48
0.5
370
    25
100
AcDbLine
 10
241.1180614897139
 20
-341.7932039864355
 30
0.0
 11
241.1180614897139
 21
-346.2932039864355
 31
0.0
  0
LINE
  5
14A4
330
18
100
AcDbEntity
  8
PV0001_1
  6
PHANTOM2
 48
0.5
370
    25
100
AcDbLine
 10
248.6180614897139
 20
-341.0432039864355
 30
0.0
 11
248.6180614897139
 21
-347.0432039864355
 31
0.0
  0
LINE
  5
14A5
330
18
100
AcDbEntity
  8
PV0001_1
  6
PHANTOM2
 48
0.5
370
    25
100
AcDbLine
 10
271.1180614897139
 20
-348.7932039864355
 30
0.0
 11
278.1180614897139
 21
-348.7932039864355
 31
0.0
  0
LINE
  5
14A6
330
18
100
AcDbEntity
  8
PV0001_1
  6
CENTER2
370
    25
100
AcDbLine
 10
239.0967602201739
 20
-344.0432039864355
 30
0.0
 11
316.118061489714
 21
-344.0432039864355
 31
0.0
  0
LINE
  5
14A8
330
18
100
AcDbEntity
  8
PV0001_1
  6
PHANTOM2
 48
0.5
370
    25
100
AcDbLine
 10
241.1180614897139
 20
-341.7932039864355
 30
0.0
 11
248.6180614897139
 21
-341.7932039864355
 31
0.0
  0
LINE
  5
14A9
330
18
100
AcDbEntity
  8
PV0001_1
  6
PHANTOM2
 48
0.5
370
    25
100
AcDbLine
 10
271.1180614897139
 20
-339.2932039864355
 30
0.0
 11
278.1180614897139
 21
-339.2932039864355
 31
0.0
  0
LINE
  5
14AA
330
18
100
AcDbEntity
  8
PV0001_1
  6
PHANTOM2
 48
0.5
370
    25
100
AcDbLine
 10
255.6180614897139
 20
-278.577004031173
 30
0.0
 11
256.321278042444
 21
-278.171028689383
 31
0.0
  0
LINE
  5
14AB
330
18
100
AcDbEntity
  8
PV0001_1
  6
PHANTOM2
 48
0.5
370
    25
100
AcDbLine
 10
255.6180614897139
 20
-283.765022830003
 30
0.0
 11
256.321278042444
 21
-284.171028689383
 31
0.0
  0
LINE
  5
14AC
330
18
100
AcDbEntity
  8
PV0001_1
  6
PHANTOM2
 48
0.5
370
    25
100
AcDbLine
 10
248.6180614897139
 20
-283.765022830003
 30
0.0
 11
255.6180614897139
 21
-283.765022830003
 31
0.0
  0
LINE
  5
14AD
330
18
100
AcDbEntity
  8
PV0001_1
  6
PHANTOM2
 48
0.5
370
    25
100
AcDbLine
 10
248.6180614897139
 20
-278.577034548753
 30
0.0
 11
255.6180614897139
 21
-278.577034548753
 31
0.0
  0
LINE
  5
14AE
330
18
100
AcDbEntity
  8
PV0001_1
  6
PHANTOM2
 48
0.5
370
    25
100
AcDbLine
 10
248.6180614897139
 20
-284.171028689383
 30
0.0
 11
271.1180614897139
 21
-284.171028689383
 31
0.0
  0
LINE
  5
14AF
330
18
100
AcDbEntity
  8
PV0001_1
  6
PHANTOM2
 48
0.5
370
    25
100
AcDbLine
 10
248.6180614897139
 20
-278.171028689383
 30
0.0
 11
271.1180614897139
 21
-278.171028689383
 31
0.0
  0
LINE
  5
14B0
330
18
100
AcDbEntity
  8
PV0001_1
  6
PHANTOM2
 48
0.5
370
    25
100
AcDbLine
 10
241.1180614897139
 20
-283.421028689383
 30
0.0
 11
248.6180614897139
 21
-283.421028689383
 31
0.0
  0
LINE
  5
14B1
330
18
100
AcDbEntity
  8
PV0001_1
  6
PHANTOM2
 48
0.5
370
    25
100
AcDbLine
 10
271.1180614897139
 20
-276.421028689383
 30
0.0
 11
271.1180614897139
 21
-285.921028689383
 31
0.0
  0
LINE
  5
14B6
330
18
100
AcDbEntity
  8
PV0001_1
  6
PHANTOM2
 48
0.5
370
    25
100
AcDbLine
 10
241.1180614897139
 20
-278.921028689383
 30
0.0
 11
241.1180614897139
 21
-283.421028689383
 31
0.0
  0
LINE
  5
14B7
330
18
100
AcDbEntity
  8
PV0001_1
  6
PHANTOM2
 48
0.5
370
    25
100
AcDbLine
 10
248.6180614897139
 20
-278.171028689383
 30
0.0
 11
248.6180614897139
 21
-284.171028689383
 31
0.0
  0
LINE
  5
14B8
330
18
100
AcDbEntity
  8
PV0001_1
  6
PHANTOM2
 48
0.5
370
    25
100
AcDbLine
 10
271.1180614897139
 20
-285.921028689383
 30
0.0
 11
278.1180614897139
 21
-285.921028689383
 31
0.0
  0
LINE
  5
14B9
330
18
100
AcDbEntity
  8
PV0001_1
  6
CENTER2
370
    25
100
AcDbLine
 10
239.0967602201739
 20
-281.171028689383
 30
0.0
 11
316.118061489714
 21
-281.171028689383
 31
0.0
  0
LINE
  5
14BA
330
18
100
AcDbEntity
  8
PV0001_1
  6
PHANTOM2
 48
0.5
370
    25
100
AcDbLine
 10
255.6180614897139
 20
-278.171028689383
 30
0.0
 11
255.6180614897139
 21
-284.171028689383
 31
0.0
  0
LINE
  5
14BC
330
18
100
AcDbEntity
  8
PV0001_1
  6
PHANTOM2
 48
0.5
370
    25
100
AcDbLine
 10
241.1180614897139
 20
-278.921028689383
 30
0.0
 11
248.6180614897139
 21
-278.921028689383
 31
0.0
  0
LINE
  5
14BD
330
18
100
AcDbEntity
  8
PV0001_1
  6
PHANTOM2
 48
0.5
370
    25
100
AcDbLine
 10
271.1180614897139
 20
-276.421028689383
 30
0.0
 11
278.1180614897139
 21
-276.421028689383
 31
0.0
  0
LINE
  5
14BE
330
18
100
AcDbEntity
  8
PV0001_1
  6
DASHED2
 48
0.5
370
    50
100
AcDbLine
 10
272.1180614897139
 20
-335.5932833321355
 30
0.0
 11
268.6180614897139
 21
-335.5932833321355
 31
0.0
  0
LINE
  5
14BF
330
18
100
AcDbEntity
  8
PV0001_1
  6
DASHED2
 48
0.5
370
    50
100
AcDbLine
 10
272.1180614897139
 20
-332.6932894356455
 30
0.0
 11
268.6180614897139
 21
-332.6932894356455
 31
0.0
  0
LINE
  5
14C0
330
18
100
AcDbEntity
  8
PV0001_1
  6
DASHED2
 48
0.5
370
    50
100
AcDbLine
 10
275.6180614897139
 20
-331.3933016426855
 30
0.0
 11
272.1180614897139
 21
-331.3933016426855
 31
0.0
  0
LINE
  5
14C1
330
18
100
AcDbEntity
  8
PV0001_1
  6
DASHED2
 48
0.5
370
    50
100
AcDbLine
 10
275.6180614897139
 20
-336.8933016426855
 30
0.0
 11
272.1180614897139
 21
-336.8933016426855
 31
0.0
  0
LINE
  5
14C2
330
18
100
AcDbEntity
  8
PV0001_1
  6
DASHED2
 48
0.5
370
    50
100
AcDbLine
 10
272.1180614897139
 20
-336.8933016426855
 30
0.0
 11
272.1180614897139
 21
-331.3933016426855
 31
0.0
  0
LINE
  5
14C3
330
18
100
AcDbEntity
  8
PV0001_1
  6
CENTER2
 48
0.5
370
    25
100
AcDbLine
 10
277.6755871244739
 20
-334.1433016426855
 30
0.0
 11
266.4763988920539
 21
-334.1433016426855
 31
0.0
  0
LINE
  5
14C4
330
18
100
AcDbEntity
  8
PV0001_1
  6
Continuous
 48
0.5
370
    50
100
AcDbLine
 10
253.6180614897139
 20
-338.0432955391655
 30
0.0
 11
249.1180614897139
 21
-338.0432955391655
 31
0.0
  0
LINE
  5
14C5
330
18
100
AcDbEntity
  8
PV0001_1
  6
Continuous
 48
0.5
370
    50
100
AcDbLine
 10
268.6180614897139
 20
-355.0432039864355
 30
0.0
 11
255.6180614897139
 21
-355.0432039864355
 31
0.0
  0
LINE
  5
14C6
330
18
100
AcDbEntity
  8
PV0001_1
  6
Continuous
 48
0.5
370
    50
100
AcDbLine
 10
275.6180614897139
 20
-358.0432039864355
 30
0.0
 11
268.6180614897139
 21
-358.0432039864355
 31
0.0
  0
LINE
  5
14C7
330
18
100
AcDbEntity
  8
PV0001_1
  6
Continuous
 48
0.5
370
    50
100
AcDbLine
 10
253.6180614897139
 20
-339.0432039864355
 30
0.0
 11
255.6180614897139
 21
-339.0432039864355
 31
0.0
  0
LINE
  5
14C8
330
18
100
AcDbEntity
  8
PV0001_1
  6
Continuous
 48
0.5
370
    50
100
AcDbLine
 10
253.6180614897139
 20
-350.0431124336955
 30
0.0
 11
249.1180614897139
 21
-350.0431124336955
 31
0.0
  0
LINE
  5
14C9
330
18
100
AcDbEntity
  8
PV0001_1
  6
Continuous
 48
0.5
370
    50
100
AcDbLine
 10
268.6180614897139
 20
-333.0432039864355
 30
0.0
 11
255.6180614897139
 21
-333.0432039864355
 31
0.0
  0
LINE
  5
14CA
330
18
100
AcDbEntity
  8
PV0001_1
  6
Continuous
 48
0.5
370
    50
100
AcDbLine
 10
268.6180614897139
 20
-358.0432039864355
 30
0.0
 11
268.6180614897139
 21
-330.0432039864355
 31
0.0
  0
LINE
  5
14CB
330
18
100
AcDbEntity
  8
PV0001_1
  6
Continuous
 48
0.5
370
    50
100
AcDbLine
 10
275.6180614897139
 20
-330.0432039864355
 30
0.0
 11
268.6180614897139
 21
-330.0432039864355
 31
0.0
  0
LINE
  5
14CC
330
18
100
AcDbEntity
  8
PV0001_1
  6
Continuous
 48
0.5
370
    50
100
AcDbLine
 10
255.6180614897139
 20
-355.0432039864355
 30
0.0
 11
255.6180614897139
 21
-333.0432039864355
 31
0.0
  0
LINE
  5
14CD
330
18
100
AcDbEntity
  8
PV0001_1
  6
Continuous
 48
0.5
370
    50
100
AcDbLine
 10
249.1180614897139
 20
-338.0432955391655
 30
0.0
 11
249.1180614897139
 21
-350.0431124336955
 31
0.0
  0
LINE
  5
14CE
330
18
100
AcDbEntity
  8
PV0001_1
  6
Continuous
 48
0.5
370
    50
100
AcDbLine
 10
254.118061489714
 20
-339.0432039864355
 30
0.0
 11
254.118061489714
 21
-349.0432039864355
 31
0.0
  0
LINE
  5
14CF
330
18
100
AcDbEntity
  8
PV0001_1
  6
Continuous
 48
0.5
370
    50
100
AcDbLine
 10
275.6180614897139
 20
-358.0432039864355
 30
0.0
 11
275.6180614897139
 21
-330.0432039864355
 31
0.0
  0
LINE
  5
14D0
330
18
100
AcDbEntity
  8
PV0001_1
  6
Continuous
 48
0.5
370
    50
100
AcDbLine
 10
253.6180614897139
 20
-338.0432955391655
 30
0.0
 11
253.6180614897139
 21
-350.0431124336955
 31
0.0
  0
LINE
  5
14D1
330
18
100
AcDbEntity
  8
PV0001_1
  6
Continuous
 48
0.5
370
    50
100
AcDbLine
 10
253.6180614897139
 20
-349.0432039864355
 30
0.0
 11
255.6180614897139
 21
-349.0432039864355
 31
0.0
  0
LINE
  5
14D2
330
18
100
AcDbEntity
  8
PV0001_1
  6
CENTER2
 48
0.5
370
    25
100
AcDbLine
 10
271.1180614897139
 20
-339.2932039864355
 30
0.0
 11
271.1180614897139
 21
-348.7932039864355
 31
0.0
  0
LINE
  5
14D3
330
18
100
AcDbEntity
  8
PV0001_1
  6
DASHED2
 48
0.5
370
    50
100
AcDbLine
 10
258.1180614897139
 20
-289.620949343673
 30
0.0
 11
261.6180614897139
 21
-289.620949343673
 31
0.0
  0
LINE
  5
14D4
330
18
100
AcDbEntity
  8
PV0001_1
  6
DASHED2
 48
0.5
370
    50
100
AcDbLine
 10
258.1180614897139
 20
-292.520943240163
 30
0.0
 11
261.6180614897139
 21
-292.520943240163
 31
0.0
  0
LINE
  5
14D5
330
18
100
AcDbEntity
  8
PV0001_1
  6
DASHED2
 48
0.5
370
    50
100
AcDbLine
 10
254.6180614897139
 20
-293.820931033133
 30
0.0
 11
258.1180614897139
 21
-293.820931033133
 31
0.0
  0
LINE
  5
14D6
330
18
100
AcDbEntity
  8
PV0001_1
  6
DASHED2
 48
0.5
370
    50
100
AcDbLine
 10
254.6180614897139
 20
-288.320931033133
 30
0.0
 11
258.1180614897139
 21
-288.320931033133
 31
0.0
  0
LINE
  5
14D7
330
18
100
AcDbEntity
  8
PV0001_1
  6
DASHED2
 48
0.5
370
    50
100
AcDbLine
 10
258.1180614897139
 20
-288.320931033133
 30
0.0
 11
258.1180614897139
 21
-293.820931033133
 31
0.0
  0
LINE
  5
14D8
330
18
100
AcDbEntity
  8
PV0001_1
  6
CENTER2
 48
0.5
370
    25
100
AcDbLine
 10
252.560535854944
 20
-291.070931033133
 30
0.0
 11
263.7597240873639
 21
-291.070931033133
 31
0.0
  0
LINE
  5
14D9
330
18
100
AcDbEntity
  8
PV0001_1
  6
Continuous
 48
0.5
370
    50
100
AcDbLine
 10
253.6180614897139
 20
-275.171120242113
 30
0.0
 11
249.1180614897139
 21
-275.171120242113
 31
0.0
  0
LINE
  5
14DA
330
18
100
AcDbEntity
  8
PV0001_1
  6
Continuous
 48
0.5
370
    50
100
AcDbLine
 10
261.6180614897139
 20
-270.171028689383
 30
0.0
 11
274.6180614897139
 21
-270.171028689383
 31
0.0
  0
LINE
  5
14DB
330
18
100
AcDbEntity
  8
PV0001_1
  6
Continuous
 48
0.5
370
    50
100
AcDbLine
 10
254.6180614897139
 20
-267.171028689383
 30
0.0
 11
261.6180614897139
 21
-267.171028689383
 31
0.0
  0
LINE
  5
14DC
330
18
100
AcDbEntity
  8
PV0001_1
  6
Continuous
 48
0.5
370
    50
100
AcDbLine
 10
253.6180614897139
 20
-276.171028689383
 30
0.0
 11
254.6180614897139
 21
-276.171028689383
 31
0.0
  0
LINE
  5
14DD
330
18
100
AcDbEntity
  8
PV0001_1
  6
Continuous
 48
0.5
370
    50
100
AcDbLine
 10
253.6180614897139
 20
-287.170937136643
 30
0.0
 11
249.1180614897139
 21
-287.170937136643
 31
0.0
  0
LINE
  5
14DE
330
18
100
AcDbEntity
  8
PV0001_1
  6
Continuous
 48
0.5
370
    50
100
AcDbLine
 10
261.6180614897139
 20
-292.171028689383
 30
0.0
 11
274.6180614897139
 21
-292.171028689383
 31
0.0
  0
LINE
  5
14DF
330
18
100
AcDbEntity
  8
PV0001_1
  6
Continuous
 48
0.5
370
    50
100
AcDbLine
 10
261.6180614897139
 20
-267.171028689383
 30
0.0
 11
261.6180614897139
 21
-295.171028689383
 31
0.0
  0
LINE
  5
14E0
330
18
100
AcDbEntity
  8
PV0001_1
  6
Continuous
 48
0.5
370
    50
100
AcDbLine
 10
254.6180614897139
 20
-295.171028689383
 30
0.0
 11
261.6180614897139
 21
-295.171028689383
 31
0.0
  0
LINE
  5
14E1
330
18
100
AcDbEntity
  8
PV0001_1
  6
Continuous
 48
0.5
370
    50
100
AcDbLine
 10
274.6180614897139
 20
-270.171028689383
 30
0.0
 11
274.6180614897139
 21
-292.171028689383
 31
0.0
  0
LINE
  5
14E2
330
18
100
AcDbEntity
  8
PV0001_1
  6
Continuous
 48
0.5
370
    50
100
AcDbLine
 10
249.1180614897139
 20
-275.171120242113
 30
0.0
 11
249.1180614897139
 21
-287.170937136643
 31
0.0
  0
LINE
  5
14E3
330
18
100
AcDbEntity
  8
PV0001_1
  6
Continuous
 48
0.5
370
    50
100
AcDbLine
 10
254.118061489714
 20
-276.171028689383
 30
0.0
 11
254.118061489714
 21
-286.171028689383
 31
0.0
  0
LINE
  5
14E4
330
18
100
AcDbEntity
  8
PV0001_1
  6
Continuous
 48
0.5
370
    50
100
AcDbLine
 10
254.6180614897139
 20
-267.171028689383
 30
0.0
 11
254.6180614897139
 21
-295.171028689383
 31
0.0
  0
LINE
  5
14E5
330
18
100
AcDbEntity
  8
PV0001_1
  6
Continuous
 48
0.5
370
    50
100
AcDbLine
 10
253.6180614897139
 20
-275.171120242113
 30
0.0
 11
253.6180614897139
 21
-287.170937136643
 31
0.0
  0
LINE
  5
14E6
330
18
100
AcDbEntity
  8
PV0001_1
  6
Continuous
 48
0.5
370
    50
100
AcDbLine
 10
253.6180614897139
 20
-286.171028689383
 30
0.0
 11
254.6180614897139
 21
-286.171028689383
 31
0.0
  0
LINE
  5
14E7
330
18
100
AcDbEntity
  8
PV0001_1
  6
CENTER2
370
    25
100
AcDbLine
 10
165.7601665922489
 20
-267.028938845633
 30
0.0
 11
137.4759411283889
 21
-295.313179568283
 31
0.0
  0
LINE
  5
14E8
330
18
100
AcDbEntity
  8
PV0001_1
  6
CENTER2
370
    25
100
AcDbLine
 10
137.4759106108089
 20
-267.028969363203
 30
0.0
 11
165.7601818510389
 21
-295.313210085863
 31
0.0
  0
LINE
  5
14E9
330
18
100
AcDbEntity
  8
PV0001_1
  6
Continuous
 48
0.5
370
    50
100
AcDbLine
 10
162.1180157133489
 20
-295.171028689383
 30
0.0
 11
141.1180157133489
 21
-295.171028689383
 31
0.0
  0
LINE
  5
14EA
330
18
100
AcDbEntity
  8
PV0001_1
  6
Continuous
 48
0.5
370
    50
100
AcDbLine
 10
162.1180157133489
 20
-267.171028689383
 30
0.0
 11
141.1180157133489
 21
-267.171028689383
 31
0.0
  0
LINE
  5
14EB
330
18
100
AcDbEntity
  8
PV0001_1
  6
Continuous
 48
0.5
370
    50
100
AcDbLine
 10
137.6180309721389
 20
-270.671028689383
 30
0.0
 11
137.6180309721389
 21
-291.671028689383
 31
0.0
  0
LINE
  5
14EC
330
18
100
AcDbEntity
  8
PV0001_1
  6
Continuous
 48
0.5
370
    50
100
AcDbLine
 10
165.6180309721389
 20
-270.671028689383
 30
0.0
 11
165.6180309721389
 21
-291.671028689383
 31
0.0
  0
LINE
  5
14ED
330
18
100
AcDbEntity
  8
PV0001_1
  6
CENTER2
370
    25
100
AcDbLine
 10
151.6180309721389
 20
-263.671028689383
 30
0.0
 11
151.6180309721389
 21
-298.671028689383
 31
0.0
  0
LINE
  5
14EE
330
18
100
AcDbEntity
  8
PV0001_1
  6
CENTER2
370
    25
100
AcDbLine
 10
169.1180157133489
 20
-281.171028689383
 30
0.0
 11
134.1180157133489
 21
-281.171028689383
 31
0.0
  0
LINE
  5
14EF
330
18
100
AcDbEntity
  8
PV0001_1
  6
Continuous
 48
0.5
370
    50
100
AcDbLine
 10
157.6179851957689
 20
-277.866158083913
 30
0.0
 11
157.6179851957689
 21
-284.475929812423
 31
0.0
  0
LINE
  5
14F0
330
18
100
AcDbEntity
  8
PV0001_1
  6
Continuous
 48
0.5
370
    50
100
AcDbLine
 10
145.6179851957689
 20
-277.866097048753
 30
0.0
 11
145.6179851957689
 21
-284.475990847583
 31
0.0
  0
LINE
  5
14F1
330
18
100
AcDbEntity
  8
PV0001_1
  6
Continuous
 48
0.5
370
    50
100
AcDbLine
 10
148.3131298490889
 20
-275.170937136643
 30
0.0
 11
154.9229473539689
 21
-275.170937136643
 31
0.0
  0
LINE
  5
14F2
330
18
100
AcDbEntity
  8
PV0001_1
  6
Continuous
 48
0.5
370
    50
100
AcDbLine
 10
148.3131451078789
 20
-287.170937136643
 30
0.0
 11
154.9229931303389
 21
-287.170937136643
 31
0.0
  0
LINE
  5
14F3
330
18
100
AcDbEntity
  8
PV0001_1
  6
CENTER2
 48
0.5
370
    25
100
AcDbLine
 10
271.1180614897139
 20
-276.421028689383
 30
0.0
 11
271.1180614897139
 21
-285.921028689383
 31
0.0
  0
LINE
  5
14F4
330
18
100
AcDbEntity
  8
0
  6
PHANTOM2
100
AcDbLine
 10
278.1180614897139
 20
-276.421028689383
 30
0.0
 11
278.1180614897139
 21
-285.921028689383
 31
0.0
  0
LINE
  5
1503
330
18
100
AcDbEntity
  8
0
  6
PHANTOM2
100
AcDbLine
 10
281.1180614897139
 20
-278.521028689383
 30
0.0
 11
280.1564443929049
 21
-278.171028689383
 31
0.0
  0
LINE
  5
1504
330
18
100
AcDbEntity
  8
0
  6
PHANTOM2
100
AcDbLine
 10
281.1180614897139
 20
-283.821028689383
 30
0.0
 11
280.1564443929049
 21
-284.171028689383
 31
0.0
  0
LINE
  5
1505
330
18
100
AcDbEntity
  8
PV0001_1
  6
PHANTOM2
100
AcDbLine
 10
278.1180614897139
 20
-278.171028689383
 30
0.0
 11
311.1180614897139
 21
-278.171028689383
 31
0.0
  0
LINE
  5
1506
330
18
100
AcDbEntity
  8
0
  6
PHANTOM2
100
AcDbLine
 10
311.1180614897139
 20
-278.521028689383
 30
0.0
 11
281.1180614897139
 21
-278.521028689383
 31
0.0
  0
LINE
  5
1507
330
18
100
AcDbEntity
  8
PV0001_1
  6
PHANTOM2
100
AcDbLine
 10
278.1180614897139
 20
-284.171028689383
 30
0.0
 11
311.1180614897139
 21
-284.171028689383
 31
0.0
  0
LINE
  5
1508
330
18
100
AcDbEntity
  8
0
  6
PHANTOM2
100
AcDbLine
 10
311.1180614897139
 20
-283.821028689383
 30
0.0
 11
281.1180614897139
 21
-283.821028689383
 31
0.0
  0
LINE
  5
1509
330
18
100
AcDbEntity
  8
PV0001_1
  6
PHANTOM2
100
AcDbLine
 10
281.1180614897139
 20
-278.171028689383
 30
0.0
 11
281.1180614897139
 21
-284.171028689383
 31
0.0
  0
LINE
  5
1517
330
18
100
AcDbEntity
  8
0
  6
PHANTOM2
100
AcDbLine
 10
281.1180614897139
 20
-341.3932039864355
 30
0.0
 11
280.1564443929049
 21
-341.0432039864355
 31
0.0
  0
LINE
  5
1518
330
18
100
AcDbEntity
  8
0
  6
PHANTOM2
100
AcDbLine
 10
281.1180614897139
 20
-346.6932039864356
 30
0.0
 11
280.1564443929049
 21
-347.0432039864355
 31
0.0
  0
LINE
  5
1519
330
18
100
AcDbEntity
  8
PV0001_1
  6
PHANTOM2
100
AcDbLine
 10
278.1180614897139
 20
-341.0432039864355
 30
0.0
 11
311.1180614897139
 21
-341.0432039864356
 31
0.0
  0
LINE
  5
151A
330
18
100
AcDbEntity
  8
0
  6
PHANTOM2
100
AcDbLine
 10
311.1180614897139
 20
-341.3932039864355
 30
0.0
 11
281.1180614897139
 21
-341.3932039864355
 31
0.0
  0
LINE
  5
151B
330
18
100
AcDbEntity
  8
PV0001_1
  6
PHANTOM2
100
AcDbLine
 10
278.1180614897139
 20
-347.0432039864355
 30
0.0
 11
311.1180614897139
 21
-347.0432039864355
 31
0.0
  0
LINE
  5
151C
330
18
100
AcDbEntity
  8
0
  6
PHANTOM2
100
AcDbLine
 10
311.1180614897139
 20
-346.6932039864356
 30
0.0
 11
281.1180614897139
 21
-346.6932039864356
 31
0.0
  0
LINE
  5
151D
330
18
100
AcDbEntity
  8
PV0001_1
  6
PHANTOM2
100
AcDbLine
 10
281.1180614897139
 20
-341.0432039864355
 30
0.0
 11
281.1180614897139
 21
-347.0432039864355
 31
0.0
  0
LINE
  5
151E
330
18
100
AcDbEntity
  8
0
  6
PHANTOM2
100
AcDbLine
 10
278.1180614897139
 20
-339.2932039864355
 30
0.0
 11
278.1180614897139
 21
-348.7932039864355
 31
0.0
  0
LINE
  5
153F
330
18
100
AcDbEntity
  8
PV0001_1
  6
CENTER2
370
    25
100
AcDbLine
 10
239.0967602201739
 20
-201.0939735878732
 30
0.0
 11
316.118061489714
 21
-201.0939735878732
 31
0.0
  0
ENDSEC
  0
SECTION
  2
OBJECTS
  0
DICTIONARY
  5
C
330
0
100
AcDbDictionary
281
     1
  3
ACAD_COLOR
350
E09
  3
ACAD_GROUP
350
D
  3
ACAD_LAYOUT
350
5E
  3
ACAD_MATERIAL
350
E08
  3
ACAD_MLINESTYLE
350
1B
  3
ACAD_PLOTSETTINGS
350
5F
  3
ACAD_PLOTSTYLENAME
350
5C
  3
ACAD_TABLESTYLE
350
15C3
  3
ACDBHEADERROUNDTRIPXREC
350
178C
  3
AcDbVariableDictionary
350
67E
  3
AcmDictionary
350
690
  3
AMG
350
655
  3
AMGSNAPSETTINGS
350
715
  3
DWGPROPS
350
178B
  3
SAKAE_DICT
350
5D0
  0
DICTIONARY
  5
625
330
18
100
AcDbDictionary
280
     1
281
     1
  3
ACAD_LAYOUTSELFREF
360
DCA
  0
DICTIONARY
  5
623
330
15
100
AcDbDictionary
280
     1
281
     1
  3
ACAD_LAYOUTSELFREF
360
DC9
  0
DICTIONARY
  5
1302
330
1244
100
AcDbDictionary
280
     1
281
     1
  0
DICTIONARY
  5
E09
102
{ACAD_REACTORS
330
C
102
}
330
C
100
AcDbDictionary
281
     1
  0
DICTIONARY
  5
D
102
{ACAD_REACTORS
330
C
102
}
330
C
100
AcDbDictionary
281
     1
  0
DICTIONARY
  5
5E
102
{ACAD_REACTORS
330
C
102
}
330
C
100
AcDbDictionary
281
     1
  3
Model
350
60
  3
ﾚｲｱｳﾄ1
350
61
  0
DICTIONARY
  5
E08
102
{ACAD_REACTORS
330
C
102
}
330
C
100
AcDbDictionary
281
     1
  0
DICTIONARY
  5
1B
102
{ACAD_REACTORS
330
C
102
}
330
C
100
AcDbDictionary
281
     1
  3
STANDARD
350
1C
  0
DICTIONARY
  5
5F
102
{ACAD_REACTORS
330
C
102
}
330
C
100
AcDbDictionary
281
     1
  0
ACDBDICTIONARYWDFLT
  5
5C
102
{ACAD_REACTORS
330
C
102
}
330
C
100
AcDbDictionary
281
     1
  3
Normal
350
5D
100
AcDbDictionaryWithDefault
340
5D
1001
ACAD
1000
TREAT_AS_HARD
1070
     0
1000
TREAT_AS_HARD
1070
     0
1000
TREAT_AS_HARD
1070
     0
1000
TREAT_AS_HARD
1070
     0
1000
TREAT_AS_HARD
1070
     0
  0
DICTIONARY
  5
15C3
102
{ACAD_REACTORS
330
C
102
}
330
C
100
AcDbDictionary
281
     1
  3
Standard
350
15C4
  0
DICTIONARY
  5
178C
102
{ACAD_REACTORS
330
C
102
}
330
C
100
AcDbDictionary
281
     1
  0
DICTIONARY
  5
67E
102
{ACAD_REACTORS
330
C
102
}
330
C
100
AcDbDictionary
281
     1
  3
CTABLESTYLE
350
1615
  3
DIMASSOC
350
1616
  3
INDEXCTL
350
67F
  3
PROJECTNAME
350
1617
  0
DICTIONARY
  5
690
102
{ACAD_REACTORS
330
C
102
}
330
C
100
AcDbDictionary
281
     1
  3
AcmStdDictionary
350
695
  3
AMDTSECTSYM_ARROWCOLOR
350
15DC
  0
DICTIONARY
  5
655
102
{ACAD_REACTORS
330
C
102
}
330
C
100
AcDbDictionary
281
     1
  0
DICTIONARY
  5
715
102
{ACAD_REACTORS
330
C
102
}
330
C
100
AcDbDictionary
281
     1
  0
XRECORD
  5
178B
102
{ACAD_REACTORS
330
C
102
}
330
C
100
AcDbXrecord
280
     1
  1
DWGPROPS COOKIE
  2

  3

  4

  6

  7

  8

  9

300
AmdtFileType=84
301
=
302
=
303
=
304
=
305
=
306
=
307
=
308
=
309
=
 40
0.0931023148148148
 41
2451067.751276933
 42
2454174.422517199
  1

 90
        1
  0
DICTIONARY
  5
5D0
102
{ACAD_REACTORS
330
C
102
}
330
C
100
AcDbDictionary
281
     1
  3
XREC1
350
5D1
  0
XRECORD
  5
DCA
102
{ACAD_REACTORS
330
625
102
}
330
625
100
AcDbXrecord
280
     1
340
18
  0
XRECORD
  5
DC9
102
{ACAD_REACTORS
330
623
102
}
330
623
100
AcDbXrecord
280
     1
340
15
  0
LAYOUT
  5
60
102
{ACAD_XDICTIONARY
360
178D
102
}
102
{ACAD_REACTORS
330
5E
102
}
330
5E
100
AcDbPlotSettings
  1

  2
BT8050.pc3
  4
A3_(420.00_x_297.00_MM)
  6

 40
0.7937499880790711
 41
0.7937499880790711
 42
0.79376220703125
 43
0.79376220703125
 44
420.0
 45
297.0
 46
0.0
 47
4.29
 48
0.0
 49
0.0
140
0.0
141
0.0
142
1.0
143
1.520170268630457
 70
 11956
 72
     1
 73
     0
 74
     1
  7
kutoda-monochrome.ctb
 75
     0
147
0.6578210484940703
148
0.0291060688209655
149
436.01995321699
100
AcDbLayout
  1
Model
 70
     1
 71
     0
 10
0.0
 20
0.0
 11
12.0
 21
9.0
 12
0.0
 22
0.0
 32
0.0
 14
0.0
 24
0.0
 34
0.0
 15
0.0
 25
0.0
 35
0.0
146
0.0
 13
0.0
 23
0.0
 33
0.0
 16
1.0
 26
0.0
 36
0.0
 17
0.0
 27
1.0
 37
0.0
 76
     0
330
18
  0
LAYOUT
  5
61
102
{ACAD_XDICTIONARY
360
178F
102
}
102
{ACAD_REACTORS
330
5E
102
}
330
5E
100
AcDbPlotSettings
  1

  2
\\BLUEWAVE2\EPSON LP-9200SX
  4

  6

 40
0.0
 41
0.0
 42
0.0
 43
0.0
 44
0.0
 45
0.0
 46
0.0
 47
0.0
 48
0.0
 49
0.0
140
0.0
141
0.0
142
1.0
143
1.0
 70
   688
 72
     0
 73
     0
 74
     5
  7
kutoda-monochrome.ctb
 75
    16
147
1.0
148
0.0
149
0.0
100
AcDbLayout
  1
ﾚｲｱｳﾄ1
 70
     1
 71
     1
 10
0.0
 20
0.0
 11
420.0
 21
297.0
 12
0.0
 22
0.0
 32
0.0
 14
1.000000000000000E+20
 24
1.000000000000000E+20
 34
1.000000000000000E+20
 15
-1.000000000000000E+20
 25
-1.000000000000000E+20
 35
-1.000000000000000E+20
146
0.0
 13
0.0
 23
0.0
 33
0.0
 16
1.0
 26
0.0
 36
0.0
 17
0.0
 27
1.0
 37
0.0
 76
     0
330
15
  0
MLINESTYLE
  5
1C
102
{ACAD_REACTORS
330
1B
102
}
330
1B
100
AcDbMlineStyle
  2
STANDARD
 70
     0
  3

 62
   256
 51
90.0
 52
90.0
 71
     2
 49
0.5
 62
   256
  6
BYLAYER
 49
-0.5
 62
   256
  6
BYLAYER
  0
ACDBPLACEHOLDER
  5
5D
102
{ACAD_REACTORS
330
5C
102
}
330
5C
  0
TABLESTYLE
  5
15C4
102
{ACAD_REACTORS
330
15C3
102
}
330
15C3
100
AcDbTableStyle
  3
Standard
 70
     0
 71
     0
 40
1.5
 41
1.5
280
     0
281
     0
  7
STANDARD
140
4.5
170
     2
 62
     0
 63
     7
283
     0
274
    -2
284
     1
 64
     0
275
    -2
285
     1
 65
     0
276
    -2
286
     1
 66
     0
277
    -2
287
     1
 67
     0
278
    -2
288
     1
 68
     0
279
    -2
289
     1
 69
     0
  7
STANDARD
140
6.0
170
     5
 62
     0
 63
     7
283
     0
274
    -2
284
     1
 64
     0
275
    -2
285
     1
 65
     0
276
    -2
286
     1
 66
     0
277
    -2
287
     1
 67
     0
278
    -2
288
     1
 68
     0
279
    -2
289
     1
 69
     0
  7
STANDARD
140
4.5
170
     5
 62
     0
 63
     7
283
     0
274
    -2
284
     1
 64
     0
275
    -2
285
     1
 65
     0
276
    -2
286
     1
 66
     0
277
    -2
287
     1
 67
     0
278
    -2
288
     1
 68
     0
279
    -2
289
     1
 69
     0
  0
DICTIONARYVAR
  5
1615
102
{ACAD_REACTORS
330
67E
102
}
330
67E
100
DictionaryVariables
280
     0
  1
STANDARD
  0
DICTIONARYVAR
  5
1616
102
{ACAD_REACTORS
330
67E
102
}
330
67E
100
DictionaryVariables
280
     0
  1
1
  0
DICTIONARYVAR
  5
67F
102
{ACAD_REACTORS
330
67E
102
}
330
67E
100
DictionaryVariables
280
     0
  1
0
  0
DICTIONARYVAR
  5
1617
102
{ACAD_REACTORS
330
67E
102
}
330
67E
100
DictionaryVariables
280
     0
  1

  0
DICTIONARY
  5
695
102
{ACAD_REACTORS
330
690
102
}
330
690
100
AcDbDictionary
281
     1
  0
XRECORD
  5
15DC
102
{ACAD_REACTORS
330
690
102
}
330
690
100
AcDbXrecord
280
     1
 90
-1023410169
  0
XRECORD
  5
5D1
102
{ACAD_REACTORS
330
5D0
102
}
330
5D0
100
AcDbXrecord
280
     1
  1
PV
 40
1.0
 50
0.0
 51
0.0
 52
0.0
 53
0.0
  0
DICTIONARY
  5
178D
330
60
100
AcDbDictionary
280
     1
281
     1
  3
ACAD_XREC_ROUNDTRIP
360
178E
  0
DICTIONARY
  5
178F
330
61
100
AcDbDictionary
280
     1
281
     1
  3
ACAD_XREC_ROUNDTRIP
360
1790
  0
XRECORD
  5
178E
102
{ACAD_REACTORS
330
178D
102
}
330
178D
100
AcDbXrecord
280
     1
102
SHADEPLOT
 70
     0
102
SHADEPLOTRESLEVEL
 70
     2
102
SHADEPLOTCUSTOMDPI
 70
   200
  0
XRECORD
  5
1790
102
{ACAD_REACTORS
330
178F
102
}
330
178F
100
AcDbXrecord
280
     1
102
SHADEPLOT
 70
     0
102
SHADEPLOTRESLEVEL
 70
     2
102
SHADEPLOTCUSTOMDPI
 70
   300
  0
ENDSEC
  0
EOF
