  0
SECTION
  2
HEADER
  9
$ACADVER
  1
AC1015
  9
$ACADMAINTVER
 70
    20
  9
$DWGCODEPAGE
  3
ANSI_932
  9
$INSBASE
 10
0.0
 20
0.0
 30
0.0
  9
$EXTMIN
 10
-63.52333169574881
 20
-187.8505411623748
 30
0.0
  9
$EXTMAX
 10
697.4766683042512
 20
271.6494588376251
 30
0.0
  9
$LIMMIN
 10
0.0
 20
0.0
  9
$LIMMAX
 10
0.0
 20
0.0
  9
$ORTHOMODE
 70
     0
  9
$REGENMODE
 70
     1
  9
$FILLMODE
 70
     1
  9
$QTEXTMODE
 70
     0
  9
$MIRRTEXT
 70
     1
  9
$LTSCALE
 40
1.0
  9
$ATTMODE
 70
     1
  9
$TEXTSIZE
 40
2.5
  9
$TRACEWID
 40
1.0
  9
$TEXTSTYLE
  7
CONVERT
  9
$CLAYER
  8
0
  9
$CELTYPE
  6
BYLAYER
  9
$CECOLOR
 62
   256
  9
$CELTSCALE
 40
1.0
  9
$DISPSILH
 70
     0
  9
$DIMSCALE
 40
1.0
  9
$DIMASZ
 40
3.0
  9
$DIMEXO
 40
1.0
  9
$DIMDLI
 40
7.0
  9
$DIMRND
 40
0.0
  9
$DIMDLE
 40
0.0
  9
$DIMEXE
 40
2.0
  9
$DIMTP
 40
0.0
  9
$DIMTM
 40
0.0
  9
$DIMTXT
 40
2.799999999999999
  9
$DIMCEN
 40
0.0
  9
$DIMTSZ
 40
0.0
  9
$DIMTOL
 70
     0
  9
$DIMLIM
 70
     0
  9
$DIMTIH
 70
     0
  9
$DIMTOH
 70
     0
  9
$DIMSE1
 70
     0
  9
$DIMSE2
 70
     0
  9
$DIMTAD
 70
     1
  9
$DIMZIN
 70
     0
  9
$DIMBLK
  1

  9
$DIMASO
 70
     1
  9
$DIMSHO
 70
     1
  9
$DIMPOST
  1

  9
$DIMAPOST
  1

  9
$DIMALT
 70
     0
  9
$DIMALTD
 70
     4
  9
$DIMALTF
 40
0.0394
  9
$DIMLFAC
 40
1.0
  9
$DIMTOFL
 70
     1
  9
$DIMTVP
 40
0.0
  9
$DIMTIX
 70
     0
  9
$DIMSOXD
 70
     0
  9
$DIMSAH
 70
     1
  9
$DIMBLK1
  1
Open30
  9
$DIMBLK2
  1
Open30
  9
$DIMSTYLE
  2
STANDARD
  9
$DIMCLRD
 70
    44
  9
$DIMCLRE
 70
    44
  9
$DIMCLRT
 70
    44
  9
$DIMTFAC
 40
1.0
  9
$DIMGAP
 40
0.7
  9
$DIMJUST
 70
     0
  9
$DIMSD1
 70
     0
  9
$DIMSD2
 70
     0
  9
$DIMTOLJ
 70
     1
  9
$DIMTZIN
 70
     0
  9
$DIMALTZ
 70
     0
  9
$DIMALTTZ
 70
     0
  9
$DIMUPT
 70
     0
  9
$DIMDEC
 70
     3
  9
$DIMTDEC
 70
     3
  9
$DIMALTU
 70
     8
  9
$DIMALTTD
 70
     4
  9
$DIMTXSTY
  7
STANDARD
  9
$DIMAUNIT
 70
     0
  9
$DIMADEC
 70
     0
  9
$DIMALTRND
 40
0.0
  9
$DIMAZIN
 70
     0
  9
$DIMDSEP
 70
    46
  9
$DIMATFIT
 70
     0
  9
$DIMFRAC
 70
     0
  9
$DIMLDRBLK
  1
Open30
  9
$DIMLUNIT
 70
     2
  9
$DIMLWD
 70
    -2
  9
$DIMLWE
 70
    -2
  9
$DIMTMOVE
 70
     0
  9
$LUNITS
 70
     2
  9
$LUPREC
 70
     4
  9
$SKETCHINC
 40
1.0
  9
$FILLETRAD
 40
10.0
  9
$AUNITS
 70
     0
  9
$AUPREC
 70
     0
  9
$MENU
  1
.
  9
$ELEVATION
 40
0.0
  9
$PELEVATION
 40
0.0
  9
$THICKNESS
 40
0.0
  9
$LIMCHECK
 70
     0
  9
$CHAMFERA
 40
10.0
  9
$CHAMFERB
 40
10.0
  9
$CHAMFERC
 40
20.0
  9
$CHAMFERD
 40
0.0
  9
$SKPOLY
 70
     0
  9
$TDCREATE
 40
2451067.751276933
  9
$TDUCREATE
 40
2451067.376276933
  9
$TDUPDATE
 40
2454190.655835463
  9
$TDUUPDATE
 40
2454190.280835463
  9
$TDINDWG
 40
0.1498157639
  9
$TDUSRTIMER
 40
0.1498157639
  9
$USRTIMER
 70
     1
  9
$ANGBASE
 50
0.0
  9
$ANGDIR
 70
     0
  9
$PDMODE
 70
     1
  9
$PDSIZE
 40
0.0
  9
$PLINEWID
 40
0.0
  9
$SPLFRAME
 70
     0
  9
$SPLINETYPE
 70
     6
  9
$SPLINESEGS
 70
     8
  9
$HANDSEED
  5
186A
  9
$SURFTAB1
 70
     6
  9
$SURFTAB2
 70
     6
  9
$SURFTYPE
 70
     6
  9
$SURFU
 70
     6
  9
$SURFV
 70
     6
  9
$UCSBASE
  2

  9
$UCSNAME
  2

  9
$UCSORG
 10
0.0
 20
0.0
 30
0.0
  9
$UCSXDIR
 10
1.0
 20
0.0
 30
0.0
  9
$UCSYDIR
 10
0.0
 20
1.0
 30
0.0
  9
$UCSORTHOREF
  2

  9
$UCSORTHOVIEW
 70
     0
  9
$UCSORGTOP
 10
0.0
 20
0.0
 30
0.0
  9
$UCSORGBOTTOM
 10
0.0
 20
0.0
 30
0.0
  9
$UCSORGLEFT
 10
0.0
 20
0.0
 30
0.0
  9
$UCSORGRIGHT
 10
0.0
 20
0.0
 30
0.0
  9
$UCSORGFRONT
 10
0.0
 20
0.0
 30
0.0
  9
$UCSORGBACK
 10
0.0
 20
0.0
 30
0.0
  9
$PUCSBASE
  2

  9
$PUCSNAME
  2

  9
$PUCSORG
 10
0.0
 20
0.0
 30
0.0
  9
$PUCSXDIR
 10
1.0
 20
0.0
 30
0.0
  9
$PUCSYDIR
 10
0.0
 20
1.0
 30
0.0
  9
$PUCSORTHOREF
  2

  9
$PUCSORTHOVIEW
 70
     0
  9
$PUCSORGTOP
 10
0.0
 20
0.0
 30
0.0
  9
$PUCSORGBOTTOM
 10
0.0
 20
0.0
 30
0.0
  9
$PUCSORGLEFT
 10
0.0
 20
0.0
 30
0.0
  9
$PUCSORGRIGHT
 10
0.0
 20
0.0
 30
0.0
  9
$PUCSORGFRONT
 10
0.0
 20
0.0
 30
0.0
  9
$PUCSORGBACK
 10
0.0
 20
0.0
 30
0.0
  9
$USERI1
 70
     0
  9
$USERI2
 70
     0
  9
$USERI3
 70
     0
  9
$USERI4
 70
     0
  9
$USERI5
 70
     0
  9
$USERR1
 40
0.0
  9
$USERR2
 40
0.0
  9
$USERR3
 40
0.0
  9
$USERR4
 40
0.0
  9
$USERR5
 40
0.0
  9
$WORLDVIEW
 70
     1
  9
$SHADEDGE
 70
     3
  9
$SHADEDIF
 70
    70
  9
$TILEMODE
 70
     1
  9
$MAXACTVP
 70
    48
  9
$PINSBASE
 10
0.0
 20
0.0
 30
0.0
  9
$PLIMCHECK
 70
     0
  9
$PEXTMIN
 10
1.000000000000000E+20
 20
1.000000000000000E+20
 30
1.000000000000000E+20
  9
$PEXTMAX
 10
-1.000000000000000E+20
 20
-1.000000000000000E+20
 30
-1.000000000000000E+20
  9
$PLIMMIN
 10
0.0
 20
0.0
  9
$PLIMMAX
 10
420.0
 20
297.0
  9
$UNITMODE
 70
     0
  9
$VISRETAIN
 70
     1
  9
$PLINEGEN
 70
     0
  9
$PSLTSCALE
 70
     1
  9
$TREEDEPTH
 70
  3020
  9
$CMLSTYLE
  2
STANDARD
  9
$CMLJUST
 70
     0
  9
$CMLSCALE
 40
20.0
  9
$PROXYGRAPHICS
 70
     1
  9
$MEASUREMENT
 70
     1
  9
$CELWEIGHT
370
    -1
  9
$ENDCAPS
280
     0
  9
$JOINSTYLE
280
     0
  9
$LWDISPLAY
290
     0
  9
$INSUNITS
 70
     0
  9
$HYPERLINKBASE
  1

  9
$STYLESHEET
  1
kuroda-monochrome.ctb
  9
$XEDIT
290
     1
  9
$CEPSNTYPE
380
     0
  9
$PSTYLEMODE
290
     1
  9
$FINGERPRINTGUID
  2
{881B1582-4BC7-11D3-AB9D-00805F8B7187}
  9
$VERSIONGUID
  2
{2B4D6E4A-E89F-4B05-9BA8-A28C02DE0E7D}
  9
$EXTNAMES
290
     1
  9
$PSVPSCALE
 40
0.0
  9
$OLESTARTUP
290
     0
  0
ENDSEC
  0
SECTION
  2
CLASSES
  0
CLASS
  1
ACDBDICTIONARYWDFLT
  2
AcDbDictionaryWithDefault
  3
ObjectDBX Classes
 90
        0
280
     0
281
     0
  0
CLASS
  1
ACDBPLACEHOLDER
  2
AcDbPlaceHolder
  3
ObjectDBX Classes
 90
        0
280
     0
281
     0
  0
CLASS
  1
LAYOUT
  2
AcDbLayout
  3
ObjectDBX Classes
 90
        0
280
     0
281
     0
  0
CLASS
  1
ACME_DOCUMENT
  2
AcMeDbDoc
  3
AcMeServices
 90
        0
280
     0
281
     0
  0
CLASS
  1
AMGSETTINGSOBJ
  2
AmgSettingsObj
  3
"AcadM|Product Description: AutoCAD Mechanical 2000|Company: Autodesk"
 90
        0
280
     0
281
     0
  0
CLASS
  1
AMGOBJPROPCFG
  2
AmgObjPropCfg
  3
"AmgLay|Product Description: AutoCAD Mechanical 2000|Company: Autodesk"
 90
        1
280
     0
281
     0
  0
CLASS
  1
ACMESCOPE
  2
AcMeScope
  3
AcMeServices
 90
        0
280
     0
281
     0
  0
CLASS
  1
ACMECOMMANDHISTORY
  2
AcMeCommandHistory
  3
AcMeServices
 90
        0
280
     0
281
     0
  0
CLASS
  1
ACIMSYSVARMAN
  2
AcImSysVarManager
  3
AcMeServices
 90
        0
280
     0
281
     0
  0
CLASS
  1
ACIMINTSYSVAR
  2
AcImIntSysVar
  3
AcMeServices
 90
        0
280
     0
281
     0
  0
CLASS
  1
ACMEDRAWINGMAN
  2
AcMeDrawingMan
  3
AcMeServices
 90
        0
280
     0
281
     0
  0
CLASS
  1
ACMEVIEW
  2
AcMeView
  3
AcMeServices
 90
        0
280
     0
281
     0
  0
CLASS
  1
ACDBENTITYCACHE
  2
AcMeEntityCache
  3
AcMeServices
 90
        0
280
     0
281
     0
  0
CLASS
  1
GSMANAGER
  2
AcMeGSManager
  3
AcMeServices
 90
        0
280
     0
281
     0
  0
CLASS
  1
AMDTINTERNALREACTOR
  2
AmdtInternalReactor
  3
AcMeServices
 90
        0
280
     0
281
     0
  0
CLASS
  1
ACMESTATEMGR
  2
AcMeStateMgr
  3
AcMeServices
 90
        0
280
     0
281
     0
  0
CLASS
  1
ACGREFMASTER
  2
AcGrefMaster
  3
AcAttribServices
 90
        0
280
     0
281
     0
  0
CLASS
  1
AM_DRAWING_MGR
  2
AcDmDwgMgr
  3
AcMechDwgViewMgmt
 90
        0
280
     0
281
     0
  0
CLASS
  1
AM_DWG_DOCUMENT
  2
AcDmDwgDocument
  3
AcMechDwgViewMgmt
 90
        0
280
     0
281
     0
  0
CLASS
  1
AM_DWG_SHEET
  2
AcDmSheet
  3
AcMechDwgViewMgmt
 90
        0
280
     0
281
     0
  0
CLASS
  1
AM_VIEWDIMPARMAP
  2
AcDmViewDimParMap
  3
AcMechDwgViewMgmt
 90
        0
280
     0
281
     0
  0
CLASS
  1
ACIMREALSYSVAR
  2
AcImRealSysVar
  3
AcMeServices
 90
        0
280
     0
281
     0
  0
CLASS
  1
AM_DWGMGR_NAME
  2
AcDmDwgMgrName
  3
AcMechDwgViewMgmt
 90
        0
280
     0
281
     0
  0
CLASS
  1
ACME_DATABASE
  2
AcMeDbDatabase
  3
AcMeServices
 90
        0
280
     0
281
     0
  0
CLASS
  1
ACRFINSADJUSTERMGR
  2
AcRfInsAdjusterMgr
  3
AcMeServices
 90
        0
280
     0
281
     0
  0
CLASS
  1
ACGREFACADMASTER
  2
AcGrefacadMaster
  3
AcGrefServices
 90
        0
280
     0
281
     0
  0
CLASS
  1
AMDTMENUSTATEMGR
  2
AmdtMenuStateMgr
  3
McadcomServices
 90
        0
280
     0
281
     0
  0
CLASS
  1
AMDTMCOMMENUSTATE
  2
AmdtMcomMenuState
  3
McadcomServices
 90
        0
280
     0
281
     0
  0
CLASS
  1
AMIMASTER
  2
AmiMaster
  3
AmiServices
 90
        0
280
     0
281
     0
  0
CLASS
  1
MAPIAMMOUDLE
  2
MApiAmModule
  3
MApiAmServices
 90
        0
280
     0
281
     0
  0
CLASS
  1
AMDTADMENUSTATE
  2
AmdtAdMenuState
  3
DesignerServices
 90
        0
280
     0
281
     0
  0
CLASS
  1
ADAPPL
  2
AcAdAppl
  3
DesignerServices
 90
        0
280
     0
281
     0
  0
CLASS
  1
DEPMGR
  2
AcAdDepMgr
  3
DesignerServices
 90
        0
280
     0
281
     0
  0
CLASS
  1
PARAMMGR
  2
AcAdParamMgr
  3
DesignerServices
 90
        0
280
     0
281
     0
  0
CLASS
  1
PARAMSCOPE
  2
AcAdParamScope
  3
DesignerServices
 90
        0
280
     0
281
     0
  0
CLASS
  1
NAMEDAPPL
  2
AcAdNamedAppl
  3
DesignerServices
 90
        0
280
     0
281
     0
  0
CLASS
  1
AMDTDMMENUSTATE
  2
AmdtDmMenuState
  3
AcMechDwgViewMgmt
 90
        0
280
     0
281
     0
  0
CLASS
  1
AMDTAMMENUSTATE
  2
AmdtAmMenuState
  3
DesignerAssemblies
 90
        0
280
     0
281
     0
  0
CLASS
  1
ACIMSTRSYSVAR
  2
AcImStrSysVar
  3
AcMeServices
 90
        0
280
     0
281
     0
  0
CLASS
  1
ACAMPROJECT
  2
AcAmProject
  3
DesignerAssemblies
 90
        0
280
     0
281
     0
  0
CLASS
  1
ACAMGRCOMPDEF
  2
AcAmGrCompDef
  3
DesignerAssemblies
 90
        0
280
     0
281
     0
  0
CLASS
  1
ACCMCONTEXT
  2
AcCmContext
  3
DesignerAssemblies
 90
        0
280
     0
281
     0
  0
CLASS
  1
ACAMCOMPDEF
  2
AcAmCompDef
  3
DesignerAssemblies
 90
        0
280
     0
281
     0
  0
CLASS
  1
ACAMCOMPDEFMGR
  2
AcAmCompDefMgr
  3
DesignerAssemblies
 90
        0
280
     0
281
     0
  0
CLASS
  1
AMCONTEXTMGR
  2
AcAmContextMgr
  3
DesignerAssemblies
 90
        0
280
     0
281
     0
  0
CLASS
  1
ACAMCONTEXTMODELER
  2
AcAmContextModeler
  3
DesignerAssemblies
 90
        0
280
     0
281
     0
  0
CLASS
  1
ACMDATADICTIONARY
  2
AcmDataDictionary
  3
"AcmSymBB|Product Description: AutoCAD Mechanical 2004 DX|Company: Autodesk"
 90
        0
280
     0
281
     0
  0
CLASS
  1
CATALOGSTATE
  2
AcAmCatalogState
  3
DesignerAssemblies
 90
        0
280
     0
281
     0
  0
CLASS
  1
ACAMGRCOMPDEFSET
  2
AcAmGrCompDefSet
  3
DesignerAssemblies
 90
        0
280
     0
281
     0
  0
CLASS
  1
AMDTBROWSERDBTAB
  2
AmdtBrowserDbTab
  3
McadcomServices
 90
        0
280
     0
281
     0
  0
CLASS
  1
CBROWSERAPPOBJECT
  2
CBrowserAppObject
  3
McadcomServices
 90
        0
280
     0
281
     0
  0
CLASS
  1
DM_PLACEHOLDER
  2
AcDmSelsetPlaceholder
  3
AcMechDwgViewMgmt
 90
        0
280
     0
281
     0
  0
CLASS
  1
ACMSTANDARDANSI
  2
AcmStandardANSI
  3
"Amdt_StdImp|Product Description: AutoCAD Mechanical 2004 DX|Company: Autodesk"
 90
        0
280
     0
281
     0
  0
CLASS
  1
ACMSURFSTANDARDANSI
  2
AcmSurfTextStdANSI
  3
"Amdt_StdImp|Product Description: AutoCAD Mechanical 2004 DX|Company: Autodesk"
 90
        0
280
     0
281
     0
  0
CLASS
  1
ACMFCFSTANDARDANSI
  2
AcmFCFStdANSI
  3
"Amdt_StdImp|Product Description: AutoCAD Mechanical 2004 DX|Company: Autodesk"
 90
        0
280
     0
281
     0
  0
CLASS
  1
ACMWELDSTANDARDANSI
  2
AcmWeldingStdANSI
  3
"Amdt_StdImp|Product Description: AutoCAD Mechanical 2004 DX|Company: Autodesk"
 90
        0
280
     0
281
     0
  0
CLASS
  1
ACMIDSTANDARDANSI
  2
AcmIdStdANSI
  3
"Amdt_StdImp|Product Description: AutoCAD Mechanical 2004 DX|Company: Autodesk"
 90
        0
280
     0
281
     0
  0
CLASS
  1
ACMDATUMSTANDARDANSI
  2
AcmDatumStdANSI
  3
"Amdt_StdImp|Product Description: AutoCAD Mechanical 2004 DX|Company: Autodesk"
 90
        0
280
     0
281
     0
  0
CLASS
  1
ACMBOMSTANDARDANSI
  2
AcmBOMStdANSI
  3
"Amdt_StdImp|Product Description: AutoCAD Mechanical 2004 DX|Company: Autodesk"
 90
        0
280
     0
281
     0
  0
CLASS
  1
ACMDETAILSTANDARDANSI
  2
AmdtDetailSymStdANSI
  3
"Amdt_StdImp|Product Description: AutoCAD Mechanical 2004 DX|Company: Autodesk"
 90
        0
280
     0
281
     0
  0
CLASS
  1
ACMSECTIONSTANDARDANSI
  2
AmdtSectionSymStdANSI
  3
"Amdt_StdImp|Product Description: AutoCAD Mechanical 2004 DX|Company: Autodesk"
 90
        0
280
     0
281
     0
  0
CLASS
  1
ACMCENTERLINESTANDARDANSI
  2
AmdtCenterLineStdANSI
  3
"Amdt_StdImp|Product Description: AutoCAD Mechanical 2004 DX|Company: Autodesk"
 90
        0
280
     0
281
     0
  0
CLASS
  1
ACAMGLAYSTD
  2
AcAmgLayStd
  3
"AcAmgLayStd|Product Description: AutoCAD Mechanical 2000|Company: Autodesk"
 90
        0
280
     0
281
     0
  0
CLASS
  1
ACAMGDIMSTD
  2
AcAmgDimStd
  3
"AcAmgDimStd|Product Description: AutoCAD Mechanical 2000|Company: Autodesk"
 90
        0
280
     0
281
     0
  0
CLASS
  1
ACAMGTITLESTD
  2
AcAmgTitleStd
  3
"TITLEAPP"
 90
        0
280
     0
281
     0
  0
CLASS
  1
ACMNOTESTANDARDANSI
  2
AmdtNoteStdANSI
  3
"Amdt_StdImp|Product Description: AutoCAD Mechanical 2004 DX|Company: Autodesk"
 90
        0
280
     0
281
     0
  0
CLASS
  1
ACMTHREADLINESTANDARDANSI
  2
AmdtThreadLineStdANSI
  3
"Amdt_StdImp|Product Description: AutoCAD Mechanical 2004 DX|Company: Autodesk"
 90
        0
280
     0
281
     0
  0
CLASS
  1
ACMSTANDARDISO
  2
AcmStandardISO
  3
"Amdt_StdImp|Product Description: AutoCAD Mechanical 2004 DX|Company: Autodesk"
 90
        0
280
     0
281
     0
  0
CLASS
  1
AMDTEDGESTANDARDISO
  2
AmdtEdgeStdISO
  3
"Amdt_StdImp|Product Description: AutoCAD Mechanical 2004 DX|Company: Autodesk"
 90
        0
280
     0
281
     0
  0
CLASS
  1
ACMSURFSTANDARDISO
  2
AcmSurfTextStdISO
  3
"Amdt_StdImp|Product Description: AutoCAD Mechanical 2004 DX|Company: Autodesk"
 90
        0
280
     0
281
     0
  0
CLASS
  1
ACMFCFSTANDARDISO
  2
AcmFCFStdISO
  3
"Amdt_StdImp|Product Description: AutoCAD Mechanical 2004 DX|Company: Autodesk"
 90
        0
280
     0
281
     0
  0
CLASS
  1
ACMWELDSTANDARDISO
  2
AcmWeldingStdISO
  3
"Amdt_StdImp|Product Description: AutoCAD Mechanical 2004 DX|Company: Autodesk"
 90
        0
280
     0
281
     0
  0
CLASS
  1
ACMIDSTANDARDISO
  2
AcmIdStdISO
  3
"Amdt_StdImp|Product Description: AutoCAD Mechanical 2004 DX|Company: Autodesk"
 90
        0
280
     0
281
     0
  0
CLASS
  1
ACMDATUMSTANDARDISO
  2
AcmDatumStdISO
  3
"Amdt_StdImp|Product Description: AutoCAD Mechanical 2004 DX|Company: Autodesk"
 90
        0
280
     0
281
     0
  0
CLASS
  1
ACMBOMSTANDARDISO
  2
AcmBOMStdISO
  3
"Amdt_StdImp|Product Description: AutoCAD Mechanical 2004 DX|Company: Autodesk"
 90
        0
280
     0
281
     0
  0
CLASS
  1
ACMDETAILSTANDARDISO
  2
AmdtDetailSymStdISO
  3
"Amdt_StdImp|Product Description: AutoCAD Mechanical 2004 DX|Company: Autodesk"
 90
        0
280
     0
281
     0
  0
CLASS
  1
ACMSECTIONSTANDARDISO
  2
AmdtSectionSymStdISO
  3
"Amdt_StdImp|Product Description: AutoCAD Mechanical 2004 DX|Company: Autodesk"
 90
        0
280
     0
281
     0
  0
CLASS
  1
ACMCENTERLINESTANDARDISO
  2
AmdtCenterLineStdISO
  3
"Amdt_StdImp|Product Description: AutoCAD Mechanical 2004 DX|Company: Autodesk"
 90
        0
280
     0
281
     0
  0
CLASS
  1
ACMNOTESTANDARDISO
  2
AmdtNoteStdISO
  3
"Amdt_StdImp|Product Description: AutoCAD Mechanical 2004 DX|Company: Autodesk"
 90
        0
280
     0
281
     0
  0
CLASS
  1
ACMTHREADLINESTANDARDISO
  2
AmdtThreadLineStdISO
  3
"Amdt_StdImp|Product Description: AutoCAD Mechanical 2004 DX|Company: Autodesk"
 90
        0
280
     0
281
     0
  0
CLASS
  1
ACMSTANDARDJIS
  2
AcmStandardJIS
  3
"Amdt_StdImp|Product Description: AutoCAD Mechanical 2004 DX|Company: Autodesk"
 90
        0
280
     0
281
     0
  0
CLASS
  1
ACMSURFSTANDARDJIS
  2
AcmSurfTextStdJIS
  3
"Amdt_StdImp|Product Description: AutoCAD Mechanical 2004 DX|Company: Autodesk"
 90
        0
280
     0
281
     0
  0
CLASS
  1
ACMFCFSTANDARDJIS
  2
AcmFCFStdJIS
  3
"Amdt_StdImp|Product Description: AutoCAD Mechanical 2004 DX|Company: Autodesk"
 90
        0
280
     0
281
     0
  0
CLASS
  1
ACMWELDSTANDARDJIS
  2
AcmWeldingStdJIS
  3
"Amdt_StdImp|Product Description: AutoCAD Mechanical 2004 DX|Company: Autodesk"
 90
        0
280
     0
281
     0
  0
CLASS
  1
ACMIDSTANDARDJIS
  2
AcmIdStdJIS
  3
"Amdt_StdImp|Product Description: AutoCAD Mechanical 2004 DX|Company: Autodesk"
 90
        0
280
     0
281
     0
  0
CLASS
  1
ACMDATUMSTANDARDJIS
  2
AcmDatumStdJIS
  3
"Amdt_StdImp|Product Description: AutoCAD Mechanical 2004 DX|Company: Autodesk"
 90
        0
280
     0
281
     0
  0
CLASS
  1
ACMBOMSTANDARDJIS
  2
AcmBOMStdJIS
  3
"Amdt_StdImp|Product Description: AutoCAD Mechanical 2004 DX|Company: Autodesk"
 90
        0
280
     0
281
     0
  0
CLASS
  1
ACMDETAILSTANDARDJIS
  2
AmdtDetailSymStdJIS
  3
"Amdt_StdImp|Product Description: AutoCAD Mechanical 2004 DX|Company: Autodesk"
 90
        0
280
     0
281
     0
  0
CLASS
  1
ACMSECTIONSTANDARDJIS
  2
AmdtSectionSymStdJIS
  3
"Amdt_StdImp|Product Description: AutoCAD Mechanical 2004 DX|Company: Autodesk"
 90
        0
280
     0
281
     0
  0
CLASS
  1
ACMCENTERLINESTANDARDJIS
  2
AmdtCenterLineStdJIS
  3
"Amdt_StdImp|Product Description: AutoCAD Mechanical 2004 DX|Company: Autodesk"
 90
        0
280
     0
281
     0
  0
CLASS
  1
ACMTHREADLINESTANDARDJIS
  2
AmdtThreadLineStdJIS
  3
"Amdt_StdImp|Product Description: AutoCAD Mechanical 2004 DX|Company: Autodesk"
 90
        0
280
     0
281
     0
  0
CLASS
  1
ACMNOTESTANDARDJIS
  2
AmdtNoteStdJIS
  3
"Amdt_StdImp|Product Description: AutoCAD Mechanical 2004 DX|Company: Autodesk"
 90
        0
280
     0
281
     0
  0
CLASS
  1
ACAMGFILTERDAT
  2
AcAmgFilterDat
  3
"AcadM|Product Description: AutoCAD Mechanical 2000|Company: Autodesk"
 90
    32768
280
     0
281
     0
  0
CLASS
  1
LAYER_INDEX
  2
AcDbLayerIndex
  3
ObjectDBX Classes
 90
    32768
280
     0
281
     0
  0
CLASS
  1
IDBUFFER
  2
AcDbIdBuffer
  3
ObjectDBX Classes
 90
    32768
280
     0
281
     0
  0
CLASS
  1
AMDTNOTE
  2
AmdtNote
  3
"AcmSymBB|Product Description: AutoCAD Mechanical 2004 DX|Company: Autodesk"
 90
    33791
280
     0
281
     1
  0
CLASS
  1
ACDBLINERES
  2
AcDbLineRes
  3
AcGrefServices
 90
    32768
280
     0
281
     0
  0
CLASS
  1
ACDBCIRCARCRES
  2
AcDbCircArcRes
  3
AcGrefServices
 90
    32768
280
     0
281
     0
  0
CLASS
  1
AMDTFORMULAUPDATEDISPATCHER
  2
AmdtFormulaUpdateDispatcher
  3
AcMeServices
 90
    32768
280
     0
281
     0
  0
CLASS
  1
TABLESTYLE
  2
AcDbTableStyle
  3
ObjectDBX Classes
 90
     2047
280
     0
281
     0
  0
CLASS
  1
DICTIONARYVAR
  2
AcDbDictionaryVar
  3
ObjectDBX Classes
 90
        0
280
     0
281
     0
  0
CLASS
  1
AMDTEDGESTANDARDISO13715
  2
AmdtEdgeStdISO13715
  3
"Amdt_StdImp|Product Description: AutoCAD Mechanical 2004 DX|Company: Autodesk"
 90
    32768
280
     0
281
     0
  0
CLASS
  1
AMDTNOTETEMPLATEDB
  2
AmdtNoteTemplateDB
  3
AMDT_STDIMP_MODULE_NAME
 90
    32768
280
     0
281
     0
  0
CLASS
  1
ACAMGHOLECHARTSTDISO
  2
AcAmgHoleChartStdISO
  3
ACMSYMBB_MODULE_NAME
 90
    32768
280
     0
281
     0
  0
ENDSEC
  0
SECTION
  2
TABLES
  0
TABLE
  2
VPORT
  5
8
330
0
100
AcDbSymbolTable
 70
     3
  0
VPORT
  5
1864
330
8
100
AcDbSymbolTableRecord
100
AcDbViewportTableRecord
  2
*Active
 70
     0
 10
0.0
 20
0.0
 11
1.0
 21
1.0
 12
316.9766736200988
 22
41.89946204739169
 13
0.0
 23
0.0
 14
10.0
 24
10.0
 15
10.0
 25
10.0
 16
0.0
 26
0.0
 36
1.0
 17
0.0
 27
0.0
 37
0.0
 40
606.8523955803255
 41
1.261968085106383
 42
50.0
 43
0.0
 44
0.0
 50
0.0
 51
0.0
 71
     0
 72
   100
 73
     1
 74
     1
 75
     0
 76
     0
 77
     0
 78
     0
281
     0
 65
     1
110
0.0
120
0.0
130
0.0
111
1.0
121
0.0
131
0.0
112
0.0
122
1.0
132
0.0
 79
     0
146
0.0
  0
ENDTAB
  0
TABLE
  2
LTYPE
  5
5
330
0
100
AcDbSymbolTable
 70
    22
  0
LTYPE
  5
12
330
5
100
AcDbSymbolTableRecord
100
AcDbLinetypeTableRecord
  2
BYBLOCK
 70
     0
  3

 72
    65
 73
     0
 40
0.0
  0
LTYPE
  5
13
330
5
100
AcDbSymbolTableRecord
100
AcDbLinetypeTableRecord
  2
BYLAYER
 70
     0
  3

 72
    65
 73
     0
 40
0.0
  0
LTYPE
  5
14
330
5
100
AcDbSymbolTableRecord
100
AcDbLinetypeTableRecord
  2
CONTINUOUS
 70
     0
  3
Solid line
 72
    65
 73
     0
 40
0.0
  0
LTYPE
  5
22
330
5
100
AcDbSymbolTableRecord
100
AcDbLinetypeTableRecord
  2
CENTER
 70
     0
  3
__ . __
 72
    65
 73
     4
 40
7.0
 49
4.0
 74
     0
 49
-1.0
 74
     0
 49
1.0
 74
     0
 49
-1.0
 74
     0
  0
LTYPE
  5
23
330
5
100
AcDbSymbolTableRecord
100
AcDbLinetypeTableRecord
  2
CENTER2
 70
     0
  3
Center (.5x) ___ _ ___ _ ___ _ ___ _ ___ _ ___
 72
    65
 73
     4
 40
28.575
 49
19.05
 74
     0
 49
-3.174999999999999
 74
     0
 49
3.174999999999999
 74
     0
 49
-3.174999999999999
 74
     0
  0
LTYPE
  5
24
330
5
100
AcDbSymbolTableRecord
100
AcDbLinetypeTableRecord
  2
PHANTOM
 70
     0
  3
Phantom ______  __  __  ______  __  __  ______
 72
    65
 73
     6
 40
63.5
 49
31.75
 74
     0
 49
-6.349999999999999
 74
     0
 49
6.349999999999999
 74
     0
 49
-6.349999999999999
 74
     0
 49
6.349999999999999
 74
     0
 49
-6.349999999999999
 74
     0
  0
LTYPE
  5
25
330
5
100
AcDbSymbolTableRecord
100
AcDbLinetypeTableRecord
  2
PHANTOM2
 70
     0
  3
Phantom (.5x) ___ _ _ ___ _ _ ___ _ _ ___ _ _
 72
    65
 73
     6
 40
31.75
 49
15.875
 74
     0
 49
-3.174999999999999
 74
     0
 49
3.174999999999999
 74
     0
 49
-3.174999999999999
 74
     0
 49
3.174999999999999
 74
     0
 49
-3.174999999999999
 74
     0
  0
LTYPE
  5
26
330
5
100
AcDbSymbolTableRecord
100
AcDbLinetypeTableRecord
  2
DASHED
 70
     0
  3
Dashed __ __ __ __ __ __ __ __ __ __ __ __ __ _
 72
    65
 73
     2
 40
19.05
 49
12.7
 74
     0
 49
-6.349999999999999
 74
     0
  0
LTYPE
  5
27
330
5
100
AcDbSymbolTableRecord
100
AcDbLinetypeTableRecord
  2
DASHED2
 70
     0
  3
Dashed (.5x) _ _ _ _ _ _ _ _ _ _ _ _ _ _ _ _ _
 72
    65
 73
     2
 40
9.524999999999998
 49
6.349999999999999
 74
     0
 49
-3.174999999999999
 74
     0
  0
LTYPE
  5
62B
330
5
100
AcDbSymbolTableRecord
100
AcDbLinetypeTableRecord
  2
AM_ISO02W050
 70
     0
  3
__ __ __ __ __ __ __ __ __ __ __ __ __ __ __
 72
    65
 73
     2
 40
7.5
 49
6.0
 74
     0
 49
-1.5
 74
     0
  0
LTYPE
  5
62C
330
5
100
AcDbSymbolTableRecord
100
AcDbLinetypeTableRecord
  2
AM_ISO08W050
 70
     0
  3
____ . ____ . ____ . ____ . ____ . ____ . ____
 72
    65
 73
     4
 40
18.0
 49
12.0
 74
     0
 49
-1.5
 74
     0
 49
3.0
 74
     0
 49
-1.5
 74
     0
  0
LTYPE
  5
62D
330
5
100
AcDbSymbolTableRecord
100
AcDbLinetypeTableRecord
  2
AM_ISO09W050
 70
     0
  3
_____ . . _____ . . _____ . . ____ .. ____
 72
    65
 73
     6
 40
22.5
 49
12.0
 74
     0
 49
-1.5
 74
     0
 49
3.0
 74
     0
 49
-1.5
 74
     0
 49
3.0
 74
     0
 49
-1.5
 74
     0
  0
LTYPE
  5
62E
330
5
100
AcDbSymbolTableRecord
100
AcDbLinetypeTableRecord
  2
Amconstr
 70
     0
  3
_______________________
 72
    65
 73
     2
 40
9999.0
 49
9999.0
 74
     0
 49
0.0
 74
     0
  0
LTYPE
  5
62F
330
5
100
AcDbSymbolTableRecord
100
AcDbLinetypeTableRecord
  2
AM_ISO02W050x2
 70
     0
  3
 _ _ _ _ _ _ _ _ _ _ _ _
 72
    65
 73
     2
 40
3.75
 49
3.0
 74
     0
 49
-0.75
 74
     0
  0
LTYPE
  5
630
330
5
100
AcDbSymbolTableRecord
100
AcDbLinetypeTableRecord
  2
AM_ISO08W050x2
 70
     0
  3
__ . __ . __ . __ . __ . __
 72
    65
 73
     4
 40
9.0
 49
6.0
 74
     0
 49
-0.75
 74
     0
 49
1.5
 74
     0
 49
-0.75
 74
     0
  0
LTYPE
  5
631
330
5
100
AcDbSymbolTableRecord
100
AcDbLinetypeTableRecord
  2
Amzigzag
 70
     0
  3
/\/-/\/-/\/-/\/-/\/-/\/
 72
    65
 73
     2
 40
11.0001
 49
0.0001
 74
     4
 75
   135
340
21
 46
0.04
 50
0.0
 44
0.0
 45
0.0
 49
-11.0
 74
     0
  0
LTYPE
  5
64C
330
5
100
AcDbSymbolTableRecord
100
AcDbLinetypeTableRecord
  2
HIDDEN
 70
     0
  3
Hidden __ __ __ __ __ __ __ __ __ __ __ __ __ _
 72
    65
 73
     2
 40
9.524999999999998
 49
6.349999999999999
 74
     0
 49
-3.174999999999999
 74
     0
  0
LTYPE
  5
693
330
5
100
AcDbSymbolTableRecord
100
AcDbLinetypeTableRecord
  2
ACANSTGB
 70
     0
  3
__ . . __ . .
 72
    65
 73
     6
 40
0.35433070866
 49
0.15748031496
 74
     0
 49
-0.03937007874
 74
     0
 49
0.03937007874
 74
     0
 49
-0.03937007874
 74
     0
 49
0.03937007874
 74
     0
 49
-0.03937007874
 74
     0
  0
LTYPE
  5
694
330
5
100
AcDbSymbolTableRecord
100
AcDbLinetypeTableRecord
  2
ACANSTGL
 70
     0
  3
_ _ _ _ _
 72
    65
 73
     2
 40
0.11811023622
 49
0.07874015748
 74
     0
 49
-0.03937007874
 74
     0
  0
LTYPE
  5
6B0
330
5
100
AcDbSymbolTableRecord
100
AcDbLinetypeTableRecord
  2
ACISOWELD
 70
     0
  3
_ _ _ _ _
 72
    65
 73
     2
 40
2.0
 49
2.0
 74
     0
 49
-1.0
 74
     0
  0
LTYPE
  5
6B3
330
5
100
AcDbSymbolTableRecord
100
AcDbLinetypeTableRecord
  2
ACISOTGB
 70
     0
  3
__ . . __ . .
 72
    65
 73
     6
 40
9.0
 49
4.0
 74
     0
 49
-1.0
 74
     0
 49
1.0
 74
     0
 49
-1.0
 74
     0
 49
1.0
 74
     0
 49
-1.0
 74
     0
  0
LTYPE
  5
6B4
330
5
100
AcDbSymbolTableRecord
100
AcDbLinetypeTableRecord
  2
ACISOTGL
 70
     0
  3
_ _ _ _ _
 72
    65
 73
     2
 40
3.0
 49
2.0
 74
     0
 49
-1.0
 74
     0
  0
LTYPE
  5
6CE
330
5
100
AcDbSymbolTableRecord
100
AcDbLinetypeTableRecord
  2
ACJISTGB
 70
     0
  3
__ . . __ . .
 72
    65
 73
     6
 40
9.0
 49
4.0
 74
     0
 49
-1.0
 74
     0
 49
1.0
 74
     0
 49
-1.0
 74
     0
 49
1.0
 74
     0
 49
-1.0
 74
     0
  0
LTYPE
  5
6CF
330
5
100
AcDbSymbolTableRecord
100
AcDbLinetypeTableRecord
  2
ACJISTGL
 70
     0
  3
_ _ _ _ _
 72
    65
 73
     2
 40
3.0
 49
2.0
 74
     0
 49
-1.0
 74
     0
  0
ENDTAB
  0
TABLE
  2
LAYER
  5
2
330
0
100
AcDbSymbolTable
 70
     9
  0
LAYER
  5
E
330
2
100
AcDbSymbolTableRecord
100
AcDbLayerTableRecord
  2
0
 70
     0
 62
     7
  6
CONTINUOUS
370
    -3
390
5D
  0
LAYER
  5
74
330
2
100
AcDbSymbolTableRecord
100
AcDbLayerTableRecord
  2
Defpoints
 70
     0
 62
     7
  6
CONTINUOUS
290
     0
370
    -3
390
5D
  0
LAYER
  5
75
330
2
100
AcDbSymbolTableRecord
100
AcDbLayerTableRecord
  2
PV0001_1
 70
     0
 62
     7
  6
CONTINUOUS
370
    -3
390
5D
  0
LAYER
  5
6E0
330
2
100
AcDbSymbolTableRecord
100
AcDbLayerTableRecord
  2
outline
 70
     0
 62
     4
  6
CONTINUOUS
370
    50
390
5D
  0
LAYER
  5
7C9
330
2
100
AcDbSymbolTableRecord
100
AcDbLayerTableRecord
  2
AM_CL
 70
     0
 62
     1
  6
Amconstr
370
    25
390
5D
  0
LAYER
  5
8E4
330
2
100
AcDbSymbolTableRecord
100
AcDbLayerTableRecord
  2
center
 70
     0
 62
     2
  6
CENTER2
370
    25
390
5D
  0
LAYER
  5
8E5
330
2
100
AcDbSymbolTableRecord
100
AcDbLayerTableRecord
  2
dimension
 70
     0
 62
     7
  6
CONTINUOUS
370
    25
390
5D
  0
LAYER
  5
B53
330
2
100
AcDbSymbolTableRecord
100
AcDbLayerTableRecord
  2
note
 70
     0
 62
     7
  6
CONTINUOUS
370
    25
390
5D
  0
LAYER
  5
B54
330
2
100
AcDbSymbolTableRecord
100
AcDbLayerTableRecord
  2
imaginary
 70
     0
 62
     2
  6
PHANTOM2
370
    25
390
5D
  0
ENDTAB
  0
TABLE
  2
STYLE
  5
3
330
0
100
AcDbSymbolTable
 70
    10
  0
STYLE
  5
F
330
3
100
AcDbSymbolTableRecord
100
AcDbTextStyleTableRecord
  2
STANDARD
 70
     0
 40
0.0
 41
1.0
 50
0.0
 71
     0
 42
2.5
  3
monotxt.shx
  4
extfont.shx
  0
STYLE
  5
21
330
3
100
AcDbSymbolTableRecord
100
AcDbTextStyleTableRecord
  2

 70
     1
 40
0.0
 41
1.0
 50
0.0
 71
     0
 42
2.5
  3
ltypeshp.shx
  4

  0
STYLE
  5
30
330
3
100
AcDbSymbolTableRecord
100
AcDbTextStyleTableRecord
  2
DIM
 70
     0
 40
0.0
 41
1.0
 50
0.0
 71
     0
 42
2.5
  3
monotxt.shx
  4
extfont.shx
  0
STYLE
  5
31
330
3
100
AcDbSymbolTableRecord
100
AcDbTextStyleTableRecord
  2
CONVERT
 70
     0
 40
0.0
 41
1.0
 50
0.0
 71
     0
 42
2.5
  3
monotxt.shx
  4
extfont.shx
  0
STYLE
  5
68C
330
3
100
AcDbSymbolTableRecord
100
AcDbTextStyleTableRecord
  2
ACANSTS
 70
     0
 40
1.0
 41
1.0
 50
0.0
 71
     0
 42
5.0
  3
romans.shx
  4
extfont.shx
  0
STYLE
  5
68F
330
3
100
AcDbSymbolTableRecord
100
AcDbTextStyleTableRecord
  2
ACANSGDT
 70
     0
 40
0.0
 41
1.0
 50
0.0
 71
     0
 42
5.0
  3
amgdtans.shx
  4

  0
STYLE
  5
6AA
330
3
100
AcDbSymbolTableRecord
100
AcDbTextStyleTableRecord
  2
ACISOTS
 70
     0
 40
1.0
 41
1.0
 50
0.0
 71
     0
 42
2.5
  3
isocp.shx
  4
extfont.shx
  0
STYLE
  5
6AE
330
3
100
AcDbSymbolTableRecord
100
AcDbTextStyleTableRecord
  2
ACISOGDT
 70
     0
 40
0.0
 41
1.0
 50
0.0
 71
     0
 42
2.5
  3
amgdt.shx
  4

  0
STYLE
  5
6C7
330
3
100
AcDbSymbolTableRecord
100
AcDbTextStyleTableRecord
  2
ACJISTS
 70
     0
 40
1.0
 41
1.0
 50
0.0
 71
     0
 42
2.5
  3
isocp.shx
  4
bigfont.shx
  0
STYLE
  5
6CA
330
3
100
AcDbSymbolTableRecord
100
AcDbTextStyleTableRecord
  2
ACJISGDT
 70
     0
 40
0.0
 41
1.0
 50
0.0
 71
     0
 42
2.5
  3
amgdt.shx
  4

  0
ENDTAB
  0
TABLE
  2
VIEW
  5
6
330
0
100
AcDbSymbolTable
 70
     0
  0
ENDTAB
  0
TABLE
  2
UCS
  5
7
330
0
100
AcDbSymbolTable
 70
     0
  0
ENDTAB
  0
TABLE
  2
APPID
  5
9
330
0
100
AcDbSymbolTable
 70
    28
  0
APPID
  5
10
330
9
100
AcDbSymbolTableRecord
100
AcDbRegAppTableRecord
  2
ACAD
 70
     0
  0
APPID
  5
60F
330
9
100
AcDbSymbolTableRecord
100
AcDbRegAppTableRecord
  2
MCAD_NO_VIS
 70
     0
  0
APPID
  5
610
330
9
100
AcDbSymbolTableRecord
100
AcDbRegAppTableRecord
  2
ACAD_TEMP_GRAPHIC
 70
     0
  0
APPID
  5
611
330
9
100
AcDbSymbolTableRecord
100
AcDbRegAppTableRecord
  2
GENIUS_GENREC_14
 70
     0
  0
APPID
  5
612
330
9
100
AcDbSymbolTableRecord
100
AcDbRegAppTableRecord
  2
GENIUS_GENODEF_13
 70
     0
  0
APPID
  5
613
330
9
100
AcDbSymbolTableRecord
100
AcDbRegAppTableRecord
  2
GENIUS_GENOBJ-N-REC_13
 70
     0
  0
APPID
  5
614
330
9
100
AcDbSymbolTableRecord
100
AcDbRegAppTableRecord
  2
GENIUS_GENOBJ-N-CEN_13
 70
     0
  0
APPID
  5
615
330
9
100
AcDbSymbolTableRecord
100
AcDbRegAppTableRecord
  2
GENIUS_GENDTOL_13
 70
     0
  0
APPID
  5
616
330
9
100
AcDbSymbolTableRecord
100
AcDbRegAppTableRecord
  2
GENIUS_GENDIMSH_14
 70
     0
  0
APPID
  5
617
330
9
100
AcDbSymbolTableRecord
100
AcDbRegAppTableRecord
  2
ACATTRIBSERVICES
 70
     0
  0
APPID
  5
618
330
9
100
AcDbSymbolTableRecord
100
AcDbRegAppTableRecord
  2
GENIUS_GENFIL_13
 70
     0
  0
APPID
  5
619
330
9
100
AcDbSymbolTableRecord
100
AcDbRegAppTableRecord
  2
GENIUS_GENOBJ-N-CHA_13
 70
     0
  0
APPID
  5
61A
330
9
100
AcDbSymbolTableRecord
100
AcDbRegAppTableRecord
  2
GENIUS_GENOLIS_13
 70
     0
  0
APPID
  5
61B
330
9
100
AcDbSymbolTableRecord
100
AcDbRegAppTableRecord
  2
GENIUS_GENOENT_13
 70
     0
  0
APPID
  5
61C
330
9
100
AcDbSymbolTableRecord
100
AcDbRegAppTableRecord
  2
GENIUS_GENOREF_13
 70
     0
  0
APPID
  5
61D
330
9
100
AcDbSymbolTableRecord
100
AcDbRegAppTableRecord
  2
GENIUS_GENOBJ-N-CRS_13
 70
     0
  0
APPID
  5
61E
330
9
100
AcDbSymbolTableRecord
100
AcDbRegAppTableRecord
  2
GENIUS_GENOBJ-N-TIT_13
 70
     0
  0
APPID
  5
61F
330
9
100
AcDbSymbolTableRecord
100
AcDbRegAppTableRecord
  2
GENIUS_GENTITLE_13
 70
     0
  0
APPID
  5
620
330
9
100
AcDbSymbolTableRecord
100
AcDbRegAppTableRecord
  2
GENIUS_GENSCREG_15
 70
     0
  0
APPID
  5
621
330
9
100
AcDbSymbolTableRecord
100
AcDbRegAppTableRecord
  2
GENIUS_GENOBJ-N-SDF_13
 70
     0
  0
APPID
  5
622
330
9
100
AcDbSymbolTableRecord
100
AcDbRegAppTableRecord
  2
GENIUS_GENTRA_14
 70
     0
  0
APPID
  5
623
330
9
100
AcDbSymbolTableRecord
100
AcDbRegAppTableRecord
  2
GENIUS_GENOBJ-N-FIL_13
 70
     0
  0
APPID
  5
624
330
9
100
AcDbSymbolTableRecord
100
AcDbRegAppTableRecord
  2
AD_DRAW
 70
     0
  0
APPID
  5
625
330
9
100
AcDbSymbolTableRecord
100
AcDbRegAppTableRecord
  2
DESIGNERASSEMBLIES
 70
     0
  0
APPID
  5
626
330
9
100
AcDbSymbolTableRecord
100
AcDbRegAppTableRecord
  2
ACADM_DIM_EDIT
 70
     0
  0
APPID
  5
627
330
9
100
AcDbSymbolTableRecord
100
AcDbRegAppTableRecord
  2
AMDT_DM_ADJ
 70
     0
  0
APPID
  5
140C
330
9
100
AcDbSymbolTableRecord
100
AcDbRegAppTableRecord
  2
ACAD_DSTYLE_DIMARC_LENGTH_SYMBOL
 70
     0
  0
APPID
  5
140D
330
9
100
AcDbSymbolTableRecord
100
AcDbRegAppTableRecord
  2
ACAD_DSTYLE_DIMJOGGED_JOGANGLE_SYMBOL
 70
     0
  0
ENDTAB
  0
TABLE
  2
DIMSTYLE
  5
A
330
0
100
AcDbSymbolTable
 70
    29
100
AcDbDimStyleTable
 71
     1
340
1D
  0
DIMSTYLE
105
1D
102
{ACAD_REACTORS
330
1390
102
}
330
A
100
AcDbSymbolTableRecord
100
AcDbDimStyleTableRecord
  2
STANDARD
 70
     0
 41
3.0
 42
1.0
 43
7.0
 44
2.0
 73
     0
 74
     0
 77
     1
140
2.799999999999999
141
0.0
143
0.0394
147
0.7
171
     4
172
     1
173
     1
176
    44
177
    44
178
    44
271
     3
272
     3
273
     8
274
     4
289
     0
340
F
341
32
343
32
344
32
  0
DIMSTYLE
105
69C
330
A
100
AcDbSymbolTableRecord
100
AcDbDimStyleTableRecord
  2
AM_ANSI
 70
     0
  4
mm
 41
0.1
 42
0.05
 43
0.5
 44
0.1
 47
0.1
 48
0.1
 78
     7
 79
     2
140
0.12
141
0.0
146
0.71
147
0.06
176
   256
177
   256
178
     2
274
     4
340
F
371
    -1
372
    -1
1001
ACAD_DSTYLE_DIMARC_LENGTH_SYMBOL
1070
   379
1070
     1
1001
ACAD_DSTYLE_DIMJOGGED_JOGANGLE_SYMBOL
1070
   384
1040
0.7853981633974483
  0
DIMSTYLE
105
69D
330
A
100
AcDbSymbolTableRecord
100
AcDbDimStyleTableRecord
  2
AM_ANSI$3
 70
     0
  4
mm
 41
0.1
 42
0.05
 43
0.5
 44
0.1
 47
0.1
 48
0.1
 78
     7
 79
     2
140
0.12
141
0.0
146
0.71
147
0.06
176
   256
177
   256
178
     2
274
     4
288
     1
289
     0
340
F
371
    -1
372
    -1
1001
ACAD_DSTYLE_DIMARC_LENGTH_SYMBOL
1070
   379
1070
     1
1001
ACAD_DSTYLE_DIMJOGGED_JOGANGLE_SYMBOL
1070
   384
1040
0.7853981633974483
  0
DIMSTYLE
105
69E
330
A
100
AcDbSymbolTableRecord
100
AcDbDimStyleTableRecord
  2
AM_ANSI$4
 70
     0
  4
mm
 41
0.1
 42
0.05
 43
0.5
 44
0.1
 47
0.1
 48
0.1
 78
     7
 79
     2
140
0.12
141
0.0
146
0.71
147
0.06
176
   256
177
   256
178
     2
274
     4
288
     1
289
     0
340
F
371
    -1
372
    -1
1001
ACAD_DSTYLE_DIMARC_LENGTH_SYMBOL
1070
   379
1070
     1
1001
ACAD_DSTYLE_DIMJOGGED_JOGANGLE_SYMBOL
1070
   384
1040
0.7853981633974483
  0
DIMSTYLE
105
69F
330
A
100
AcDbSymbolTableRecord
100
AcDbDimStyleTableRecord
  2
AM_ANSI$7
 70
     0
  4
mm
 41
0.1
 42
0.05
 43
0.5
 44
0.1
 47
0.1
 48
0.1
 78
     7
 79
     2
140
0.24
141
0.0
146
0.71
147
0.06
176
   256
177
   256
178
     2
274
     4
340
F
371
    -1
372
    -1
1001
ACAD_DSTYLE_DIMARC_LENGTH_SYMBOL
1070
   379
1070
     1
1001
ACAD_DSTYLE_DIMJOGGED_JOGANGLE_SYMBOL
1070
   384
1040
0.7853981633974483
  0
DIMSTYLE
105
6A0
330
A
100
AcDbSymbolTableRecord
100
AcDbDimStyleTableRecord
  2
AM_ANSI$SF
 70
     0
  4
mm
 41
0.1
 42
0.05
 43
0.5
 44
0.1
 47
0.1
 48
0.1
 75
     1
 76
     1
 78
     7
 79
     2
140
0.12
141
0.0
146
0.71
147
0.06
176
   256
177
   256
178
     2
274
     4
340
F
371
    -1
372
    -1
1001
ACAD_DSTYLE_DIMARC_LENGTH_SYMBOL
1070
   379
1070
     1
1001
ACAD_DSTYLE_DIMJOGGED_JOGANGLE_SYMBOL
1070
   384
1040
0.7853981633974483
  0
DIMSTYLE
105
6A1
330
A
100
AcDbSymbolTableRecord
100
AcDbDimStyleTableRecord
  2
AM_ANSI$SH
 70
     0
  4
mm
 41
0.1
 42
0.05
 43
0.5
 44
0.1
 47
0.1
 48
0.1
 75
     1
 76
     1
 78
     7
 79
     2
140
0.12
141
0.0
146
0.71
147
0.06
173
     1
176
   256
177
   256
178
     2
274
     4
340
F
343
6A2
371
    -1
372
    -1
1001
ACAD_DSTYLE_DIMARC_LENGTH_SYMBOL
1070
   379
1070
     1
1001
ACAD_DSTYLE_DIMJOGGED_JOGANGLE_SYMBOL
1070
   384
1040
0.7853981633974483
  0
DIMSTYLE
105
6BC
330
A
100
AcDbSymbolTableRecord
100
AcDbDimStyleTableRecord
  2
AM_ISO
 70
     0
  4
"
 41
2.5
 42
1.0
 43
10.0
 44
1.0
 47
0.1
 48
0.1
 73
     0
 74
     0
 77
     1
 78
     8
 79
     2
140
3.5
141
0.0
143
0.0393701
146
0.71
147
1.5
172
     1
176
   256
177
   256
178
     2
271
     2
272
     3
274
     4
283
     0
284
     8
340
F
371
    -1
372
    -1
1001
ACAD_DSTYLE_DIMARC_LENGTH_SYMBOL
1070
   379
1070
     1
1001
ACAD_DSTYLE_DIMJOGGED_JOGANGLE_SYMBOL
1070
   384
1040
0.7853981633974483
  0
DIMSTYLE
105
6BD
330
A
100
AcDbSymbolTableRecord
100
AcDbDimStyleTableRecord
  2
AM_ISO$3
 70
     0
  4
"
 41
2.5
 42
1.0
 43
10.0
 44
1.0
 47
0.1
 48
0.1
 73
     0
 77
     1
 78
     8
 79
     2
140
3.5
141
0.0
143
0.0393701
146
0.71
147
1.5
176
   256
177
   256
178
     2
271
     2
272
     3
274
     4
283
     0
284
     8
288
     1
289
     0
340
F
371
    -1
372
    -1
1001
ACAD_DSTYLE_DIMARC_LENGTH_SYMBOL
1070
   379
1070
     1
1001
ACAD_DSTYLE_DIMJOGGED_JOGANGLE_SYMBOL
1070
   384
1040
0.7853981633974483
  0
DIMSTYLE
105
6BE
330
A
100
AcDbSymbolTableRecord
100
AcDbDimStyleTableRecord
  2
AM_ISO$4
 70
     0
  4
"
 41
2.5
 42
1.0
 43
10.0
 44
1.0
 47
0.1
 48
0.1
 73
     0
 77
     1
 78
     8
 79
     2
140
3.5
141
0.0
143
0.0393701
146
0.71
147
1.5
176
   256
177
   256
178
     2
271
     2
272
     3
274
     4
283
     0
284
     8
288
     1
289
     0
340
F
371
    -1
372
    -1
1001
ACAD_DSTYLE_DIMARC_LENGTH_SYMBOL
1070
   379
1070
     1
1001
ACAD_DSTYLE_DIMJOGGED_JOGANGLE_SYMBOL
1070
   384
1040
0.7853981633974483
  0
DIMSTYLE
105
6BF
330
A
100
AcDbSymbolTableRecord
100
AcDbDimStyleTableRecord
  2
AM_ISO$6
 70
     0
  4
"
 41
2.5
 42
1.0
 43
10.0
 44
1.0
 47
0.1
 48
0.1
 73
     0
 74
     0
 78
     8
 79
     2
140
3.5
141
0.0
143
0.0393701
146
0.71
147
1.5
172
     1
176
   256
177
   256
178
     2
271
     2
272
     3
274
     4
283
     0
284
     8
340
F
371
    -1
372
    -1
1001
ACAD_DSTYLE_DIMARC_LENGTH_SYMBOL
1070
   379
1070
     1
1001
ACAD_DSTYLE_DIMJOGGED_JOGANGLE_SYMBOL
1070
   384
1040
0.7853981633974483
  0
DIMSTYLE
105
6C0
330
A
100
AcDbSymbolTableRecord
100
AcDbDimStyleTableRecord
  2
AM_ISO$7
 70
     0
  4
"
 41
2.5
 42
1.0
 43
10.0
 44
1.0
 47
0.1
 48
0.1
 73
     0
 74
     0
 77
     1
 78
     8
 79
     2
140
5.0
141
0.0
143
0.0393701
146
0.71
147
1.5
172
     1
176
   256
177
   256
178
     2
271
     2
272
     3
274
     4
283
     0
284
     8
340
F
371
    -1
372
    -1
1001
ACAD_DSTYLE_DIMARC_LENGTH_SYMBOL
1070
   379
1070
     1
1001
ACAD_DSTYLE_DIMJOGGED_JOGANGLE_SYMBOL
1070
   384
1040
0.7853981633974483
  0
DIMSTYLE
105
6C1
330
A
100
AcDbSymbolTableRecord
100
AcDbDimStyleTableRecord
  2
AM_ISO$SF
 70
     0
  4
"
 41
2.5
 42
1.0
 43
10.0
 44
1.0
 47
0.1
 48
0.1
 73
     0
 74
     0
 75
     1
 76
     1
 77
     1
 78
     8
 79
     2
140
3.5
141
0.0
143
0.0393701
146
0.71
147
1.5
172
     1
176
   256
177
   256
178
     2
271
     2
272
     3
274
     4
283
     0
284
     8
340
F
371
    -1
372
    -1
1001
ACAD_DSTYLE_DIMARC_LENGTH_SYMBOL
1070
   379
1070
     1
1001
ACAD_DSTYLE_DIMJOGGED_JOGANGLE_SYMBOL
1070
   384
1040
0.7853981633974483
  0
DIMSTYLE
105
6C2
330
A
100
AcDbSymbolTableRecord
100
AcDbDimStyleTableRecord
  2
AM_ISO$SH
 70
     0
  4
"
 41
2.5
 42
1.0
 43
10.0
 44
1.0
 47
0.1
 48
0.1
 73
     0
 74
     0
 75
     1
 76
     1
 77
     1
 78
     8
 79
     2
140
3.5
141
0.0
143
0.0393701
144
2.0
146
0.71
147
1.5
172
     1
173
     1
176
   256
177
   256
178
     2
271
     2
272
     3
274
     4
283
     0
284
     8
340
F
343
6A2
371
    -1
372
    -1
1001
ACAD_DSTYLE_DIMARC_LENGTH_SYMBOL
1070
   379
1070
     1
1001
ACAD_DSTYLE_DIMJOGGED_JOGANGLE_SYMBOL
1070
   384
1040
0.7853981633974483
  0
DIMSTYLE
105
6DC
330
A
100
AcDbSymbolTableRecord
100
AcDbDimStyleTableRecord
  2
kuroda_sunpo
 70
     0
  4
"
 41
2.5
 42
1.0
 43
8.0
 44
1.0
 47
0.1
 48
0.1
 73
     0
 74
     0
 77
     3
 78
     8
 79
     2
140
3.2
141
0.0
143
0.0393701
146
0.71
147
1.5
172
     1
176
     7
177
     7
178
     7
179
     2
271
     3
272
     3
275
     1
283
     0
340
F
341
A7
342
A7
371
    -1
372
    -1
  0
DIMSTYLE
105
6E4
330
A
100
AcDbSymbolTableRecord
100
AcDbDimStyleTableRecord
  2
kuroda_sunpo$3
 70
     0
  4
"
 41
2.5
 42
1.0
 43
8.0
 44
1.0
 47
0.1
 48
0.1
 73
     0
 77
     3
 78
     8
 79
     2
140
3.2
141
0.0
143
0.0393701
146
0.71
147
1.5
176
     7
177
     7
178
     7
179
     2
271
     3
272
     3
275
     1
283
     0
288
     1
289
     0
340
F
341
A7
342
A7
371
    -1
372
    -1
  0
DIMSTYLE
105
6E5
330
A
100
AcDbSymbolTableRecord
100
AcDbDimStyleTableRecord
  2
kuroda_sunpo$4
 70
     0
  4
"
 41
2.5
 42
1.0
 43
8.0
 44
1.0
 47
0.1
 48
0.1
 73
     0
 77
     3
 78
     8
 79
     2
140
3.2
141
0.0
143
0.0393701
146
0.71
147
1.5
176
     7
177
     7
178
     7
179
     2
271
     3
272
     3
275
     1
283
     0
288
     1
289
     0
340
F
341
A7
342
A7
371
    -1
372
    -1
  0
DIMSTYLE
105
6E6
330
A
100
AcDbSymbolTableRecord
100
AcDbDimStyleTableRecord
  2
kuroda_sunpo$6
 70
     0
  4
"
 41
2.5
 42
1.0
 43
8.0
 44
1.0
 47
0.1
 48
0.1
 73
     0
 74
     0
 78
     8
 79
     2
140
3.2
141
0.0
143
0.0393701
146
0.71
147
1.5
172
     1
176
     7
177
     7
178
     7
179
     2
271
     3
272
     3
275
     1
283
     0
340
F
341
A7
342
A7
371
    -1
372
    -1
  0
DIMSTYLE
105
6E7
330
A
100
AcDbSymbolTableRecord
100
AcDbDimStyleTableRecord
  2
kuroda_sunpo$SF
 70
     0
  4
"
 41
2.5
 42
1.0
 43
8.0
 44
1.0
 47
0.1
 48
0.1
 73
     0
 74
     0
 75
     1
 76
     1
 77
     3
 78
     8
 79
     2
140
5.0
141
0.0
143
0.0393701
146
0.71
147
1.5
172
     1
176
   256
177
   256
178
     7
179
     2
271
     3
272
     3
275
     1
283
     0
340
F
341
32
342
32
371
    -1
372
    -1
  0
DIMSTYLE
105
6EE
330
A
100
AcDbSymbolTableRecord
100
AcDbDimStyleTableRecord
  2
kuroda_sunpo$SH
 70
     0
  4
"
 41
2.5
 42
1.0
 43
8.0
 44
1.0
 47
0.1
 48
0.1
 73
     0
 74
     0
 75
     1
 76
     1
 77
     3
 78
     8
 79
     2
140
5.0
141
0.0
143
0.0393701
144
2.0
146
0.71
147
1.5
172
     1
173
     1
176
   256
177
   256
178
     7
179
     2
271
     3
272
     3
275
     1
283
     0
340
F
341
32
342
32
343
6A2
371
    -1
372
    -1
  0
DIMSTYLE
105
701
330
A
100
AcDbSymbolTableRecord
100
AcDbDimStyleTableRecord
  2
JIS-KURODA
 70
     0
  4
"
 41
2.5
 42
1.0
 43
10.0
 44
1.0
 47
0.1
 48
0.1
 73
     0
 74
     0
 77
     3
 78
     8
 79
     2
140
3.2
141
0.0
143
0.0393701
146
0.71
147
1.5
172
     1
174
     1
176
     7
177
     7
178
     7
271
     2
272
     2
283
     0
284
     8
340
F
341
A7
342
A7
371
    -1
372
    -1
1001
ACAD_DSTYLE_DIMARC_LENGTH_SYMBOL
1070
   379
1070
     1
1001
ACAD_DSTYLE_DIMJOGGED_JOGANGLE_SYMBOL
1070
   384
1040
0.7853981633974483
  0
DIMSTYLE
105
702
330
A
100
AcDbSymbolTableRecord
100
AcDbDimStyleTableRecord
  2
JIS-KURODA$2
 70
     0
  4
"
 41
2.5
 42
1.0
 43
10.0
 44
1.0
 47
0.1
 48
0.1
 73
     0
 74
     0
 77
     3
 78
     8
 79
     2
140
3.2
141
0.0
143
0.0393701
146
0.71
147
1.5
172
     1
174
     1
176
     7
177
     7
178
     7
271
     2
272
     2
283
     0
284
     8
340
F
341
A7
342
A7
371
    -1
372
    -1
1001
ACAD_DSTYLE_DIMARC_LENGTH_SYMBOL
1070
   379
1070
     1
1001
ACAD_DSTYLE_DIMJOGGED_JOGANGLE_SYMBOL
1070
   384
1040
0.7853981633974483
  0
DIMSTYLE
105
703
330
A
100
AcDbSymbolTableRecord
100
AcDbDimStyleTableRecord
  2
JIS-KURODA$3
 70
     0
  4
"
 41
2.5
 42
1.0
 43
10.0
 44
1.0
 47
0.1
 48
0.1
 73
     0
 74
     0
 77
     3
 78
     8
 79
     2
140
3.2
141
0.0
143
0.0393701
146
0.71
147
1.5
172
     1
176
     7
177
     7
178
     7
271
     2
272
     2
283
     0
284
     8
288
     1
289
     2
340
F
341
32
342
A7
371
    -1
372
    -1
1001
ACAD_DSTYLE_DIMARC_LENGTH_SYMBOL
1070
   379
1070
     1
1001
ACAD_DSTYLE_DIMJOGGED_JOGANGLE_SYMBOL
1070
   384
1040
0.7853981633974483
  0
DIMSTYLE
105
704
330
A
100
AcDbSymbolTableRecord
100
AcDbDimStyleTableRecord
  2
JIS-KURODA$4
 70
     0
  4
"
 41
2.5
 42
1.0
 43
10.0
 44
1.0
 47
0.1
 48
0.1
 73
     0
 77
     3
 78
     8
 79
     2
140
3.2
141
0.0
143
0.0393701
146
0.71
147
1.5
173
     1
176
     7
177
     7
178
     7
271
     2
272
     2
279
     1
283
     0
284
     8
288
     1
289
     0
340
F
341
32
343
32
344
A7
371
    -1
372
    -1
1001
ACAD_DSTYLE_DIMARC_LENGTH_SYMBOL
1070
   379
1070
     1
1001
ACAD_DSTYLE_DIMJOGGED_JOGANGLE_SYMBOL
1070
   384
1040
0.7853981633974483
  0
DIMSTYLE
105
705
330
A
100
AcDbSymbolTableRecord
100
AcDbDimStyleTableRecord
  2
JIS-KURODA$6
 70
     0
  4
"
 41
2.5
 42
1.0
 43
10.0
 44
1.0
 47
0.1
 48
0.1
 73
     0
 74
     0
 78
     8
 79
     2
140
3.2
141
0.0
143
0.0393701
146
0.71
147
1.5
172
     1
176
     7
177
     7
178
     7
271
     2
272
     2
279
     1
283
     0
284
     8
340
F
341
32
342
32
371
    -1
372
    -1
1001
ACAD_DSTYLE_DIMARC_LENGTH_SYMBOL
1070
   379
1070
     1
1001
ACAD_DSTYLE_DIMJOGGED_JOGANGLE_SYMBOL
1070
   384
1040
0.7853981633974483
  0
DIMSTYLE
105
706
330
A
100
AcDbSymbolTableRecord
100
AcDbDimStyleTableRecord
  2
JIS-KURODA$7
 70
     0
  4
"
 41
2.5
 42
1.0
 43
10.0
 44
1.0
 47
0.1
 48
0.1
 73
     0
 74
     0
 77
     3
 78
     8
 79
     2
140
4.000000000000003
141
0.0
143
0.0393701
146
0.71
147
1.5
172
     1
176
     7
177
     7
178
     7
271
     2
272
     2
279
     1
283
     0
284
     8
340
F
341
A7
342
32
371
    -1
372
    -1
1001
ACAD_DSTYLE_DIMARC_LENGTH_SYMBOL
1070
   379
1070
     1
1001
ACAD_DSTYLE_DIMJOGGED_JOGANGLE_SYMBOL
1070
   384
1040
0.7853981633974483
  0
DIMSTYLE
105
707
330
A
100
AcDbSymbolTableRecord
100
AcDbDimStyleTableRecord
  2
JIS-KURODA$SF
 70
     0
  4
"
 41
2.5
 42
1.0
 43
10.0
 44
1.0
 47
0.1
 48
0.1
 73
     0
 74
     0
 75
     1
 76
     1
 77
     3
 78
     8
 79
     2
140
3.5
141
0.0
143
0.0393701
146
0.71
147
1.5
172
     1
176
   256
177
   256
178
     7
271
     2
272
     3
274
     4
283
     0
284
     8
340
F
341
32
342
32
343
32
344
32
371
    -1
372
    -1
1001
ACAD_DSTYLE_DIMARC_LENGTH_SYMBOL
1070
   379
1070
     1
1001
ACAD_DSTYLE_DIMJOGGED_JOGANGLE_SYMBOL
1070
   384
1040
0.7853981633974483
  0
DIMSTYLE
105
708
330
A
100
AcDbSymbolTableRecord
100
AcDbDimStyleTableRecord
  2
JIS-KURODA$SH
 70
     0
  4
"
 41
2.5
 42
1.0
 43
10.0
 44
1.0
 47
0.1
 48
0.1
 73
     0
 74
     0
 75
     1
 76
     1
 77
     3
 78
     8
 79
     2
140
3.5
141
0.0
143
0.0393701
144
2.0
146
0.71
147
1.5
172
     1
173
     1
176
   256
177
   256
178
     7
271
     2
272
     3
274
     4
283
     0
284
     8
340
F
341
32
342
32
343
6A2
344
32
371
    -1
372
    -1
1001
ACAD_DSTYLE_DIMARC_LENGTH_SYMBOL
1070
   379
1070
     1
1001
ACAD_DSTYLE_DIMJOGGED_JOGANGLE_SYMBOL
1070
   384
1040
0.7853981633974483
  0
DIMSTYLE
105
140B
330
A
100
AcDbSymbolTableRecord
100
AcDbDimStyleTableRecord
  2
JIS-KURODA$0
 70
     0
  4
"
 41
2.5
 42
1.0
 43
10.0
 44
1.0
 47
0.1
 48
0.1
 73
     0
 74
     0
 77
     3
 78
     8
 79
     2
140
3.2
141
0.0
143
0.0393701
146
0.71
147
1.5
172
     1
174
     1
176
     7
177
     7
178
     7
271
     2
272
     2
283
     0
284
     8
340
F
341
A7
342
A7
371
    -1
372
    -1
1001
ACAD_DSTYLE_DIMARC_LENGTH_SYMBOL
1070
   379
1070
     1
1001
ACAD_DSTYLE_DIMJOGGED_JOGANGLE_SYMBOL
1070
   384
1040
0.7853981633974483
  0
ENDTAB
  0
TABLE
  2
BLOCK_RECORD
  5
1
330
0
100
AcDbSymbolTable
 70
     5
  0
BLOCK_RECORD
  5
18
102
{ACAD_XDICTIONARY
360
5E4
102
}
330
1
100
AcDbSymbolTableRecord
100
AcDbBlockTableRecord
  2
*MODEL_SPACE
340
60
  0
BLOCK_RECORD
  5
15
102
{ACAD_XDICTIONARY
360
5E2
102
}
330
1
100
AcDbSymbolTableRecord
100
AcDbBlockTableRecord
  2
*PAPER_SPACE
340
61
  0
BLOCK_RECORD
  5
32
330
1
100
AcDbSymbolTableRecord
100
AcDbBlockTableRecord
  2
_Open30
340
0
  0
BLOCK_RECORD
  5
A7
330
1
100
AcDbSymbolTableRecord
100
AcDbBlockTableRecord
  2
_Open
340
0
  0
BLOCK_RECORD
  5
6A2
330
1
100
AcDbSymbolTableRecord
100
AcDbBlockTableRecord
  2
GENAXEH
340
0
  0
BLOCK_RECORD
  5
1391
330
1
100
AcDbSymbolTableRecord
100
AcDbBlockTableRecord
  2
*D3
340
0
  0
ENDTAB
  0
ENDSEC
  0
SECTION
  2
BLOCKS
  0
BLOCK
  5
19
330
18
100
AcDbEntity
  8
0
100
AcDbBlockBegin
  2
*MODEL_SPACE
 70
     0
 10
0.0
 20
0.0
 30
0.0
  3
*MODEL_SPACE
  1

  0
ENDBLK
  5
1A
330
18
100
AcDbEntity
  8
0
100
AcDbBlockEnd
  0
BLOCK
  5
16
330
15
100
AcDbEntity
 67
     1
  8
0
100
AcDbBlockBegin
  2
*PAPER_SPACE
 70
     0
 10
0.0
 20
0.0
 30
0.0
  3
*PAPER_SPACE
  1

  0
ENDBLK
  5
17
330
15
100
AcDbEntity
 67
     1
  8
0
100
AcDbBlockEnd
  0
BLOCK
  5
181F
330
32
100
AcDbEntity
  8
0
100
AcDbBlockBegin
  2
_Open30
 70
     0
 10
0.0
 20
0.0
 30
0.0
  3
_Open30
  1

  0
LINE
  5
1820
330
32
100
AcDbEntity
  8
0
 62
     0
370
    -2
100
AcDbLine
 10
-1.0
 20
0.26794919
 30
0.0
 11
0.0
 21
0.0
 31
0.0
  0
LINE
  5
1821
330
32
100
AcDbEntity
  8
0
 62
     0
370
    -2
100
AcDbLine
 10
0.0
 20
0.0
 30
0.0
 11
-1.0
 21
-0.26794919
 31
0.0
  0
LINE
  5
1822
330
32
100
AcDbEntity
  8
0
 62
     0
370
    -2
100
AcDbLine
 10
0.0
 20
0.0
 30
0.0
 11
-1.0
 21
0.0
 31
0.0
  0
ENDBLK
  5
1823
330
32
100
AcDbEntity
  8
0
100
AcDbBlockEnd
  0
BLOCK
  5
1814
330
A7
100
AcDbEntity
  8
0
100
AcDbBlockBegin
  2
_Open
 70
     0
 10
0.0
 20
0.0
 30
0.0
  3
_Open
  1

  0
LINE
  5
1815
330
A7
100
AcDbEntity
  8
outline
 62
     0
370
    -2
100
AcDbLine
 10
-1.0
 20
0.1666666666666666
 30
0.0
 11
0.0
 21
0.0
 31
0.0
  0
LINE
  5
1817
330
A7
100
AcDbEntity
  8
outline
 62
     0
370
    -2
100
AcDbLine
 10
-1.0
 20
-0.1666666666666666
 30
0.0
 11
0.0
 21
0.0
 31
0.0
  0
LINE
  5
1818
330
A7
100
AcDbEntity
  8
outline
 62
     0
370
    -2
100
AcDbLine
 10
0.0
 20
0.0
 30
0.0
 11
-1.0
 21
0.0
 31
0.0
  0
ENDBLK
  5
1819
330
A7
100
AcDbEntity
  8
0
100
AcDbBlockEnd
  0
BLOCK
  5
17D9
330
6A2
100
AcDbEntity
  8
0
100
AcDbBlockBegin
  2
GENAXEH
 70
     0
 10
0.0
 20
0.0
 30
0.0
  3
GENAXEH
  1

  0
LINE
  5
17DA
330
6A2
100
AcDbEntity
  8
0
100
AcDbLine
 10
-1.0
 20
0.0
 30
0.0
 11
1.0
 21
0.0
 31
0.0
  0
ENDBLK
  5
17DB
330
6A2
100
AcDbEntity
  8
0
100
AcDbBlockEnd
  0
BLOCK
  5
139B
330
1391
100
AcDbEntity
  8
0
100
AcDbBlockBegin
  2
*D3
 70
     1
 10
0.0
 20
0.0
 30
0.0
  3
*D3
  1

  0
LINE
  5
13C5
330
1391
100
AcDbEntity
  8
dimension
 62
    44
370
    -2
100
AcDbLine
 10
200.728967681428
 20
102.4234099620989
 30
0.0
 11
200.728967681428
 21
77.33984647680512
 31
0.0
  0
LINE
  5
13C6
330
1391
100
AcDbEntity
  8
dimension
 62
    44
370
    -2
100
AcDbLine
 10
530.728967681428
 20
100.4234099620989
 30
0.0
 11
530.728967681428
 21
77.33984647680512
 31
0.0
  0
LINE
  5
13C7
330
1391
100
AcDbEntity
  8
dimension
 62
    44
370
    -2
100
AcDbLine
 10
203.728967681428
 20
79.33984647680512
 30
0.0
 11
527.7289676814279
 21
79.33984647680512
 31
0.0
  0
INSERT
  5
13C8
330
1391
100
AcDbEntity
  8
dimension
 62
    44
370
    -2
100
AcDbBlockReference
  2
_Open30
 10
200.728967681428
 20
79.33984647680512
 30
0.0
 41
3.0
 42
3.0
 43
3.0
 50
180.0
  0
INSERT
  5
13C9
330
1391
100
AcDbEntity
  8
dimension
 62
    44
370
    -2
100
AcDbBlockReference
  2
_Open30
 10
530.728967681428
 20
79.33984647680512
 30
0.0
 41
3.0
 42
3.0
 43
3.0
  0
MTEXT
  5
13CA
330
1391
100
AcDbEntity
  8
dimension
 62
    44
100
AcDbMText
 10
365.728967681428
 20
81.43984647680511
 30
0.0
 40
2.799999999999999
 41
0.0
 71
     5
 72
     1
  1
\A1;L
 73
     1
 44
1.0
1001
ACAD
1000
MTEXTBEGIN
1070
    73
1070
     1
1070
    44
1040
1.0
1070
    74
1070
     0
1000
MTEXTEND
  0
POINT
  5
13CB
330
1391
100
AcDbEntity
  8
Defpoints
 62
     0
100
AcDbPoint
 10
200.728967681428
 20
103.4234099620989
 30
0.0
  0
POINT
  5
13CC
330
1391
100
AcDbEntity
  8
Defpoints
 62
     0
100
AcDbPoint
 10
530.728967681428
 20
101.4234099620989
 30
0.0
  0
POINT
  5
13CD
330
1391
100
AcDbEntity
  8
Defpoints
 62
     0
100
AcDbPoint
 10
530.728967681428
 20
79.33984647680512
 30
0.0
  0
ENDBLK
  5
139C
330
1391
100
AcDbEntity
  8
0
100
AcDbBlockEnd
  0
ENDSEC
  0
SECTION
  2
ENTITIES
  0
LINE
  5
D28
330
18
100
AcDbEntity
  8
center
 62
     0
100
AcDbLine
 10
433.3780443155021
 20
36.32123423544039
 30
0.0
 11
533.8535223242656
 21
36.32123423544039
 31
0.0
  0
LINE
  5
D29
330
18
100
AcDbEntity
  8
note
100
AcDbLine
 10
530.228967681428
 20
41.32123423544038
 30
0.0
 11
530.228967681428
 21
31.32123423544039
 31
0.0
  0
LINE
  5
D2A
330
18
100
AcDbEntity
  8
PV0001_1
  6
PHANTOM2
 48
0.5
370
    25
100
AcDbLine
 10
530.728967681428
 20
31.82123423544039
 30
0.0
 11
530.228967681428
 21
31.32123423544039
 31
0.0
1001
GENIUS_GENFIL_13
1070
     0
1040
0.5
1040
0.5
1040
2.5
1040
39.71702246039786
1002
{
1002
}
1001
GENIUS_GENODEF_13
1002
{
1000
HIER
1070
     0
1002
}
1002
{
1000
MANEDIT
1070
     0
1002
}
1002
{
1000
NOSEL
1070
     0
1002
}
1002
{
1000
BEHIND
1070
     0
1002
}
1002
{
1000
OTHER
1070
     0
1002
}
1002
{
1000
REACTOR
1002
}
1001
GENIUS_GENOBJ-N-CHA_13
1002
{
1000
OWNER
1000
GEN
1002
}
  0
LINE
  5
D2B
330
18
100
AcDbEntity
  8
PV0001_1
  6
PHANTOM2
 48
0.5
370
    25
100
AcDbLine
 10
530.228967681428
 20
41.32123423544038
 30
0.0
 11
530.728967681428
 21
40.82123423544039
 31
0.0
1001
GENIUS_GENFIL_13
1070
     0
1040
0.5
1040
0.5
1040
2.5
1040
39.71702246039786
1002
{
1002
}
1001
GENIUS_GENOBJ-N-CHA_13
1002
{
1000
OWNER
1000
GEN
1002
}
1001
GENIUS_GENODEF_13
1002
{
1000
HIER
1070
     0
1002
}
1002
{
1000
MANEDIT
1070
     0
1002
}
1002
{
1000
NOSEL
1070
     0
1002
}
1002
{
1000
BEHIND
1070
     0
1002
}
1002
{
1000
OTHER
1070
     0
1002
}
1002
{
1000
REACTOR
1002
}
  0
LINE
  5
D2C
330
18
100
AcDbEntity
  8
PV0001_1
  6
DASHED2
 48
0.5
370
    50
100
AcDbLine
 10
527.7289676814279
 20
31.52124644248039
 30
0.0
 11
526.7290287165779
 21
31.52124644248039
 31
0.0
  0
LINE
  5
D2D
330
18
100
AcDbEntity
  8
PV0001_1
  6
DASHED2
 48
0.5
370
    50
100
AcDbLine
 10
527.7289676814279
 20
41.12122202841038
 30
0.0
 11
526.7290287165779
 21
41.12122202841038
 31
0.0
  0
LINE
  5
D2E
330
18
100
AcDbEntity
  8
PV0001_1
  6
DASHED2
 48
0.5
370
    50
100
AcDbLine
 10
526.728967681428
 20
41.32123423544038
 30
0.0
 11
518.7289676814279
 21
41.32123423544038
 31
0.0
  0
LINE
  5
D2F
330
18
100
AcDbEntity
  8
PV0001_1
  6
DASHED2
 48
0.5
370
    50
100
AcDbLine
 10
526.728967681428
 20
31.32123423544039
 30
0.0
 11
518.7289676814279
 21
31.32123423544039
 31
0.0
  0
LINE
  5
D30
330
18
100
AcDbEntity
  8
PV0001_1
  6
DASHED2
 48
0.5
370
    50
100
AcDbLine
 10
526.728967681428
 20
49.32123423544038
 30
0.0
 11
518.7289676814279
 21
49.32123423544038
 31
0.0
  0
LINE
  5
D31
330
18
100
AcDbEntity
  8
PV0001_1
  6
DASHED2
 48
0.5
370
    50
100
AcDbLine
 10
526.728967681428
 20
23.32123423544039
 30
0.0
 11
518.7289676814279
 21
23.32123423544039
 31
0.0
  0
LINE
  5
D32
330
18
100
AcDbEntity
  8
PV0001_1
  6
DASHED2
 48
0.5
370
    50
100
AcDbLine
 10
526.728967681428
 20
23.32123423544039
 30
0.0
 11
526.728967681428
 21
49.32123423544038
 31
0.0
  0
LINE
  5
D33
330
18
100
AcDbEntity
  8
PV0001_1
  6
DASHED2
 48
0.5
370
    50
100
AcDbLine
 10
518.7289676814279
 20
23.32123423544039
 30
0.0
 11
518.7289676814279
 21
49.32123423544038
 31
0.0
  0
LINE
  5
D34
330
18
100
AcDbEntity
  8
PV0001_1
  6
DASHED2
 48
0.5
370
    50
100
AcDbLine
 10
527.7289676814279
 20
31.52124644248039
 30
0.0
 11
526.7290287165779
 21
31.52124644248039
 31
0.0
  0
LINE
  5
D35
330
18
100
AcDbEntity
  8
PV0001_1
  6
DASHED2
 48
0.5
370
    50
100
AcDbLine
 10
527.7289676814279
 20
41.12122202841038
 30
0.0
 11
526.7290287165779
 21
41.12122202841038
 31
0.0
  0
LINE
  5
D36
330
18
100
AcDbEntity
  8
PV0001_1
  6
DASHED2
 48
0.5
370
    50
100
AcDbLine
 10
527.7289676814279
 20
27.82123423544039
 30
0.0
 11
526.7290287165779
 21
27.82123423544039
 31
0.0
  0
LINE
  5
D37
330
18
100
AcDbEntity
  8
PV0001_1
  6
DASHED2
 48
0.5
370
    50
100
AcDbLine
 10
527.7289676814279
 20
44.82123423544038
 30
0.0
 11
526.7290287165779
 21
44.82123423544038
 31
0.0
  0
LINE
  5
D38
330
18
100
AcDbEntity
  8
PV0001_1
  6
DASHED2
 48
0.5
370
    50
100
AcDbLine
 10
527.7289676814279
 20
27.82123423544039
 30
0.0
 11
527.7289676814279
 21
44.82123423544038
 31
0.0
  0
LINE
  5
D39
330
18
100
AcDbEntity
  8
PV0001_1
  6
PHANTOM2
 48
0.5
370
    25
100
AcDbLine
 10
530.728967681428
 20
40.82123423544039
 30
0.0
 11
530.728967681428
 21
31.82123423544039
 31
0.0
  0
LINE
  5
D3A
330
18
100
AcDbEntity
  8
PV0001_1
  6
PHANTOM2
 48
0.5
370
    25
100
AcDbLine
 10
518.7289676814279
 20
43.82123423544038
 30
0.0
 11
518.7289676814279
 21
28.82123423544039
 31
0.0
  0
LINE
  5
D3B
330
18
100
AcDbEntity
  8
PV0001_1
  6
PHANTOM2
 48
0.5
370
    25
100
AcDbLine
 10
518.7289676814279
 20
31.32123423544039
 30
0.0
 11
526.728967681428
 21
31.32123423544039
 31
0.0
  0
LINE
  5
D3C
330
18
100
AcDbEntity
  8
PV0001_1
  6
PHANTOM2
 48
0.5
370
    25
100
AcDbLine
 10
518.7289676814279
 20
41.32123423544038
 30
0.0
 11
526.728967681428
 21
41.32123423544038
 31
0.0
  0
LINE
  5
D3D
330
18
100
AcDbEntity
  8
PV0001_1
  6
PHANTOM2
 48
0.5
370
    25
100
AcDbLine
 10
526.728967681428
 20
31.52124644248039
 30
0.0
 11
527.878992095488
 21
31.52124644248039
 31
0.0
  0
LINE
  5
D3E
330
18
100
AcDbEntity
  8
PV0001_1
  6
PHANTOM2
 48
0.5
370
    25
100
AcDbLine
 10
526.728967681428
 20
41.32123423544038
 30
0.0
 11
526.728967681428
 21
31.32123423544039
 31
0.0
  0
LINE
  5
D3F
330
18
100
AcDbEntity
  8
PV0001_1
  6
PHANTOM2
 48
0.5
370
    25
100
AcDbLine
 10
527.878992095488
 20
41.32123423544038
 30
0.0
 11
527.878992095488
 21
31.32123423544039
 31
0.0
  0
LINE
  5
D40
330
18
100
AcDbEntity
  8
PV0001_1
  6
PHANTOM2
 48
0.5
370
    25
100
AcDbLine
 10
527.878992095488
 20
31.32123423544039
 30
0.0
 11
530.228967681428
 21
31.32123423544039
 31
0.0
  0
LINE
  5
D41
330
18
100
AcDbEntity
  8
PV0001_1
  6
PHANTOM2
 48
0.5
370
    25
100
AcDbLine
 10
526.728967681428
 20
41.12122202841038
 30
0.0
 11
527.878992095488
 21
41.12122202841038
 31
0.0
  0
LINE
  5
D42
330
18
100
AcDbEntity
  8
PV0001_1
  6
PHANTOM2
 48
0.5
370
    25
100
AcDbLine
 10
527.878992095488
 20
41.32123423544038
 30
0.0
 11
530.228967681428
 21
41.32123423544038
 31
0.0
  0
LINE
  5
D43
330
18
100
AcDbEntity
  8
PV0001_1
  6
Continuous
 48
0.5
370
    50
100
AcDbLine
 10
512.728967681428
 20
1.321234235440385
 30
0.0
 11
532.728967681428
 21
1.321234235440385
 31
0.0
  0
LINE
  5
D44
330
18
100
AcDbEntity
  8
PV0001_1
  6
CENTER2
 48
0.5
370
    25
100
AcDbLine
 10
533.228967681428
 20
10.32123423544038
 30
0.0
 11
512.228967681428
 21
10.32123423544038
 31
0.0
  0
LINE
  5
D45
330
18
100
AcDbEntity
  8
PV0001_1
  6
CENTER2
 48
0.5
370
    25
100
AcDbLine
 10
522.728967681428
 20
20.82123423544039
 30
0.0
 11
522.728967681428
 21
-0.1787657645596141
 31
0.0
  0
LINE
  5
D46
330
18
100
AcDbEntity
  8
PV0001_1
  6
Continuous
 48
0.5
370
    50
100
AcDbLine
 10
512.728967681428
 20
18.57123423544038
 30
0.0
 11
532.728967681428
 21
18.57123423544038
 31
0.0
  0
CIRCLE
  5
D47
330
18
100
AcDbEntity
  8
PV0001_1
  6
Continuous
 48
0.5
370
    50
100
AcDbCircle
 10
522.728967681428
 20
10.32123423544038
 30
0.0
 40
4.5
  0
CIRCLE
  5
D48
330
18
100
AcDbEntity
  8
PV0001_1
  6
Continuous
370
    50
100
AcDbCircle
 10
522.728967681428
 20
10.32123423544038
 30
0.0
 40
7.0
  0
LINE
  5
D49
330
18
100
AcDbEntity
  8
PV0001_1
  6
Continuous
370
    50
100
AcDbLine
 10
512.728967681428
 20
71.32123423544038
 30
0.0
 11
512.728967681428
 21
1.321234235440385
 31
0.0
  0
LINE
  5
D4A
330
18
100
AcDbEntity
  8
PV0001_1
  6
Continuous
370
    50
100
AcDbLine
 10
532.728967681428
 20
71.32123423544038
 30
0.0
 11
532.728967681428
 21
1.321234235440385
 31
0.0
  0
LINE
  5
D4B
330
18
100
AcDbEntity
  8
PV0001_1
  6
Continuous
 48
0.5
370
    50
100
AcDbLine
 10
512.728967681428
 20
71.32123423544038
 30
0.0
 11
532.728967681428
 21
71.32123423544038
 31
0.0
  0
LINE
  5
D4C
330
18
100
AcDbEntity
  8
PV0001_1
  6
CENTER2
 48
0.5
370
    25
100
AcDbLine
 10
533.228967681428
 20
62.32123423544038
 30
0.0
 11
512.228967681428
 21
62.32123423544038
 31
0.0
  0
LINE
  5
D4D
330
18
100
AcDbEntity
  8
PV0001_1
  6
CENTER2
 48
0.5
370
    25
100
AcDbLine
 10
522.728967681428
 20
72.82123423544039
 30
0.0
 11
522.728967681428
 21
51.82123423544038
 31
0.0
  0
LINE
  5
D4E
330
18
100
AcDbEntity
  8
PV0001_1
  6
Continuous
 48
0.5
370
    50
100
AcDbLine
 10
512.728967681428
 20
54.07123423544039
 30
0.0
 11
532.728967681428
 21
54.07123423544039
 31
0.0
  0
CIRCLE
  5
D4F
330
18
100
AcDbEntity
  8
PV0001_1
  6
Continuous
 48
0.5
370
    50
100
AcDbCircle
 10
522.728967681428
 20
62.32123423544038
 30
0.0
 40
4.5
  0
CIRCLE
  5
D50
330
18
100
AcDbEntity
  8
PV0001_1
  6
Continuous
370
    50
100
AcDbCircle
 10
522.728967681428
 20
62.32123423544038
 30
0.0
 40
7.0
  0
LINE
  5
D51
330
18
100
AcDbEntity
  8
PV0001_1
  6
Continuous
 48
0.5
370
    50
100
AcDbLine
 10
251.7289981989979
 20
1.321234235440385
 30
0.0
 11
227.7289676814279
 21
1.321234235440385
 31
0.0
  0
LINE
  5
D52
330
18
100
AcDbEntity
  8
PV0001_1
  6
CENTER2
 48
0.5
370
    25
100
AcDbLine
 10
230.2289676814279
 20
10.32123423544038
 30
0.0
 11
249.2289981989979
 21
10.32123423544038
 31
0.0
  0
LINE
  5
D53
330
18
100
AcDbEntity
  8
PV0001_1
  6
CENTER2
 48
0.5
370
    25
100
AcDbLine
 10
239.7289981989979
 20
0.8212342354403858
 30
0.0
 11
239.7289981989979
 21
19.82123423544038
 31
0.0
  0
LINE
  5
D54
330
18
100
AcDbEntity
  8
PV0001_1
  6
Continuous
 48
0.5
370
    50
100
AcDbLine
 10
227.7289676814279
 20
18.82123423544038
 30
0.0
 11
221.7289981989979
 21
18.82123423544038
 31
0.0
  0
LINE
  5
D55
330
18
100
AcDbEntity
  8
PV0001_1
  6
Continuous
 48
0.5
370
    50
100
AcDbLine
 10
227.7289676814279
 20
18.57123423544038
 30
0.0
 11
251.7289981989979
 21
18.57123423544038
 31
0.0
  0
CIRCLE
  5
D56
330
18
100
AcDbEntity
  8
PV0001_1
  6
Continuous
370
    50
100
AcDbCircle
 10
239.7289981989979
 20
10.32123423544038
 30
0.0
 40
7.0
  0
CIRCLE
  5
D57
330
18
100
AcDbEntity
  8
PV0001_1
  6
Continuous
 48
0.5
370
    50
100
AcDbCircle
 10
239.7289981989979
 20
10.32123423544038
 30
0.0
 40
4.5
  0
LINE
  5
D58
330
18
100
AcDbEntity
  8
PV0001_1
  6
Continuous
 48
0.5
370
    50
100
AcDbLine
 10
216.228967681428
 20
26.82123423544039
 30
0.0
 11
216.228967681428
 21
45.82123423544039
 31
0.0
  0
LINE
  5
D59
330
18
100
AcDbEntity
  8
PV0001_1
  6
Continuous
 48
0.5
370
    50
100
AcDbLine
 10
221.7289981989979
 20
26.82123423544039
 30
0.0
 11
216.2289981989979
 21
26.82123423544039
 31
0.0
  0
LINE
  5
D5A
330
18
100
AcDbEntity
  8
PV0001_1
  6
Continuous
 48
0.5
370
    50
100
AcDbLine
 10
221.7289981989979
 20
45.82123423544039
 30
0.0
 11
216.2289981989979
 21
45.82123423544039
 31
0.0
  0
LINE
  5
D5B
330
18
100
AcDbEntity
  8
PV0001_1
  6
Continuous
370
    50
100
AcDbLine
 10
251.7289981989979
 20
1.321234235440385
 30
0.0
 11
251.7289981989979
 21
71.32123423544038
 31
0.0
  0
LINE
  5
D5C
330
18
100
AcDbEntity
  8
PV0001_1
  6
Continuous
370
    50
100
AcDbLine
 10
227.7289676814279
 20
1.321234235440385
 30
0.0
 11
227.7289676814279
 21
71.32123423544038
 31
0.0
  0
LINE
  5
D5D
330
18
100
AcDbEntity
  8
PV0001_1
  6
Continuous
 48
0.5
370
    50
100
AcDbLine
 10
251.7289981989979
 20
71.32123423544038
 30
0.0
 11
227.7289676814279
 21
71.32123423544038
 31
0.0
  0
LINE
  5
D5E
330
18
100
AcDbEntity
  8
PV0001_1
  6
Continuous
370
    50
100
AcDbLine
 10
221.7289981989979
 20
18.82123423544038
 30
0.0
 11
221.7289981989979
 21
53.82123423544038
 31
0.0
  0
LINE
  5
D5F
330
18
100
AcDbEntity
  8
PV0001_1
  6
CENTER2
 48
0.5
370
    25
100
AcDbLine
 10
239.7289981989979
 20
71.82123423544038
 30
0.0
 11
239.7289981989979
 21
52.82123423544039
 31
0.0
  0
LINE
  5
D60
330
18
100
AcDbEntity
  8
PV0001_1
  6
CENTER2
 48
0.5
370
    25
100
AcDbLine
 10
230.2289676814279
 20
62.32123423544038
 30
0.0
 11
249.2289981989979
 21
62.32123423544038
 31
0.0
  0
LINE
  5
D61
330
18
100
AcDbEntity
  8
PV0001_1
  6
Continuous
 48
0.5
370
    50
100
AcDbLine
 10
227.7289676814279
 20
53.82123423544038
 30
0.0
 11
221.7289981989979
 21
53.82123423544038
 31
0.0
  0
LINE
  5
D62
330
18
100
AcDbEntity
  8
PV0001_1
  6
Continuous
 48
0.5
370
    50
100
AcDbLine
 10
227.7289676814279
 20
54.07123423544039
 30
0.0
 11
251.7289981989979
 21
54.07123423544039
 31
0.0
  0
CIRCLE
  5
D63
330
18
100
AcDbEntity
  8
PV0001_1
  6
Continuous
 48
0.5
370
    50
100
AcDbCircle
 10
239.7289981989979
 20
62.32123423544038
 30
0.0
 40
4.5
  0
CIRCLE
  5
D64
330
18
100
AcDbEntity
  8
PV0001_1
  6
Continuous
370
    50
100
AcDbCircle
 10
239.7289981989979
 20
62.32123423544038
 30
0.0
 40
7.0
  0
MTEXT
  5
D65
330
18
100
AcDbEntity
  8
note
100
AcDbMText
 10
172.3461786281407
 20
163.1957293208455
 30
0.0
 40
3.2
 41
1.732092059601654
 71
     1
 72
     5
  1
L
 73
     1
 44
1.0
1001
ACAD
1000
MTEXTBEGIN
1070
    73
1070
     1
1070
    44
1040
1.0
1070
    74
1070
     0
1000
MTEXTEND
  0
MTEXT
  5
D66
330
18
100
AcDbEntity
  8
note
100
AcDbMText
 10
179.6457546825451
 20
158.5299127254202
 30
0.0
 40
4.799999999999999
 41
26.90798950194994
 71
     1
 72
     5
  1
530
 73
     1
 44
1.0
1001
ACAD
1000
MTEXTBEGIN
1070
    73
1070
     1
1070
    44
1040
1.0
1070
    74
1070
     0
1000
MTEXTEND
  0
MTEXT
  5
D67
330
18
100
AcDbEntity
  8
note
100
AcDbMText
 10
172.3461786281407
 20
175.1957293208455
 30
0.0
 40
3.2
 41
1.732092059601654
 71
     1
 72
     5
  1
L
 73
     1
 44
1.0
1001
ACAD
1000
MTEXTBEGIN
1070
    73
1070
     1
1070
    44
1040
1.0
1070
    74
1070
     0
1000
MTEXTEND
  0
MTEXT
  5
D68
330
18
100
AcDbEntity
  8
note
100
AcDbMText
 10
179.6457546825451
 20
170.5299127254203
 30
0.0
 40
4.799999999999999
 41
26.90798950194994
 71
     1
 72
     5
  1
530
 73
     1
 44
1.0
1001
ACAD
1000
MTEXTBEGIN
1070
    73
1070
     1
1070
    44
1040
1.0
1070
    74
1070
     0
1000
MTEXTEND
  0
MTEXT
  5
D69
330
18
100
AcDbEntity
  8
note
100
AcDbMText
 10
172.3461786281407
 20
187.1957293208455
 30
0.0
 40
3.2
 41
1.732092059601654
 71
     1
 72
     5
  1
L
 73
     1
 44
1.0
1001
ACAD
1000
MTEXTBEGIN
1070
    73
1070
     1
1070
    44
1040
1.0
1070
    74
1070
     0
1000
MTEXTEND
  0
MTEXT
  5
D6A
330
18
100
AcDbEntity
  8
note
100
AcDbMText
 10
179.6457546825451
 20
182.5299127254202
 30
0.0
 40
4.799999999999999
 41
26.90798950194994
 71
     1
 72
     5
  1
430
 73
     1
 44
1.0
1001
ACAD
1000
MTEXTBEGIN
1070
    73
1070
     1
1070
    44
1040
1.0
1070
    74
1070
     0
1000
MTEXTEND
  0
MTEXT
  5
D6B
330
18
100
AcDbEntity
  8
note
100
AcDbMText
 10
172.3461786281407
 20
199.1957293208455
 30
0.0
 40
3.2
 41
1.732092059601654
 71
     1
 72
     5
  1
L
 73
     1
 44
1.0
1001
ACAD
1000
MTEXTBEGIN
1070
    73
1070
     1
1070
    44
1040
1.0
1070
    74
1070
     0
1000
MTEXTEND
  0
MTEXT
  5
D6C
330
18
100
AcDbEntity
  8
note
100
AcDbMText
 10
179.6457546825451
 20
194.5299127254203
 30
0.0
 40
4.799999999999999
 41
26.90798950194994
 71
     1
 72
     5
  1
430
 73
     1
 44
1.0
1001
ACAD
1000
MTEXTBEGIN
1070
    73
1070
     1
1070
    44
1040
1.0
1070
    74
1070
     0
1000
MTEXTEND
  0
MTEXT
  5
D6D
330
18
100
AcDbEntity
  8
note
100
AcDbMText
 10
172.3461786281407
 20
211.1957293208455
 30
0.0
 40
3.2
 41
1.732092059601654
 71
     1
 72
     5
  1
L
 73
     1
 44
1.0
1001
ACAD
1000
MTEXTBEGIN
1070
    73
1070
     1
1070
    44
1040
1.0
1070
    74
1070
     0
1000
MTEXTEND
  0
MTEXT
  5
D6E
330
18
100
AcDbEntity
  8
note
100
AcDbMText
 10
179.6457546825451
 20
206.5299127254203
 30
0.0
 40
4.799999999999999
 41
26.90798950194994
 71
     1
 72
     5
  1
330
 73
     1
 44
1.0
1001
ACAD
1000
MTEXTBEGIN
1070
    73
1070
     1
1070
    44
1040
1.0
1070
    74
1070
     0
1000
MTEXTEND
  0
MTEXT
  5
D6F
330
18
100
AcDbEntity
  8
note
100
AcDbMText
 10
172.3461786281407
 20
223.1957293208455
 30
0.0
 40
3.2
 41
1.732092059601654
 71
     1
 72
     5
  1
L
 73
     1
 44
1.0
1001
ACAD
1000
MTEXTBEGIN
1070
    73
1070
     1
1070
    44
1040
1.0
1070
    74
1070
     0
1000
MTEXTEND
  0
MTEXT
  5
D70
330
18
100
AcDbEntity
  8
note
100
AcDbMText
 10
179.6457546825451
 20
218.5299127254203
 30
0.0
 40
4.799999999999999
 41
26.90798950194994
 71
     1
 72
     5
  1
330
 73
     1
 44
1.0
1001
ACAD
1000
MTEXTBEGIN
1070
    73
1070
     1
1070
    44
1040
1.0
1070
    74
1070
     0
1000
MTEXTEND
  0
MTEXT
  5
D71
330
18
100
AcDbEntity
  8
note
100
AcDbMText
 10
172.3461786281407
 20
235.1957293208455
 30
0.0
 40
3.2
 41
1.732092059601654
 71
     1
 72
     5
  1
L
 73
     1
 44
1.0
1001
ACAD
1000
MTEXTBEGIN
1070
    73
1070
     1
1070
    44
1040
1.0
1070
    74
1070
     0
1000
MTEXTEND
  0
MTEXT
  5
D72
330
18
100
AcDbEntity
  8
note
100
AcDbMText
 10
179.6457546825451
 20
230.5299127254203
 30
0.0
 40
4.799999999999999
 41
26.90798950194994
 71
     1
 72
     5
  1
280
 73
     1
 44
1.0
1001
ACAD
1000
MTEXTBEGIN
1070
    73
1070
     1
1070
    44
1040
1.0
1070
    74
1070
     0
1000
MTEXTEND
  0
MTEXT
  5
D73
330
18
100
AcDbEntity
  8
note
100
AcDbMText
 10
172.3461786281407
 20
247.1957293208455
 30
0.0
 40
3.2
 41
1.732092059601654
 71
     1
 72
     5
  1
L
 73
     1
 44
1.0
1001
ACAD
1000
MTEXTBEGIN
1070
    73
1070
     1
1070
    44
1040
1.0
1070
    74
1070
     0
1000
MTEXTEND
  0
MTEXT
  5
D74
330
18
100
AcDbEntity
  8
note
100
AcDbMText
 10
179.6457546825451
 20
242.5299127254203
 30
0.0
 40
4.799999999999999
 41
26.90798950194994
 71
     1
 72
     5
  1
280
 73
     1
 44
1.0
1001
ACAD
1000
MTEXTBEGIN
1070
    73
1070
     1
1070
    44
1040
1.0
1070
    74
1070
     0
1000
MTEXTEND
  0
MTEXT
  5
D75
330
18
100
AcDbEntity
  8
note
100
AcDbMText
 10
172.3461786281407
 20
259.1957293208455
 30
0.0
 40
3.2
 41
1.732092059601654
 71
     1
 72
     5
  1
L
 73
     1
 44
1.0
1001
ACAD
1000
MTEXTBEGIN
1070
    73
1070
     1
1070
    44
1040
1.0
1070
    74
1070
     0
1000
MTEXTEND
  0
MTEXT
  5
D76
330
18
100
AcDbEntity
  8
note
100
AcDbMText
 10
179.6457546825451
 20
254.5299127254203
 30
0.0
 40
4.799999999999999
 41
26.90798950194994
 71
     1
 72
     5
  1
230
 73
     1
 44
1.0
1001
ACAD
1000
MTEXTBEGIN
1070
    73
1070
     1
1070
    44
1040
1.0
1070
    74
1070
     0
1000
MTEXTEND
  0
MTEXT
  5
D77
330
18
100
AcDbEntity
  8
note
100
AcDbMText
 10
172.3461786281407
 20
271.1957293208454
 30
0.0
 40
3.2
 41
1.732092059601654
 71
     1
 72
     5
  1
L
 73
     1
 44
1.0
1001
ACAD
1000
MTEXTBEGIN
1070
    73
1070
     1
1070
    44
1040
1.0
1070
    74
1070
     0
1000
MTEXTEND
  0
MTEXT
  5
D78
330
18
100
AcDbEntity
  8
note
100
AcDbMText
 10
179.6457546825451
 20
266.5299127254201
 30
0.0
 40
4.799999999999999
 41
26.90798950194994
 71
     1
 72
     5
  1
230
 73
     1
 44
1.0
1001
ACAD
1000
MTEXTBEGIN
1070
    73
1070
     1
1070
    44
1040
1.0
1070
    74
1070
     0
1000
MTEXTEND
  0
MTEXT
  5
D79
330
18
100
AcDbEntity
  8
note
100
AcDbMText
 10
48.30802990307343
 20
163.2416466317411
 30
0.0
 40
3.2
 41
48.69688888888889
 71
     1
 72
     5
  1
MODEL
 73
     1
 44
1.0
1001
ACAD
1000
MTEXTBEGIN
1070
    73
1070
     1
1070
    44
1040
1.0
1070
    74
1070
     0
1000
MTEXTEND
  0
MTEXT
  5
D7A
330
18
100
AcDbEntity
  8
note
100
AcDbMText
 10
48.30802990307343
 20
175.2416466317411
 30
0.0
 40
3.2
 41
48.69688888888889
 71
     1
 72
     5
  1
MODEL
 73
     1
 44
1.0
1001
ACAD
1000
MTEXTBEGIN
1070
    73
1070
     1
1070
    44
1040
1.0
1070
    74
1070
     0
1000
MTEXTEND
  0
MTEXT
  5
D7B
330
18
100
AcDbEntity
  8
note
100
AcDbMText
 10
48.30802990307343
 20
187.2416466317411
 30
0.0
 40
3.2
 41
48.69688888888889
 71
     1
 72
     5
  1
MODEL
 73
     1
 44
1.0
1001
ACAD
1000
MTEXTBEGIN
1070
    73
1070
     1
1070
    44
1040
1.0
1070
    74
1070
     0
1000
MTEXTEND
  0
MTEXT
  5
D7C
330
18
100
AcDbEntity
  8
note
100
AcDbMText
 10
48.30802990307343
 20
199.2416466317411
 30
0.0
 40
3.2
 41
48.69688888888889
 71
     1
 72
     5
  1
MODEL
 73
     1
 44
1.0
1001
ACAD
1000
MTEXTBEGIN
1070
    73
1070
     1
1070
    44
1040
1.0
1070
    74
1070
     0
1000
MTEXTEND
  0
MTEXT
  5
D7D
330
18
100
AcDbEntity
  8
note
100
AcDbMText
 10
48.30802990307343
 20
211.2416466317412
 30
0.0
 40
3.2
 41
48.69688888888889
 71
     1
 72
     5
  1
MODEL
 73
     1
 44
1.0
1001
ACAD
1000
MTEXTBEGIN
1070
    73
1070
     1
1070
    44
1040
1.0
1070
    74
1070
     0
1000
MTEXTEND
  0
MTEXT
  5
D7E
330
18
100
AcDbEntity
  8
note
100
AcDbMText
 10
48.30802990307343
 20
223.2416466317411
 30
0.0
 40
3.2
 41
48.69688888888889
 71
     1
 72
     5
  1
MODEL
 73
     1
 44
1.0
1001
ACAD
1000
MTEXTBEGIN
1070
    73
1070
     1
1070
    44
1040
1.0
1070
    74
1070
     0
1000
MTEXTEND
  0
MTEXT
  5
D7F
330
18
100
AcDbEntity
  8
note
100
AcDbMText
 10
48.30802990307343
 20
235.2416466317412
 30
0.0
 40
3.2
 41
48.69688888888889
 71
     1
 72
     5
  1
MODEL
 73
     1
 44
1.0
1001
ACAD
1000
MTEXTBEGIN
1070
    73
1070
     1
1070
    44
1040
1.0
1070
    74
1070
     0
1000
MTEXTEND
  0
MTEXT
  5
D80
330
18
100
AcDbEntity
  8
note
100
AcDbMText
 10
48.30802990307343
 20
247.2416466317412
 30
0.0
 40
3.2
 41
48.69688888888889
 71
     1
 72
     5
  1
MODEL
 73
     1
 44
1.0
1001
ACAD
1000
MTEXTBEGIN
1070
    73
1070
     1
1070
    44
1040
1.0
1070
    74
1070
     0
1000
MTEXTEND
  0
MTEXT
  5
D81
330
18
100
AcDbEntity
  8
note
100
AcDbMText
 10
48.30802990307343
 20
259.2416466317412
 30
0.0
 40
3.2
 41
48.69688888888889
 71
     1
 72
     5
  1
MODEL
 73
     1
 44
1.0
1001
ACAD
1000
MTEXTBEGIN
1070
    73
1070
     1
1070
    44
1040
1.0
1070
    74
1070
     0
1000
MTEXTEND
  0
MTEXT
  5
D82
330
18
100
AcDbEntity
  8
note
100
AcDbMText
 10
48.30802990307343
 20
271.2416466317411
 30
0.0
 40
3.2
 41
48.69688888888889
 71
     1
 72
     5
  1
MODEL
 73
     1
 44
1.0
1001
ACAD
1000
MTEXTBEGIN
1070
    73
1070
     1
1070
    44
1040
1.0
1070
    74
1070
     0
1000
MTEXTEND
  0
MTEXT
  5
D83
330
18
100
AcDbEntity
  8
note
100
AcDbMText
 10
55.42082512053612
 20
157.6601175724326
 30
0.0
 40
4.799999999999999
 41
124.0
 71
     1
 72
     5
  1
DP1404JS-HDPR-0530B-C3F
 73
     1
 44
1.0
1001
ACAD
1000
MTEXTBEGIN
1070
    73
1070
     1
1070
    44
1040
1.0
1070
    74
1070
     0
1000
MTEXTEND
  0
MTEXT
  5
D84
330
18
100
AcDbEntity
  8
note
100
AcDbMText
 10
55.42082512053612
 20
169.6601175724326
 30
0.0
 40
4.799999999999999
 41
124.0
 71
     1
 72
     5
  1
DP1404JS-HDPR-0530B-C3S
 73
     1
 44
1.0
1001
ACAD
1000
MTEXTBEGIN
1070
    73
1070
     1
1070
    44
1040
1.0
1070
    74
1070
     0
1000
MTEXTEND
  0
MTEXT
  5
D85
330
18
100
AcDbEntity
  8
note
100
AcDbMText
 10
55.42082512053612
 20
181.6601175724326
 30
0.0
 40
4.799999999999999
 41
124.0
 71
     1
 72
     5
  1
DP1404JS-HDPR-0430B-C3F
 73
     1
 44
1.0
1001
ACAD
1000
MTEXTBEGIN
1070
    73
1070
     1
1070
    44
1040
1.0
1070
    74
1070
     0
1000
MTEXTEND
  0
MTEXT
  5
D86
330
18
100
AcDbEntity
  8
note
100
AcDbMText
 10
55.42082512053612
 20
193.6601175724326
 30
0.0
 40
4.799999999999999
 41
124.0
 71
     1
 72
     5
  1
DP1404JS-HDPR-0430B-C3S
 73
     1
 44
1.0
1001
ACAD
1000
MTEXTBEGIN
1070
    73
1070
     1
1070
    44
1040
1.0
1070
    74
1070
     0
1000
MTEXTEND
  0
MTEXT
  5
D87
330
18
100
AcDbEntity
  8
note
100
AcDbMText
 10
55.42082512053612
 20
205.6601175724326
 30
0.0
 40
4.799999999999999
 41
124.0
 71
     1
 72
     5
  1
DP1404JS-HDPR-0330B-C3F
 73
     1
 44
1.0
1001
ACAD
1000
MTEXTBEGIN
1070
    73
1070
     1
1070
    44
1040
1.0
1070
    74
1070
     0
1000
MTEXTEND
  0
MTEXT
  5
D88
330
18
100
AcDbEntity
  8
note
100
AcDbMText
 10
55.42082512053612
 20
217.6601175724326
 30
0.0
 40
4.799999999999999
 41
124.0
 71
     1
 72
     5
  1
DP1404JS-HDPR-0330B-C3S
 73
     1
 44
1.0
1001
ACAD
1000
MTEXTBEGIN
1070
    73
1070
     1
1070
    44
1040
1.0
1070
    74
1070
     0
1000
MTEXTEND
  0
LINE
  5
D89
330
18
100
AcDbEntity
  8
PV0001_1
  6
Continuous
 48
0.5
370
    50
100
AcDbLine
 10
195.7846517026812
 20
271.649458837625
 30
0.0
 11
195.7846517026812
 21
151.6494588376251
 31
0.0
  0
LINE
  5
D8A
330
18
100
AcDbEntity
  8
PV0001_1
  6
Continuous
 48
0.5
370
    50
100
AcDbLine
 10
168.8766622007312
 20
271.649458837625
 30
0.0
 11
168.8766622007312
 21
151.6494588376251
 31
0.0
  0
LINE
  5
D8B
330
18
100
AcDbEntity
  8
PV0001_1
  6
Continuous
370
    50
100
AcDbLine
 10
44.87666220073124
 20
151.6494588376251
 30
0.0
 11
195.7846517026812
 21
151.6494588376251
 31
0.0
  0
LINE
  5
D8C
330
18
100
AcDbEntity
  8
PV0001_1
  6
Continuous
 48
0.5
370
    50
100
AcDbLine
 10
44.87666220073124
 20
271.649458837625
 30
0.0
 11
44.87666220073124
 21
151.6494588376251
 31
0.0
  0
LINE
  5
D8D
330
18
100
AcDbEntity
  8
PV0001_1
  6
Continuous
370
    50
100
AcDbLine
 10
44.87666220073124
 20
163.6494588376251
 30
0.0
 11
195.7846517026812
 21
163.6494588376251
 31
0.0
  0
LINE
  5
D8E
330
18
100
AcDbEntity
  8
PV0001_1
  6
Continuous
370
    50
100
AcDbLine
 10
44.87666220073124
 20
175.6494588376251
 30
0.0
 11
195.7846517026812
 21
175.6494588376251
 31
0.0
  0
LINE
  5
D8F
330
18
100
AcDbEntity
  8
PV0001_1
  6
Continuous
370
    50
100
AcDbLine
 10
44.87666220073124
 20
187.6494588376251
 30
0.0
 11
195.7846517026812
 21
187.6494588376251
 31
0.0
  0
LINE
  5
D90
330
18
100
AcDbEntity
  8
PV0001_1
  6
Continuous
370
    50
100
AcDbLine
 10
44.87666220073124
 20
199.6494588376251
 30
0.0
 11
195.7846517026812
 21
199.6494588376251
 31
0.0
  0
LINE
  5
D91
330
18
100
AcDbEntity
  8
PV0001_1
  6
Continuous
370
    50
100
AcDbLine
 10
44.87666220073124
 20
211.6494588376251
 30
0.0
 11
195.7846517026812
 21
211.6494588376251
 31
0.0
  0
MTEXT
  5
D92
330
18
100
AcDbEntity
  8
note
100
AcDbMText
 10
55.42082512053612
 20
229.6601175724326
 30
0.0
 40
4.799999999999999
 41
124.0
 71
     1
 72
     5
  1
DP1404JS-HDPR-0280B-C3F
 73
     1
 44
1.0
1001
ACAD
1000
MTEXTBEGIN
1070
    73
1070
     1
1070
    44
1040
1.0
1070
    74
1070
     0
1000
MTEXTEND
  0
MTEXT
  5
D93
330
18
100
AcDbEntity
  8
note
100
AcDbMText
 10
55.42082512053612
 20
241.6601175724326
 30
0.0
 40
4.799999999999999
 41
124.0
 71
     1
 72
     5
  1
DP1404JS-HDPR-0280B-C3S
 73
     1
 44
1.0
1001
ACAD
1000
MTEXTBEGIN
1070
    73
1070
     1
1070
    44
1040
1.0
1070
    74
1070
     0
1000
MTEXTEND
  0
MTEXT
  5
D94
330
18
100
AcDbEntity
  8
note
100
AcDbMText
 10
55.42082512053612
 20
253.6601175724326
 30
0.0
 40
4.799999999999999
 41
124.0
 71
     1
 72
     5
  1
DP1404JS-HDPR-0230B-C3F
 73
     1
 44
1.0
1001
ACAD
1000
MTEXTBEGIN
1070
    73
1070
     1
1070
    44
1040
1.0
1070
    74
1070
     0
1000
MTEXTEND
  0
MTEXT
  5
D95
330
18
100
AcDbEntity
  8
note
100
AcDbMText
 10
55.42082512053612
 20
265.6601175724326
 30
0.0
 40
4.799999999999999
 41
124.0
 71
     1
 72
     5
  1
DP1404JS-HDPR-0230B-C3S
 73
     1
 44
1.0
1001
ACAD
1000
MTEXTBEGIN
1070
    73
1070
     1
1070
    44
1040
1.0
1070
    74
1070
     0
1000
MTEXTEND
  0
MTEXT
  5
D96
330
18
100
AcDbEntity
  8
note
100
AcDbMText
 10
-14.95247224875133
 20
270.5937893376046
 30
0.0
 40
3.2
 41
28.52463358862906
 71
     1
 72
     5
  1
FILE NAME
 73
     1
 44
1.0
1001
ACAD
1000
MTEXTBEGIN
1070
    73
1070
     1
1070
    44
1040
1.0
1070
    74
1070
     0
1000
MTEXTEND
  0
MTEXT
  5
D97
330
18
100
AcDbEntity
  8
note
100
AcDbMText
 10
-6.129737746841598
 20
265.6862594541255
 30
0.0
 40
4.799999999999999
 41
22.22267808065431
 71
     1
 72
     5
  1
DP1404JS
 73
     1
 44
1.0
1001
ACAD
1000
MTEXTBEGIN
1070
    73
1070
     1
1070
    44
1040
1.0
1070
    74
1070
     0
1000
MTEXTEND
  0
MTEXT
  5
D98
330
18
100
AcDbEntity
  8
note
100
AcDbMText
 10
542.0259268745419
 20
192.5979216344289
 30
0.0
 40
3.839999999999999
 41
52.94835185913853
 71
     1
 72
     5
  1
B  TYPE
 73
     1
 44
1.0
1001
ACAD
1000
MTEXTBEGIN
1070
    73
1070
     1
1070
    44
1040
1.0
1070
    74
1070
     0
1000
MTEXTEND
  0
MTEXT
  5
D99
330
18
100
AcDbEntity
  8
note
100
AcDbMText
 10
542.0548829140375
 20
226.7810958259014
 30
0.0
 40
3.839999999999999
 41
52.94835185913853
 71
     1
 72
     5
  1
A  TYPE
 73
     1
 44
1.0
1001
ACAD
1000
MTEXTBEGIN
1070
    73
1070
     1
1070
    44
1040
1.0
1070
    74
1070
     0
1000
MTEXTEND
  0
LINE
  5
D9A
330
18
100
AcDbEntity
  8
imaginary
 62
     0
100
AcDbLine
 10
440.5000804048865
 20
43.32123423544039
 30
0.0
 11
518.228967681428
 21
43.32123423544039
 31
0.0
  0
LINE
  5
D9B
330
18
100
AcDbEntity
  8
imaginary
 62
     0
100
AcDbLine
 10
440.5000804048865
 20
42.38773423544046
 30
0.0
 11
518.7289676814279
 21
42.38773423544052
 31
0.0
  0
LINE
  5
D9C
330
18
100
AcDbEntity
  8
imaginary
 62
     0
100
AcDbLine
 10
440.5000804048865
 20
29.32123423544039
 30
0.0
 11
518.228967681428
 21
29.32123423544039
 31
0.0
  0
LINE
  5
D9D
330
18
100
AcDbEntity
  8
imaginary
 62
     0
 48
0.95
100
AcDbLine
 10
324.956662714864
 20
43.32123423544039
 30
0.0
 11
261.6789676814278
 21
43.32123423544039
 31
0.0
  0
LINE
  5
D9E
330
18
100
AcDbEntity
  8
imaginary
 62
     0
100
AcDbLine
 10
324.956662714864
 20
42.38773423544034
 30
0.0
 11
260.7454676814277
 21
42.38773423544029
 31
0.0
  0
LINE
  5
D9F
330
18
100
AcDbEntity
  8
imaginary
 62
     0
100
AcDbLine
 10
324.956662714864
 20
30.25473423544031
 30
0.0
 11
260.7454676814277
 21
30.25473423544025
 31
0.0
  0
LINE
  5
DA0
330
18
100
AcDbEntity
  8
imaginary
 62
     0
 48
0.95
100
AcDbLine
 10
324.956662714864
 20
29.32123423544039
 30
0.0
 11
261.6789676814278
 21
29.32123423544039
 31
0.0
  0
LINE
  5
DA1
330
18
100
AcDbEntity
  8
note
100
AcDbLine
 10
200.7289676814279
 20
31.82123423544039
 30
0.0
 11
200.7289676814279
 21
40.82123423544039
 31
0.0
  0
LINE
  5
DA2
330
18
100
AcDbEntity
  8
note
100
AcDbLine
 10
245.928967681428
 20
43.82123423544038
 30
0.0
 11
255.4289676814282
 21
43.82123423544038
 31
0.0
1001
GENIUS_GENREC_14
1002
{
1000
PYDIR
1011
245.728967681428
1021
28.82123423544039
1031
0.0
1002
}
1002
{
1000
PXDIR
1011
255.728967681428
1021
43.82123423544038
1031
0.0
1002
}
1002
{
1000
PORI
1011
245.728967681428
1021
43.82123423544038
1031
0.0
1002
}
1002
{
1000
PINS
1011
245.728967681428
1021
43.82123423544038
1031
0.0
1002
}
1002
{
1000
PINS2
1011
255.728967681428
1021
28.82123423544039
1031
0.0
1002
}
1002
{
1000
C
1070
     1
1002
}
1001
GENIUS_GENODEF_13
1002
{
1000
HIER
1070
     0
1002
}
1002
{
1000
MANEDIT
1070
     0
1002
}
1002
{
1000
NOSEL
1070
     0
1002
}
1002
{
1000
BEHIND
1070
     0
1002
}
1002
{
1000
OTHER
1070
     0
1002
}
1002
{
1000
REACTOR
1002
}
1001
GENIUS_GENOBJ-N-REC_13
1002
{
1000
OWNER
1000
GEN
1002
}
  0
LINE
  5
DA3
330
18
100
AcDbEntity
  8
note
100
AcDbLine
 10
255.4289676814282
 20
43.82123423544038
 30
0.0
 11
255.728967681428
 21
43.52123423544043
 31
0.0
1001
GENIUS_GENREC_14
1002
{
1000
PYDIR
1011
245.728967681428
1021
28.82123423544039
1031
0.0
1002
}
1002
{
1000
PXDIR
1011
255.728967681428
1021
43.82123423544038
1031
0.0
1002
}
1002
{
1000
PORI
1011
245.728967681428
1021
43.82123423544038
1031
0.0
1002
}
1002
{
1000
PINS
1011
245.728967681428
1021
43.82123423544038
1031
0.0
1002
}
1002
{
1000
PINS2
1011
255.728967681428
1021
28.82123423544039
1031
0.0
1002
}
1002
{
1000
C
1070
     1
1002
}
1001
GENIUS_GENODEF_13
1002
{
1000
HIER
1070
     0
1002
}
1002
{
1000
MANEDIT
1070
     0
1002
}
1002
{
1000
NOSEL
1070
     0
1002
}
1002
{
1000
BEHIND
1070
     0
1002
}
1002
{
1000
OTHER
1070
     0
1002
}
1002
{
1000
REACTOR
1002
}
1001
GENIUS_GENOBJ-N-REC_13
1002
{
1000
OWNER
1000
GEN
1002
}
  0
LINE
  5
DA4
330
18
100
AcDbEntity
  8
note
100
AcDbLine
 10
255.728967681428
 20
43.52123423544043
 30
0.0
 11
255.728967681428
 21
29.12123423544045
 31
0.0
1001
GENIUS_GENREC_14
1002
{
1000
PYDIR
1011
245.728967681428
1021
28.82123423544039
1031
0.0
1002
}
1002
{
1000
PXDIR
1011
255.728967681428
1021
43.82123423544038
1031
0.0
1002
}
1002
{
1000
PORI
1011
245.728967681428
1021
43.82123423544038
1031
0.0
1002
}
1002
{
1000
PINS
1011
245.728967681428
1021
43.82123423544038
1031
0.0
1002
}
1002
{
1000
PINS2
1011
255.728967681428
1021
28.82123423544039
1031
0.0
1002
}
1002
{
1000
C
1070
     1
1002
}
1001
GENIUS_GENODEF_13
1002
{
1000
HIER
1070
     0
1002
}
1002
{
1000
MANEDIT
1070
     0
1002
}
1002
{
1000
NOSEL
1070
     0
1002
}
1002
{
1000
BEHIND
1070
     0
1002
}
1002
{
1000
OTHER
1070
     0
1002
}
1002
{
1000
REACTOR
1002
}
1001
GENIUS_GENOBJ-N-REC_13
1002
{
1000
OWNER
1000
GEN
1002
}
  0
ARC
  5
DA5
330
18
100
AcDbEntity
  8
note
100
AcDbCircle
 10
256.228967681428
 20
29.77123423544043
 30
0.0
 40
0.5
100
AcDbArc
 50
90.0
 51
180.0
1001
GENIUS_GENREC_14
1002
{
1000
PYDIR
1011
245.728967681428
1021
28.82123423544039
1031
0.0
1002
}
1002
{
1000
PXDIR
1011
255.728967681428
1021
43.82123423544038
1031
0.0
1002
}
1002
{
1000
PORI
1011
245.728967681428
1021
43.82123423544038
1031
0.0
1002
}
1002
{
1000
PINS
1011
245.728967681428
1021
43.82123423544038
1031
0.0
1002
}
1002
{
1000
PINS2
1011
255.728967681428
1021
28.82123423544039
1031
0.0
1002
}
1002
{
1000
C
1070
     1
1002
}
1001
GENIUS_GENOREF_13
1005
ED6
  0
ARC
  5
DA6
330
18
100
AcDbEntity
  8
note
100
AcDbCircle
 10
256.228967681428
 20
42.87123423544056
 30
0.0
 40
0.5
100
AcDbArc
 50
180.0
 51
270.0
1001
GENIUS_GENREC_14
1002
{
1000
PYDIR
1011
245.728967681428
1021
28.82123423544039
1031
0.0
1002
}
1002
{
1000
PXDIR
1011
255.728967681428
1021
43.82123423544038
1031
0.0
1002
}
1002
{
1000
PORI
1011
245.728967681428
1021
43.82123423544038
1031
0.0
1002
}
1002
{
1000
PINS
1011
245.728967681428
1021
43.82123423544038
1031
0.0
1002
}
1002
{
1000
PINS2
1011
255.728967681428
1021
28.82123423544039
1031
0.0
1002
}
1002
{
1000
C
1070
     1
1002
}
1001
GENIUS_GENOBJ-N-REC_13
1002
{
1000
OWNER
1000
GEN
1002
}
1001
GENIUS_GENODEF_13
1002
{
1000
HIER
1070
     0
1002
}
1002
{
1000
MANEDIT
1070
     0
1002
}
1002
{
1000
NOSEL
1070
     0
1002
}
1002
{
1000
BEHIND
1070
     0
1002
}
1002
{
1000
OTHER
1070
     0
1002
}
1002
{
1000
REACTOR
1002
}
1001
GENIUS_GENOBJ-N-FIL_13
1002
{
1000
OWNER
1000
GEN
1002
}
  0
LINE
  5
DA7
330
18
100
AcDbEntity
  8
note
100
AcDbLine
 10
255.728967681428
 20
29.12123423544045
 30
0.0
 11
255.4289676814278
 21
28.82123423544039
 31
0.0
1001
GENIUS_GENREC_14
1002
{
1000
PYDIR
1011
245.728967681428
1021
28.82123423544039
1031
0.0
1002
}
1002
{
1000
PXDIR
1011
255.728967681428
1021
43.82123423544038
1031
0.0
1002
}
1002
{
1000
PORI
1011
245.728967681428
1021
43.82123423544038
1031
0.0
1002
}
1002
{
1000
PINS
1011
245.728967681428
1021
43.82123423544038
1031
0.0
1002
}
1002
{
1000
PINS2
1011
255.728967681428
1021
28.82123423544039
1031
0.0
1002
}
1002
{
1000
C
1070
     1
1002
}
1001
GENIUS_GENODEF_13
1002
{
1000
HIER
1070
     0
1002
}
1002
{
1000
MANEDIT
1070
     0
1002
}
1002
{
1000
NOSEL
1070
     0
1002
}
1002
{
1000
BEHIND
1070
     0
1002
}
1002
{
1000
OTHER
1070
     0
1002
}
1002
{
1000
REACTOR
1002
}
1001
GENIUS_GENOBJ-N-REC_13
1002
{
1000
OWNER
1000
GEN
1002
}
  0
LINE
  5
DA8
330
18
100
AcDbEntity
  8
note
100
AcDbLine
 10
255.4289676814278
 20
28.82123423544039
 30
0.0
 11
245.9289676814282
 21
28.82123423544039
 31
0.0
1001
GENIUS_GENREC_14
1002
{
1000
PYDIR
1011
245.728967681428
1021
28.82123423544039
1031
0.0
1002
}
1002
{
1000
PXDIR
1011
255.728967681428
1021
43.82123423544038
1031
0.0
1002
}
1002
{
1000
PORI
1011
245.728967681428
1021
43.82123423544038
1031
0.0
1002
}
1002
{
1000
PINS
1011
245.728967681428
1021
43.82123423544038
1031
0.0
1002
}
1002
{
1000
PINS2
1011
255.728967681428
1021
28.82123423544039
1031
0.0
1002
}
1002
{
1000
C
1070
     1
1002
}
1001
GENIUS_GENODEF_13
1002
{
1000
HIER
1070
     0
1002
}
1002
{
1000
MANEDIT
1070
     0
1002
}
1002
{
1000
NOSEL
1070
     0
1002
}
1002
{
1000
BEHIND
1070
     0
1002
}
1002
{
1000
OTHER
1070
     0
1002
}
1002
{
1000
REACTOR
1002
}
1001
GENIUS_GENOBJ-N-REC_13
1002
{
1000
OWNER
1000
GEN
1002
}
  0
LINE
  5
DA9
330
18
100
AcDbEntity
  8
note
100
AcDbLine
 10
245.9289676814282
 20
28.82123423544039
 30
0.0
 11
245.728967681428
 21
29.02123423544043
 31
0.0
1001
GENIUS_GENREC_14
1002
{
1000
PYDIR
1011
245.728967681428
1021
28.82123423544039
1031
0.0
1002
}
1002
{
1000
PXDIR
1011
255.728967681428
1021
43.82123423544038
1031
0.0
1002
}
1002
{
1000
PORI
1011
245.728967681428
1021
43.82123423544038
1031
0.0
1002
}
1002
{
1000
PINS
1011
245.728967681428
1021
43.82123423544038
1031
0.0
1002
}
1002
{
1000
PINS2
1011
255.728967681428
1021
28.82123423544039
1031
0.0
1002
}
1002
{
1000
C
1070
     1
1002
}
1001
GENIUS_GENODEF_13
1002
{
1000
HIER
1070
     0
1002
}
1002
{
1000
MANEDIT
1070
     0
1002
}
1002
{
1000
NOSEL
1070
     0
1002
}
1002
{
1000
BEHIND
1070
     0
1002
}
1002
{
1000
OTHER
1070
     0
1002
}
1002
{
1000
REACTOR
1002
}
1001
GENIUS_GENOBJ-N-REC_13
1002
{
1000
OWNER
1000
GEN
1002
}
  0
LINE
  5
DAA
330
18
100
AcDbEntity
  8
note
100
AcDbLine
 10
245.728967681428
 20
29.02123423544043
 30
0.0
 11
245.728967681428
 21
43.62123423544034
 31
0.0
1001
GENIUS_GENREC_14
1002
{
1000
PYDIR
1011
245.728967681428
1021
28.82123423544039
1031
0.0
1002
}
1002
{
1000
PXDIR
1011
255.728967681428
1021
43.82123423544038
1031
0.0
1002
}
1002
{
1000
PORI
1011
245.728967681428
1021
43.82123423544038
1031
0.0
1002
}
1002
{
1000
PINS
1011
245.728967681428
1021
43.82123423544038
1031
0.0
1002
}
1002
{
1000
PINS2
1011
255.728967681428
1021
28.82123423544039
1031
0.0
1002
}
1002
{
1000
C
1070
     1
1002
}
1001
GENIUS_GENODEF_13
1002
{
1000
HIER
1070
     0
1002
}
1002
{
1000
MANEDIT
1070
     0
1002
}
1002
{
1000
NOSEL
1070
     0
1002
}
1002
{
1000
BEHIND
1070
     0
1002
}
1002
{
1000
OTHER
1070
     0
1002
}
1002
{
1000
REACTOR
1002
}
1001
GENIUS_GENOBJ-N-REC_13
1002
{
1000
OWNER
1000
GEN
1002
}
  0
ARC
  5
DAB
330
18
100
AcDbEntity
  8
note
100
AcDbCircle
 10
245.4289676814282
 20
30.02123423544043
 30
0.0
 40
0.3
100
AcDbArc
 50
0.0
 51
90.0
1001
GENIUS_GENREC_14
1002
{
1000
PYDIR
1011
245.728967681428
1021
28.82123423544039
1031
0.0
1002
}
1002
{
1000
PXDIR
1011
255.728967681428
1021
43.82123423544038
1031
0.0
1002
}
1002
{
1000
PORI
1011
245.728967681428
1021
43.82123423544038
1031
0.0
1002
}
1002
{
1000
PINS
1011
245.728967681428
1021
43.82123423544038
1031
0.0
1002
}
1002
{
1000
PINS2
1011
255.728967681428
1021
28.82123423544039
1031
0.0
1002
}
1002
{
1000
C
1070
     1
1002
}
1001
GENIUS_GENOREF_13
1005
ED7
  0
ARC
  5
DAC
330
18
100
AcDbEntity
  8
note
100
AcDbCircle
 10
245.4289676814282
 20
42.62123423544034
 30
0.0
 40
0.3
100
AcDbArc
 50
270.0
 51
0.0
1001
GENIUS_GENREC_14
1002
{
1000
PYDIR
1011
245.728967681428
1021
28.82123423544039
1031
0.0
1002
}
1002
{
1000
PXDIR
1011
255.728967681428
1021
43.82123423544038
1031
0.0
1002
}
1002
{
1000
PORI
1011
245.728967681428
1021
43.82123423544038
1031
0.0
1002
}
1002
{
1000
PINS
1011
245.728967681428
1021
43.82123423544038
1031
0.0
1002
}
1002
{
1000
PINS2
1011
255.728967681428
1021
28.82123423544039
1031
0.0
1002
}
1002
{
1000
C
1070
     1
1002
}
1001
GENIUS_GENOBJ-N-REC_13
1002
{
1000
OWNER
1000
GEN
1002
}
1001
GENIUS_GENOBJ-N-FIL_13
1002
{
1000
OWNER
1000
GEN
1002
}
1001
GENIUS_GENODEF_13
1002
{
1000
HIER
1070
     0
1002
}
1002
{
1000
MANEDIT
1070
     0
1002
}
1002
{
1000
NOSEL
1070
     0
1002
}
1002
{
1000
BEHIND
1070
     0
1002
}
1002
{
1000
OTHER
1070
     0
1002
}
1002
{
1000
REACTOR
1002
}
  0
LINE
  5
DAD
330
18
100
AcDbEntity
  8
note
100
AcDbLine
 10
245.728967681428
 20
43.62123423544034
 30
0.0
 11
245.928967681428
 21
43.82123423544038
 31
0.0
1001
GENIUS_GENREC_14
1002
{
1000
PYDIR
1011
245.728967681428
1021
28.82123423544039
1031
0.0
1002
}
1002
{
1000
PXDIR
1011
255.728967681428
1021
43.82123423544038
1031
0.0
1002
}
1002
{
1000
PORI
1011
245.728967681428
1021
43.82123423544038
1031
0.0
1002
}
1002
{
1000
PINS
1011
245.728967681428
1021
43.82123423544038
1031
0.0
1002
}
1002
{
1000
PINS2
1011
255.728967681428
1021
28.82123423544039
1031
0.0
1002
}
1002
{
1000
C
1070
     1
1002
}
1001
GENIUS_GENODEF_13
1002
{
1000
HIER
1070
     0
1002
}
1002
{
1000
MANEDIT
1070
     0
1002
}
1002
{
1000
NOSEL
1070
     0
1002
}
1002
{
1000
BEHIND
1070
     0
1002
}
1002
{
1000
OTHER
1070
     0
1002
}
1002
{
1000
REACTOR
1002
}
1001
GENIUS_GENOBJ-N-REC_13
1002
{
1000
OWNER
1000
GEN
1002
}
  0
LINE
  5
DAE
330
18
100
AcDbEntity
  8
note
100
AcDbLine
 10
215.7289676814279
 20
41.82123423544038
 30
0.0
 11
215.7289676814279
 21
30.82123423544039
 31
0.0
  0
LINE
  5
DAF
330
18
100
AcDbEntity
  8
note
100
AcDbLine
 10
216.228967681428
 20
42.32123423544038
 30
0.0
 11
215.7289676814279
 21
41.82123423544038
 31
0.0
1001
GENIUS_GENFIL_13
1070
     0
1040
0.5
1040
0.5
1040
0.5000000000000569
1040
45.00000000000651
1000
~T
1001
GENIUS_GENOREF_13
1005
ED8
  0
LINE
  5
DB0
330
18
100
AcDbEntity
  8
note
100
AcDbLine
 10
215.7289676814279
 20
30.82123423544039
 30
0.0
 11
216.228967681428
 21
30.32123423544039
 31
0.0
1001
GENIUS_GENFIL_13
1070
     0
1040
0.5
1040
0.5
1040
0.5000000000000569
1040
45.00000000000325
1000
~T
1001
GENIUS_GENOREF_13
1005
ED9
  0
LINE
  5
DB1
330
18
100
AcDbEntity
  8
note
100
AcDbLine
 10
215.7289676814279
 20
41.32123423544038
 30
0.0
 11
201.2289676814279
 21
41.32123423544038
 31
0.0
  0
LINE
  5
DB2
330
18
100
AcDbEntity
  8
note
100
AcDbLine
 10
200.7289676814279
 20
40.82123423544039
 30
0.0
 11
201.2289676814279
 21
41.32123423544038
 31
0.0
1001
GENIUS_GENFIL_13
1070
     0
1040
0.5
1040
0.5
1040
0.5000000000000569
1040
45.00000000000325
1000
~T
1001
GENIUS_GENOREF_13
1005
EDA
  0
LINE
  5
DB3
330
18
100
AcDbEntity
  8
note
100
AcDbLine
 10
215.7289676814279
 20
31.32123423544039
 30
0.0
 11
201.2289676814279
 21
31.32123423544039
 31
0.0
  0
LINE
  5
DB4
330
18
100
AcDbEntity
  8
note
100
AcDbLine
 10
200.7289676814279
 20
31.82123423544039
 30
0.0
 11
201.2289676814279
 21
31.32123423544039
 31
0.0
1001
GENIUS_GENFIL_13
1070
     0
1040
0.5
1040
0.5
1040
0.5000000000000569
1040
45.00000000001302
1000
~T
1001
GENIUS_GENOREF_13
1005
EDB
  0
LINE
  5
DB5
330
18
100
AcDbEntity
  8
note
100
AcDbLine
 10
225.7289676814279
 20
30.32123423544039
 30
0.0
 11
225.7289676814279
 21
42.32123423544038
 31
0.0
  0
LINE
  5
DB6
330
18
100
AcDbEntity
  8
note
100
AcDbLine
 10
201.2289676814279
 20
41.32123423544038
 30
0.0
 11
201.2289676814279
 21
31.32123423544039
 31
0.0
  0
LINE
  5
DB7
330
18
100
AcDbEntity
  8
note
100
AcDbLine
 10
216.228967681428
 20
42.32123423544038
 30
0.0
 11
216.228967681428
 21
30.32123423544039
 31
0.0
  0
LINE
  5
DB8
330
18
100
AcDbEntity
  8
note
100
AcDbLine
 10
245.928967681428
 20
43.82123423544038
 30
0.0
 11
245.9289676814282
 21
28.82123423544039
 31
0.0
  0
LINE
  5
DB9
330
18
100
AcDbEntity
  8
note
100
AcDbLine
 10
518.7289676814279
 20
42.82123423544038
 30
0.0
 11
518.7289676814279
 21
29.82123423544038
 31
0.0
  0
LINE
  5
DBA
330
18
100
AcDbEntity
  8
note
100
AcDbLine
 10
518.228967681428
 20
29.32123423544039
 30
0.0
 11
518.7289676814279
 21
29.82123423544038
 31
0.0
1001
GENIUS_GENFIL_13
1070
     0
1040
0.5
1040
0.5
1040
0.5000000000001137
1040
44.99999999999348
1000
~T
1001
GENIUS_GENOREF_13
1005
EDC
  0
LINE
  5
DBB
330
18
100
AcDbEntity
  8
note
100
AcDbLine
 10
518.228967681428
 20
43.32123423544039
 30
0.0
 11
518.7289676814279
 21
42.82123423544038
 31
0.0
1001
GENIUS_GENFIL_13
1070
     0
1040
0.5
1040
0.5
1040
0.5000000000001137
1040
45.0
1000
~T
1001
GENIUS_GENOREF_13
1005
EDD
  0
LINE
  5
DBC
330
18
100
AcDbEntity
  8
note
100
AcDbLine
 10
518.228967681428
 20
43.32123423544039
 30
0.0
 11
518.228967681428
 21
29.32123423544039
 31
0.0
  0
LINE
  5
DBD
330
18
100
AcDbEntity
  8
note
100
AcDbLine
 10
245.4289676814282
 20
42.32123423544038
 30
0.0
 11
216.228967681428
 21
42.32123423544038
 31
0.0
  0
LINE
  5
DBE
330
18
100
AcDbEntity
  8
note
100
AcDbLine
 10
256.228967681428
 20
42.37123423544057
 30
0.0
 11
260.728967681428
 21
42.37123423544045
 31
0.0
  0
LINE
  5
DBF
330
18
100
AcDbEntity
  8
note
100
AcDbLine
 10
260.728967681428
 20
42.37123423544045
 30
0.0
 11
260.728967681428
 21
30.27123423544043
 31
0.0
  0
LINE
  5
DC0
330
18
100
AcDbEntity
  8
note
100
AcDbLine
 10
260.728967681428
 20
30.27123423544043
 30
0.0
 11
256.228967681428
 21
30.27123423544043
 31
0.0
  0
LINE
  5
DC1
330
18
100
AcDbEntity
  8
note
100
AcDbLine
 10
260.728967681428
 20
42.37123423544045
 30
0.0
 11
261.6789676814278
 21
43.32123423544039
 31
0.0
  0
LINE
  5
DC2
330
18
100
AcDbEntity
  8
note
100
AcDbLine
 10
260.728967681428
 20
30.27123423544043
 30
0.0
 11
261.6789676814278
 21
29.32123423544039
 31
0.0
  0
LINE
  5
DC3
330
18
100
AcDbEntity
  8
note
100
AcDbLine
 10
261.6789676814278
 20
29.32123423544039
 30
0.0
 11
261.6789676814283
 21
43.32123423544039
 31
0.0
  0
LINE
  5
DC4
330
18
100
AcDbEntity
  8
note
100
AcDbLine
 10
255.4289676814282
 20
43.82123423544038
 30
0.0
 11
255.4289676814278
 21
28.82123423544039
 31
0.0
  0
LINE
  5
DC5
330
18
100
AcDbEntity
  8
note
100
AcDbLine
 10
216.228967681428
 20
30.32123423544039
 30
0.0
 11
245.4289676814282
 21
30.32123423544039
 31
0.0
  0
LINE
  5
DC6
330
18
100
AcDbEntity
  8
outline
 62
     0
100
AcDbLine
 10
215.7289676814279
 20
41.68723423544037
 30
0.0
 11
225.7289676814279
 21
41.68723423544037
 31
0.0
  0
LINE
  5
DC7
330
18
100
AcDbEntity
  8
outline
 62
     0
100
AcDbLine
 10
225.7289676814279
 20
41.68723423544037
 30
0.0
 11
226.8270878934267
 21
42.32123423544038
 31
0.0
  0
LINE
  5
DC8
330
18
100
AcDbEntity
  8
outline
 62
     0
100
AcDbLine
 10
215.7289676814279
 20
30.9552342354404
 30
0.0
 11
225.7289676814279
 21
30.9552342354404
 31
0.0
  0
LINE
  5
DC9
330
18
100
AcDbEntity
  8
outline
 62
     0
100
AcDbLine
 10
225.7289676814279
 20
30.9552342354404
 30
0.0
 11
226.8270878934263
 21
30.32123423544039
 31
0.0
  0
LINE
  5
DCA
330
18
100
AcDbEntity
  8
imaginary
 62
     0
100
AcDbLine
 10
440.5000804048865
 20
30.25473423544042
 30
0.0
 11
518.7289676814279
 21
30.25473423544048
 31
0.0
  0
LINE
  5
DCB
330
18
100
AcDbEntity
  8
center
 62
     0
100
AcDbLine
 10
197.7289676814279
 20
36.32123423544039
 30
0.0
 11
330.6172271854393
 21
36.32123423544039
 31
0.0
  0
LINE
  5
DCC
330
18
100
AcDbEntity
  8
note
100
AcDbLine
 10
462.0684280190667
 20
197.5515995880465
 30
0.0
 11
519.7411940473911
 21
197.5515995880465
 31
0.0
  0
LINE
  5
DCD
330
18
100
AcDbEntity
  8
note
100
AcDbLine
 10
520.2211940473913
 20
197.0715995880466
 30
0.0
 11
520.2211940473913
 21
184.5915995880469
 31
0.0
  0
LINE
  5
DCE
330
18
100
AcDbEntity
  8
note
100
AcDbLine
 10
519.7411940473911
 20
184.1115995880469
 30
0.0
 11
462.0684280190667
 21
184.1115995880469
 31
0.0
  0
LINE
  5
DCF
330
18
100
AcDbEntity
  8
note
100
AcDbLine
 10
462.0684280190667
 20
196.6395995880467
 30
0.0
 11
520.2211940473911
 21
196.6395995880467
 31
0.0
  0
LINE
  5
DD0
330
18
100
AcDbEntity
  8
note
100
AcDbLine
 10
462.0684280190667
 20
185.0235995880469
 30
0.0
 11
520.2211940473911
 21
185.0235995880469
 31
0.0
  0
LINE
  5
DD1
330
18
100
AcDbEntity
  8
note
100
AcDbLine
 10
530.781194047391
 20
195.1515995880467
 30
0.0
 11
530.781194047391
 21
186.5115995880467
 31
0.0
  0
LINE
  5
DD2
330
18
100
AcDbEntity
  8
note
100
AcDbLine
 10
530.3011940473909
 20
186.0315995880467
 30
0.0
 11
520.5091940473913
 21
186.0315995880467
 31
0.0
  0
LINE
  5
DD3
330
18
100
AcDbEntity
  8
center
 62
     0
100
AcDbLine
 10
457.8163788914339
 20
190.8315995880468
 30
0.0
 11
533.4634340473911
 21
190.8315995880468
 31
0.0
1001
GENIUS_GENOBJ-N-CEN_13
1002
{
1000
OWNER
1000
GEN
1002
}
1001
GENIUS_GENODEF_13
1002
{
1000
HIER
1070
     0
1002
}
1002
{
1000
MANEDIT
1070
     0
1002
}
1002
{
1000
NOSEL
1070
     0
1002
}
1002
{
1000
BEHIND
1070
     0
1002
}
1002
{
1000
OTHER
1070
     0
1002
}
1002
{
1000
REACTOR
1002
}
  0
LINE
  5
DD4
330
18
100
AcDbEntity
  8
note
100
AcDbLine
 10
519.7411940473911
 20
197.5515995880465
 30
0.0
 11
520.2211940473913
 21
197.0715995880466
 31
0.0
1001
GENIUS_GENFIL_13
1070
     0
1040
0.5
1040
0.5
1040
0.5
1040
44.99999999999674
1000
~T
1001
GENIUS_GENOREF_13
1005
EEC
  0
LINE
  5
DD5
330
18
100
AcDbEntity
  8
note
100
AcDbLine
 10
530.3011940473912
 20
195.6315995880467
 30
0.0
 11
530.781194047391
 21
195.1515995880467
 31
0.0
1001
GENIUS_GENFIL_13
1070
     0
1040
0.5
1040
0.5
1040
0.5
1040
45.00000000000651
1000
~T
1001
GENIUS_GENOREF_13
1005
EED
  0
LINE
  5
DD6
330
18
100
AcDbEntity
  8
note
100
AcDbLine
 10
520.2211940473913
 20
184.5915995880469
 30
0.0
 11
519.7411940473911
 21
184.1115995880469
 31
0.0
1001
GENIUS_GENFIL_13
1070
     0
1040
0.5
1040
0.5
1040
0.5
1040
45.00000000000651
1000
~T
1001
GENIUS_GENOREF_13
1005
EEE
  0
LINE
  5
DD7
330
18
100
AcDbEntity
  8
note
100
AcDbLine
 10
530.781194047391
 20
186.5115995880467
 30
0.0
 11
530.3011940473909
 21
186.0315995880467
 31
0.0
1001
GENIUS_GENFIL_13
1070
     0
1040
0.5
1040
0.5
1040
0.5
1040
45.00000000000651
1000
~T
1001
GENIUS_GENOREF_13
1005
EEF
  0
LINE
  5
DD8
330
18
100
AcDbEntity
  8
note
100
AcDbLine
 10
519.7411940473911
 20
197.5515995880465
 30
0.0
 11
519.7411940473911
 21
184.1115995880469
 31
0.0
  0
LINE
  5
DD9
330
18
100
AcDbEntity
  8
note
100
AcDbLine
 10
530.3011940473912
 20
195.6315995880467
 30
0.0
 11
530.3011940473912
 21
186.0315995880469
 31
0.0
  0
LINE
  5
DDA
330
18
100
AcDbEntity
  8
note
100
AcDbLine
 10
520.5091940473913
 20
195.6315995880467
 30
0.0
 11
530.3011940473912
 21
195.6315995880467
 31
0.0
  0
ARC
  5
DDB
330
18
100
AcDbEntity
  8
note
100
AcDbCircle
 10
520.5091940473913
 20
195.9195995880467
 30
0.0
 40
0.2879999999999938
100
AcDbArc
 50
180.0
 51
270.0
1001
GENIUS_GENODEF_13
1002
{
1000
HIER
1070
     0
1002
}
1002
{
1000
MANEDIT
1070
     0
1002
}
1002
{
1000
NOSEL
1070
     0
1002
}
1002
{
1000
BEHIND
1070
     0
1002
}
1002
{
1000
OTHER
1070
     0
1002
}
1002
{
1000
REACTOR
1002
}
1001
GENIUS_GENOBJ-N-FIL_13
1002
{
1000
OWNER
1000
GEN
1002
}
  0
ARC
  5
DDC
330
18
100
AcDbEntity
  8
note
100
AcDbCircle
 10
520.5091940473913
 20
185.7435995880469
 30
0.0
 40
0.2879999999999938
100
AcDbArc
 50
90.0
 51
180.0
1001
GENIUS_GENOREF_13
1005
EF0
  0
LINE
  5
DDD
330
18
100
AcDbEntity
  8
note
100
AcDbLine
 10
462.0684280190667
 20
231.9028499188426
 30
0.0
 11
519.7411940473915
 21
231.9028499188426
 31
0.0
  0
LINE
  5
DDE
330
18
100
AcDbEntity
  8
note
100
AcDbLine
 10
520.2211940473916
 20
231.4228499188426
 30
0.0
 11
520.2211940473916
 21
218.942849918843
 31
0.0
  0
LINE
  5
DDF
330
18
100
AcDbEntity
  8
note
100
AcDbLine
 10
519.7411940473915
 20
218.462849918843
 30
0.0
 11
462.0684280190667
 21
218.462849918843
 31
0.0
  0
LINE
  5
DE0
330
18
100
AcDbEntity
  8
note
100
AcDbLine
 10
462.0684280190667
 20
230.9908499188426
 30
0.0
 11
520.2211940473913
 21
230.9908499188426
 31
0.0
  0
LINE
  5
DE1
330
18
100
AcDbEntity
  8
note
100
AcDbLine
 10
462.0684280190667
 20
219.3748499188429
 30
0.0
 11
520.2211940473913
 21
219.3748499188429
 31
0.0
  0
LINE
  5
DE2
330
18
100
AcDbEntity
  8
note
100
AcDbLine
 10
520.5091940473916
 20
229.9828499188427
 30
0.0
 11
527.9011940473913
 21
229.9828499188427
 31
0.0
  0
LINE
  5
DE3
330
18
100
AcDbEntity
  8
note
100
AcDbLine
 10
531.7411940473913
 20
229.5028499188426
 30
0.0
 11
531.7411940473913
 21
220.8628499188428
 31
0.0
  0
LINE
  5
DE4
330
18
100
AcDbEntity
  8
note
100
AcDbLine
 10
531.2611940473912
 20
220.3828499188429
 30
0.0
 11
529.0051940473913
 21
220.3828499188429
 31
0.0
  0
LINE
  5
DE5
330
18
100
AcDbEntity
  8
center
 62
     0
100
AcDbLine
 10
457.8163788914339
 20
225.1828499188428
 30
0.0
 11
534.423434047391
 21
225.1828499188428
 31
0.0
1001
GENIUS_GENOBJ-N-CEN_13
1002
{
1000
OWNER
1000
GEN
1002
}
1001
GENIUS_GENODEF_13
1002
{
1000
HIER
1070
     0
1002
}
1002
{
1000
MANEDIT
1070
     0
1002
}
1002
{
1000
NOSEL
1070
     0
1002
}
1002
{
1000
BEHIND
1070
     0
1002
}
1002
{
1000
OTHER
1070
     0
1002
}
1002
{
1000
REACTOR
1002
}
  0
LINE
  5
DE6
330
18
100
AcDbEntity
  8
note
100
AcDbLine
 10
519.7411940473915
 20
231.9028499188426
 30
0.0
 11
520.2211940473916
 21
231.4228499188426
 31
0.0
1001
GENIUS_GENFIL_13
1070
     0
1040
0.5
1040
0.5
1040
0.5
1040
44.99999999999674
1000
~T
1001
GENIUS_GENOREF_13
1005
EF1
  0
LINE
  5
DE7
330
18
100
AcDbEntity
  8
note
100
AcDbLine
 10
531.2611940473912
 20
229.9828499188427
 30
0.0
 11
531.7411940473913
 21
229.5028499188426
 31
0.0
1001
GENIUS_GENFIL_13
1070
     0
1040
0.5
1040
0.5
1040
0.5
1040
45.00000000000651
1000
~T
1001
GENIUS_GENOREF_13
1005
EF2
  0
LINE
  5
DE8
330
18
100
AcDbEntity
  8
note
100
AcDbLine
 10
520.2211940473916
 20
218.942849918843
 30
0.0
 11
519.7411940473915
 21
218.462849918843
 31
0.0
1001
GENIUS_GENFIL_13
1070
     0
1040
0.5
1040
0.5
1040
0.5
1040
45.00000000000651
1000
~T
1001
GENIUS_GENOREF_13
1005
EF3
  0
LINE
  5
DE9
330
18
100
AcDbEntity
  8
note
100
AcDbLine
 10
531.7411940473913
 20
220.8628499188428
 30
0.0
 11
531.2611940473912
 21
220.3828499188429
 31
0.0
1001
GENIUS_GENFIL_13
1070
     0
1040
0.5
1040
0.5
1040
0.5
1040
45.00000000000651
1000
~T
1001
GENIUS_GENOREF_13
1005
EF4
  0
LINE
  5
DEA
330
18
100
AcDbEntity
  8
note
100
AcDbLine
 10
519.7411940473915
 20
231.9028499188426
 30
0.0
 11
519.7411940473915
 21
218.462849918843
 31
0.0
  0
LINE
  5
DEB
330
18
100
AcDbEntity
  8
note
100
AcDbLine
 10
531.2611940473912
 20
229.9828499188427
 30
0.0
 11
531.2611940473912
 21
220.382849918843
 31
0.0
  0
LINE
  5
DEC
330
18
100
AcDbEntity
  8
note
100
AcDbLine
 10
527.9011940473915
 20
229.9828499188427
 30
0.0
 11
527.9011940473915
 21
220.3828499188429
 31
0.0
  0
LINE
  5
DED
330
18
100
AcDbEntity
  8
note
100
AcDbLine
 10
529.0051940473913
 20
229.9828499188427
 30
0.0
 11
529.0051940473913
 21
220.3828499188429
 31
0.0
  0
LINE
  5
DEE
330
18
100
AcDbEntity
  8
note
100
AcDbLine
 10
527.9011940473915
 20
229.7908499188427
 30
0.0
 11
529.0051940473913
 21
229.7908499188427
 31
0.0
  0
LINE
  5
DEF
330
18
100
AcDbEntity
  8
note
100
AcDbLine
 10
527.9011940473915
 20
220.5748499188428
 30
0.0
 11
529.0051940473913
 21
220.5748499188428
 31
0.0
  0
LINE
  5
DF0
330
18
100
AcDbEntity
  8
note
100
AcDbLine
 10
529.0051940473913
 20
229.9828499188427
 30
0.0
 11
531.2611940473912
 21
229.9828499188427
 31
0.0
  0
LINE
  5
DF1
330
18
100
AcDbEntity
  8
note
100
AcDbLine
 10
527.9011940473915
 20
220.3828499188429
 30
0.0
 11
520.5091940473916
 21
220.382849918843
 31
0.0
  0
ARC
  5
DF2
330
18
100
AcDbEntity
  8
note
100
AcDbCircle
 10
520.5091940473916
 20
230.2708499188427
 30
0.0
 40
0.2879999999999938
100
AcDbArc
 50
180.0
 51
270.0
1001
GENIUS_GENODEF_13
1002
{
1000
HIER
1070
     0
1002
}
1002
{
1000
MANEDIT
1070
     0
1002
}
1002
{
1000
NOSEL
1070
     0
1002
}
1002
{
1000
BEHIND
1070
     0
1002
}
1002
{
1000
OTHER
1070
     0
1002
}
1002
{
1000
REACTOR
1002
}
1001
GENIUS_GENOBJ-N-FIL_13
1002
{
1000
OWNER
1000
GEN
1002
}
  0
ARC
  5
DF3
330
18
100
AcDbEntity
  8
note
100
AcDbCircle
 10
520.5091940473916
 20
220.094849918843
 30
0.0
 40
0.2879999999999938
100
AcDbArc
 50
90.0
 51
180.0
1001
GENIUS_GENOREF_13
1005
EF5
  0
LINE
  5
DF4
330
18
100
AcDbEntity
  8
center
 62
     0
100
AcDbLine
 10
197.7289676814279
 20
107.9234099620989
 30
0.0
 11
533.728967681428
 21
107.9234099620989
 31
0.0
  0
LINE
  5
DF5
330
18
100
AcDbEntity
  8
note
 62
     0
100
AcDbLine
 10
408.1905792447962
 20
101.8569099620989
 30
0.0
 11
530.728967681428
 21
101.856909962099
 31
0.0
  0
LINE
  5
DF6
330
18
100
AcDbEntity
  8
center
 62
     0
 48
0.5
100
AcDbLine
 10
253.2289676814279
 20
99.89891737659077
 30
0.0
 11
253.2289676814279
 21
160.9273373743332
 31
0.0
  0
LINE
  5
DF7
330
18
100
AcDbEntity
  8
note
 62
     0
100
AcDbLine
 10
257.728967681428
 20
107.1472012272859
 30
0.0
 11
250.7289676814279
 21
112.4234099620989
 31
0.0
  0
LINE
  5
DF8
330
18
100
AcDbEntity
  8
note
 62
     0
100
AcDbLine
 10
250.7289676814279
 20
103.4234099620989
 30
0.0
 11
257.728967681428
 21
108.6996186969119
 31
0.0
  0
LINE
  5
DF9
330
18
100
AcDbEntity
  8
note
100
AcDbLine
 10
257.728967681428
 20
108.6996186969119
 30
0.0
 11
255.728967681428
 21
108.6996186969119
 31
0.0
  0
LINE
  5
DFA
330
18
100
AcDbEntity
  8
note
100
AcDbLine
 10
257.728967681428
 20
107.1472012272859
 30
0.0
 11
257.728967681428
 21
108.6996186969119
 31
0.0
  0
LINE
  5
DFB
330
18
100
AcDbEntity
  8
note
100
AcDbLine
 10
255.728967681428
 20
107.1472012272859
 30
0.0
 11
257.728967681428
 21
107.1472012272859
 31
0.0
  0
LINE
  5
DFC
330
18
100
AcDbEntity
  8
note
100
AcDbLine
 10
250.7289676814279
 20
103.4234099620989
 30
0.0
 11
255.728967681428
 21
103.4234099620989
 31
0.0
  0
LINE
  5
DFD
330
18
100
AcDbEntity
  8
note
100
AcDbLine
 10
250.7289676814279
 20
112.4234099620989
 30
0.0
 11
250.7289676814279
 21
103.4234099620989
 31
0.0
  0
LINE
  5
DFE
330
18
100
AcDbEntity
  8
note
100
AcDbLine
 10
255.728967681428
 20
112.4234099620989
 30
0.0
 11
250.7289676814279
 21
112.4234099620989
 31
0.0
  0
LINE
  5
DFF
330
18
100
AcDbEntity
  8
center
 62
     0
 48
0.5
100
AcDbLine
 10
260.728967681428
 20
152.1566451343223
 30
0.0
 11
245.728967681428
 21
152.1566451343223
 31
0.0
  0
LINE
  5
E00
330
18
100
AcDbEntity
  8
note
100
AcDbLine
 10
259.228967681428
 20
147.6566451343223
 30
0.0
 11
259.228967681428
 21
156.6566451343223
 31
0.0
  0
LINE
  5
E01
330
18
100
AcDbEntity
  8
note
100
AcDbLine
 10
247.228967681428
 20
156.6566451343223
 30
0.0
 11
247.228967681428
 21
147.6566451343223
 31
0.0
  0
ARC
  5
E02
330
18
100
AcDbEntity
  8
note
100
AcDbCircle
 10
253.2289676814279
 20
152.1566451343223
 30
0.0
 40
7.5
100
AcDbArc
 50
216.8698976458466
 51
323.1301023541534
  0
ARC
  5
E03
330
18
100
AcDbEntity
  8
note
100
AcDbCircle
 10
253.2289676814279
 20
152.1566451343223
 30
0.0
 40
7.5
100
AcDbArc
 50
36.86989764584663
 51
143.1301023541533
  0
LINE
  5
E04
330
18
100
AcDbEntity
  8
outline
 62
     0
100
AcDbLine
 10
225.7289676814279
 20
102.5574099620989
 30
0.0
 11
226.8270878934263
 21
101.9234099620989
 31
0.0
  0
LINE
  5
E05
330
18
100
AcDbEntity
  8
outline
 62
     0
100
AcDbLine
 10
215.7289676814279
 20
102.5574099620989
 30
0.0
 11
225.7289676814279
 21
102.5574099620989
 31
0.0
  0
LINE
  5
E06
330
18
100
AcDbEntity
  8
outline
 62
     0
100
AcDbLine
 10
225.7289676814279
 20
113.2894099620989
 30
0.0
 11
226.8270878934267
 21
113.9234099620989
 31
0.0
  0
LINE
  5
E07
330
18
100
AcDbEntity
  8
outline
 62
     0
100
AcDbLine
 10
215.7289676814279
 20
113.2894099620989
 30
0.0
 11
225.7289676814279
 21
113.2894099620989
 31
0.0
  0
LINE
  5
E08
330
18
100
AcDbEntity
  8
note
100
AcDbLine
 10
216.228967681428
 20
101.9234099620989
 30
0.0
 11
245.4289676814282
 21
101.9234099620989
 31
0.0
  0
LINE
  5
E09
330
18
100
AcDbEntity
  8
note
100
AcDbLine
 10
255.4289676814278
 20
103.4234099620989
 30
0.0
 11
255.4289676814278
 21
100.4234099620989
 31
0.0
  0
LINE
  5
E0A
330
18
100
AcDbEntity
  8
note
100
AcDbLine
 10
255.4289676814282
 20
115.4234099620989
 30
0.0
 11
255.4289676814282
 21
112.4234099620989
 31
0.0
  0
LINE
  5
E0B
330
18
100
AcDbEntity
  8
note
100
AcDbLine
 10
261.6789676814278
 20
100.9234099620989
 30
0.0
 11
261.6789676814283
 21
114.9234099620989
 31
0.0
  0
LINE
  5
E0C
330
18
100
AcDbEntity
  8
note
100
AcDbLine
 10
260.728967681428
 20
101.8734099620989
 30
0.0
 11
261.6789676814278
 21
100.9234099620989
 31
0.0
  0
LINE
  5
E0D
330
18
100
AcDbEntity
  8
note
100
AcDbLine
 10
260.728967681428
 20
113.9734099620989
 30
0.0
 11
261.6789676814278
 21
114.9234099620989
 31
0.0
  0
LINE
  5
E0E
330
18
100
AcDbEntity
  8
note
100
AcDbLine
 10
260.728967681428
 20
101.8734099620989
 30
0.0
 11
256.228967681428
 21
101.8734099620989
 31
0.0
  0
LINE
  5
E0F
330
18
100
AcDbEntity
  8
note
100
AcDbLine
 10
260.728967681428
 20
113.9734099620989
 30
0.0
 11
260.728967681428
 21
101.8734099620989
 31
0.0
  0
LINE
  5
E10
330
18
100
AcDbEntity
  8
note
100
AcDbLine
 10
256.228967681428
 20
113.9734099620991
 30
0.0
 11
260.728967681428
 21
113.9734099620989
 31
0.0
  0
LINE
  5
E11
330
18
100
AcDbEntity
  8
note
100
AcDbLine
 10
245.4289676814282
 20
113.9234099620989
 30
0.0
 11
216.228967681428
 21
113.9234099620989
 31
0.0
  0
LINE
  5
E12
330
18
100
AcDbEntity
  8
note
100
AcDbLine
 10
530.228967681428
 20
114.9234099620989
 30
0.0
 11
530.228967681428
 21
100.9234099620989
 31
0.0
  0
LINE
  5
E13
330
18
100
AcDbEntity
  8
note
100
AcDbLine
 10
530.228967681428
 20
114.9234099620989
 30
0.0
 11
530.728967681428
 21
114.4234099620989
 31
0.0
1001
GENIUS_GENFIL_13
1070
     0
1040
0.5
1040
0.5
1040
0.5000000000001137
1040
45.0
1000
~T
1001
GENIUS_GENOREF_13
1005
EDE
  0
LINE
  5
E14
330
18
100
AcDbEntity
  8
note
100
AcDbLine
 10
530.228967681428
 20
100.9234099620989
 30
0.0
 11
530.728967681428
 21
101.4234099620989
 31
0.0
1001
GENIUS_GENFIL_13
1070
     0
1040
0.5
1040
0.5
1040
0.5000000000001137
1040
44.99999999999348
1000
~T
1001
GENIUS_GENOREF_13
1005
EDF
  0
LINE
  5
E15
330
18
100
AcDbEntity
  8
note
100
AcDbLine
 10
530.728967681428
 20
114.4234099620989
 30
0.0
 11
530.728967681428
 21
101.4234099620989
 31
0.0
  0
LINE
  5
E16
330
18
100
AcDbEntity
  8
note
100
AcDbLine
 10
245.928967681428
 20
115.4234099620989
 30
0.0
 11
245.9289676814282
 21
100.4234099620989
 31
0.0
  0
LINE
  5
E17
330
18
100
AcDbEntity
  8
note
100
AcDbLine
 10
216.228967681428
 20
113.9234099620989
 30
0.0
 11
216.228967681428
 21
101.9234099620989
 31
0.0
  0
LINE
  5
E18
330
18
100
AcDbEntity
  8
note
100
AcDbLine
 10
201.2289676814279
 20
112.9234099620989
 30
0.0
 11
201.2289676814279
 21
102.9234099620989
 31
0.0
  0
LINE
  5
E19
330
18
100
AcDbEntity
  8
note
100
AcDbLine
 10
225.7289676814279
 20
101.9234099620989
 30
0.0
 11
225.7289676814279
 21
113.9234099620989
 31
0.0
  0
LINE
  5
E1A
330
18
100
AcDbEntity
  8
note
100
AcDbLine
 10
200.7289676814279
 20
103.4234099620989
 30
0.0
 11
201.2289676814279
 21
102.9234099620989
 31
0.0
1001
GENIUS_GENFIL_13
1070
     0
1040
0.5
1040
0.5
1040
0.5000000000000569
1040
45.00000000001302
1000
~T
1001
GENIUS_GENOREF_13
1005
EE0
  0
LINE
  5
E1B
330
18
100
AcDbEntity
  8
note
100
AcDbLine
 10
215.7289676814279
 20
102.9234099620989
 30
0.0
 11
201.2289676814279
 21
102.9234099620989
 31
0.0
  0
LINE
  5
E1C
330
18
100
AcDbEntity
  8
note
100
AcDbLine
 10
200.7289676814279
 20
112.4234099620989
 30
0.0
 11
201.2289676814279
 21
112.9234099620989
 31
0.0
1001
GENIUS_GENFIL_13
1070
     0
1040
0.5
1040
0.5
1040
0.5000000000000569
1040
45.00000000000325
1000
~T
1001
GENIUS_GENOREF_13
1005
EE1
  0
LINE
  5
E1D
330
18
100
AcDbEntity
  8
note
100
AcDbLine
 10
215.7289676814279
 20
112.9234099620989
 30
0.0
 11
201.2289676814279
 21
112.9234099620989
 31
0.0
  0
LINE
  5
E1E
330
18
100
AcDbEntity
  8
note
100
AcDbLine
 10
215.7289676814279
 20
102.4234099620989
 30
0.0
 11
216.228967681428
 21
101.9234099620989
 31
0.0
1001
GENIUS_GENFIL_13
1070
     0
1040
0.5
1040
0.5
1040
0.5000000000000569
1040
45.00000000000325
1000
~T
1001
GENIUS_GENOREF_13
1005
EE2
  0
LINE
  5
E1F
330
18
100
AcDbEntity
  8
note
100
AcDbLine
 10
216.228967681428
 20
113.9234099620989
 30
0.0
 11
215.7289676814279
 21
113.4234099620989
 31
0.0
1001
GENIUS_GENFIL_13
1070
     0
1040
0.5
1040
0.5
1040
0.5000000000000569
1040
45.00000000000651
1000
~T
1001
GENIUS_GENOREF_13
1005
EE3
  0
LINE
  5
E20
330
18
100
AcDbEntity
  8
note
100
AcDbLine
 10
215.7289676814279
 20
113.4234099620989
 30
0.0
 11
215.7289676814279
 21
102.4234099620989
 31
0.0
  0
LINE
  5
E21
330
18
100
AcDbEntity
  8
note
100
AcDbLine
 10
245.728967681428
 20
115.2234099620988
 30
0.0
 11
245.928967681428
 21
115.4234099620989
 31
0.0
1001
GENIUS_GENREC_14
1002
{
1000
PYDIR
1011
245.728967681428
1021
100.4234099620989
1031
0.0
1002
}
1002
{
1000
PXDIR
1011
255.728967681428
1021
115.4234099620989
1031
0.0
1002
}
1002
{
1000
PORI
1011
245.728967681428
1021
115.4234099620989
1031
0.0
1002
}
1002
{
1000
PINS
1011
245.728967681428
1021
115.4234099620989
1031
0.0
1002
}
1002
{
1000
PINS2
1011
255.728967681428
1021
100.4234099620989
1031
0.0
1002
}
1002
{
1000
C
1070
     1
1002
}
1001
GENIUS_GENODEF_13
1002
{
1000
HIER
1070
     0
1002
}
1002
{
1000
MANEDIT
1070
     0
1002
}
1002
{
1000
NOSEL
1070
     0
1002
}
1002
{
1000
BEHIND
1070
     0
1002
}
1002
{
1000
OTHER
1070
     0
1002
}
1002
{
1000
REACTOR
1002
}
1001
GENIUS_GENOBJ-N-REC_13
1002
{
1000
OWNER
1000
GEN
1002
}
  0
ARC
  5
E22
330
18
100
AcDbEntity
  8
note
100
AcDbCircle
 10
245.4289676814282
 20
114.2234099620988
 30
0.0
 40
0.3
100
AcDbArc
 50
270.0
 51
0.0
1001
GENIUS_GENREC_14
1002
{
1000
PYDIR
1011
245.728967681428
1021
100.4234099620989
1031
0.0
1002
}
1002
{
1000
PXDIR
1011
255.728967681428
1021
115.4234099620989
1031
0.0
1002
}
1002
{
1000
PORI
1011
245.728967681428
1021
115.4234099620989
1031
0.0
1002
}
1002
{
1000
PINS
1011
245.728967681428
1021
115.4234099620989
1031
0.0
1002
}
1002
{
1000
PINS2
1011
255.728967681428
1021
100.4234099620989
1031
0.0
1002
}
1002
{
1000
C
1070
     1
1002
}
1001
GENIUS_GENOBJ-N-REC_13
1002
{
1000
OWNER
1000
GEN
1002
}
1001
GENIUS_GENOBJ-N-FIL_13
1002
{
1000
OWNER
1000
GEN
1002
}
1001
GENIUS_GENODEF_13
1002
{
1000
HIER
1070
     0
1002
}
1002
{
1000
MANEDIT
1070
     0
1002
}
1002
{
1000
NOSEL
1070
     0
1002
}
1002
{
1000
BEHIND
1070
     0
1002
}
1002
{
1000
OTHER
1070
     0
1002
}
1002
{
1000
REACTOR
1002
}
  0
ARC
  5
E23
330
18
100
AcDbEntity
  8
note
100
AcDbCircle
 10
245.4289676814282
 20
101.6234099620989
 30
0.0
 40
0.3
100
AcDbArc
 50
0.0
 51
90.0
1001
GENIUS_GENREC_14
1002
{
1000
PYDIR
1011
245.728967681428
1021
100.4234099620989
1031
0.0
1002
}
1002
{
1000
PXDIR
1011
255.728967681428
1021
115.4234099620989
1031
0.0
1002
}
1002
{
1000
PORI
1011
245.728967681428
1021
115.4234099620989
1031
0.0
1002
}
1002
{
1000
PINS
1011
245.728967681428
1021
115.4234099620989
1031
0.0
1002
}
1002
{
1000
PINS2
1011
255.728967681428
1021
100.4234099620989
1031
0.0
1002
}
1002
{
1000
C
1070
     1
1002
}
1001
GENIUS_GENOREF_13
1005
EE4
  0
LINE
  5
E24
330
18
100
AcDbEntity
  8
note
100
AcDbLine
 10
245.728967681428
 20
100.6234099620989
 30
0.0
 11
245.728967681428
 21
115.2234099620988
 31
0.0
1001
GENIUS_GENREC_14
1002
{
1000
PYDIR
1011
245.728967681428
1021
100.4234099620989
1031
0.0
1002
}
1002
{
1000
PXDIR
1011
255.728967681428
1021
115.4234099620989
1031
0.0
1002
}
1002
{
1000
PORI
1011
245.728967681428
1021
115.4234099620989
1031
0.0
1002
}
1002
{
1000
PINS
1011
245.728967681428
1021
115.4234099620989
1031
0.0
1002
}
1002
{
1000
PINS2
1011
255.728967681428
1021
100.4234099620989
1031
0.0
1002
}
1002
{
1000
C
1070
     1
1002
}
1001
GENIUS_GENODEF_13
1002
{
1000
HIER
1070
     0
1002
}
1002
{
1000
MANEDIT
1070
     0
1002
}
1002
{
1000
NOSEL
1070
     0
1002
}
1002
{
1000
BEHIND
1070
     0
1002
}
1002
{
1000
OTHER
1070
     0
1002
}
1002
{
1000
REACTOR
1002
}
1001
GENIUS_GENOBJ-N-REC_13
1002
{
1000
OWNER
1000
GEN
1002
}
  0
LINE
  5
E25
330
18
100
AcDbEntity
  8
note
100
AcDbLine
 10
245.9289676814282
 20
100.4234099620989
 30
0.0
 11
245.728967681428
 21
100.6234099620989
 31
0.0
1001
GENIUS_GENREC_14
1002
{
1000
PYDIR
1011
245.728967681428
1021
100.4234099620989
1031
0.0
1002
}
1002
{
1000
PXDIR
1011
255.728967681428
1021
115.4234099620989
1031
0.0
1002
}
1002
{
1000
PORI
1011
245.728967681428
1021
115.4234099620989
1031
0.0
1002
}
1002
{
1000
PINS
1011
245.728967681428
1021
115.4234099620989
1031
0.0
1002
}
1002
{
1000
PINS2
1011
255.728967681428
1021
100.4234099620989
1031
0.0
1002
}
1002
{
1000
C
1070
     1
1002
}
1001
GENIUS_GENODEF_13
1002
{
1000
HIER
1070
     0
1002
}
1002
{
1000
MANEDIT
1070
     0
1002
}
1002
{
1000
NOSEL
1070
     0
1002
}
1002
{
1000
BEHIND
1070
     0
1002
}
1002
{
1000
OTHER
1070
     0
1002
}
1002
{
1000
REACTOR
1002
}
1001
GENIUS_GENOBJ-N-REC_13
1002
{
1000
OWNER
1000
GEN
1002
}
  0
LINE
  5
E26
330
18
100
AcDbEntity
  8
note
100
AcDbLine
 10
255.4289676814278
 20
100.4234099620989
 30
0.0
 11
245.9289676814282
 21
100.4234099620989
 31
0.0
1001
GENIUS_GENREC_14
1002
{
1000
PYDIR
1011
245.728967681428
1021
100.4234099620989
1031
0.0
1002
}
1002
{
1000
PXDIR
1011
255.728967681428
1021
115.4234099620989
1031
0.0
1002
}
1002
{
1000
PORI
1011
245.728967681428
1021
115.4234099620989
1031
0.0
1002
}
1002
{
1000
PINS
1011
245.728967681428
1021
115.4234099620989
1031
0.0
1002
}
1002
{
1000
PINS2
1011
255.728967681428
1021
100.4234099620989
1031
0.0
1002
}
1002
{
1000
C
1070
     1
1002
}
1001
GENIUS_GENODEF_13
1002
{
1000
HIER
1070
     0
1002
}
1002
{
1000
MANEDIT
1070
     0
1002
}
1002
{
1000
NOSEL
1070
     0
1002
}
1002
{
1000
BEHIND
1070
     0
1002
}
1002
{
1000
OTHER
1070
     0
1002
}
1002
{
1000
REACTOR
1002
}
1001
GENIUS_GENOBJ-N-REC_13
1002
{
1000
OWNER
1000
GEN
1002
}
  0
LINE
  5
E27
330
18
100
AcDbEntity
  8
note
100
AcDbLine
 10
255.728967681428
 20
100.7234099620989
 30
0.0
 11
255.4289676814278
 21
100.4234099620989
 31
0.0
1001
GENIUS_GENREC_14
1002
{
1000
PYDIR
1011
245.728967681428
1021
100.4234099620989
1031
0.0
1002
}
1002
{
1000
PXDIR
1011
255.728967681428
1021
115.4234099620989
1031
0.0
1002
}
1002
{
1000
PORI
1011
245.728967681428
1021
115.4234099620989
1031
0.0
1002
}
1002
{
1000
PINS
1011
245.728967681428
1021
115.4234099620989
1031
0.0
1002
}
1002
{
1000
PINS2
1011
255.728967681428
1021
100.4234099620989
1031
0.0
1002
}
1002
{
1000
C
1070
     1
1002
}
1001
GENIUS_GENODEF_13
1002
{
1000
HIER
1070
     0
1002
}
1002
{
1000
MANEDIT
1070
     0
1002
}
1002
{
1000
NOSEL
1070
     0
1002
}
1002
{
1000
BEHIND
1070
     0
1002
}
1002
{
1000
OTHER
1070
     0
1002
}
1002
{
1000
REACTOR
1002
}
1001
GENIUS_GENOBJ-N-REC_13
1002
{
1000
OWNER
1000
GEN
1002
}
  0
ARC
  5
E28
330
18
100
AcDbEntity
  8
note
100
AcDbCircle
 10
256.228967681428
 20
114.4734099620991
 30
0.0
 40
0.5
100
AcDbArc
 50
180.0
 51
270.0
1001
GENIUS_GENREC_14
1002
{
1000
PYDIR
1011
245.728967681428
1021
100.4234099620989
1031
0.0
1002
}
1002
{
1000
PXDIR
1011
255.728967681428
1021
115.4234099620989
1031
0.0
1002
}
1002
{
1000
PORI
1011
245.728967681428
1021
115.4234099620989
1031
0.0
1002
}
1002
{
1000
PINS
1011
245.728967681428
1021
115.4234099620989
1031
0.0
1002
}
1002
{
1000
PINS2
1011
255.728967681428
1021
100.4234099620989
1031
0.0
1002
}
1002
{
1000
C
1070
     1
1002
}
1001
GENIUS_GENOBJ-N-REC_13
1002
{
1000
OWNER
1000
GEN
1002
}
1001
GENIUS_GENODEF_13
1002
{
1000
HIER
1070
     0
1002
}
1002
{
1000
MANEDIT
1070
     0
1002
}
1002
{
1000
NOSEL
1070
     0
1002
}
1002
{
1000
BEHIND
1070
     0
1002
}
1002
{
1000
OTHER
1070
     0
1002
}
1002
{
1000
REACTOR
1002
}
1001
GENIUS_GENOBJ-N-FIL_13
1002
{
1000
OWNER
1000
GEN
1002
}
  0
ARC
  5
E29
330
18
100
AcDbEntity
  8
note
100
AcDbCircle
 10
256.228967681428
 20
101.3734099620989
 30
0.0
 40
0.5
100
AcDbArc
 50
90.0
 51
180.0
1001
GENIUS_GENREC_14
1002
{
1000
PYDIR
1011
245.728967681428
1021
100.4234099620989
1031
0.0
1002
}
1002
{
1000
PXDIR
1011
255.728967681428
1021
115.4234099620989
1031
0.0
1002
}
1002
{
1000
PORI
1011
245.728967681428
1021
115.4234099620989
1031
0.0
1002
}
1002
{
1000
PINS
1011
245.728967681428
1021
115.4234099620989
1031
0.0
1002
}
1002
{
1000
PINS2
1011
255.728967681428
1021
100.4234099620989
1031
0.0
1002
}
1002
{
1000
C
1070
     1
1002
}
1001
GENIUS_GENOREF_13
1005
EE5
  0
LINE
  5
E2A
330
18
100
AcDbEntity
  8
note
100
AcDbLine
 10
255.728967681428
 20
107.1472012272859
 30
0.0
 11
255.728967681428
 21
100.7234099620989
 31
0.0
1001
GENIUS_GENREC_14
1002
{
1000
PYDIR
1011
245.728967681428
1021
100.4234099620989
1031
0.0
1002
}
1002
{
1000
PXDIR
1011
255.728967681428
1021
115.4234099620989
1031
0.0
1002
}
1002
{
1000
PORI
1011
245.728967681428
1021
115.4234099620989
1031
0.0
1002
}
1002
{
1000
PINS
1011
245.728967681428
1021
115.4234099620989
1031
0.0
1002
}
1002
{
1000
PINS2
1011
255.728967681428
1021
100.4234099620989
1031
0.0
1002
}
1002
{
1000
C
1070
     1
1002
}
1001
GENIUS_GENODEF_13
1002
{
1000
HIER
1070
     0
1002
}
1002
{
1000
MANEDIT
1070
     0
1002
}
1002
{
1000
NOSEL
1070
     0
1002
}
1002
{
1000
BEHIND
1070
     0
1002
}
1002
{
1000
OTHER
1070
     0
1002
}
1002
{
1000
REACTOR
1002
}
1001
GENIUS_GENOBJ-N-REC_13
1002
{
1000
OWNER
1000
GEN
1002
}
  0
LINE
  5
E2B
330
18
100
AcDbEntity
  8
note
100
AcDbLine
 10
255.728967681428
 20
115.1234099620989
 30
0.0
 11
255.728967681428
 21
108.6996186969119
 31
0.0
1001
GENIUS_GENREC_14
1002
{
1000
PYDIR
1011
245.728967681428
1021
100.4234099620989
1031
0.0
1002
}
1002
{
1000
PXDIR
1011
255.728967681428
1021
115.4234099620989
1031
0.0
1002
}
1002
{
1000
PORI
1011
245.728967681428
1021
115.4234099620989
1031
0.0
1002
}
1002
{
1000
PINS
1011
245.728967681428
1021
115.4234099620989
1031
0.0
1002
}
1002
{
1000
PINS2
1011
255.728967681428
1021
100.4234099620989
1031
0.0
1002
}
1002
{
1000
C
1070
     1
1002
}
1001
GENIUS_GENODEF_13
1002
{
1000
HIER
1070
     0
1002
}
1002
{
1000
MANEDIT
1070
     0
1002
}
1002
{
1000
NOSEL
1070
     0
1002
}
1002
{
1000
BEHIND
1070
     0
1002
}
1002
{
1000
OTHER
1070
     0
1002
}
1002
{
1000
REACTOR
1002
}
1001
GENIUS_GENOBJ-N-REC_13
1002
{
1000
OWNER
1000
GEN
1002
}
  0
LINE
  5
E2C
330
18
100
AcDbEntity
  8
note
100
AcDbLine
 10
255.4289676814282
 20
115.4234099620989
 30
0.0
 11
255.728967681428
 21
115.1234099620989
 31
0.0
1001
GENIUS_GENREC_14
1002
{
1000
PYDIR
1011
245.728967681428
1021
100.4234099620989
1031
0.0
1002
}
1002
{
1000
PXDIR
1011
255.728967681428
1021
115.4234099620989
1031
0.0
1002
}
1002
{
1000
PORI
1011
245.728967681428
1021
115.4234099620989
1031
0.0
1002
}
1002
{
1000
PINS
1011
245.728967681428
1021
115.4234099620989
1031
0.0
1002
}
1002
{
1000
PINS2
1011
255.728967681428
1021
100.4234099620989
1031
0.0
1002
}
1002
{
1000
C
1070
     1
1002
}
1001
GENIUS_GENODEF_13
1002
{
1000
HIER
1070
     0
1002
}
1002
{
1000
MANEDIT
1070
     0
1002
}
1002
{
1000
NOSEL
1070
     0
1002
}
1002
{
1000
BEHIND
1070
     0
1002
}
1002
{
1000
OTHER
1070
     0
1002
}
1002
{
1000
REACTOR
1002
}
1001
GENIUS_GENOBJ-N-REC_13
1002
{
1000
OWNER
1000
GEN
1002
}
  0
LINE
  5
E2D
330
18
100
AcDbEntity
  8
note
100
AcDbLine
 10
245.928967681428
 20
115.4234099620989
 30
0.0
 11
255.4289676814282
 21
115.4234099620989
 31
0.0
1001
GENIUS_GENREC_14
1002
{
1000
PYDIR
1011
245.728967681428
1021
100.4234099620989
1031
0.0
1002
}
1002
{
1000
PXDIR
1011
255.728967681428
1021
115.4234099620989
1031
0.0
1002
}
1002
{
1000
PORI
1011
245.728967681428
1021
115.4234099620989
1031
0.0
1002
}
1002
{
1000
PINS
1011
245.728967681428
1021
115.4234099620989
1031
0.0
1002
}
1002
{
1000
PINS2
1011
255.728967681428
1021
100.4234099620989
1031
0.0
1002
}
1002
{
1000
C
1070
     1
1002
}
1001
GENIUS_GENODEF_13
1002
{
1000
HIER
1070
     0
1002
}
1002
{
1000
MANEDIT
1070
     0
1002
}
1002
{
1000
NOSEL
1070
     0
1002
}
1002
{
1000
BEHIND
1070
     0
1002
}
1002
{
1000
OTHER
1070
     0
1002
}
1002
{
1000
REACTOR
1002
}
1001
GENIUS_GENOBJ-N-REC_13
1002
{
1000
OWNER
1000
GEN
1002
}
  0
LINE
  5
E2E
330
18
100
AcDbEntity
  8
note
100
AcDbLine
 10
378.1905792447963
 20
120.9234099620989
 30
0.0
 11
408.1905792447962
 21
120.9234099620989
 31
0.0
  0
LINE
  5
E2F
330
18
100
AcDbEntity
  8
note
100
AcDbLine
 10
200.7289676814279
 20
103.4234099620989
 30
0.0
 11
200.7289676814279
 21
112.4234099620989
 31
0.0
  0
LINE
  5
E37
330
18
100
AcDbEntity
  8
note
100
AcDbLine
 10
368.1905792447963
 20
100.9234099620989
 30
0.0
 11
261.6789676814278
 21
100.9234099620989
 31
0.0
  0
LINE
  5
E38
330
18
100
AcDbEntity
  8
note
 62
     0
100
AcDbLine
 10
368.1905792447963
 20
101.8569099620989
 30
0.0
 11
260.7454676814277
 21
101.8569099620987
 31
0.0
  0
LINE
  5
E39
330
18
100
AcDbEntity
  8
note
 62
     0
100
AcDbLine
 10
368.1905792447963
 20
113.9899099620989
 30
0.0
 11
260.7454676814277
 21
113.9899099620988
 31
0.0
  0
LINE
  5
E3A
330
18
100
AcDbEntity
  8
note
100
AcDbLine
 10
368.1905792447963
 20
114.9234099620989
 30
0.0
 11
261.6789676814278
 21
114.9234099620989
 31
0.0
  0
LINE
  5
E3B
330
18
100
AcDbEntity
  8
note
100
AcDbLine
 10
408.1905792447962
 20
100.9234099620989
 30
0.0
 11
530.228967681428
 21
100.9234099620989
 31
0.0
  0
LINE
  5
E3C
330
18
100
AcDbEntity
  8
note
 62
     0
100
AcDbLine
 10
408.1905792447962
 20
113.9899099620989
 30
0.0
 11
530.728967681428
 21
113.989909962099
 31
0.0
  0
LINE
  5
E3D
330
18
100
AcDbEntity
  8
note
100
AcDbLine
 10
408.1905792447962
 20
114.9234099620989
 30
0.0
 11
530.228967681428
 21
114.9234099620989
 31
0.0
  0
LINE
  5
E47
330
18
100
AcDbEntity
  8
note
100
AcDbLine
 10
368.1905792447963
 20
85.4234099620989
 30
0.0
 11
378.1905792447967
 21
85.4234099620989
 31
0.0
  0
LINE
  5
E48
330
18
100
AcDbEntity
  8
note
100
AcDbLine
 10
368.1905792447963
 20
130.4234099620989
 30
0.0
 11
378.1905792447962
 21
130.4234099620989
 31
0.0
  0
LINE
  5
E49
330
18
100
AcDbEntity
  8
note
100
AcDbLine
 10
378.1905792447966
 20
94.92340996209888
 30
0.0
 11
408.1905792447962
 21
94.9234099620989
 31
0.0
  0
LINE
  5
E4A
330
18
100
AcDbEntity
  8
note
100
AcDbLine
 10
408.1905792447962
 20
120.9234099620989
 30
0.0
 11
408.1905792447962
 21
94.9234099620989
 31
0.0
  0
LINE
  5
E4B
330
18
100
AcDbEntity
  8
note
100
AcDbLine
 10
378.1905792447962
 20
130.4234099620989
 30
0.0
 11
378.1905792447967
 21
85.4234099620989
 31
0.0
  0
LINE
  5
E4C
330
18
100
AcDbEntity
  8
note
100
AcDbLine
 10
368.1905792447963
 20
130.4234099620989
 30
0.0
 11
368.1905792447963
 21
85.4234099620989
 31
0.0
  0
CIRCLE
  5
E4D
330
18
100
AcDbEntity
  8
note
100
AcDbCircle
 10
45.25688964150886
 20
107.9234099620989
 30
0.0
 40
7.0
  0
ARC
  5
E4E
330
18
100
AcDbEntity
  8
note
100
AcDbCircle
 10
45.25688964150886
 20
107.9234099620989
 30
0.0
 40
22.5
100
AcDbArc
 50
229.8759654064882
 51
310.1240345935118
  0
CIRCLE
  5
E4F
330
18
100
AcDbEntity
  8
center
 62
     0
100
AcDbCircle
 10
45.25688964150886
 20
107.9234099620989
 30
0.0
 40
17.5
  0
LINE
  5
E50
330
18
100
AcDbEntity
  8
center
 62
     0
100
AcDbLine
 10
45.25688964150886
 20
83.23283595842594
 30
0.0
 11
45.25688964150886
 21
132.6139839657718
 31
0.0
  0
LINE
  5
E51
330
18
100
AcDbEntity
  8
note
100
AcDbLine
 10
30.75688964150887
 20
90.71875942801369
 30
0.0
 11
30.75688964150887
 21
125.1280604961841
 31
0.0
  0
LINE
  5
E52
330
18
100
AcDbEntity
  8
note
100
AcDbLine
 10
59.75688964150887
 20
90.71875942801369
 30
0.0
 11
59.75688964150887
 21
125.1280604961841
 31
0.0
  0
ARC
  5
E53
330
18
100
AcDbEntity
  8
note
100
AcDbCircle
 10
45.25688964150886
 20
107.9234099620989
 30
0.0
 40
22.5
100
AcDbArc
 50
49.87596540648822
 51
130.1240345935117
  0
LINE
  5
E54
330
18
100
AcDbEntity
  8
note
 62
     0
100
AcDbLine
 10
26.15163160245148
 20
107.9234099620989
 30
0.0
 11
64.36214768056626
 21
107.9234099620989
 31
0.0
  0
LINE
  5
E55
330
18
100
AcDbEntity
  8
center
 62
     0
100
AcDbLine
 10
32.91160263967204
 20
129.3060742832992
 30
0.0
 11
57.60217664334568
 21
86.54074564089858
 31
0.0
  0
LINE
  5
E56
330
18
100
AcDbEntity
  8
center
 62
     0
100
AcDbLine
 10
32.91160263967204
 20
86.54074564089858
 30
0.0
 11
57.60217664334568
 21
129.3060742832992
 31
0.0
  0
CIRCLE
  5
E57
330
18
100
AcDbEntity
  8
note
100
AcDbCircle
 10
54.00688964150886
 20
123.0788545283264
 30
0.0
 40
2.25
  0
CIRCLE
  5
E58
330
18
100
AcDbEntity
  8
note
100
AcDbCircle
 10
54.00688964150886
 20
92.76796539587138
 30
0.0
 40
2.25
  0
CIRCLE
  5
E59
330
18
100
AcDbEntity
  8
note
100
AcDbCircle
 10
36.50688964150886
 20
92.76796539587138
 30
0.0
 40
2.25
  0
CIRCLE
  5
E5A
330
18
100
AcDbEntity
  8
note
100
AcDbCircle
 10
36.50688964150886
 20
92.76796539587127
 30
0.0
 40
4.0
  0
CIRCLE
  5
E5B
330
18
100
AcDbEntity
  8
note
100
AcDbCircle
 10
54.00688964150886
 20
92.76796539587138
 30
0.0
 40
4.0
  0
CIRCLE
  5
E5C
330
18
100
AcDbEntity
  8
note
100
AcDbCircle
 10
54.00688964150886
 20
123.0788545283264
 30
0.0
 40
4.0
  0
CIRCLE
  5
E5D
330
18
100
AcDbEntity
  8
note
100
AcDbCircle
 10
36.50688964150886
 20
123.0788545283264
 30
0.0
 40
4.0
  0
CIRCLE
  5
E5E
330
18
100
AcDbEntity
  8
note
100
AcDbCircle
 10
36.50688964150886
 20
123.0788545283264
 30
0.0
 40
2.25
  0
LINE
  5
E5F
330
18
100
AcDbEntity
  8
PV0001_1
  6
Continuous
370
    50
100
AcDbLine
 10
697.4766683042512
 20
271.6494588376251
 30
0.0
 11
697.4766683042512
 21
-187.8505411623748
 31
0.0
  0
LINE
  5
E60
330
18
100
AcDbEntity
  8
PV0001_1
  6
Continuous
370
    50
100
AcDbLine
 10
-63.52333169574881
 20
271.6494588376251
 30
0.0
 11
697.4766683042512
 21
271.6494588376251
 31
0.0
  0
LINE
  5
E61
330
18
100
AcDbEntity
  8
PV0001_1
  6
Continuous
370
    50
100
AcDbLine
 10
-63.52333169574881
 20
271.6494588376251
 30
0.0
 11
-63.52333169574881
 21
-187.8505411623748
 31
0.0
  0
LINE
  5
E62
330
18
100
AcDbEntity
  8
PV0001_1
  6
Continuous
370
    50
100
AcDbLine
 10
-63.52333169574881
 20
259.6494588376251
 30
0.0
 11
225.7846517026812
 21
259.6494588376251
 31
0.0
  0
LINE
  5
E63
330
18
100
AcDbEntity
  8
PV0001_1
  6
Continuous
 48
0.5
370
    50
100
AcDbLine
 10
-23.85173135395284
 20
265.0494527341095
 30
0.0
 11
-22.60081582660887
 21
265.0494527341095
 31
0.0
  0
LINE
  5
E64
330
18
100
AcDbEntity
  8
PV0001_1
  6
Continuous
 48
0.5
370
    50
100
AcDbLine
 10
-21.72332864399179
 20
263.2494649411407
 30
0.0
 11
-20.12333779926477
 21
263.2494649411407
 31
0.0
  0
LINE
  5
E65
330
18
100
AcDbEntity
  8
PV0001_1
  6
Continuous
 48
0.5
370
    50
100
AcDbLine
 10
-22.01101403827879
 20
264.1127180577484
 30
0.0
 11
-21.72327523822985
 21
263.2495002270904
 31
0.0
  0
LINE
  5
E66
330
18
100
AcDbEntity
  8
PV0001_1
  6
Continuous
 48
0.5
370
    50
100
AcDbLine
 10
-25.03551202411886
 20
265.3126854420869
 30
0.0
 11
-24.36884408588575
 21
267.3126844884126
 31
0.0
  0
LINE
  5
E67
330
18
100
AcDbEntity
  8
PV0001_1
  6
Continuous
 48
0.5
370
    50
100
AcDbLine
 10
-22.12333398456785
 20
268.0494565488067
 30
0.0
 11
-20.12333016987081
 21
263.2494449139801
 31
0.0
  0
LINE
  5
E68
330
18
100
AcDbEntity
  8
PV0001_1
  6
Continuous
 48
0.5
370
    50
100
AcDbLine
 10
-25.3233500062958
 20
268.0494620324342
 30
0.0
 11
-27.32334237690184
 21
263.2494792462555
 31
0.0
  0
LINE
  5
E69
330
18
100
AcDbEntity
  8
PV0001_1
  6
Continuous
 48
0.5
370
    50
100
AcDbLine
 10
-23.07768731708681
 20
267.3127293111053
 30
0.0
 11
-22.41101937885485
 21
265.3127297879425
 31
0.0
  0
LINE
  5
E6A
330
18
100
AcDbEntity
  8
PV0001_1
  6
Continuous
 48
0.5
370
    50
100
AcDbLine
 10
-25.7232523500458
 20
263.2494554043977
 30
0.0
 11
-25.43550592060278
 21
264.1127027989593
 31
0.0
  0
LINE
  5
E6B
330
18
100
AcDbEntity
  8
PV0001_1
  6
Continuous
 48
0.5
370
    50
100
AcDbLine
 10
-24.84584146137381
 20
265.0494527341095
 30
0.0
 11
-23.85173135395284
 21
265.0494527341095
 31
0.0
  0
LINE
  5
E6C
330
18
100
AcDbEntity
  8
PV0001_1
  6
Continuous
 48
0.5
370
    50
100
AcDbLine
 10
-25.24583535785887
 20
264.2494649411407
 30
0.0
 11
-22.20082193012381
 21
264.2494649411407
 31
0.0
  0
LINE
  5
E6D
330
18
100
AcDbEntity
  8
PV0001_1
  6
Continuous
 48
0.5
370
    50
100
AcDbLine
 10
-25.32333474750685
 20
268.0494527341095
 30
0.0
 11
-22.12333779926478
 21
268.0494527341095
 31
0.0
  0
LINE
  5
E6E
330
18
100
AcDbEntity
  8
PV0001_1
  6
Continuous
 48
0.5
370
    50
100
AcDbLine
 10
-24.17918496723387
 20
267.4494466305938
 30
0.0
 11
-23.26747232074881
 21
267.4494466305938
 31
0.0
  0
LINE
  5
E6F
330
18
100
AcDbEntity
  8
PV0001_1
  6
Continuous
 48
0.5
370
    50
100
AcDbLine
 10
-27.32333474750685
 20
263.2494649411407
 30
0.0
 11
-25.72332864399179
 21
263.2494649411407
 31
0.0
  0
LINE
  5
E70
330
18
100
AcDbEntity
  8
PV0001_1
  6
Continuous
 48
0.5
370
    50
100
AcDbLine
 10
-31.92332559223387
 20
264.0494527341095
 30
0.0
 11
-29.72332864399179
 21
264.0494527341095
 31
0.0
  0
LINE
  5
E71
330
18
100
AcDbEntity
  8
PV0001_1
  6
Continuous
 48
0.5
370
    50
100
AcDbLine
 10
-28.92332559223387
 20
266.6494588376251
 30
0.0
 11
-28.92332559223387
 21
264.8494710446564
 31
0.0
  0
LINE
  5
E72
330
18
100
AcDbEntity
  8
PV0001_1
  6
Continuous
 48
0.5
370
    50
100
AcDbLine
 10
-32.12333779926478
 20
267.2494649411407
 30
0.0
 11
-32.12333779926478
 21
264.2494649411407
 31
0.0
  0
LINE
  5
E73
330
18
100
AcDbEntity
  8
PV0001_1
  6
Continuous
 48
0.5
370
    50
100
AcDbLine
 10
-33.72332864399179
 20
268.0494832516876
 30
0.0
 11
-33.72332864399179
 21
263.2494649411407
 31
0.0
  0
LINE
  5
E74
330
18
100
AcDbEntity
  8
PV0001_1
  6
Continuous
 48
0.5
370
    50
100
AcDbLine
 10
-27.32333474750685
 20
266.6494588376251
 30
0.0
 11
-27.32333474750685
 21
264.6494588376251
 31
0.0
  0
LINE
  5
E75
330
18
100
AcDbEntity
  8
PV0001_1
  6
Continuous
 48
0.5
370
    50
100
AcDbLine
 10
-35.72332864399179
 20
266.6494588376251
 30
0.0
 11
-35.72332864399179
 21
264.8494710446564
 31
0.0
  0
LINE
  5
E76
330
18
100
AcDbEntity
  8
PV0001_1
  6
Continuous
 48
0.5
370
    50
100
AcDbLine
 10
-39.12333779926477
 20
266.6494588376251
 30
0.0
 11
-39.12333779926477
 21
264.8494710446564
 31
0.0
  0
LINE
  5
E77
330
18
100
AcDbEntity
  8
PV0001_1
  6
Continuous
 48
0.5
370
    50
100
AcDbLine
 10
-38.32333474750685
 20
264.0494527341095
 30
0.0
 11
-36.52333169574881
 21
264.0494527341095
 31
0.0
  0
LINE
  5
E78
330
18
100
AcDbEntity
  8
PV0001_1
  6
Continuous
 48
0.5
370
    50
100
AcDbLine
 10
-33.72332864399179
 20
268.0494527341095
 30
0.0
 11
-28.72332864399179
 21
268.0494527341095
 31
0.0
  0
LINE
  5
E79
330
18
100
AcDbEntity
  8
PV0001_1
  6
Continuous
 48
0.5
370
    50
100
AcDbLine
 10
-31.92332559223387
 20
267.4494466305938
 30
0.0
 11
-29.72332864399179
 21
267.4494466305938
 31
0.0
  0
LINE
  5
E7A
330
18
100
AcDbEntity
  8
PV0001_1
  6
Continuous
 48
0.5
370
    50
100
AcDbLine
 10
-33.72967630024179
 20
263.2494649411407
 30
0.0
 11
-28.72332864399179
 21
263.2494649411407
 31
0.0
  0
LINE
  5
E7B
330
18
100
AcDbEntity
  8
PV0001_1
  6
Continuous
 48
0.5
370
    50
100
AcDbLine
 10
-34.12333779926477
 20
266.6494588376251
 30
0.0
 11
-34.12333779926477
 21
264.6494588376251
 31
0.0
  0
LINE
  5
E7C
330
18
100
AcDbEntity
  8
PV0001_1
  6
Continuous
 48
0.5
370
    50
100
AcDbLine
 10
-40.72332864399179
 20
266.6494588376251
 30
0.0
 11
-40.72332864399179
 21
264.6494588376251
 31
0.0
  0
LINE
  5
E7D
330
18
100
AcDbEntity
  8
PV0001_1
  6
Continuous
 48
0.5
370
    50
100
AcDbLine
 10
-42.72332864399179
 20
264.2494649411407
 30
0.0
 11
-42.72332864399179
 21
263.2494649411407
 31
0.0
  0
LINE
  5
E7E
330
18
100
AcDbEntity
  8
PV0001_1
  6
Continuous
 48
0.5
370
    50
100
AcDbLine
 10
-39.32333474750685
 20
268.0494527341095
 30
0.0
 11
-35.52333169574881
 21
268.0494527341095
 31
0.0
  0
LINE
  5
E7F
330
18
100
AcDbEntity
  8
PV0001_1
  6
Continuous
 48
0.5
370
    50
100
AcDbLine
 10
-38.32333474750685
 20
267.4494466305938
 30
0.0
 11
-36.52333169574881
 21
267.4494466305938
 31
0.0
  0
LINE
  5
E80
330
18
100
AcDbEntity
  8
PV0001_1
  6
Continuous
 48
0.5
370
    50
100
AcDbLine
 10
-39.32333474750685
 20
263.2494649411407
 30
0.0
 11
-35.52333169574881
 21
263.2494649411407
 31
0.0
  0
LINE
  5
E81
330
18
100
AcDbEntity
  8
PV0001_1
  6
Continuous
 48
0.5
370
    50
100
AcDbLine
 10
-45.62333779926477
 20
264.4494466305939
 30
0.0
 11
-45.62333779926477
 21
263.2494649411407
 31
0.0
  0
LINE
  5
E82
330
18
100
AcDbEntity
  8
PV0001_1
  6
Continuous
 48
0.5
370
    50
100
AcDbLine
 10
-42.72332864399179
 20
263.2494649411407
 30
0.0
 11
-41.02333169574881
 21
263.2494649411407
 31
0.0
  0
LINE
  5
E83
330
18
100
AcDbEntity
  8
PV0001_1
  6
Continuous
 48
0.5
370
    50
100
AcDbLine
 10
-45.42332559223386
 20
265.5494527341095
 30
0.0
 11
-43.32333474750685
 21
265.5494527341095
 31
0.0
  0
LINE
  5
E84
330
18
100
AcDbEntity
  8
PV0001_1
  6
Continuous
 48
0.5
370
    50
100
AcDbLine
 10
-45.42332559223386
 20
267.4494466305938
 30
0.0
 11
-43.32333474750685
 21
267.4494466305938
 31
0.0
  0
LINE
  5
E85
330
18
100
AcDbEntity
  8
PV0001_1
  6
Continuous
 48
0.5
370
    50
100
AcDbLine
 10
-45.22332864399179
 20
264.8494710446564
 30
0.0
 11
-43.32333474750685
 21
264.8494710446564
 31
0.0
  0
LINE
  5
E86
330
18
100
AcDbEntity
  8
PV0001_1
  6
Continuous
 48
0.5
370
    50
100
AcDbLine
 10
-45.62333779926477
 20
267.2494649411407
 30
0.0
 11
-45.62333779926477
 21
265.7494649411408
 31
0.0
  0
LINE
  5
E87
330
18
100
AcDbEntity
  8
PV0001_1
  6
Continuous
 48
0.5
370
    50
100
AcDbLine
 10
-42.72332864399179
 20
266.8494710446564
 30
0.0
 11
-42.72332864399179
 21
266.1494588376251
 31
0.0
  0
LINE
  5
E88
330
18
100
AcDbEntity
  8
PV0001_1
  6
Continuous
 48
0.5
370
    50
100
AcDbLine
 10
-47.22332864399179
 20
268.0494832516876
 30
0.0
 11
-47.22332864399179
 21
263.2494649411407
 31
0.0
  0
LINE
  5
E89
330
18
100
AcDbEntity
  8
PV0001_1
  6
Continuous
 48
0.5
370
    50
100
AcDbLine
 10
-47.22332864399179
 20
263.2494649411407
 30
0.0
 11
-45.62333779926477
 21
263.2494649411407
 31
0.0
  0
LINE
  5
E8A
330
18
100
AcDbEntity
  8
PV0001_1
  6
Continuous
 48
0.5
370
    50
100
AcDbLine
 10
-47.22332864399179
 20
268.0494527341095
 30
0.0
 11
-42.52333169574881
 21
268.0494527341095
 31
0.0
  0
LINE
  5
E8B
330
18
100
AcDbEntity
  8
PV0001_1
  6
Continuous
 48
0.5
370
    50
100
AcDbLine
 10
-49.12333779926477
 20
268.0494527341095
 30
0.0
 11
-47.72332864399179
 21
268.0494527341095
 31
0.0
  0
LINE
  5
E8C
330
18
100
AcDbEntity
  8
PV0001_1
  6
Continuous
 48
0.5
370
    50
100
AcDbLine
 10
-51.92332559223387
 20
264.0494527341095
 30
0.0
 11
-49.72332864399179
 21
264.0494527341095
 31
0.0
  0
LINE
  5
E8D
330
18
100
AcDbEntity
  8
PV0001_1
  6
Continuous
 48
0.5
370
    50
100
AcDbLine
 10
-49.12333779926477
 20
268.0494832516876
 30
0.0
 11
-49.12333779926477
 21
264.6494588376251
 31
0.0
  0
LINE
  5
E8E
330
18
100
AcDbEntity
  8
PV0001_1
  6
Continuous
 48
0.5
370
    50
100
AcDbLine
 10
-52.52333169574881
 20
268.0494527341095
 30
0.0
 11
-52.52333169574881
 21
264.6494588376251
 31
0.0
  0
LINE
  5
E8F
330
18
100
AcDbEntity
  8
PV0001_1
  6
Continuous
 48
0.5
370
    50
100
AcDbLine
 10
-47.72332864399179
 20
268.0494832516876
 30
0.0
 11
-47.72332864399179
 21
264.4494466305939
 31
0.0
  0
LINE
  5
E90
330
18
100
AcDbEntity
  8
PV0001_1
  6
Continuous
 48
0.5
370
    50
100
AcDbLine
 10
-58.92332559223318
 20
265.4494466305938
 30
0.0
 11
-58.92332559223318
 21
263.2494649411407
 31
0.0
  0
LINE
  5
E91
330
18
100
AcDbEntity
  8
PV0001_1
  6
Continuous
 48
0.5
370
    50
100
AcDbLine
 10
-56.32333474750662
 20
268.0494527341095
 30
0.0
 11
-54.32333474750662
 21
268.0494527341095
 31
0.0
  0
LINE
  5
E92
330
18
100
AcDbEntity
  8
PV0001_1
  6
Continuous
 48
0.5
370
    50
100
AcDbLine
 10
-55.92332559223319
 20
263.2494649411407
 30
0.0
 11
-53.92332559223318
 21
263.2494649411407
 31
0.0
  0
LINE
  5
E93
330
18
100
AcDbEntity
  8
PV0001_1
  6
Continuous
 48
0.5
370
    50
100
AcDbLine
 10
-56.19236426944876
 20
266.1803893567291
 30
0.0
 11
-54.32330422992849
 21
268.0494489194122
 31
0.0
  0
LINE
  5
E94
330
18
100
AcDbEntity
  8
PV0001_1
  6
Continuous
 48
0.5
370
    50
100
AcDbLine
 10
-57.66327481861257
 20
266.3266777516571
 30
0.0
 11
-56.3233337938323
 21
268.0494589329925
 31
0.0
  0
LINE
  5
E95
330
18
100
AcDbEntity
  8
PV0001_1
  6
Continuous
 48
0.5
370
    50
100
AcDbLine
 10
-56.20278888340139
 20
265.908874464151
 30
0.0
 11
-53.92331128711844
 21
263.2494840146271
 31
0.0
  0
LINE
  5
E96
330
18
100
AcDbEntity
  8
PV0001_1
  6
Continuous
 48
0.5
370
    50
100
AcDbLine
 10
-57.66337638492728
 20
265.569434595224
 30
0.0
 11
-55.92337089176321
 21
263.2494277478424
 31
0.0
  0
LINE
  5
E97
330
18
100
AcDbEntity
  8
PV0001_1
  6
Continuous
 48
0.5
370
    50
100
AcDbLine
 10
-58.72332864399099
 20
266.2494649411407
 30
0.0
 11
-57.82115274067068
 21
266.2494649411407
 31
0.0
  0
LINE
  5
E98
330
18
100
AcDbEntity
  8
PV0001_1
  6
Continuous
 48
0.5
370
    50
100
AcDbLine
 10
-58.72332864399099
 20
265.6494588376251
 30
0.0
 11
-57.82333474750662
 21
265.6494588376251
 31
0.0
  0
LINE
  5
E99
330
18
100
AcDbEntity
  8
PV0001_1
  6
Continuous
 48
0.5
370
    50
100
AcDbLine
 10
-53.92332559223318
 20
268.0494527341095
 30
0.0
 11
-52.52333169574881
 21
268.0494527341095
 31
0.0
  0
LINE
  5
E9A
330
18
100
AcDbEntity
  8
PV0001_1
  6
Continuous
 48
0.5
370
    50
100
AcDbLine
 10
-52.72332864399179
 20
263.2494649411407
 30
0.0
 11
-48.92332559223387
 21
263.2494649411407
 31
0.0
  0
LINE
  5
E9B
330
18
100
AcDbEntity
  8
PV0001_1
  6
Continuous
 48
0.5
370
    50
100
AcDbLine
 10
-53.92332559223318
 20
268.0494527341095
 30
0.0
 11
-53.92332559223318
 21
264.4494466305939
 31
0.0
  0
LINE
  5
E9C
330
18
100
AcDbEntity
  8
PV0001_1
  6
Continuous
 48
0.5
370
    50
100
AcDbLine
 10
-58.92332559223318
 20
268.0494527341095
 30
0.0
 11
-58.92332559223318
 21
266.4494466305939
 31
0.0
  0
LINE
  5
E9D
330
18
100
AcDbEntity
  8
PV0001_1
  6
Continuous
 48
0.5
370
    50
100
AcDbLine
 10
-60.52333169574881
 20
268.0494527341095
 30
0.0
 11
-58.92332559223318
 21
268.0494527341095
 31
0.0
  0
LINE
  5
E9E
330
18
100
AcDbEntity
  8
PV0001_1
  6
Continuous
 48
0.5
370
    50
100
AcDbLine
 10
-60.52333169574881
 20
268.0494527341095
 30
0.0
 11
-60.52333169574881
 21
263.2494649411407
 31
0.0
  0
LINE
  5
E9F
330
18
100
AcDbEntity
  8
PV0001_1
  6
Continuous
 48
0.5
370
    50
100
AcDbLine
 10
-60.52333169574881
 20
263.2494649411407
 30
0.0
 11
-58.92332559223318
 21
263.2494649411407
 31
0.0
  0
LINE
  5
EA0
330
18
100
AcDbEntity
  8
PV0001_1
  6
Continuous
 48
0.5
370
    50
100
AcDbLine
 10
-17.12333779926477
 20
271.6494588376251
 30
0.0
 11
-17.12333779926477
 21
259.6494588376251
 31
0.0
  0
LINE
  5
EA1
330
18
100
AcDbEntity
  8
PV0001_1
  6
Continuous
 48
0.5
370
   100
100
AcDbLine
 10
218.1926412046411
 20
268.3494710446563
 30
0.0
 11
218.1926412046411
 21
262.9494466305938
 31
0.0
  0
LINE
  5
EA2
330
18
100
AcDbEntity
  8
PV0001_1
  6
Continuous
 48
0.5
370
   100
100
AcDbLine
 10
211.7126607358911
 20
264.0290879727569
 30
0.0
 11
218.1926412046411
 21
262.9490909100738
 31
0.0
  0
LINE
  5
EA3
330
18
100
AcDbEntity
  8
PV0001_1
  6
Continuous
 48
0.5
370
   100
100
AcDbLine
 10
211.7126302183112
 20
267.2694539548126
 30
0.0
 11
211.7126302183112
 21
264.0294026852814
 31
0.0
  0
LINE
  5
EA4
330
18
100
AcDbEntity
  8
PV0001_1
  6
Continuous
 48
0.5
370
   100
100
AcDbLine
 10
211.7126912534613
 20
267.2691125394073
 30
0.0
 11
218.1927022397912
 21
268.3491148472992
 31
0.0
  0
LINE
  5
EA5
330
18
100
AcDbEntity
  8
PV0001_1
  6
CENTER2
 48
0.5
370
    25
100
AcDbLine
 10
210.8702229917512
 20
265.6494588376251
 30
0.0
 11
219.3061055601012
 21
265.6494588376251
 31
0.0
  0
LINE
  5
EA6
330
18
100
AcDbEntity
  8
PV0001_1
  6
CENTER2
 48
0.5
370
    25
100
AcDbLine
 10
202.7846517026812
 20
269.5942830563751
 30
0.0
 11
202.7846517026812
 21
261.9165791989532
 31
0.0
  0
LINE
  5
EA7
330
18
100
AcDbEntity
  8
PV0001_1
  6
CENTER2
 48
0.5
370
    25
100
AcDbLine
 10
198.9420003355012
 20
265.6494588376251
 30
0.0
 11
206.5292806089312
 21
265.6494588376251
 31
0.0
  0
LINE
  5
EA8
330
18
100
AcDbEntity
  8
PV0001_1
  6
Continuous
 48
0.5
370
    50
100
AcDbLine
 10
225.7846517026812
 20
271.6494588376251
 30
0.0
 11
225.7846517026812
 21
259.6494588376251
 31
0.0
  0
LINE
  5
EA9
330
18
100
AcDbEntity
  8
PV0001_1
  6
Continuous
370
    50
100
AcDbLine
 10
44.87666220073124
 20
247.6494588376251
 30
0.0
 11
195.7846517026812
 21
247.6494588376251
 31
0.0
  0
LINE
  5
EAA
330
18
100
AcDbEntity
  8
PV0001_1
  6
Continuous
370
    50
100
AcDbLine
 10
-63.52333169574881
 20
-187.8505411623748
 30
0.0
 11
697.4766683042512
 21
-187.8505411623748
 31
0.0
  0
LINE
  5
EAB
330
18
100
AcDbEntity
  8
PV0001_1
  6
Continuous
370
    50
100
AcDbLine
 10
44.87666220073124
 20
235.6494588376251
 30
0.0
 11
195.7846517026812
 21
235.6494588376251
 31
0.0
  0
LINE
  5
EAC
330
18
100
AcDbEntity
  8
PV0001_1
  6
Continuous
370
    50
100
AcDbLine
 10
44.87666220073124
 20
223.6494588376251
 30
0.0
 11
195.7846517026812
 21
223.6494588376251
 31
0.0
  0
ARC
  5
EAD
330
18
100
AcDbEntity
  8
PV0001_1
  6
Continuous
 48
0.5
370
    50
100
AcDbCircle
 10
-24.17918496723387
 20
267.2494649411407
 30
0.0
 40
0.2000000029802
100
AcDbArc
 50
89.99998201390772
 51
161.5651331937946
  0
ARC
  5
EAE
330
18
100
AcDbEntity
  8
PV0001_1
  6
Continuous
 48
0.5
370
    50
100
AcDbCircle
 10
-22.60081582660887
 20
265.2494649411407
 30
0.0
 40
0.2000000029802
100
AcDbArc
 50
270.0000179860923
 51
18.43488035289839
  0
ARC
  5
EAF
330
18
100
AcDbEntity
  8
PV0001_1
  6
Continuous
 48
0.5
370
    50
100
AcDbCircle
 10
-24.84584146137381
 20
265.2494649411407
 30
0.0
 40
0.2000000029802
100
AcDbArc
 50
161.5650375711492
 51
270.0000006832495
  0
ARC
  5
EB0
330
18
100
AcDbEntity
  8
PV0001_1
  6
Continuous
 48
0.5
370
    50
100
AcDbCircle
 10
-28.72332864399179
 20
266.6494588376251
 30
0.0
 40
1.399999976158099
100
AcDbArc
 50
0.0
 51
89.99998201390772
  0
ARC
  5
EB1
330
18
100
AcDbEntity
  8
PV0001_1
  6
Continuous
 48
0.5
370
    50
100
AcDbCircle
 10
-28.72332864399179
 20
264.6494588376251
 30
0.0
 40
1.399999976158099
100
AcDbArc
 50
270.0000179860923
 51
0.0
  0
ARC
  5
EB2
330
18
100
AcDbEntity
  8
PV0001_1
  6
Continuous
 48
0.5
370
    50
100
AcDbCircle
 10
-29.72332864399179
 20
266.6494588376251
 30
0.0
 40
0.8000000119209
100
AcDbArc
 50
0.0
 51
89.99998201390772
  0
ARC
  5
EB3
330
18
100
AcDbEntity
  8
PV0001_1
  6
Continuous
 48
0.5
370
    50
100
AcDbCircle
 10
-29.72332864399179
 20
264.8494710446564
 30
0.0
 40
0.8000000119209
100
AcDbArc
 50
270.0000179860923
 51
0.0
  0
ARC
  5
EB4
330
18
100
AcDbEntity
  8
PV0001_1
  6
Continuous
 48
0.5
370
    50
100
AcDbCircle
 10
-31.92332559223387
 20
264.2494649411407
 30
0.0
 40
0.2000000029802
100
AcDbArc
 50
179.9999776882002
 51
270.0000280039997
  0
ARC
  5
EB5
330
18
100
AcDbEntity
  8
PV0001_1
  6
Continuous
 48
0.5
370
    50
100
AcDbCircle
 10
-31.92332559223387
 20
267.2494649411407
 30
0.0
 40
0.2000000029802
100
AcDbArc
 50
89.99998201390772
 51
179.9999640278186
  0
ARC
  5
EB6
330
18
100
AcDbEntity
  8
PV0001_1
  6
Continuous
 48
0.5
370
    50
100
AcDbCircle
 10
-36.52333169574881
 20
266.6494588376251
 30
0.0
 40
0.8000000119209
100
AcDbArc
 50
0.0
 51
89.99998201390772
  0
ARC
  5
EB7
330
18
100
AcDbEntity
  8
PV0001_1
  6
Continuous
 48
0.5
370
    50
100
AcDbCircle
 10
-36.52333169574881
 20
264.8494710446564
 30
0.0
 40
0.8000000119209
100
AcDbArc
 50
270.0000179860923
 51
0.0
  0
ARC
  5
EB8
330
18
100
AcDbEntity
  8
PV0001_1
  6
Continuous
 48
0.5
370
    50
100
AcDbCircle
 10
-38.32333474750685
 20
264.8494710446564
 30
0.0
 40
0.8000000119209
100
AcDbArc
 50
179.9999776882002
 51
270.0000280039997
  0
ARC
  5
EB9
330
18
100
AcDbEntity
  8
PV0001_1
  6
Continuous
 48
0.5
370
    50
100
AcDbCircle
 10
-38.32333474750685
 20
266.6494588376251
 30
0.0
 40
0.8000000119209
100
AcDbArc
 50
89.99998201390772
 51
179.9999640278186
  0
ARC
  5
EBA
330
18
100
AcDbEntity
  8
PV0001_1
  6
Continuous
 48
0.5
370
    50
100
AcDbCircle
 10
-39.32333474750685
 20
266.6494588376251
 30
0.0
 40
1.399999976158099
100
AcDbArc
 50
89.99998201390772
 51
179.9999640278186
  0
ARC
  5
EBB
330
18
100
AcDbEntity
  8
PV0001_1
  6
Continuous
 48
0.5
370
    50
100
AcDbCircle
 10
-35.52333169574881
 20
266.6494588376251
 30
0.0
 40
1.399999976158099
100
AcDbArc
 50
0.0
 51
89.99998201390772
  0
ARC
  5
EBC
330
18
100
AcDbEntity
  8
PV0001_1
  6
Continuous
 48
0.5
370
    50
100
AcDbCircle
 10
-35.52333169574881
 20
264.6494588376251
 30
0.0
 40
1.399999976158099
100
AcDbArc
 50
270.0000179860923
 51
0.0
  0
ARC
  5
EBD
330
18
100
AcDbEntity
  8
PV0001_1
  6
Continuous
 48
0.5
370
    50
100
AcDbCircle
 10
-39.32333474750685
 20
264.6494588376251
 30
0.0
 40
1.399999976158099
100
AcDbArc
 50
179.9999776882002
 51
270.0000280039997
  0
ARC
  5
EBE
330
18
100
AcDbEntity
  8
PV0001_1
  6
Continuous
 48
0.5
370
    50
100
AcDbCircle
 10
-43.32333474750685
 20
266.8494710446564
 30
0.0
 40
0.6000000238419
100
AcDbArc
 50
0.0
 51
89.99998201390772
  0
ARC
  5
EBF
330
18
100
AcDbEntity
  8
PV0001_1
  6
Continuous
 48
0.5
370
    50
100
AcDbCircle
 10
-43.32333474750685
 20
266.1494588376251
 30
0.0
 40
0.6000000238419
100
AcDbArc
 50
270.0000179860923
 51
0.0
  0
ARC
  5
EC0
330
18
100
AcDbEntity
  8
PV0001_1
  6
Continuous
 48
0.5
370
    50
100
AcDbCircle
 10
-45.42332559223386
 20
265.7494649411408
 30
0.0
 40
0.2000000029802
100
AcDbArc
 50
179.9999776882002
 51
270.0000280039997
  0
ARC
  5
EC1
330
18
100
AcDbEntity
  8
PV0001_1
  6
Continuous
 48
0.5
370
    50
100
AcDbCircle
 10
-45.42332559223386
 20
267.2494649411407
 30
0.0
 40
0.2000000029802
100
AcDbArc
 50
89.99998201390772
 51
179.9999640278186
  0
ARC
  5
EC2
330
18
100
AcDbEntity
  8
PV0001_1
  6
Continuous
 48
0.5
370
    50
100
AcDbCircle
 10
-41.74350076313184
 20
265.0388631345001
 30
0.0
 40
0.2000000029802
100
AcDbArc
 50
117.3049472966013
 51
234.426736240421
  0
ARC
  5
EC3
330
18
100
AcDbEntity
  8
PV0001_1
  6
Continuous
 48
0.5
370
    50
100
AcDbCircle
 10
-43.32333474750685
 20
264.2494649411407
 30
0.0
 40
0.6000000238419
100
AcDbArc
 50
0.0
 51
89.99998201390772
  0
ARC
  5
EC4
330
18
100
AcDbEntity
  8
PV0001_1
  6
Continuous
 48
0.5
370
    50
100
AcDbCircle
 10
-45.22332864399179
 20
264.4494466305939
 30
0.0
 40
0.4000000059605
100
AcDbArc
 50
89.99998201390772
 51
179.9999640278186
  0
ARC
  5
EC5
330
18
100
AcDbEntity
  8
PV0001_1
  6
Continuous
 48
0.5
370
    50
100
AcDbCircle
 10
-42.52333169574881
 20
266.5494832516876
 30
0.0
 40
1.5
100
AcDbArc
 50
297.3049900989723
 51
0.0
  0
ARC
  5
EC6
330
18
100
AcDbEntity
  8
PV0001_1
  6
Continuous
 48
0.5
370
    50
100
AcDbCircle
 10
-42.52333169574881
 20
266.5494832516876
 30
0.0
 40
1.5
100
AcDbArc
 50
0.0
 51
89.99998201390772
  0
ARC
  5
EC7
330
18
100
AcDbEntity
  8
PV0001_1
  6
Continuous
 48
0.5
370
    50
100
AcDbCircle
 10
-43.02333169574881
 20
263.2494649411407
 30
0.0
 40
2.0
100
AcDbArc
 50
0.0
 51
54.42673123145815
  0
ARC
  5
EC8
330
18
100
AcDbEntity
  8
PV0001_1
  6
Continuous
 48
0.5
370
    50
100
AcDbCircle
 10
-51.92332559223387
 20
264.6494588376251
 30
0.0
 40
0.6000000238419
100
AcDbArc
 50
179.9999776882002
 51
270.0000280039997
  0
ARC
  5
EC9
330
18
100
AcDbEntity
  8
PV0001_1
  6
Continuous
 48
0.5
370
    50
100
AcDbCircle
 10
-49.72332864399179
 20
264.6494588376251
 30
0.0
 40
0.6000000238419
100
AcDbArc
 50
270.0000179860923
 51
0.0
  0
ARC
  5
ECA
330
18
100
AcDbEntity
  8
PV0001_1
  6
Continuous
 48
0.5
370
    50
100
AcDbCircle
 10
-48.92332559223387
 20
264.4494466305939
 30
0.0
 40
1.2000000476837
100
AcDbArc
 50
270.0000179860923
 51
0.0
  0
ARC
  5
ECB
330
18
100
AcDbEntity
  8
PV0001_1
  6
Continuous
 48
0.5
370
    50
100
AcDbCircle
 10
-52.72332864399179
 20
264.4494466305939
 30
0.0
 40
1.2000000476837
100
AcDbArc
 50
179.9999776882002
 51
270.0000280039997
  0
ARC
  5
ECC
330
18
100
AcDbEntity
  8
PV0001_1
  6
Continuous
 48
0.5
370
    50
100
AcDbCircle
 10
-58.72332864399099
 20
265.4494466305938
 30
0.0
 40
0.2000000029802
100
AcDbArc
 50
89.99998201390772
 51
179.9999640278186
  0
ARC
  5
ECD
330
18
100
AcDbEntity
  8
PV0001_1
  6
Continuous
 48
0.5
370
    50
100
AcDbCircle
 10
-58.72332864399099
 20
266.4494466305939
 30
0.0
 40
0.2000000029802
100
AcDbArc
 50
179.9999776882002
 51
270.0000280039997
  0
ARC
  5
ECE
330
18
100
AcDbEntity
  8
PV0001_1
  6
Continuous
 48
0.5
370
    50
100
AcDbCircle
 10
-57.82333474750662
 20
265.4494466305938
 30
0.0
 40
0.2000000029802
100
AcDbArc
 50
36.8699075548632
 51
89.99998201390772
  0
ARC
  5
ECF
330
18
100
AcDbEntity
  8
PV0001_1
  6
Continuous
 48
0.5
370
    50
100
AcDbCircle
 10
-57.82115274067068
 20
266.4494466305939
 30
0.0
 40
0.2000000029802
100
AcDbArc
 50
270.0000179860923
 51
322.1249959578264
  0
ARC
  5
ED0
330
18
100
AcDbEntity
  8
PV0001_1
  6
Continuous
 48
0.5
370
    50
100
AcDbCircle
 10
-56.05095010395193
 20
266.0389852048126
 30
0.0
 40
0.2000000029802
100
AcDbArc
 50
135.0000549831381
 51
220.6012585677717
  0
CIRCLE
  5
ED1
330
18
100
AcDbEntity
  8
PV0001_1
  6
Continuous
 48
0.5
370
   100
100
AcDbCircle
 10
202.7846517026812
 20
265.6493978024689
 30
0.0
 40
2.700000047683699
  0
ARC
  5
ED2
330
18
100
AcDbEntity
  8
PV0001_1
  6
Continuous
 48
0.5
370
    50
100
AcDbCircle
 10
-23.26747232074881
 20
267.2494649411407
 30
0.0
 40
0.2000000029802
100
AcDbArc
 50
18.43505281517163
 51
89.99998201390772
  0
ARC
  5
ED3
330
18
100
AcDbEntity
  8
PV0001_1
  6
Continuous
 48
0.5
370
    50
100
AcDbCircle
 10
-25.24583535785887
 20
264.0494832516876
 30
0.0
 40
0.2000000029802
100
AcDbArc
 50
89.99998201390772
 51
161.5650102503881
  0
ARC
  5
ED4
330
18
100
AcDbEntity
  8
PV0001_1
  6
Continuous
 48
0.5
370
    50
100
AcDbCircle
 10
-22.20082193012381
 20
264.0494832516876
 30
0.0
 40
0.2000000029802
100
AcDbArc
 50
18.43488035289839
 51
89.99998201390772
  0
CIRCLE
  5
ED5
330
18
100
AcDbEntity
  8
PV0001_1
  6
Continuous
 48
0.5
370
   100
100
AcDbCircle
 10
202.7846517026812
 20
265.6493978024689
 30
0.0
 40
1.6200001239777
  0
POINT
  5
ED6
330
18
100
AcDbEntity
  8
0
 60
     1
100
AcDbPoint
 10
-311.1234455673132
 20
-256.9940979903715
 30
0.0
1001
GENIUS_GENOENT_13
1002
{
1000
MYREF
1005
ED6
1002
}
1002
{
1000
GRP
1005
0
1002
}
1001
GENIUS_GENOBJ-N-FIL_13
1002
{
1000
OWNER
1000
GEN
1002
}
1001
GENIUS_GENOLIS_13
1002
{
1000
ENT
1005
0
1005
DA5
1002
}
1001
GENIUS_GENODEF_13
1002
{
1000
HIER
1070
     1
1002
}
1002
{
1000
MANEDIT
1070
     1
1002
}
1002
{
1000
NOSEL
1070
     0
1002
}
1002
{
1000
BEHIND
1070
     0
1002
}
1002
{
1000
OTHER
1070
     0
1002
}
1002
{
1000
REACTOR
1002
}
  0
POINT
  5
ED7
330
18
100
AcDbEntity
  8
0
 60
     1
100
AcDbPoint
 10
-311.1234455673132
 20
-256.9940979903715
 30
0.0
1001
GENIUS_GENOENT_13
1002
{
1000
MYREF
1005
ED7
1002
}
1002
{
1000
GRP
1005
0
1002
}
1001
GENIUS_GENOBJ-N-FIL_13
1002
{
1000
OWNER
1000
GEN
1002
}
1001
GENIUS_GENOLIS_13
1002
{
1000
ENT
1005
0
1005
DAB
1002
}
1001
GENIUS_GENODEF_13
1002
{
1000
HIER
1070
     1
1002
}
1002
{
1000
MANEDIT
1070
     1
1002
}
1002
{
1000
NOSEL
1070
     0
1002
}
1002
{
1000
BEHIND
1070
     0
1002
}
1002
{
1000
OTHER
1070
     0
1002
}
1002
{
1000
REACTOR
1002
}
  0
POINT
  5
ED8
330
18
100
AcDbEntity
  8
0
 60
     1
100
AcDbPoint
 10
-311.1234455673132
 20
-256.9940979903715
 30
0.0
1001
GENIUS_GENOLIS_13
1002
{
1000
ENT
1005
0
1005
DAF
1002
}
1001
GENIUS_GENOENT_13
1002
{
1000
MYREF
1005
ED8
1002
}
1002
{
1000
GRP
1005
0
1002
}
1001
GENIUS_GENOBJ-N-CHA_13
1002
{
1000
OWNER
1000
GEN
1002
}
1001
GENIUS_GENODEF_13
1002
{
1000
HIER
1070
     1
1002
}
1002
{
1000
MANEDIT
1070
     1
1002
}
1002
{
1000
NOSEL
1070
     0
1002
}
1002
{
1000
BEHIND
1070
     0
1002
}
1002
{
1000
OTHER
1070
     0
1002
}
1002
{
1000
REACTOR
1002
}
  0
POINT
  5
ED9
330
18
100
AcDbEntity
  8
0
 60
     1
100
AcDbPoint
 10
-311.1234455673132
 20
-256.9940979903715
 30
0.0
1001
GENIUS_GENODEF_13
1002
{
1000
HIER
1070
     1
1002
}
1002
{
1000
MANEDIT
1070
     0
1002
}
1002
{
1000
NOSEL
1070
     0
1002
}
1002
{
1000
BEHIND
1070
     0
1002
}
1002
{
1000
OTHER
1070
     0
1002
}
1002
{
1000
REACTOR
1002
}
1001
GENIUS_GENOLIS_13
1002
{
1000
ENT
1005
DB0
1002
}
1001
GENIUS_GENOENT_13
1002
{
1000
MYREF
1005
ED9
1002
}
1002
{
1000
GRP
1005
0
1002
}
1001
GENIUS_GENOBJ-N-CHA_13
1002
{
1000
OWNER
1000
GEN
1002
}
  0
POINT
  5
EDA
330
18
100
AcDbEntity
  8
0
 60
     1
100
AcDbPoint
 10
-311.1234455673132
 20
-256.9940979903715
 30
0.0
1001
GENIUS_GENOLIS_13
1002
{
1000
ENT
1005
0
1005
DB2
1002
}
1001
GENIUS_GENOENT_13
1002
{
1000
MYREF
1005
EDA
1002
}
1002
{
1000
GRP
1005
0
1002
}
1001
GENIUS_GENOBJ-N-CHA_13
1002
{
1000
OWNER
1000
GEN
1002
}
1001
GENIUS_GENODEF_13
1002
{
1000
HIER
1070
     1
1002
}
1002
{
1000
MANEDIT
1070
     1
1002
}
1002
{
1000
NOSEL
1070
     0
1002
}
1002
{
1000
BEHIND
1070
     0
1002
}
1002
{
1000
OTHER
1070
     0
1002
}
1002
{
1000
REACTOR
1002
}
  0
POINT
  5
EDB
330
18
100
AcDbEntity
  8
0
 60
     1
100
AcDbPoint
 10
-311.1234455673132
 20
-256.9940979903715
 30
0.0
1001
GENIUS_GENODEF_13
1002
{
1000
HIER
1070
     1
1002
}
1002
{
1000
MANEDIT
1070
     0
1002
}
1002
{
1000
NOSEL
1070
     0
1002
}
1002
{
1000
BEHIND
1070
     0
1002
}
1002
{
1000
OTHER
1070
     0
1002
}
1002
{
1000
REACTOR
1002
}
1001
GENIUS_GENOLIS_13
1002
{
1000
ENT
1005
DB4
1002
}
1001
GENIUS_GENOENT_13
1002
{
1000
MYREF
1005
EDB
1002
}
1002
{
1000
GRP
1005
0
1002
}
1001
GENIUS_GENOBJ-N-CHA_13
1002
{
1000
OWNER
1000
GEN
1002
}
  0
POINT
  5
EDC
330
18
100
AcDbEntity
  8
0
 60
     1
100
AcDbPoint
 10
-311.1234455673132
 20
-256.9940979903715
 30
0.0
1001
GENIUS_GENOLIS_13
1002
{
1000
ENT
1005
DBA
1002
}
1001
GENIUS_GENOENT_13
1002
{
1000
MYREF
1005
EDC
1002
}
1002
{
1000
GRP
1005
0
1002
}
1001
GENIUS_GENOBJ-N-CHA_13
1002
{
1000
OWNER
1000
GEN
1002
}
1001
GENIUS_GENODEF_13
1002
{
1000
HIER
1070
     1
1002
}
1002
{
1000
MANEDIT
1070
     0
1002
}
1002
{
1000
NOSEL
1070
     0
1002
}
1002
{
1000
BEHIND
1070
     0
1002
}
1002
{
1000
OTHER
1070
     0
1002
}
1002
{
1000
REACTOR
1002
}
  0
POINT
  5
EDD
330
18
100
AcDbEntity
  8
0
 60
     1
100
AcDbPoint
 10
-311.1234455673132
 20
-256.9940979903715
 30
0.0
1001
GENIUS_GENOENT_13
1002
{
1000
MYREF
1005
EDD
1002
}
1002
{
1000
GRP
1005
0
1002
}
1001
GENIUS_GENOBJ-N-CHA_13
1002
{
1000
OWNER
1000
GEN
1002
}
1001
GENIUS_GENOLIS_13
1002
{
1000
ENT
1005
0
1005
DBB
1002
}
1001
GENIUS_GENODEF_13
1002
{
1000
HIER
1070
     1
1002
}
1002
{
1000
MANEDIT
1070
     1
1002
}
1002
{
1000
NOSEL
1070
     0
1002
}
1002
{
1000
BEHIND
1070
     0
1002
}
1002
{
1000
OTHER
1070
     0
1002
}
1002
{
1000
REACTOR
1002
}
  0
POINT
  5
EDE
330
18
100
AcDbEntity
  8
0
 60
     1
100
AcDbPoint
 10
-311.1234455673132
 20
-167.8638710489606
 30
0.0
1001
GENIUS_GENOENT_13
1002
{
1000
MYREF
1005
EDE
1002
}
1002
{
1000
GRP
1005
0
1002
}
1001
GENIUS_GENOBJ-N-CHA_13
1002
{
1000
OWNER
1000
GEN
1002
}
1001
GENIUS_GENOLIS_13
1002
{
1000
ENT
1005
0
1005
E13
1002
}
1001
GENIUS_GENODEF_13
1002
{
1000
HIER
1070
     1
1002
}
1002
{
1000
MANEDIT
1070
     1
1002
}
1002
{
1000
NOSEL
1070
     0
1002
}
1002
{
1000
BEHIND
1070
     0
1002
}
1002
{
1000
OTHER
1070
     0
1002
}
1002
{
1000
REACTOR
1002
}
  0
POINT
  5
EDF
330
18
100
AcDbEntity
  8
0
 60
     1
100
AcDbPoint
 10
-311.1234455673132
 20
-167.8638710489606
 30
0.0
1001
GENIUS_GENOLIS_13
1002
{
1000
ENT
1005
E14
1002
}
1001
GENIUS_GENOENT_13
1002
{
1000
MYREF
1005
EDF
1002
}
1002
{
1000
GRP
1005
0
1002
}
1001
GENIUS_GENOBJ-N-CHA_13
1002
{
1000
OWNER
1000
GEN
1002
}
1001
GENIUS_GENODEF_13
1002
{
1000
HIER
1070
     1
1002
}
1002
{
1000
MANEDIT
1070
     0
1002
}
1002
{
1000
NOSEL
1070
     0
1002
}
1002
{
1000
BEHIND
1070
     0
1002
}
1002
{
1000
OTHER
1070
     0
1002
}
1002
{
1000
REACTOR
1002
}
  0
POINT
  5
EE0
330
18
100
AcDbEntity
  8
0
 60
     1
100
AcDbPoint
 10
-311.1234455673132
 20
-167.8638710489606
 30
0.0
1001
GENIUS_GENODEF_13
1002
{
1000
HIER
1070
     1
1002
}
1002
{
1000
MANEDIT
1070
     0
1002
}
1002
{
1000
NOSEL
1070
     0
1002
}
1002
{
1000
BEHIND
1070
     0
1002
}
1002
{
1000
OTHER
1070
     0
1002
}
1002
{
1000
REACTOR
1002
}
1001
GENIUS_GENOLIS_13
1002
{
1000
ENT
1005
E1A
1002
}
1001
GENIUS_GENOENT_13
1002
{
1000
MYREF
1005
EE0
1002
}
1002
{
1000
GRP
1005
0
1002
}
1001
GENIUS_GENOBJ-N-CHA_13
1002
{
1000
OWNER
1000
GEN
1002
}
  0
POINT
  5
EE1
330
18
100
AcDbEntity
  8
0
 60
     1
100
AcDbPoint
 10
-311.1234455673132
 20
-167.8638710489606
 30
0.0
1001
GENIUS_GENOLIS_13
1002
{
1000
ENT
1005
0
1005
E1C
1002
}
1001
GENIUS_GENOENT_13
1002
{
1000
MYREF
1005
EE1
1002
}
1002
{
1000
GRP
1005
0
1002
}
1001
GENIUS_GENOBJ-N-CHA_13
1002
{
1000
OWNER
1000
GEN
1002
}
1001
GENIUS_GENODEF_13
1002
{
1000
HIER
1070
     1
1002
}
1002
{
1000
MANEDIT
1070
     1
1002
}
1002
{
1000
NOSEL
1070
     0
1002
}
1002
{
1000
BEHIND
1070
     0
1002
}
1002
{
1000
OTHER
1070
     0
1002
}
1002
{
1000
REACTOR
1002
}
  0
POINT
  5
EE2
330
18
100
AcDbEntity
  8
0
 60
     1
100
AcDbPoint
 10
-311.1234455673132
 20
-167.8638710489606
 30
0.0
1001
GENIUS_GENODEF_13
1002
{
1000
HIER
1070
     1
1002
}
1002
{
1000
MANEDIT
1070
     0
1002
}
1002
{
1000
NOSEL
1070
     0
1002
}
1002
{
1000
BEHIND
1070
     0
1002
}
1002
{
1000
OTHER
1070
     0
1002
}
1002
{
1000
REACTOR
1002
}
1001
GENIUS_GENOLIS_13
1002
{
1000
ENT
1005
E1E
1002
}
1001
GENIUS_GENOENT_13
1002
{
1000
MYREF
1005
EE2
1002
}
1002
{
1000
GRP
1005
0
1002
}
1001
GENIUS_GENOBJ-N-CHA_13
1002
{
1000
OWNER
1000
GEN
1002
}
  0
POINT
  5
EE3
330
18
100
AcDbEntity
  8
0
 60
     1
100
AcDbPoint
 10
-311.1234455673132
 20
-167.8638710489606
 30
0.0
1001
GENIUS_GENOLIS_13
1002
{
1000
ENT
1005
0
1005
E1F
1002
}
1001
GENIUS_GENOENT_13
1002
{
1000
MYREF
1005
EE3
1002
}
1002
{
1000
GRP
1005
0
1002
}
1001
GENIUS_GENOBJ-N-CHA_13
1002
{
1000
OWNER
1000
GEN
1002
}
1001
GENIUS_GENODEF_13
1002
{
1000
HIER
1070
     1
1002
}
1002
{
1000
MANEDIT
1070
     1
1002
}
1002
{
1000
NOSEL
1070
     0
1002
}
1002
{
1000
BEHIND
1070
     0
1002
}
1002
{
1000
OTHER
1070
     0
1002
}
1002
{
1000
REACTOR
1002
}
  0
POINT
  5
EE4
330
18
100
AcDbEntity
  8
0
 60
     1
100
AcDbPoint
 10
-311.1234455673132
 20
-167.8638710489606
 30
0.0
1001
GENIUS_GENOENT_13
1002
{
1000
MYREF
1005
EE4
1002
}
1002
{
1000
GRP
1005
0
1002
}
1001
GENIUS_GENOBJ-N-FIL_13
1002
{
1000
OWNER
1000
GEN
1002
}
1001
GENIUS_GENOLIS_13
1002
{
1000
ENT
1005
0
1005
E23
1002
}
1001
GENIUS_GENODEF_13
1002
{
1000
HIER
1070
     1
1002
}
1002
{
1000
MANEDIT
1070
     1
1002
}
1002
{
1000
NOSEL
1070
     0
1002
}
1002
{
1000
BEHIND
1070
     0
1002
}
1002
{
1000
OTHER
1070
     0
1002
}
1002
{
1000
REACTOR
1002
}
  0
POINT
  5
EE5
330
18
100
AcDbEntity
  8
0
 60
     1
100
AcDbPoint
 10
-311.1234455673132
 20
-167.8638710489606
 30
0.0
1001
GENIUS_GENOENT_13
1002
{
1000
MYREF
1005
EE5
1002
}
1002
{
1000
GRP
1005
0
1002
}
1001
GENIUS_GENOBJ-N-FIL_13
1002
{
1000
OWNER
1000
GEN
1002
}
1001
GENIUS_GENOLIS_13
1002
{
1000
ENT
1005
0
1005
E29
1002
}
1001
GENIUS_GENODEF_13
1002
{
1000
HIER
1070
     1
1002
}
1002
{
1000
MANEDIT
1070
     1
1002
}
1002
{
1000
NOSEL
1070
     0
1002
}
1002
{
1000
BEHIND
1070
     0
1002
}
1002
{
1000
OTHER
1070
     0
1002
}
1002
{
1000
REACTOR
1002
}
  0
POINT
  5
EEC
330
18
100
AcDbEntity
  8
0
 60
     1
100
AcDbPoint
 10
-175.6387804307724
 20
39.61839034287402
 30
0.0
1001
GENIUS_GENOLIS_13
1002
{
1000
ENT
1005
0
1005
DD4
1002
}
1001
GENIUS_GENOENT_13
1002
{
1000
MYREF
1005
EEC
1002
}
1002
{
1000
GRP
1005
0
1002
}
1001
GENIUS_GENOBJ-N-CHA_13
1002
{
1000
OWNER
1000
GEN
1002
}
1001
GENIUS_GENODEF_13
1002
{
1000
HIER
1070
     1
1002
}
1002
{
1000
MANEDIT
1070
     1
1002
}
1002
{
1000
NOSEL
1070
     0
1002
}
1002
{
1000
BEHIND
1070
     0
1002
}
1002
{
1000
OTHER
1070
     0
1002
}
1002
{
1000
REACTOR
1002
}
  0
POINT
  5
EED
330
18
100
AcDbEntity
  8
0
 60
     1
100
AcDbPoint
 10
-175.6387804307724
 20
39.61839034287402
 30
0.0
1001
GENIUS_GENOBJ-N-CHA_13
1002
{
1000
OWNER
1000
GEN
1002
}
1001
GENIUS_GENOLIS_13
1002
{
1000
ENT
1005
0
1005
DD5
1002
}
1001
GENIUS_GENOENT_13
1002
{
1000
MYREF
1005
EED
1002
}
1002
{
1000
GRP
1005
0
1002
}
1001
GENIUS_GENODEF_13
1002
{
1000
HIER
1070
     1
1002
}
1002
{
1000
MANEDIT
1070
     1
1002
}
1002
{
1000
NOSEL
1070
     0
1002
}
1002
{
1000
BEHIND
1070
     0
1002
}
1002
{
1000
OTHER
1070
     0
1002
}
1002
{
1000
REACTOR
1002
}
  0
POINT
  5
EEE
330
18
100
AcDbEntity
  8
0
 60
     1
100
AcDbPoint
 10
-175.6387804307724
 20
39.61839034287402
 30
0.0
1001
GENIUS_GENODEF_13
1002
{
1000
HIER
1070
     1
1002
}
1002
{
1000
MANEDIT
1070
     0
1002
}
1002
{
1000
NOSEL
1070
     0
1002
}
1002
{
1000
BEHIND
1070
     0
1002
}
1002
{
1000
OTHER
1070
     0
1002
}
1002
{
1000
REACTOR
1002
}
1001
GENIUS_GENOBJ-N-CHA_13
1002
{
1000
OWNER
1000
GEN
1002
}
1001
GENIUS_GENOLIS_13
1002
{
1000
ENT
1005
DD6
1002
}
1001
GENIUS_GENOENT_13
1002
{
1000
MYREF
1005
EEE
1002
}
1002
{
1000
GRP
1005
0
1002
}
  0
POINT
  5
EEF
330
18
100
AcDbEntity
  8
0
 60
     1
100
AcDbPoint
 10
-175.6387804307724
 20
39.61839034287402
 30
0.0
1001
GENIUS_GENOLIS_13
1002
{
1000
ENT
1005
DD7
1002
}
1001
GENIUS_GENOENT_13
1002
{
1000
MYREF
1005
EEF
1002
}
1002
{
1000
GRP
1005
0
1002
}
1001
GENIUS_GENOBJ-N-CHA_13
1002
{
1000
OWNER
1000
GEN
1002
}
1001
GENIUS_GENODEF_13
1002
{
1000
HIER
1070
     1
1002
}
1002
{
1000
MANEDIT
1070
     0
1002
}
1002
{
1000
NOSEL
1070
     0
1002
}
1002
{
1000
BEHIND
1070
     0
1002
}
1002
{
1000
OTHER
1070
     0
1002
}
1002
{
1000
REACTOR
1002
}
  0
POINT
  5
EF0
330
18
100
AcDbEntity
  8
0
 60
     1
100
AcDbPoint
 10
-175.6387804307724
 20
39.61839034287402
 30
0.0
1001
GENIUS_GENOENT_13
1002
{
1000
MYREF
1005
EF0
1002
}
1002
{
1000
GRP
1005
0
1002
}
1001
GENIUS_GENOBJ-N-FIL_13
1002
{
1000
OWNER
1000
GEN
1002
}
1001
GENIUS_GENOLIS_13
1002
{
1000
ENT
1005
0
1005
DDC
1002
}
1001
GENIUS_GENODEF_13
1002
{
1000
HIER
1070
     1
1002
}
1002
{
1000
MANEDIT
1070
     1
1002
}
1002
{
1000
NOSEL
1070
     0
1002
}
1002
{
1000
BEHIND
1070
     0
1002
}
1002
{
1000
OTHER
1070
     0
1002
}
1002
{
1000
REACTOR
1002
}
  0
POINT
  5
EF1
330
18
100
AcDbEntity
  8
0
 60
     1
100
AcDbPoint
 10
-175.6387804307721
 20
102.6681850175869
 30
0.0
1001
GENIUS_GENOLIS_13
1002
{
1000
ENT
1005
0
1005
DE6
1002
}
1001
GENIUS_GENOENT_13
1002
{
1000
MYREF
1005
EF1
1002
}
1002
{
1000
GRP
1005
0
1002
}
1001
GENIUS_GENOBJ-N-CHA_13
1002
{
1000
OWNER
1000
GEN
1002
}
1001
GENIUS_GENODEF_13
1002
{
1000
HIER
1070
     1
1002
}
1002
{
1000
MANEDIT
1070
     1
1002
}
1002
{
1000
NOSEL
1070
     0
1002
}
1002
{
1000
BEHIND
1070
     0
1002
}
1002
{
1000
OTHER
1070
     0
1002
}
1002
{
1000
REACTOR
1002
}
  0
POINT
  5
EF2
330
18
100
AcDbEntity
  8
0
 60
     1
100
AcDbPoint
 10
-175.6387804307721
 20
102.6681850175869
 30
0.0
1001
GENIUS_GENOBJ-N-CHA_13
1002
{
1000
OWNER
1000
GEN
1002
}
1001
GENIUS_GENOLIS_13
1002
{
1000
ENT
1005
0
1005
DE7
1002
}
1001
GENIUS_GENOENT_13
1002
{
1000
MYREF
1005
EF2
1002
}
1002
{
1000
GRP
1005
0
1002
}
1001
GENIUS_GENODEF_13
1002
{
1000
HIER
1070
     1
1002
}
1002
{
1000
MANEDIT
1070
     1
1002
}
1002
{
1000
NOSEL
1070
     0
1002
}
1002
{
1000
BEHIND
1070
     0
1002
}
1002
{
1000
OTHER
1070
     0
1002
}
1002
{
1000
REACTOR
1002
}
  0
POINT
  5
EF3
330
18
100
AcDbEntity
  8
0
 60
     1
100
AcDbPoint
 10
-175.6387804307721
 20
102.6681850175869
 30
0.0
1001
GENIUS_GENODEF_13
1002
{
1000
HIER
1070
     1
1002
}
1002
{
1000
MANEDIT
1070
     0
1002
}
1002
{
1000
NOSEL
1070
     0
1002
}
1002
{
1000
BEHIND
1070
     0
1002
}
1002
{
1000
OTHER
1070
     0
1002
}
1002
{
1000
REACTOR
1002
}
1001
GENIUS_GENOBJ-N-CHA_13
1002
{
1000
OWNER
1000
GEN
1002
}
1001
GENIUS_GENOLIS_13
1002
{
1000
ENT
1005
DE8
1002
}
1001
GENIUS_GENOENT_13
1002
{
1000
MYREF
1005
EF3
1002
}
1002
{
1000
GRP
1005
0
1002
}
  0
POINT
  5
EF4
330
18
100
AcDbEntity
  8
0
 60
     1
100
AcDbPoint
 10
-175.6387804307721
 20
102.6681850175869
 30
0.0
1001
GENIUS_GENOLIS_13
1002
{
1000
ENT
1005
DE9
1002
}
1001
GENIUS_GENOENT_13
1002
{
1000
MYREF
1005
EF4
1002
}
1002
{
1000
GRP
1005
0
1002
}
1001
GENIUS_GENOBJ-N-CHA_13
1002
{
1000
OWNER
1000
GEN
1002
}
1001
GENIUS_GENODEF_13
1002
{
1000
HIER
1070
     1
1002
}
1002
{
1000
MANEDIT
1070
     0
1002
}
1002
{
1000
NOSEL
1070
     0
1002
}
1002
{
1000
BEHIND
1070
     0
1002
}
1002
{
1000
OTHER
1070
     0
1002
}
1002
{
1000
REACTOR
1002
}
  0
POINT
  5
EF5
330
18
100
AcDbEntity
  8
0
 60
     1
100
AcDbPoint
 10
-175.6387804307721
 20
102.6681850175869
 30
0.0
1001
GENIUS_GENOENT_13
1002
{
1000
MYREF
1005
EF5
1002
}
1002
{
1000
GRP
1005
0
1002
}
1001
GENIUS_GENOBJ-N-FIL_13
1002
{
1000
OWNER
1000
GEN
1002
}
1001
GENIUS_GENOLIS_13
1002
{
1000
ENT
1005
0
1005
DF3
1002
}
1001
GENIUS_GENODEF_13
1002
{
1000
HIER
1070
     1
1002
}
1002
{
1000
MANEDIT
1070
     1
1002
}
1002
{
1000
NOSEL
1070
     0
1002
}
1002
{
1000
BEHIND
1070
     0
1002
}
1002
{
1000
OTHER
1070
     0
1002
}
1002
{
1000
REACTOR
1002
}
  0
CIRCLE
  5
F92
330
18
100
AcDbEntity
  8
PV0001_1
  6
Continuous
 48
0.5
370
    50
100
AcDbCircle
 10
58.33835631630886
 20
49.40271616904039
 30
0.0
 40
3.5
  0
CIRCLE
  5
F93
330
18
100
AcDbEntity
  8
PV0001_1
  6
Continuous
 48
0.5
370
    50
100
AcDbCircle
 10
58.33835631630886
 20
23.23975230185039
 30
0.0
 40
3.5
  0
CIRCLE
  5
F94
330
18
100
AcDbEntity
  8
PV0001_1
  6
Continuous
 48
0.5
370
    50
100
AcDbCircle
 10
32.17542296669886
 20
23.23975230185039
 30
0.0
 40
3.5
  0
CIRCLE
  5
F95
330
18
100
AcDbEntity
  8
PV0001_1
  6
Continuous
 48
0.5
370
    50
100
AcDbCircle
 10
32.17542296669886
 20
49.40271616904039
 30
0.0
 40
3.5
  0
ARC
  5
F96
330
18
100
AcDbEntity
  8
PV0001_1
  6
Continuous
 48
0.5
370
    50
100
AcDbCircle
 10
45.25688964150886
 20
36.32123423544039
 30
0.0
 40
11.0
100
AcDbArc
 50
120.2726235098371
 51
149.7273498526513
  0
ARC
  5
F97
330
18
100
AcDbEntity
  8
PV0001_1
  6
Continuous
 48
0.5
370
    50
100
AcDbCircle
 10
45.25688964150886
 20
36.32123423544039
 30
0.0
 40
11.0
100
AcDbArc
 50
30.27261759026057
 51
59.72734734817141
  0
ARC
  5
F98
330
18
100
AcDbEntity
  8
PV0001_1
  6
Continuous
 48
0.5
370
    50
100
AcDbCircle
 10
45.25688964150886
 20
36.32123423544039
 30
0.0
 40
11.0
100
AcDbArc
 50
300.2726594820123
 51
329.7273721644523
  0
ARC
  5
F99
330
18
100
AcDbEntity
  8
PV0001_1
  6
Continuous
 48
0.5
370
    50
100
AcDbCircle
 10
45.25688964150886
 20
36.32123423544039
 30
0.0
 40
11.0
100
AcDbArc
 50
210.2726364869698
 51
239.7273628297835
  0
CIRCLE
  5
F9A
330
18
100
AcDbEntity
  8
PV0001_1
  6
Continuous
370
    50
100
AcDbCircle
 10
45.25688964150886
 20
36.32123423544039
 30
0.0
 40
11.999999046325
  0
CIRCLE
  5
F9B
330
18
100
AcDbEntity
  8
PV0001_1
  6
Continuous
 48
0.5
370
    50
100
AcDbCircle
 10
58.33835631630886
 20
49.40271616904039
 30
0.0
 40
4.0
  0
CIRCLE
  5
F9C
330
18
100
AcDbEntity
  8
PV0001_1
  6
Continuous
 48
0.5
370
    50
100
AcDbCircle
 10
32.17542296669886
 20
49.40271616904039
 30
0.0
 40
4.0
  0
CIRCLE
  5
F9D
330
18
100
AcDbEntity
  8
PV0001_1
  6
Continuous
 48
0.5
370
    50
100
AcDbCircle
 10
58.33835631630886
 20
23.23975230185039
 30
0.0
 40
4.0
  0
CIRCLE
  5
F9E
330
18
100
AcDbEntity
  8
PV0001_1
  6
Continuous
 48
0.5
370
    50
100
AcDbCircle
 10
32.17542296669886
 20
23.23975230185039
 30
0.0
 40
4.0
  0
ARC
  5
F9F
330
18
100
AcDbEntity
  8
PV0001_1
  6
Continuous
 48
0.5
370
    50
100
AcDbCircle
 10
45.25688964150886
 20
36.32123423544039
 30
0.0
 40
23.0
100
AcDbArc
 50
130.4590856757212
 51
139.5409150075197
  0
ARC
  5
FA0
330
18
100
AcDbEntity
  8
PV0001_1
  6
Continuous
 48
0.5
370
    50
100
AcDbCircle
 10
45.25688964150886
 20
36.32123423544039
 30
0.0
 40
23.0
100
AcDbArc
 50
40.45905243539021
 51
49.54090908794915
  0
ARC
  5
FA1
330
18
100
AcDbEntity
  8
PV0001_1
  6
Continuous
 48
0.5
370
    50
100
AcDbCircle
 10
45.25688964150886
 20
36.32123423544039
 30
0.0
 40
23.0
100
AcDbArc
 50
310.4590943271428
 51
319.5409373193224
  0
ARC
  5
FA2
330
18
100
AcDbEntity
  8
PV0001_1
  6
Continuous
 48
0.5
370
    50
100
AcDbCircle
 10
45.25688964150886
 20
36.32123423544039
 30
0.0
 40
23.0
100
AcDbArc
 50
220.4590713320995
 51
229.5409143242787
  0
CIRCLE
  5
FA3
330
18
100
AcDbEntity
  8
PV0001_1
  6
CENTER2
370
    25
100
AcDbCircle
 10
45.25688964150886
 20
36.32123423544039
 30
0.0
 40
18.5
  0
LINE
  5
FA4
330
18
100
AcDbEntity
  8
PV0001_1
  6
Continuous
 48
0.5
370
    50
100
AcDbLine
 10
63.25690490029884
 20
54.07123423544039
 30
0.0
 11
55.25688964150886
 21
54.07123423544039
 31
0.0
  0
LINE
  5
FA5
330
18
100
AcDbEntity
  8
PV0001_1
  6
Continuous
 48
0.5
370
    50
100
AcDbLine
 10
63.25690490029884
 20
18.57123423544038
 30
0.0
 11
55.25688964150886
 21
18.57123423544038
 31
0.0
  0
LINE
  5
FA6
330
18
100
AcDbEntity
  8
PV0001_1
  6
Continuous
 48
0.5
370
    50
100
AcDbLine
 10
35.75690490029887
 20
30.77594614951039
 30
0.0
 11
35.75690490029887
 21
41.86646128623038
 31
0.0
  0
LINE
  5
FA7
330
18
100
AcDbEntity
  8
PV0001_1
  6
Continuous
 48
0.5
370
    50
100
AcDbLine
 10
54.75687438271886
 20
30.77594614951039
 30
0.0
 11
54.75687438271886
 21
41.86646128623038
 31
0.0
  0
LINE
  5
FA8
330
18
100
AcDbEntity
  8
PV0001_1
  6
Continuous
 48
0.5
370
    50
100
AcDbLine
 10
50.80213195107886
 20
45.82123423544039
 30
0.0
 11
39.71163207314886
 21
45.82123423544039
 31
0.0
  0
LINE
  5
FA9
330
18
100
AcDbEntity
  8
PV0001_1
  6
Continuous
 48
0.5
370
    50
100
AcDbLine
 10
50.80213195107886
 20
26.82123423544039
 30
0.0
 11
39.71163207314886
 21
26.82123423544039
 31
0.0
  0
LINE
  5
FAA
330
18
100
AcDbEntity
  8
PV0001_1
  6
CENTER2
370
    25
100
AcDbLine
 10
45.25688964150886
 20
-1.678765764559614
 30
0.0
 11
45.25688964150886
 21
74.32123423544038
 31
0.0
  0
LINE
  5
FAB
330
18
100
AcDbEntity
  8
PV0001_1
  6
CENTER2
370
    25
100
AcDbLine
 10
67.75687438271884
 20
36.32123423544039
 30
0.0
 11
16.07508116982886
 21
36.32123423544039
 31
0.0
  0
LINE
  5
FAC
330
18
100
AcDbEntity
  8
PV0001_1
  6
CENTER2
 48
0.5
370
    25
100
AcDbLine
 10
53.81736022255886
 20
44.88170481650039
 30
0.0
 11
62.99514037392888
 21
54.05948496787039
 31
0.0
  0
LINE
  5
FAD
330
18
100
AcDbEntity
  8
PV0001_1
  6
CENTER2
 48
0.5
370
    25
100
AcDbLine
 10
36.69634276650886
 20
44.88173533408039
 30
0.0
 11
27.51862365029886
 21
54.05945445029039
 31
0.0
  0
LINE
  5
FAE
330
18
100
AcDbEntity
  8
PV0001_1
  6
CENTER2
 48
0.5
370
    25
100
AcDbLine
 10
53.81736022255886
 20
27.76073313681039
 30
0.0
 11
62.99507933876888
 21
18.58301402060039
 31
0.0
  0
LINE
  5
FAF
330
18
100
AcDbEntity
  8
PV0001_1
  6
CENTER2
 48
0.5
370
    25
100
AcDbLine
 10
36.69638854286886
 20
27.76073313681039
 30
0.0
 11
27.51863890907886
 21
18.58298350302039
 31
0.0
  0
LINE
  5
FB0
330
18
100
AcDbEntity
  8
PV0001_1
  6
Continuous
 48
0.5
370
    50
100
AcDbLine
 10
27.75688964150886
 20
21.39642954794039
 30
0.0
 11
27.75688964150886
 21
51.24603892294039
 31
0.0
  0
LINE
  5
FB1
330
18
100
AcDbEntity
  8
PV0001_1
  6
Continuous
 48
0.5
370
    50
100
AcDbLine
 10
62.75688964150886
 20
21.39642954794039
 30
0.0
 11
62.75688964150886
 21
51.24603892294039
 31
0.0
  0
LINE
  5
FB2
330
18
100
AcDbEntity
  8
PV0001_1
  6
Continuous
 48
0.5
370
    50
100
AcDbLine
 10
60.18166381142886
 20
53.82123423544038
 30
0.0
 11
30.33208495400887
 21
53.82123423544038
 31
0.0
  0
LINE
  5
FB3
330
18
100
AcDbEntity
  8
PV0001_1
  6
Continuous
 48
0.5
370
    50
100
AcDbLine
 10
60.18166381142886
 20
18.82123423544038
 30
0.0
 11
30.33208495400887
 21
18.82123423544038
 31
0.0
  0
LINE
  5
FB4
330
18
100
AcDbEntity
  8
PV0001_1
  6
DASHED2
 48
0.5
370
    50
100
AcDbLine
 10
55.25687438271886
 20
69.32123423544038
 30
0.0
 11
44.25684386513886
 21
69.32123423544038
 31
0.0
  0
LINE
  5
FB5
330
18
100
AcDbEntity
  8
PV0001_1
  6
DASHED2
 48
0.5
370
    50
100
AcDbLine
 10
44.25684386513886
 20
66.82123423544038
 30
0.0
 11
20.25687438271886
 21
66.82123423544038
 31
0.0
  0
LINE
  5
FB6
330
18
100
AcDbEntity
  8
PV0001_1
  6
CENTER2
370
    25
100
AcDbLine
 10
58.65348082802886
 20
62.32123423544038
 30
0.0
 11
17.23590880654886
 21
62.32123423544038
 31
0.0
  0
LINE
  5
FB7
330
18
100
AcDbEntity
  8
PV0001_1
  6
DASHED2
 48
0.5
370
    50
100
AcDbLine
 10
44.25684386513886
 20
57.82123423544039
 30
0.0
 11
20.25687438271886
 21
57.82123423544039
 31
0.0
  0
LINE
  5
FB8
330
18
100
AcDbEntity
  8
PV0001_1
  6
DASHED2
 48
0.5
370
    50
100
AcDbLine
 10
44.25685912392886
 20
69.32123423544038
 30
0.0
 11
44.25685912392886
 21
55.32123423544039
 31
0.0
  0
LINE
  5
FB9
330
18
100
AcDbEntity
  8
PV0001_1
  6
DASHED2
 48
0.5
370
    50
100
AcDbLine
 10
55.25687438271886
 20
55.32123423544039
 30
0.0
 11
44.25684386513886
 21
55.32123423544039
 31
0.0
  0
LINE
  5
FBA
330
18
100
AcDbEntity
  8
PV0001_1
  6
DASHED2
 48
0.5
370
    50
100
AcDbLine
 10
44.25684386513886
 20
5.821234235440385
 30
0.0
 11
20.25687438271886
 21
5.821234235440385
 31
0.0
  0
LINE
  5
FBB
330
18
100
AcDbEntity
  8
PV0001_1
  6
DASHED2
 48
0.5
370
    50
100
AcDbLine
 10
44.25684386513886
 20
14.82123423544038
 30
0.0
 11
20.25687438271886
 21
14.82123423544038
 31
0.0
  0
LINE
  5
FBC
330
18
100
AcDbEntity
  8
PV0001_1
  6
DASHED2
 48
0.5
370
    50
100
AcDbLine
 10
55.25687438271886
 20
17.32123423544038
 30
0.0
 11
44.25684386513886
 21
17.32123423544038
 31
0.0
  0
LINE
  5
FBD
330
18
100
AcDbEntity
  8
PV0001_1
  6
DASHED2
 48
0.5
370
    50
100
AcDbLine
 10
55.25687438271886
 20
3.321234235440385
 30
0.0
 11
44.25684386513886
 21
3.321234235440385
 31
0.0
  0
LINE
  5
FBE
330
18
100
AcDbEntity
  8
PV0001_1
  6
DASHED2
 48
0.5
370
    50
100
AcDbLine
 10
44.25685912392886
 20
3.321234235440385
 30
0.0
 11
44.25685912392886
 21
17.32123423544038
 31
0.0
  0
LINE
  5
FBF
330
18
100
AcDbEntity
  8
PV0001_1
  6
CENTER2
370
    25
100
AcDbLine
 10
58.65348082802886
 20
10.32123423544038
 30
0.0
 11
17.23590880654886
 21
10.32123423544038
 31
0.0
  0
LINE
  5
FC0
330
18
100
AcDbEntity
  8
PV0001_1
  6
Continuous
370
    50
100
AcDbLine
 10
55.25687438271886
 20
71.32123423544038
 30
0.0
 11
20.25687438271886
 21
71.32123423544038
 31
0.0
  0
LINE
  5
FC1
330
18
100
AcDbEntity
  8
PV0001_1
  6
Continuous
370
    50
100
AcDbLine
 10
55.25687438271886
 20
1.321234235440385
 30
0.0
 11
20.25687438271886
 21
1.321234235440385
 31
0.0
  0
LINE
  5
FC2
330
18
100
AcDbEntity
  8
PV0001_1
  6
Continuous
370
    50
100
AcDbLine
 10
63.25690490029884
 20
18.57123423544038
 30
0.0
 11
63.25690490029884
 21
54.07123423544039
 31
0.0
  0
LINE
  5
FC3
330
18
100
AcDbEntity
  8
PV0001_1
  6
Continuous
370
    50
100
AcDbLine
 10
20.25688964150886
 20
1.321234235440385
 30
0.0
 11
20.25688964150886
 21
71.32123423544038
 31
0.0
  0
LINE
  5
FC4
330
18
100
AcDbEntity
  8
PV0001_1
  6
Continuous
 48
0.5
370
    50
100
AcDbLine
 10
55.25688964150886
 20
1.321234235440385
 30
0.0
 11
55.25688964150886
 21
18.57123423544038
 31
0.0
  0
LINE
  5
FC5
330
18
100
AcDbEntity
  8
PV0001_1
  6
Continuous
 48
0.5
370
    50
100
AcDbLine
 10
55.25688964150886
 20
54.07123423544039
 30
0.0
 11
55.25688964150886
 21
71.32123423544038
 31
0.0
  0
CIRCLE
  5
FE3
330
18
100
AcDbEntity
  8
PV0001_1
  6
Continuous
370
    50
100
AcDbCircle
 10
613.4224142287402
 20
36.26441050496538
 30
0.0
 40
13.0
  0
LINE
  5
FE4
330
18
100
AcDbEntity
  8
PV0001_1
  6
DASHED2
 48
0.5
370
    50
100
AcDbLine
 10
614.4224142287403
 20
17.26441050496538
 30
0.0
 11
614.4224142287403
 21
3.264410504965383
 31
0.0
  0
LINE
  5
FE5
330
18
100
AcDbEntity
  8
PV0001_1
  6
DASHED2
 48
0.5
370
    50
100
AcDbLine
 10
614.4224142287403
 20
69.26441050496539
 30
0.0
 11
614.4224142287403
 21
55.26441050496538
 31
0.0
  0
LINE
  5
FE6
330
18
100
AcDbEntity
  8
PV0001_1
  6
DASHED2
 48
0.5
370
    50
100
AcDbLine
 10
603.4224142287403
 20
55.26441050496538
 30
0.0
 11
614.4224142287403
 21
55.26441050496538
 31
0.0
  0
LINE
  5
FE7
330
18
100
AcDbEntity
  8
PV0001_1
  6
DASHED2
 48
0.5
370
    50
100
AcDbLine
 10
603.4224142287403
 20
69.26441050496539
 30
0.0
 11
614.4224142287403
 21
69.26441050496539
 31
0.0
  0
LINE
  5
FE8
330
18
100
AcDbEntity
  8
PV0001_1
  6
DASHED2
 48
0.5
370
    50
100
AcDbLine
 10
603.4224142287403
 20
3.264410504965383
 30
0.0
 11
614.4224142287403
 21
3.264410504965383
 31
0.0
  0
LINE
  5
FE9
330
18
100
AcDbEntity
  8
PV0001_1
  6
DASHED2
 48
0.5
370
    50
100
AcDbLine
 10
603.4224142287403
 20
17.26441050496538
 30
0.0
 11
614.4224142287403
 21
17.26441050496538
 31
0.0
  0
LINE
  5
FEA
330
18
100
AcDbEntity
  8
PV0001_1
  6
DASHED2
 48
0.5
370
    50
100
AcDbLine
 10
614.4224142287403
 20
14.76441050496538
 30
0.0
 11
638.4224142287402
 21
14.76441050496538
 31
0.0
  0
LINE
  5
FEB
330
18
100
AcDbEntity
  8
PV0001_1
  6
DASHED2
 48
0.5
370
    50
100
AcDbLine
 10
614.4224142287403
 20
5.764410504965383
 30
0.0
 11
638.4224142287402
 21
5.764410504965383
 31
0.0
  0
LINE
  5
FEC
330
18
100
AcDbEntity
  8
PV0001_1
  6
DASHED2
 48
0.5
370
    50
100
AcDbLine
 10
614.4224142287403
 20
66.76441050496539
 30
0.0
 11
638.4224142287402
 21
66.76441050496539
 31
0.0
  0
LINE
  5
FED
330
18
100
AcDbEntity
  8
PV0001_1
  6
DASHED2
 48
0.5
370
    50
100
AcDbLine
 10
614.4224142287403
 20
57.76441050496538
 30
0.0
 11
638.4224142287402
 21
57.76441050496538
 31
0.0
  0
LINE
  5
FEE
330
18
100
AcDbEntity
  8
PV0001_1
  6
CENTER2
370
    25
100
AcDbLine
 10
600.0979513381103
 20
62.26441050496538
 30
0.0
 11
641.1561788771702
 21
62.26441050496538
 31
0.0
  0
LINE
  5
FEF
330
18
100
AcDbEntity
  8
PV0001_1
  6
CENTER2
370
    25
100
AcDbLine
 10
599.9727071974903
 20
10.26441050496538
 30
0.0
 11
641.1561788771702
 21
10.26441050496538
 31
0.0
  0
LINE
  5
FF0
330
18
100
AcDbEntity
  8
PV0001_1
  6
Continuous
 48
0.5
370
    50
100
AcDbLine
 10
603.4224142287403
 20
18.51441050496538
 30
0.0
 11
603.4224142287403
 21
1.264410504965383
 31
0.0
  0
LINE
  5
FF1
330
18
100
AcDbEntity
  8
PV0001_1
  6
Continuous
 48
0.5
370
    50
100
AcDbLine
 10
603.4224142287403
 20
71.26441050496538
 30
0.0
 11
603.4224142287403
 21
54.01441050496538
 31
0.0
  0
LINE
  5
FF2
330
18
100
AcDbEntity
  8
PV0001_1
  6
Continuous
370
    50
100
AcDbLine
 10
603.4224142287403
 20
71.26441050496538
 30
0.0
 11
638.4224142287402
 21
71.26441050496538
 31
0.0
  0
LINE
  5
FF3
330
18
100
AcDbEntity
  8
PV0001_1
  6
Continuous
370
    50
100
AcDbLine
 10
603.4224142287403
 20
1.264410504965383
 30
0.0
 11
638.4224142287402
 21
1.264410504965383
 31
0.0
  0
LINE
  5
FF4
330
18
100
AcDbEntity
  8
PV0001_1
  6
Continuous
370
    50
100
AcDbLine
 10
595.4224142287403
 20
54.01441050496538
 30
0.0
 11
595.4224142287403
 21
18.51441050496538
 31
0.0
  0
LINE
  5
FF5
330
18
100
AcDbEntity
  8
PV0001_1
  6
Continuous
370
    50
100
AcDbLine
 10
638.4224142287402
 20
71.26441050496538
 30
0.0
 11
638.4224142287402
 21
1.264410504965383
 31
0.0
  0
LINE
  5
FF6
330
18
100
AcDbEntity
  8
PV0001_1
  6
CENTER2
370
    25
100
AcDbLine
 10
613.4224142287402
 20
74.25006724325538
 30
0.0
 11
613.4224142287402
 21
-1.607598772374615
 31
0.0
  0
LINE
  5
FF7
330
18
100
AcDbEntity
  8
PV0001_1
  6
CENTER2
370
    25
100
AcDbLine
 10
592.4620870803003
 20
36.26441050496538
 30
0.0
 11
641.1561788771702
 21
36.26441050496538
 31
0.0
  0
LINE
  5
FF8
330
18
100
AcDbEntity
  8
PV0001_1
  6
Continuous
 48
0.5
370
    50
100
AcDbLine
 10
595.4224142287403
 20
18.51441050496538
 30
0.0
 11
603.4224142287403
 21
18.51441050496538
 31
0.0
  0
LINE
  5
FF9
330
18
100
AcDbEntity
  8
PV0001_1
  6
Continuous
 48
0.5
370
    50
100
AcDbLine
 10
595.4224142287403
 20
54.01441050496538
 30
0.0
 11
603.4224142287403
 21
54.01441050496538
 31
0.0
  0
MTEXT
  5
FFB
330
18
100
AcDbEntity
  8
0
100
AcDbMText
 10
230.0750561260925
 20
-1.778387625355037
 30
0.0
 40
3.2
 41
50.93365471540437
 71
     1
 72
     5
  1
BUK-12F
  7
CONVERT
 73
     1
 44
1.0
1001
ACAD
1000
MTEXTBEGIN
1070
    73
1070
     1
1070
    44
1040
1.0
1070
    74
1070
     0
1000
MTEXTEND
  0
MTEXT
  5
FFD
330
18
100
AcDbEntity
  8
0
100
AcDbMText
 10
516.7362767456352
 20
-1.787436102635695
 30
0.0
 40
3.2
 41
20.95638820858085
 71
     1
 72
     5
  1
BUK-10S
  7
CONVERT
 73
     1
 44
1.0
1001
ACAD
1000
MTEXTBEGIN
1070
    73
1070
     1
1070
    44
1040
1.0
1070
    74
1070
     0
1000
MTEXTEND
  0
LINE
  5
1040
330
18
100
AcDbEntity
  8
imaginary
 62
     0
100
AcDbLine
 10
440.5000804048865
 20
-46.69920799677328
 30
0.0
 11
518.228967681428
 21
-46.69920799677328
 31
0.0
  0
LINE
  5
1041
330
18
100
AcDbEntity
  8
imaginary
 62
     0
100
AcDbLine
 10
440.5000804048865
 20
-47.63270799677323
 30
0.0
 11
518.7289676814279
 21
-47.63270799677314
 31
0.0
  0
LINE
  5
1042
330
18
100
AcDbEntity
  8
imaginary
 62
     0
100
AcDbLine
 10
440.5000804048865
 20
-60.69920799677328
 30
0.0
 11
518.228967681428
 21
-60.69920799677328
 31
0.0
  0
LINE
  5
1043
330
18
100
AcDbEntity
  8
imaginary
 62
     0
 48
0.95
100
AcDbLine
 10
324.956662714864
 20
-46.69920799677328
 30
0.0
 11
261.6789676814278
 21
-46.69920799677328
 31
0.0
  0
LINE
  5
1044
330
18
100
AcDbEntity
  8
imaginary
 62
     0
100
AcDbLine
 10
324.956662714864
 20
-47.63270799677331
 30
0.0
 11
260.7454676814277
 21
-47.63270799677338
 31
0.0
  0
LINE
  5
1045
330
18
100
AcDbEntity
  8
imaginary
 62
     0
100
AcDbLine
 10
324.956662714864
 20
-59.76570799677336
 30
0.0
 11
260.7454676814277
 21
-59.76570799677341
 31
0.0
  0
LINE
  5
1046
330
18
100
AcDbEntity
  8
imaginary
 62
     0
 48
0.95
100
AcDbLine
 10
324.956662714864
 20
-60.69920799677328
 30
0.0
 11
261.6789676814278
 21
-60.69920799677328
 31
0.0
  0
LINE
  5
104E
330
18
100
AcDbEntity
  8
note
100
AcDbLine
 10
200.7289676814279
 20
-58.19920799677328
 30
0.0
 11
200.7289676814279
 21
-49.19920799677328
 31
0.0
  0
LINE
  5
1050
330
18
100
AcDbEntity
  8
note
100
AcDbLine
 10
245.928967681428
 20
-46.19920799677328
 30
0.0
 11
255.4289676814282
 21
-46.19920799677328
 31
0.0
1001
GENIUS_GENREC_14
1002
{
1000
PYDIR
1011
245.728967681428
1021
-61.19920799677328
1031
0.0
1002
}
1002
{
1000
PXDIR
1011
255.728967681428
1021
-46.19920799677328
1031
0.0
1002
}
1002
{
1000
PORI
1011
245.728967681428
1021
-46.19920799677328
1031
0.0
1002
}
1002
{
1000
PINS
1011
245.728967681428
1021
-46.19920799677328
1031
0.0
1002
}
1002
{
1000
PINS2
1011
255.728967681428
1021
-61.19920799677328
1031
0.0
1002
}
1002
{
1000
C
1070
     1
1002
}
1001
GENIUS_GENODEF_13
1002
{
1000
HIER
1070
     0
1002
}
1002
{
1000
MANEDIT
1070
     0
1002
}
1002
{
1000
NOSEL
1070
     0
1002
}
1002
{
1000
BEHIND
1070
     0
1002
}
1002
{
1000
OTHER
1070
     0
1002
}
1002
{
1000
REACTOR
1002
}
1001
GENIUS_GENOBJ-N-REC_13
1002
{
1000
OWNER
1000
GEN
1002
}
  0
LINE
  5
1051
330
18
100
AcDbEntity
  8
note
100
AcDbLine
 10
255.4289676814282
 20
-46.19920799677328
 30
0.0
 11
255.728967681428
 21
-46.49920799677324
 31
0.0
1001
GENIUS_GENREC_14
1002
{
1000
PYDIR
1011
245.728967681428
1021
-61.19920799677328
1031
0.0
1002
}
1002
{
1000
PXDIR
1011
255.728967681428
1021
-46.19920799677328
1031
0.0
1002
}
1002
{
1000
PORI
1011
245.728967681428
1021
-46.19920799677328
1031
0.0
1002
}
1002
{
1000
PINS
1011
245.728967681428
1021
-46.19920799677328
1031
0.0
1002
}
1002
{
1000
PINS2
1011
255.728967681428
1021
-61.19920799677328
1031
0.0
1002
}
1002
{
1000
C
1070
     1
1002
}
1001
GENIUS_GENODEF_13
1002
{
1000
HIER
1070
     0
1002
}
1002
{
1000
MANEDIT
1070
     0
1002
}
1002
{
1000
NOSEL
1070
     0
1002
}
1002
{
1000
BEHIND
1070
     0
1002
}
1002
{
1000
OTHER
1070
     0
1002
}
1002
{
1000
REACTOR
1002
}
1001
GENIUS_GENOBJ-N-REC_13
1002
{
1000
OWNER
1000
GEN
1002
}
  0
LINE
  5
1052
330
18
100
AcDbEntity
  8
note
100
AcDbLine
 10
255.728967681428
 20
-46.49920799677324
 30
0.0
 11
255.728967681428
 21
-60.89920799677321
 31
0.0
1001
GENIUS_GENREC_14
1002
{
1000
PYDIR
1011
245.728967681428
1021
-61.19920799677328
1031
0.0
1002
}
1002
{
1000
PXDIR
1011
255.728967681428
1021
-46.19920799677328
1031
0.0
1002
}
1002
{
1000
PORI
1011
245.728967681428
1021
-46.19920799677328
1031
0.0
1002
}
1002
{
1000
PINS
1011
245.728967681428
1021
-46.19920799677328
1031
0.0
1002
}
1002
{
1000
PINS2
1011
255.728967681428
1021
-61.19920799677328
1031
0.0
1002
}
1002
{
1000
C
1070
     1
1002
}
1001
GENIUS_GENODEF_13
1002
{
1000
HIER
1070
     0
1002
}
1002
{
1000
MANEDIT
1070
     0
1002
}
1002
{
1000
NOSEL
1070
     0
1002
}
1002
{
1000
BEHIND
1070
     0
1002
}
1002
{
1000
OTHER
1070
     0
1002
}
1002
{
1000
REACTOR
1002
}
1001
GENIUS_GENOBJ-N-REC_13
1002
{
1000
OWNER
1000
GEN
1002
}
  0
ARC
  5
1054
330
18
100
AcDbEntity
  8
note
100
AcDbCircle
 10
256.228967681428
 20
-60.24920799677324
 30
0.0
 40
0.5
100
AcDbArc
 50
90.0
 51
180.0
1001
GENIUS_GENREC_14
1002
{
1000
PYDIR
1011
245.728967681428
1021
-61.19920799677328
1031
0.0
1002
}
1002
{
1000
PXDIR
1011
255.728967681428
1021
-46.19920799677328
1031
0.0
1002
}
1002
{
1000
PORI
1011
245.728967681428
1021
-46.19920799677328
1031
0.0
1002
}
1002
{
1000
PINS
1011
245.728967681428
1021
-46.19920799677328
1031
0.0
1002
}
1002
{
1000
PINS2
1011
255.728967681428
1021
-61.19920799677328
1031
0.0
1002
}
1002
{
1000
C
1070
     1
1002
}
1001
GENIUS_GENOREF_13
1005
108F
  0
ARC
  5
1055
330
18
100
AcDbEntity
  8
note
100
AcDbCircle
 10
256.228967681428
 20
-47.1492079967731
 30
0.0
 40
0.5
100
AcDbArc
 50
180.0
 51
270.0
1001
GENIUS_GENREC_14
1002
{
1000
PYDIR
1011
245.728967681428
1021
-61.19920799677328
1031
0.0
1002
}
1002
{
1000
PXDIR
1011
255.728967681428
1021
-46.19920799677328
1031
0.0
1002
}
1002
{
1000
PORI
1011
245.728967681428
1021
-46.19920799677328
1031
0.0
1002
}
1002
{
1000
PINS
1011
245.728967681428
1021
-46.19920799677328
1031
0.0
1002
}
1002
{
1000
PINS2
1011
255.728967681428
1021
-61.19920799677328
1031
0.0
1002
}
1002
{
1000
C
1070
     1
1002
}
1001
GENIUS_GENOBJ-N-REC_13
1002
{
1000
OWNER
1000
GEN
1002
}
1001
GENIUS_GENODEF_13
1002
{
1000
HIER
1070
     0
1002
}
1002
{
1000
MANEDIT
1070
     0
1002
}
1002
{
1000
NOSEL
1070
     0
1002
}
1002
{
1000
BEHIND
1070
     0
1002
}
1002
{
1000
OTHER
1070
     0
1002
}
1002
{
1000
REACTOR
1002
}
1001
GENIUS_GENOBJ-N-FIL_13
1002
{
1000
OWNER
1000
GEN
1002
}
  0
LINE
  5
1056
330
18
100
AcDbEntity
  8
note
100
AcDbLine
 10
255.728967681428
 20
-60.89920799677321
 30
0.0
 11
255.4289676814278
 21
-61.19920799677328
 31
0.0
1001
GENIUS_GENREC_14
1002
{
1000
PYDIR
1011
245.728967681428
1021
-61.19920799677328
1031
0.0
1002
}
1002
{
1000
PXDIR
1011
255.728967681428
1021
-46.19920799677328
1031
0.0
1002
}
1002
{
1000
PORI
1011
245.728967681428
1021
-46.19920799677328
1031
0.0
1002
}
1002
{
1000
PINS
1011
245.728967681428
1021
-46.19920799677328
1031
0.0
1002
}
1002
{
1000
PINS2
1011
255.728967681428
1021
-61.19920799677328
1031
0.0
1002
}
1002
{
1000
C
1070
     1
1002
}
1001
GENIUS_GENODEF_13
1002
{
1000
HIER
1070
     0
1002
}
1002
{
1000
MANEDIT
1070
     0
1002
}
1002
{
1000
NOSEL
1070
     0
1002
}
1002
{
1000
BEHIND
1070
     0
1002
}
1002
{
1000
OTHER
1070
     0
1002
}
1002
{
1000
REACTOR
1002
}
1001
GENIUS_GENOBJ-N-REC_13
1002
{
1000
OWNER
1000
GEN
1002
}
  0
LINE
  5
1057
330
18
100
AcDbEntity
  8
note
100
AcDbLine
 10
255.4289676814278
 20
-61.19920799677328
 30
0.0
 11
245.9289676814282
 21
-61.19920799677328
 31
0.0
1001
GENIUS_GENREC_14
1002
{
1000
PYDIR
1011
245.728967681428
1021
-61.19920799677328
1031
0.0
1002
}
1002
{
1000
PXDIR
1011
255.728967681428
1021
-46.19920799677328
1031
0.0
1002
}
1002
{
1000
PORI
1011
245.728967681428
1021
-46.19920799677328
1031
0.0
1002
}
1002
{
1000
PINS
1011
245.728967681428
1021
-46.19920799677328
1031
0.0
1002
}
1002
{
1000
PINS2
1011
255.728967681428
1021
-61.19920799677328
1031
0.0
1002
}
1002
{
1000
C
1070
     1
1002
}
1001
GENIUS_GENODEF_13
1002
{
1000
HIER
1070
     0
1002
}
1002
{
1000
MANEDIT
1070
     0
1002
}
1002
{
1000
NOSEL
1070
     0
1002
}
1002
{
1000
BEHIND
1070
     0
1002
}
1002
{
1000
OTHER
1070
     0
1002
}
1002
{
1000
REACTOR
1002
}
1001
GENIUS_GENOBJ-N-REC_13
1002
{
1000
OWNER
1000
GEN
1002
}
  0
LINE
  5
1058
330
18
100
AcDbEntity
  8
note
100
AcDbLine
 10
245.9289676814282
 20
-61.19920799677328
 30
0.0
 11
245.728967681428
 21
-60.99920799677324
 31
0.0
1001
GENIUS_GENREC_14
1002
{
1000
PYDIR
1011
245.728967681428
1021
-61.19920799677328
1031
0.0
1002
}
1002
{
1000
PXDIR
1011
255.728967681428
1021
-46.19920799677328
1031
0.0
1002
}
1002
{
1000
PORI
1011
245.728967681428
1021
-46.19920799677328
1031
0.0
1002
}
1002
{
1000
PINS
1011
245.728967681428
1021
-46.19920799677328
1031
0.0
1002
}
1002
{
1000
PINS2
1011
255.728967681428
1021
-61.19920799677328
1031
0.0
1002
}
1002
{
1000
C
1070
     1
1002
}
1001
GENIUS_GENODEF_13
1002
{
1000
HIER
1070
     0
1002
}
1002
{
1000
MANEDIT
1070
     0
1002
}
1002
{
1000
NOSEL
1070
     0
1002
}
1002
{
1000
BEHIND
1070
     0
1002
}
1002
{
1000
OTHER
1070
     0
1002
}
1002
{
1000
REACTOR
1002
}
1001
GENIUS_GENOBJ-N-REC_13
1002
{
1000
OWNER
1000
GEN
1002
}
  0
LINE
  5
1059
330
18
100
AcDbEntity
  8
note
100
AcDbLine
 10
245.728967681428
 20
-60.99920799677324
 30
0.0
 11
245.728967681428
 21
-46.39920799677333
 31
0.0
1001
GENIUS_GENREC_14
1002
{
1000
PYDIR
1011
245.728967681428
1021
-61.19920799677328
1031
0.0
1002
}
1002
{
1000
PXDIR
1011
255.728967681428
1021
-46.19920799677328
1031
0.0
1002
}
1002
{
1000
PORI
1011
245.728967681428
1021
-46.19920799677328
1031
0.0
1002
}
1002
{
1000
PINS
1011
245.728967681428
1021
-46.19920799677328
1031
0.0
1002
}
1002
{
1000
PINS2
1011
255.728967681428
1021
-61.19920799677328
1031
0.0
1002
}
1002
{
1000
C
1070
     1
1002
}
1001
GENIUS_GENODEF_13
1002
{
1000
HIER
1070
     0
1002
}
1002
{
1000
MANEDIT
1070
     0
1002
}
1002
{
1000
NOSEL
1070
     0
1002
}
1002
{
1000
BEHIND
1070
     0
1002
}
1002
{
1000
OTHER
1070
     0
1002
}
1002
{
1000
REACTOR
1002
}
1001
GENIUS_GENOBJ-N-REC_13
1002
{
1000
OWNER
1000
GEN
1002
}
  0
ARC
  5
105A
330
18
100
AcDbEntity
  8
note
100
AcDbCircle
 10
245.4289676814282
 20
-59.99920799677323
 30
0.0
 40
0.3
100
AcDbArc
 50
0.0
 51
90.0
1001
GENIUS_GENREC_14
1002
{
1000
PYDIR
1011
245.728967681428
1021
-61.19920799677328
1031
0.0
1002
}
1002
{
1000
PXDIR
1011
255.728967681428
1021
-46.19920799677328
1031
0.0
1002
}
1002
{
1000
PORI
1011
245.728967681428
1021
-46.19920799677328
1031
0.0
1002
}
1002
{
1000
PINS
1011
245.728967681428
1021
-46.19920799677328
1031
0.0
1002
}
1002
{
1000
PINS2
1011
255.728967681428
1021
-61.19920799677328
1031
0.0
1002
}
1002
{
1000
C
1070
     1
1002
}
1001
GENIUS_GENOREF_13
1005
1090
  0
ARC
  5
105B
330
18
100
AcDbEntity
  8
note
100
AcDbCircle
 10
245.4289676814282
 20
-47.39920799677332
 30
0.0
 40
0.3
100
AcDbArc
 50
270.0
 51
0.0
1001
GENIUS_GENREC_14
1002
{
1000
PYDIR
1011
245.728967681428
1021
-61.19920799677328
1031
0.0
1002
}
1002
{
1000
PXDIR
1011
255.728967681428
1021
-46.19920799677328
1031
0.0
1002
}
1002
{
1000
PORI
1011
245.728967681428
1021
-46.19920799677328
1031
0.0
1002
}
1002
{
1000
PINS
1011
245.728967681428
1021
-46.19920799677328
1031
0.0
1002
}
1002
{
1000
PINS2
1011
255.728967681428
1021
-61.19920799677328
1031
0.0
1002
}
1002
{
1000
C
1070
     1
1002
}
1001
GENIUS_GENOBJ-N-REC_13
1002
{
1000
OWNER
1000
GEN
1002
}
1001
GENIUS_GENOBJ-N-FIL_13
1002
{
1000
OWNER
1000
GEN
1002
}
1001
GENIUS_GENODEF_13
1002
{
1000
HIER
1070
     0
1002
}
1002
{
1000
MANEDIT
1070
     0
1002
}
1002
{
1000
NOSEL
1070
     0
1002
}
1002
{
1000
BEHIND
1070
     0
1002
}
1002
{
1000
OTHER
1070
     0
1002
}
1002
{
1000
REACTOR
1002
}
  0
LINE
  5
105C
330
18
100
AcDbEntity
  8
note
100
AcDbLine
 10
245.728967681428
 20
-46.39920799677333
 30
0.0
 11
245.928967681428
 21
-46.19920799677328
 31
0.0
1001
GENIUS_GENREC_14
1002
{
1000
PYDIR
1011
245.728967681428
1021
-61.19920799677328
1031
0.0
1002
}
1002
{
1000
PXDIR
1011
255.728967681428
1021
-46.19920799677328
1031
0.0
1002
}
1002
{
1000
PORI
1011
245.728967681428
1021
-46.19920799677328
1031
0.0
1002
}
1002
{
1000
PINS
1011
245.728967681428
1021
-46.19920799677328
1031
0.0
1002
}
1002
{
1000
PINS2
1011
255.728967681428
1021
-61.19920799677328
1031
0.0
1002
}
1002
{
1000
C
1070
     1
1002
}
1001
GENIUS_GENODEF_13
1002
{
1000
HIER
1070
     0
1002
}
1002
{
1000
MANEDIT
1070
     0
1002
}
1002
{
1000
NOSEL
1070
     0
1002
}
1002
{
1000
BEHIND
1070
     0
1002
}
1002
{
1000
OTHER
1070
     0
1002
}
1002
{
1000
REACTOR
1002
}
1001
GENIUS_GENOBJ-N-REC_13
1002
{
1000
OWNER
1000
GEN
1002
}
  0
LINE
  5
105D
330
18
100
AcDbEntity
  8
note
100
AcDbLine
 10
215.7289676814279
 20
-48.19920799677328
 30
0.0
 11
215.7289676814279
 21
-59.19920799677328
 31
0.0
  0
LINE
  5
105E
330
18
100
AcDbEntity
  8
note
100
AcDbLine
 10
216.228967681428
 20
-47.69920799677328
 30
0.0
 11
215.7289676814279
 21
-48.19920799677328
 31
0.0
1001
GENIUS_GENFIL_13
1070
     0
1040
0.5
1040
0.5
1040
0.5000000000000569
1040
45.00000000000651
1000
~T
1001
GENIUS_GENOREF_13
1005
1091
  0
LINE
  5
105F
330
18
100
AcDbEntity
  8
note
100
AcDbLine
 10
215.7289676814279
 20
-59.19920799677328
 30
0.0
 11
216.228967681428
 21
-59.69920799677328
 31
0.0
1001
GENIUS_GENFIL_13
1070
     0
1040
0.5
1040
0.5
1040
0.5000000000000569
1040
45.00000000000325
1000
~T
1001
GENIUS_GENOREF_13
1005
1092
  0
LINE
  5
1060
330
18
100
AcDbEntity
  8
note
100
AcDbLine
 10
215.7289676814279
 20
-48.69920799677328
 30
0.0
 11
201.2289676814279
 21
-48.69920799677328
 31
0.0
  0
LINE
  5
1061
330
18
100
AcDbEntity
  8
note
100
AcDbLine
 10
200.7289676814279
 20
-49.19920799677328
 30
0.0
 11
201.2289676814279
 21
-48.69920799677328
 31
0.0
1001
GENIUS_GENFIL_13
1070
     0
1040
0.5
1040
0.5
1040
0.5000000000000569
1040
45.00000000000325
1000
~T
1001
GENIUS_GENOREF_13
1005
1093
  0
LINE
  5
1062
330
18
100
AcDbEntity
  8
note
100
AcDbLine
 10
215.7289676814279
 20
-58.69920799677328
 30
0.0
 11
201.2289676814279
 21
-58.69920799677328
 31
0.0
  0
LINE
  5
1063
330
18
100
AcDbEntity
  8
note
100
AcDbLine
 10
200.7289676814279
 20
-58.19920799677328
 30
0.0
 11
201.2289676814279
 21
-58.69920799677328
 31
0.0
1001
GENIUS_GENFIL_13
1070
     0
1040
0.5
1040
0.5
1040
0.5000000000000569
1040
45.00000000001302
1000
~T
1001
GENIUS_GENOREF_13
1005
1094
  0
LINE
  5
1064
330
18
100
AcDbEntity
  8
note
100
AcDbLine
 10
225.7289676814279
 20
-59.69920799677328
 30
0.0
 11
225.7289676814279
 21
-47.69920799677328
 31
0.0
  0
LINE
  5
1065
330
18
100
AcDbEntity
  8
note
100
AcDbLine
 10
201.2289676814279
 20
-48.69920799677328
 30
0.0
 11
201.2289676814279
 21
-58.69920799677328
 31
0.0
  0
LINE
  5
1066
330
18
100
AcDbEntity
  8
note
100
AcDbLine
 10
216.228967681428
 20
-47.69920799677328
 30
0.0
 11
216.228967681428
 21
-59.69920799677328
 31
0.0
  0
LINE
  5
1067
330
18
100
AcDbEntity
  8
note
100
AcDbLine
 10
245.928967681428
 20
-46.19920799677328
 30
0.0
 11
245.9289676814282
 21
-61.19920799677328
 31
0.0
  0
LINE
  5
1068
330
18
100
AcDbEntity
  8
note
100
AcDbLine
 10
518.7289676814279
 20
-47.19920799677328
 30
0.0
 11
518.7289676814279
 21
-60.19920799677328
 31
0.0
  0
LINE
  5
1069
330
18
100
AcDbEntity
  8
note
100
AcDbLine
 10
518.228967681428
 20
-60.69920799677328
 30
0.0
 11
518.7289676814279
 21
-60.19920799677328
 31
0.0
1001
GENIUS_GENFIL_13
1070
     0
1040
0.5
1040
0.5
1040
0.5000000000001137
1040
44.99999999999348
1000
~T
1001
GENIUS_GENOREF_13
1005
1095
  0
LINE
  5
106A
330
18
100
AcDbEntity
  8
note
100
AcDbLine
 10
518.228967681428
 20
-46.69920799677328
 30
0.0
 11
518.7289676814279
 21
-47.19920799677328
 31
0.0
1001
GENIUS_GENFIL_13
1070
     0
1040
0.5
1040
0.5
1040
0.5000000000001137
1040
45.0
1000
~T
1001
GENIUS_GENOREF_13
1005
1096
  0
LINE
  5
106B
330
18
100
AcDbEntity
  8
note
100
AcDbLine
 10
518.228967681428
 20
-46.69920799677328
 30
0.0
 11
518.228967681428
 21
-60.69920799677328
 31
0.0
  0
LINE
  5
106C
330
18
100
AcDbEntity
  8
note
100
AcDbLine
 10
245.4289676814282
 20
-47.69920799677328
 30
0.0
 11
216.228967681428
 21
-47.69920799677328
 31
0.0
  0
LINE
  5
106D
330
18
100
AcDbEntity
  8
note
100
AcDbLine
 10
256.228967681428
 20
-47.6492079967731
 30
0.0
 11
260.728967681428
 21
-47.64920799677321
 31
0.0
  0
LINE
  5
106E
330
18
100
AcDbEntity
  8
note
100
AcDbLine
 10
260.728967681428
 20
-47.64920799677321
 30
0.0
 11
260.728967681428
 21
-59.74920799677324
 31
0.0
  0
LINE
  5
106F
330
18
100
AcDbEntity
  8
note
100
AcDbLine
 10
260.728967681428
 20
-59.74920799677324
 30
0.0
 11
256.228967681428
 21
-59.74920799677324
 31
0.0
  0
LINE
  5
1070
330
18
100
AcDbEntity
  8
note
100
AcDbLine
 10
260.728967681428
 20
-47.64920799677321
 30
0.0
 11
261.6789676814278
 21
-46.69920799677328
 31
0.0
  0
LINE
  5
1071
330
18
100
AcDbEntity
  8
note
100
AcDbLine
 10
260.728967681428
 20
-59.74920799677324
 30
0.0
 11
261.6789676814278
 21
-60.69920799677328
 31
0.0
  0
LINE
  5
1072
330
18
100
AcDbEntity
  8
note
100
AcDbLine
 10
261.6789676814278
 20
-60.69920799677328
 30
0.0
 11
261.6789676814283
 21
-46.69920799677328
 31
0.0
  0
LINE
  5
1073
330
18
100
AcDbEntity
  8
note
100
AcDbLine
 10
255.4289676814282
 20
-46.19920799677328
 30
0.0
 11
255.4289676814278
 21
-61.19920799677328
 31
0.0
  0
LINE
  5
1075
330
18
100
AcDbEntity
  8
note
100
AcDbLine
 10
216.228967681428
 20
-59.69920799677328
 30
0.0
 11
245.4289676814282
 21
-59.69920799677328
 31
0.0
  0
LINE
  5
1076
330
18
100
AcDbEntity
  8
outline
 62
     0
100
AcDbLine
 10
215.7289676814279
 20
-48.3332079967733
 30
0.0
 11
225.7289676814279
 21
-48.3332079967733
 31
0.0
  0
LINE
  5
1077
330
18
100
AcDbEntity
  8
outline
 62
     0
100
AcDbLine
 10
225.7289676814279
 20
-48.3332079967733
 30
0.0
 11
226.8270878934267
 21
-47.69920799677328
 31
0.0
  0
LINE
  5
1078
330
18
100
AcDbEntity
  8
outline
 62
     0
100
AcDbLine
 10
215.7289676814279
 20
-59.06520799677327
 30
0.0
 11
225.7289676814279
 21
-59.06520799677327
 31
0.0
  0
LINE
  5
1079
330
18
100
AcDbEntity
  8
outline
 62
     0
100
AcDbLine
 10
225.7289676814279
 20
-59.06520799677327
 30
0.0
 11
226.8270878934263
 21
-59.69920799677328
 31
0.0
  0
LINE
  5
1082
330
18
100
AcDbEntity
  8
imaginary
 62
     0
100
AcDbLine
 10
440.5000804048865
 20
-59.76570799677327
 30
0.0
 11
518.7289676814279
 21
-59.76570799677318
 31
0.0
  0
LINE
  5
1083
330
18
100
AcDbEntity
  8
center
 62
     0
100
AcDbLine
 10
197.7289676814279
 20
-53.69920799677328
 30
0.0
 11
330.6172271854393
 21
-53.69920799677328
 31
0.0
  0
POINT
  5
108F
330
18
100
AcDbEntity
  8
0
 60
     1
100
AcDbPoint
 10
-311.1234455673132
 20
-362.9453943812093
 30
0.0
1001
GENIUS_GENOENT_13
1002
{
1000
MYREF
1005
108F
1002
}
1002
{
1000
GRP
1005
0
1002
}
1001
GENIUS_GENOBJ-N-FIL_13
1002
{
1000
OWNER
1000
GEN
1002
}
1001
GENIUS_GENOLIS_13
1002
{
1000
ENT
1005
0
1005
1054
1002
}
1001
GENIUS_GENODEF_13
1002
{
1000
HIER
1070
     1
1002
}
1002
{
1000
MANEDIT
1070
     1
1002
}
1002
{
1000
NOSEL
1070
     0
1002
}
1002
{
1000
BEHIND
1070
     0
1002
}
1002
{
1000
OTHER
1070
     0
1002
}
1002
{
1000
REACTOR
1002
}
  0
POINT
  5
1090
330
18
100
AcDbEntity
  8
0
 60
     1
100
AcDbPoint
 10
-311.1234455673132
 20
-362.9453943812093
 30
0.0
1001
GENIUS_GENOENT_13
1002
{
1000
MYREF
1005
1090
1002
}
1002
{
1000
GRP
1005
0
1002
}
1001
GENIUS_GENOBJ-N-FIL_13
1002
{
1000
OWNER
1000
GEN
1002
}
1001
GENIUS_GENOLIS_13
1002
{
1000
ENT
1005
0
1005
105A
1002
}
1001
GENIUS_GENODEF_13
1002
{
1000
HIER
1070
     1
1002
}
1002
{
1000
MANEDIT
1070
     1
1002
}
1002
{
1000
NOSEL
1070
     0
1002
}
1002
{
1000
BEHIND
1070
     0
1002
}
1002
{
1000
OTHER
1070
     0
1002
}
1002
{
1000
REACTOR
1002
}
  0
POINT
  5
1091
330
18
100
AcDbEntity
  8
0
 60
     1
100
AcDbPoint
 10
-311.1234455673132
 20
-362.9453943812093
 30
0.0
1001
GENIUS_GENOLIS_13
1002
{
1000
ENT
1005
0
1005
105E
1002
}
1001
GENIUS_GENOENT_13
1002
{
1000
MYREF
1005
1091
1002
}
1002
{
1000
GRP
1005
0
1002
}
1001
GENIUS_GENOBJ-N-CHA_13
1002
{
1000
OWNER
1000
GEN
1002
}
1001
GENIUS_GENODEF_13
1002
{
1000
HIER
1070
     1
1002
}
1002
{
1000
MANEDIT
1070
     1
1002
}
1002
{
1000
NOSEL
1070
     0
1002
}
1002
{
1000
BEHIND
1070
     0
1002
}
1002
{
1000
OTHER
1070
     0
1002
}
1002
{
1000
REACTOR
1002
}
  0
POINT
  5
1092
330
18
100
AcDbEntity
  8
0
 60
     1
100
AcDbPoint
 10
-311.1234455673132
 20
-362.9453943812093
 30
0.0
1001
GENIUS_GENODEF_13
1002
{
1000
HIER
1070
     1
1002
}
1002
{
1000
MANEDIT
1070
     0
1002
}
1002
{
1000
NOSEL
1070
     0
1002
}
1002
{
1000
BEHIND
1070
     0
1002
}
1002
{
1000
OTHER
1070
     0
1002
}
1002
{
1000
REACTOR
1002
}
1001
GENIUS_GENOLIS_13
1002
{
1000
ENT
1005
105F
1002
}
1001
GENIUS_GENOENT_13
1002
{
1000
MYREF
1005
1092
1002
}
1002
{
1000
GRP
1005
0
1002
}
1001
GENIUS_GENOBJ-N-CHA_13
1002
{
1000
OWNER
1000
GEN
1002
}
  0
POINT
  5
1093
330
18
100
AcDbEntity
  8
0
 60
     1
100
AcDbPoint
 10
-311.1234455673132
 20
-362.9453943812093
 30
0.0
1001
GENIUS_GENOLIS_13
1002
{
1000
ENT
1005
0
1005
1061
1002
}
1001
GENIUS_GENOENT_13
1002
{
1000
MYREF
1005
1093
1002
}
1002
{
1000
GRP
1005
0
1002
}
1001
GENIUS_GENOBJ-N-CHA_13
1002
{
1000
OWNER
1000
GEN
1002
}
1001
GENIUS_GENODEF_13
1002
{
1000
HIER
1070
     1
1002
}
1002
{
1000
MANEDIT
1070
     1
1002
}
1002
{
1000
NOSEL
1070
     0
1002
}
1002
{
1000
BEHIND
1070
     0
1002
}
1002
{
1000
OTHER
1070
     0
1002
}
1002
{
1000
REACTOR
1002
}
  0
POINT
  5
1094
330
18
100
AcDbEntity
  8
0
 60
     1
100
AcDbPoint
 10
-311.1234455673132
 20
-362.9453943812093
 30
0.0
1001
GENIUS_GENODEF_13
1002
{
1000
HIER
1070
     1
1002
}
1002
{
1000
MANEDIT
1070
     0
1002
}
1002
{
1000
NOSEL
1070
     0
1002
}
1002
{
1000
BEHIND
1070
     0
1002
}
1002
{
1000
OTHER
1070
     0
1002
}
1002
{
1000
REACTOR
1002
}
1001
GENIUS_GENOLIS_13
1002
{
1000
ENT
1005
1063
1002
}
1001
GENIUS_GENOENT_13
1002
{
1000
MYREF
1005
1094
1002
}
1002
{
1000
GRP
1005
0
1002
}
1001
GENIUS_GENOBJ-N-CHA_13
1002
{
1000
OWNER
1000
GEN
1002
}
  0
POINT
  5
1095
330
18
100
AcDbEntity
  8
0
 60
     1
100
AcDbPoint
 10
-311.1234455673132
 20
-362.9453943812093
 30
0.0
1001
GENIUS_GENOLIS_13
1002
{
1000
ENT
1005
1069
1002
}
1001
GENIUS_GENOENT_13
1002
{
1000
MYREF
1005
1095
1002
}
1002
{
1000
GRP
1005
0
1002
}
1001
GENIUS_GENOBJ-N-CHA_13
1002
{
1000
OWNER
1000
GEN
1002
}
1001
GENIUS_GENODEF_13
1002
{
1000
HIER
1070
     1
1002
}
1002
{
1000
MANEDIT
1070
     0
1002
}
1002
{
1000
NOSEL
1070
     0
1002
}
1002
{
1000
BEHIND
1070
     0
1002
}
1002
{
1000
OTHER
1070
     0
1002
}
1002
{
1000
REACTOR
1002
}
  0
POINT
  5
1096
330
18
100
AcDbEntity
  8
0
 60
     1
100
AcDbPoint
 10
-311.1234455673132
 20
-362.9453943812093
 30
0.0
1001
GENIUS_GENOENT_13
1002
{
1000
MYREF
1005
1096
1002
}
1002
{
1000
GRP
1005
0
1002
}
1001
GENIUS_GENOBJ-N-CHA_13
1002
{
1000
OWNER
1000
GEN
1002
}
1001
GENIUS_GENOLIS_13
1002
{
1000
ENT
1005
0
1005
106A
1002
}
1001
GENIUS_GENODEF_13
1002
{
1000
HIER
1070
     1
1002
}
1002
{
1000
MANEDIT
1070
     1
1002
}
1002
{
1000
NOSEL
1070
     0
1002
}
1002
{
1000
BEHIND
1070
     0
1002
}
1002
{
1000
OTHER
1070
     0
1002
}
1002
{
1000
REACTOR
1002
}
  0
LINE
  5
10B3
330
18
100
AcDbEntity
  8
center
 62
     0
100
AcDbLine
 10
433.3780443155021
 20
-53.69920799677328
 30
0.0
 11
533.8535223242656
 21
-53.69920799677328
 31
0.0
  0
LINE
  5
10CE
330
18
100
AcDbEntity
  8
PV0001_1
  6
Continuous
 48
0.5
370
    50
100
AcDbLine
 10
250.7289676814279
 20
-35.69920799677329
 30
0.0
 11
234.728967681428
 21
-35.69920799677329
 31
0.0
  0
LINE
  5
10CF
330
18
100
AcDbEntity
  8
PV0001_1
  6
Continuous
370
    50
100
AcDbLine
 10
221.7289676814279
 20
-31.69920799677328
 30
0.0
 11
221.7289676814279
 21
-75.69920799677328
 31
0.0
  0
LINE
  5
10D0
330
18
100
AcDbEntity
  8
PV0001_1
  6
Continuous
370
    50
100
AcDbLine
 10
227.7289676814279
 20
-31.69920799677328
 30
0.0
 11
227.7289676814279
 21
-75.69920799677328
 31
0.0
  0
LINE
  5
10D1
330
18
100
AcDbEntity
  8
PV0001_1
  6
Continuous
370
    50
100
AcDbLine
 10
234.728967681428
 20
-31.69920799677328
 30
0.0
 11
234.728967681428
 21
-75.69920799677328
 31
0.0
  0
LINE
  5
10D2
330
18
100
AcDbEntity
  8
PV0001_1
  6
Continuous
370
    50
100
AcDbLine
 10
250.7289676814279
 20
-35.69920799677329
 30
0.0
 11
250.7289676814279
 21
-71.69920799677328
 31
0.0
  0
LINE
  5
10D3
330
18
100
AcDbEntity
  8
PV0001_1
  6
Continuous
 48
0.5
370
    50
100
AcDbLine
 10
234.728967681428
 20
-31.69920799677328
 30
0.0
 11
221.7289676814279
 21
-31.69920799677328
 31
0.0
  0
LINE
  5
10D4
330
18
100
AcDbEntity
  8
PV0001_1
  6
Continuous
 48
0.5
370
    50
100
AcDbLine
 10
221.7289676814279
 20
-44.19920799677328
 30
0.0
 11
216.228967681428
 21
-44.19920799677328
 31
0.0
  0
LINE
  5
10D5
330
18
100
AcDbEntity
  8
PV0001_1
  6
Continuous
 48
0.5
370
    50
100
AcDbLine
 10
216.228967681428
 20
-44.19920799677328
 30
0.0
 11
216.228967681428
 21
-63.19920799677328
 31
0.0
  0
LINE
  5
10D6
330
18
100
AcDbEntity
  8
PV0001_1
  6
DASHED2
 48
0.5
370
    50
100
AcDbLine
 10
227.7289676814279
 20
-65.25554344598328
 30
0.0
 11
221.7289676814279
 21
-65.25554344598328
 31
0.0
  0
LINE
  5
10D7
330
18
100
AcDbEntity
  8
PV0001_1
  6
DASHED2
 48
0.5
370
    50
100
AcDbLine
 10
227.7289676814279
 20
-73.25554344598327
 30
0.0
 11
221.7289676814279
 21
-73.25554344598327
 31
0.0
  0
LINE
  5
10D8
330
18
100
AcDbEntity
  8
PV0001_1
  6
DASHED2
 48
0.5
370
    50
100
AcDbLine
 10
234.728967681428
 20
-67.00554344598327
 30
0.0
 11
227.7289676814279
 21
-67.00554344598327
 31
0.0
  0
LINE
  5
10D9
330
18
100
AcDbEntity
  8
PV0001_1
  6
DASHED2
 48
0.5
370
    50
100
AcDbLine
 10
234.728967681428
 20
-71.50554344598328
 30
0.0
 11
227.7289676814279
 21
-71.50554344598328
 31
0.0
  0
LINE
  5
10DA
330
18
100
AcDbEntity
  8
PV0001_1
  6
CENTER2
 48
0.5
370
    25
100
AcDbLine
 10
236.9370975642379
 20
-69.25554344598328
 30
0.0
 11
220.2699833064279
 21
-69.25554344598328
 31
0.0
  0
LINE
  5
10DB
330
18
100
AcDbEntity
  8
PV0001_1
  6
Continuous
 48
0.5
370
    50
100
AcDbLine
 10
250.7289676814279
 20
-71.69920799677328
 30
0.0
 11
234.728967681428
 21
-71.69920799677328
 31
0.0
  0
LINE
  5
10DC
330
18
100
AcDbEntity
  8
PV0001_1
  6
Continuous
 48
0.5
370
    50
100
AcDbLine
 10
234.728967681428
 20
-75.69920799677328
 30
0.0
 11
221.7289676814279
 21
-75.69920799677328
 31
0.0
  0
LINE
  5
10DD
330
18
100
AcDbEntity
  8
PV0001_1
  6
Continuous
 48
0.5
370
    50
100
AcDbLine
 10
221.7289676814279
 20
-63.19920799677328
 30
0.0
 11
216.228967681428
 21
-63.19920799677328
 31
0.0
  0
CIRCLE
  5
1127
330
18
100
AcDbEntity
  8
PV0001_1
  6
Continuous
 48
0.5
370
    50
100
AcDbCircle
 10
28.34239989541386
 20
-47.54285118524324
 30
0.0
 40
4.0
  0
CIRCLE
  5
1128
330
18
100
AcDbEntity
  8
PV0001_1
  6
Continuous
 48
0.5
370
    50
100
AcDbCircle
 10
28.34239989541386
 20
-47.54285118524324
 30
0.0
 40
3.5
  0
CIRCLE
  5
1129
330
18
100
AcDbEntity
  8
PV0001_1
  6
Continuous
 48
0.5
370
    50
100
AcDbCircle
 10
51.41323119424386
 20
-36.78473350946325
 30
0.0
 40
4.0
  0
CIRCLE
  5
112A
330
18
100
AcDbEntity
  8
PV0001_1
  6
Continuous
 48
0.5
370
    50
100
AcDbCircle
 10
51.41323119424386
 20
-36.78473350946325
 30
0.0
 40
3.5
  0
CIRCLE
  5
112B
330
18
100
AcDbEntity
  8
PV0001_1
  6
Continuous
 48
0.5
370
    50
100
AcDbCircle
 10
62.17134887002386
 20
-59.85559532587325
 30
0.0
 40
4.0
  0
CIRCLE
  5
112C
330
18
100
AcDbEntity
  8
PV0001_1
  6
Continuous
 48
0.5
370
    50
100
AcDbCircle
 10
62.17134887002386
 20
-59.85559532587325
 30
0.0
 40
3.5
  0
CIRCLE
  5
112D
330
18
100
AcDbEntity
  8
PV0001_1
  6
Continuous
 48
0.5
370
    50
100
AcDbCircle
 10
39.10050231240386
 20
-70.61371300165325
 30
0.0
 40
3.5
  0
CIRCLE
  5
112E
330
18
100
AcDbEntity
  8
PV0001_1
  6
Continuous
 48
0.5
370
    50
100
AcDbCircle
 10
39.10050231240386
 20
-70.61371300165325
 30
0.0
 40
4.0
  0
CIRCLE
  5
112F
330
18
100
AcDbEntity
  8
PV0001_1
  6
CENTER2
370
    25
100
AcDbCircle
 10
45.25687438272386
 20
-53.69922325556325
 30
0.0
 40
18.0
  0
CIRCLE
  5
1130
330
18
100
AcDbEntity
  8
PV0001_1
  6
Continuous
370
    50
100
AcDbCircle
 10
45.25687438272386
 20
-53.69922325556325
 30
0.0
 40
12.0
  0
ARC
  5
1131
330
18
100
AcDbEntity
  8
PV0001_1
  6
Continuous
 48
0.5
370
    50
100
AcDbCircle
 10
45.25687438272386
 20
-53.69922325556325
 30
0.0
 40
11.0
100
AcDbArc
 50
300.2726458216377
 51
329.7273585040711
  0
ARC
  5
1132
330
18
100
AcDbEntity
  8
PV0001_1
  6
Continuous
 48
0.5
370
    50
100
AcDbCircle
 10
45.25687438272386
 20
-53.69922325556325
 30
0.0
 40
11.0
100
AcDbArc
 50
210.2726228265913
 51
239.7273355090293
  0
ARC
  5
1133
330
18
100
AcDbEntity
  8
PV0001_1
  6
Continuous
 48
0.5
370
    50
100
AcDbCircle
 10
45.25687438272386
 20
-53.69922325556325
 30
0.0
 40
11.0
100
AcDbArc
 50
120.2726644909707
 51
149.7273771734087
  0
ARC
  5
1134
330
18
100
AcDbEntity
  8
PV0001_1
  6
Continuous
 48
0.5
370
    50
100
AcDbCircle
 10
45.25687438272386
 20
-53.69922325556325
 30
0.0
 40
11.0
100
AcDbArc
 50
30.27262783554953
 51
59.72735417836233
  0
CIRCLE
  5
1135
330
18
100
AcDbEntity
  8
PV0001_1
  6
Continuous
 48
0.5
370
    50
100
AcDbCircle
 10
29.70052367471387
 20
-69.25555870477325
 30
0.0
 40
4.0
  0
CIRCLE
  5
1136
330
18
100
AcDbEntity
  8
PV0001_1
  6
Continuous
 48
0.5
370
    50
100
AcDbCircle
 10
29.70052367471387
 20
-69.25555870477325
 30
0.0
 40
2.25
  0
CIRCLE
  5
1137
330
18
100
AcDbEntity
  8
PV0001_1
  6
Continuous
 48
0.5
370
    50
100
AcDbCircle
 10
60.81322509072386
 20
-69.25555870477325
 30
0.0
 40
4.0
  0
CIRCLE
  5
1138
330
18
100
AcDbEntity
  8
PV0001_1
  6
Continuous
 48
0.5
370
    50
100
AcDbCircle
 10
60.81322509072386
 20
-69.25555870477325
 30
0.0
 40
2.25
  0
CIRCLE
  5
1139
330
18
100
AcDbEntity
  8
PV0001_1
  6
Continuous
 48
0.5
370
    50
100
AcDbCircle
 10
29.70052367471387
 20
-38.14288780634326
 30
0.0
 40
4.0
  0
CIRCLE
  5
113A
330
18
100
AcDbEntity
  8
PV0001_1
  6
Continuous
 48
0.5
370
    50
100
AcDbCircle
 10
29.70052367471387
 20
-38.14288780634326
 30
0.0
 40
2.25
  0
CIRCLE
  5
113B
330
18
100
AcDbEntity
  8
PV0001_1
  6
Continuous
 48
0.5
370
    50
100
AcDbCircle
 10
60.81322509072386
 20
-38.14288780634326
 30
0.0
 40
2.25
  0
CIRCLE
  5
113C
330
18
100
AcDbEntity
  8
PV0001_1
  6
Continuous
 48
0.5
370
    50
100
AcDbCircle
 10
60.81322509072386
 20
-38.14288780634326
 30
0.0
 40
4.0
  0
ARC
  5
113D
330
18
100
AcDbEntity
  8
PV0001_1
  6
Continuous
 48
0.5
370
    50
100
AcDbCircle
 10
45.25687438272386
 20
-53.69922325556325
 30
0.0
 40
27.0
100
AcDbArc
 50
215.4309319519449
 51
234.5690400440489
  0
ARC
  5
113E
330
18
100
AcDbEntity
  8
PV0001_1
  6
Continuous
 48
0.5
370
    50
100
AcDbCircle
 10
45.25687438272386
 20
-53.69922325556325
 30
0.0
 40
27.0
100
AcDbArc
 50
125.4309599559511
 51
144.5690680480551
  0
ARC
  5
113F
330
18
100
AcDbEntity
  8
PV0001_1
  6
Continuous
 48
0.5
370
    50
100
AcDbCircle
 10
45.25687438272386
 20
-53.69922325556325
 30
0.0
 40
27.0
100
AcDbArc
 50
305.4309412866134
 51
324.5690493787185
  0
CIRCLE
  5
1140
330
18
100
AcDbEntity
  8
PV0001_1
  6
CENTER2
370
    25
100
AcDbCircle
 10
45.25687438272386
 20
-53.69922325556325
 30
0.0
 40
22.0
  0
ARC
  5
1141
330
18
100
AcDbEntity
  8
PV0001_1
  6
Continuous
 48
0.5
370
    50
100
AcDbCircle
 10
45.25687438272386
 20
-53.69922325556325
 30
0.0
 40
27.0
100
AcDbArc
 50
35.43095062128142
 51
54.56905871338666
  0
LINE
  5
1142
330
18
100
AcDbEntity
  8
PV0001_1
  6
CENTER2
 48
0.5
370
    25
100
AcDbLine
 10
33.97940856240386
 20
-49.59457848016325
 30
0.0
 11
22.63359862588386
 21
-45.46506187860325
 31
0.0
  0
LINE
  5
1143
330
18
100
AcDbEntity
  8
PV0001_1
  6
CENTER2
 48
0.5
370
    25
100
AcDbLine
 10
49.36153441690386
 20
-42.42175743524325
 30
0.0
 11
53.49106627725387
 21
-31.07593223993325
 31
0.0
  0
LINE
  5
1144
330
18
100
AcDbEntity
  8
PV0001_1
  6
CENTER2
 48
0.5
370
    25
100
AcDbLine
 10
56.53434020303386
 20
-57.80386803095325
 30
0.0
 11
67.88016539834384
 21
-61.93341515009326
 31
0.0
  0
LINE
  5
1145
330
18
100
AcDbEntity
  8
PV0001_1
  6
CENTER2
 48
0.5
370
    25
100
AcDbLine
 10
41.15221434854386
 20
-64.97668907587325
 30
0.0
 11
37.02266722940386
 21
-76.32251427118325
 31
0.0
  0
LINE
  5
1146
330
18
100
AcDbEntity
  8
PV0001_1
  6
CENTER2
370
    25
100
AcDbLine
 10
24.04369384072386
 20
-32.48599693720326
 30
0.0
 11
66.47008544229386
 21
-74.91241905634325
 31
0.0
  0
LINE
  5
1147
330
18
100
AcDbEntity
  8
PV0001_1
  6
CENTER2
370
    25
100
AcDbLine
 10
24.04367858193386
 20
-74.91241905634325
 30
0.0
 11
66.47008544229386
 21
-32.48602745477325
 31
0.0
  0
LINE
  5
1148
330
18
100
AcDbEntity
  8
PV0001_1
  6
CENTER2
370
    25
100
AcDbLine
 10
20.25687438272386
 20
-53.69922325556325
 30
0.0
 11
70.25687438272384
 21
-53.69922325556325
 31
0.0
  0
LINE
  5
1149
330
18
100
AcDbEntity
  8
PV0001_1
  6
CENTER2
370
    25
100
AcDbLine
 10
45.25687438272386
 20
-28.69922325556326
 30
0.0
 11
45.25687438272386
 21
-78.69922325556325
 31
0.0
  0
LINE
  5
114A
330
18
100
AcDbEntity
  8
PV0001_1
  6
Continuous
 48
0.5
370
    50
100
AcDbLine
 10
54.75687438272387
 20
-48.15393516962325
 30
0.0
 11
54.75687438272387
 21
-59.24451134149325
 31
0.0
  0
LINE
  5
114B
330
18
100
AcDbEntity
  8
PV0001_1
  6
Continuous
 48
0.5
370
    50
100
AcDbLine
 10
35.75687438272387
 20
-48.15393516962325
 30
0.0
 11
35.75687438272387
 21
-59.24451134149325
 31
0.0
  0
LINE
  5
114C
330
18
100
AcDbEntity
  8
PV0001_1
  6
Continuous
 48
0.5
370
    50
100
AcDbLine
 10
39.71160155557387
 20
-63.19922325556325
 30
0.0
 11
50.80214720986386
 21
-63.19922325556325
 31
0.0
  0
LINE
  5
114D
330
18
100
AcDbEntity
  8
PV0001_1
  6
Continuous
370
    50
100
AcDbLine
 10
29.60439330361386
 20
-75.69922325556325
 30
0.0
 11
60.90935546182386
 21
-75.69922325556325
 31
0.0
  0
LINE
  5
114E
330
18
100
AcDbEntity
  8
PV0001_1
  6
Continuous
370
    50
100
AcDbLine
 10
29.60439330361386
 20
-31.69922325556326
 30
0.0
 11
60.90935546182386
 21
-31.69922325556326
 31
0.0
  0
LINE
  5
114F
330
18
100
AcDbEntity
  8
PV0001_1
  6
Continuous
370
    50
100
AcDbLine
 10
23.25687438272387
 20
-38.04675743524325
 30
0.0
 11
23.25687438272387
 21
-69.35168907587325
 31
0.0
  0
LINE
  5
1150
330
18
100
AcDbEntity
  8
PV0001_1
  6
Continuous
370
    50
100
AcDbLine
 10
67.25687438272384
 20
-38.04675743524325
 30
0.0
 11
67.25687438272384
 21
-69.35168907587325
 31
0.0
  0
LINE
  5
1151
330
18
100
AcDbEntity
  8
PV0001_1
  6
Continuous
 48
0.5
370
    50
100
AcDbLine
 10
39.71160155557387
 20
-44.19922325556325
 30
0.0
 11
50.80214720986386
 21
-44.19922325556325
 31
0.0
  0
LINE
  5
11D3
330
18
100
AcDbEntity
  8
PV0001_1
  6
DASHED2
 48
0.5
370
    50
100
AcDbLine
 10
526.728967681428
 20
-40.69920799677328
 30
0.0
 11
518.7289676814279
 21
-40.69920799677328
 31
0.0
  0
LINE
  5
11D4
330
18
100
AcDbEntity
  8
PV0001_1
  6
DASHED2
 48
0.5
370
    50
100
AcDbLine
 10
526.728967681428
 20
-66.69920799677328
 30
0.0
 11
526.728967681428
 21
-40.69920799677328
 31
0.0
  0
LINE
  5
11D5
330
18
100
AcDbEntity
  8
PV0001_1
  6
DASHED2
 48
0.5
370
    50
100
AcDbLine
 10
518.7289676814279
 20
-66.69920799677328
 30
0.0
 11
518.7289676814279
 21
-40.69920799677328
 31
0.0
  0
LINE
  5
11D6
330
18
100
AcDbEntity
  8
0
370
    -2
100
AcDbLine
 10
533.7289676814281
 20
-31.69920799677328
 30
0.0
 11
533.7289676814281
 21
-80.69920799677328
 31
0.0
  0
LINE
  5
11D7
330
18
100
AcDbEntity
  8
0
370
    -2
100
AcDbLine
 10
518.7289676814279
 20
-35.69920799677329
 30
0.0
 11
518.7289676814279
 21
-71.69920799677328
 31
0.0
  0
LINE
  5
11D8
330
18
100
AcDbEntity
  8
0
370
    -2
100
AcDbLine
 10
526.728967681428
 20
-35.69920799677329
 30
0.0
 11
526.728967681428
 21
-31.69920799677328
 31
0.0
  0
LINE
  5
11D9
330
18
100
AcDbEntity
  8
0
370
    -2
100
AcDbLine
 10
526.728967681428
 20
-35.69920799677329
 30
0.0
 11
518.7289676814279
 21
-35.69920799677329
 31
0.0
  0
LINE
  5
11DA
330
18
100
AcDbEntity
  8
0
370
    -2
100
AcDbLine
 10
533.2289676814281
 20
-40.69920799677328
 30
0.0
 11
519.2289676814279
 21
-40.69920799677328
 31
0.0
  0
LINE
  5
11DB
330
18
100
AcDbEntity
  8
0
100
AcDbLine
 10
533.2289676814281
 20
-66.69920799677328
 30
0.0
 11
533.2289676814281
 21
-40.69920799677328
 31
0.0
  0
LINE
  5
11DC
330
18
100
AcDbEntity
  8
0
100
AcDbLine
 10
533.2289676814281
 20
-40.69920799677328
 30
0.0
 11
533.7289676814281
 21
-40.19920799677328
 31
0.0
  0
LINE
  5
11DD
330
18
100
AcDbEntity
  8
0
100
AcDbLine
 10
518.7289676814279
 20
-40.19920799677328
 30
0.0
 11
519.2289676814279
 21
-40.69920799677328
 31
0.0
  0
LINE
  5
11DE
330
18
100
AcDbEntity
  8
0
100
AcDbLine
 10
519.2289676814279
 20
-40.69920799677328
 30
0.0
 11
519.2289676814279
 21
-66.69920799677328
 31
0.0
  0
LINE
  5
11DF
330
18
100
AcDbEntity
  8
0
370
    -2
100
AcDbLine
 10
526.728967681428
 20
-31.69920799677328
 30
0.0
 11
533.7289676814281
 21
-31.69920799677328
 31
0.0
  0
LINE
  5
11E0
330
18
100
AcDbEntity
  8
0
370
    -2
100
AcDbLine
 10
526.728967681428
 20
-71.69920799677328
 30
0.0
 11
526.728967681428
 21
-80.69920799677328
 31
0.0
  0
LINE
  5
11E1
330
18
100
AcDbEntity
  8
0
370
    -2
100
AcDbLine
 10
526.728967681428
 20
-71.69920799677328
 30
0.0
 11
518.7289676814279
 21
-71.69920799677328
 31
0.0
  0
LINE
  5
11E2
330
18
100
AcDbEntity
  8
0
370
    -2
100
AcDbLine
 10
526.728967681428
 20
-80.69920799677328
 30
0.0
 11
533.7289676814281
 21
-80.69920799677328
 31
0.0
  0
LINE
  5
11E3
330
18
100
AcDbEntity
  8
PV0001_1
  6
DASHED2
 48
0.5
370
    50
100
AcDbLine
 10
526.728967681428
 20
-66.69920799677328
 30
0.0
 11
518.7289676814279
 21
-66.69920799677328
 31
0.0
  0
LINE
  5
11E4
330
18
100
AcDbEntity
  8
0
370
    -2
100
AcDbLine
 10
533.2289676814281
 20
-66.69920799677328
 30
0.0
 11
519.2289676814279
 21
-66.69920799677328
 31
0.0
  0
LINE
  5
11E5
330
18
100
AcDbEntity
  8
0
100
AcDbLine
 10
533.7289676814281
 20
-67.19920799677328
 30
0.0
 11
533.2289676814281
 21
-66.69920799677328
 31
0.0
  0
LINE
  5
11E6
330
18
100
AcDbEntity
  8
PV0001_1
  6
DASHED2
 48
0.5
370
    50
100
AcDbLine
 10
527.7289676814279
 20
-62.19920799677328
 30
0.0
 11
526.729028716578
 21
-62.19920799677328
 31
0.0
  0
LINE
  5
11E7
330
18
100
AcDbEntity
  8
PV0001_1
  6
DASHED2
 48
0.5
370
    50
100
AcDbLine
 10
527.7289676814279
 20
-62.19920799677328
 30
0.0
 11
527.7289676814279
 21
-45.19920799677328
 31
0.0
  0
LINE
  5
11E8
330
18
100
AcDbEntity
  8
PV0001_1
  6
DASHED2
 48
0.5
370
    50
100
AcDbLine
 10
527.7289676814279
 20
-45.19920799677328
 30
0.0
 11
526.729028716578
 21
-45.19920799677328
 31
0.0
  0
LINE
  5
11E9
330
18
100
AcDbEntity
  8
PV0001_1
  6
DASHED2
 48
0.5
370
    50
100
AcDbLine
 10
527.7289676814279
 20
-58.49919578973327
 30
0.0
 11
526.729028716578
 21
-58.49919578973327
 31
0.0
  0
LINE
  5
11EA
330
18
100
AcDbEntity
  8
PV0001_1
  6
DASHED2
 48
0.5
370
    50
100
AcDbLine
 10
527.7289676814279
 20
-48.89922020380328
 30
0.0
 11
526.729028716578
 21
-48.89922020380328
 31
0.0
  0
LINE
  5
11EB
330
18
100
AcDbEntity
  8
PV0001_1
  6
DASHED2
 48
0.5
370
    50
100
AcDbLine
 10
526.728967681428
 20
-48.69920799677328
 30
0.0
 11
518.7289676814279
 21
-48.69920799677328
 31
0.0
  0
LINE
  5
11EC
330
18
100
AcDbEntity
  8
PV0001_1
  6
DASHED2
 48
0.5
370
    50
100
AcDbLine
 10
526.728967681428
 20
-58.69920799677328
 30
0.0
 11
518.7289676814279
 21
-58.69920799677328
 31
0.0
  0
LINE
  5
11ED
330
18
100
AcDbEntity
  8
PV0001_1
  6
DASHED2
 48
0.5
370
    50
100
AcDbLine
 10
527.7289676814279
 20
-58.49919578973327
 30
0.0
 11
526.729028716578
 21
-58.49919578973327
 31
0.0
  0
LINE
  5
11EE
330
18
100
AcDbEntity
  8
PV0001_1
  6
DASHED2
 48
0.5
370
    50
100
AcDbLine
 10
527.7289676814279
 20
-48.89922020380328
 30
0.0
 11
526.729028716578
 21
-48.89922020380328
 31
0.0
  0
LINE
  5
11EF
330
18
100
AcDbEntity
  8
PV0001_1
  6
PHANTOM2
 48
0.5
370
    25
100
AcDbLine
 10
530.728967681428
 20
-48.69920799677328
 30
0.0
 11
530.728967681428
 21
-58.69920799677328
 31
0.0
  0
LINE
  5
11F0
330
18
100
AcDbEntity
  8
PV0001_1
  6
PHANTOM2
 48
0.5
370
    25
100
AcDbLine
 10
518.7289676814279
 20
-58.69920799677328
 30
0.0
 11
526.728967681428
 21
-58.69920799677328
 31
0.0
  0
LINE
  5
11F1
330
18
100
AcDbEntity
  8
PV0001_1
  6
PHANTOM2
 48
0.5
370
    25
100
AcDbLine
 10
518.7289676814279
 20
-48.69920799677328
 30
0.0
 11
526.728967681428
 21
-48.69920799677328
 31
0.0
  0
LINE
  5
11F2
330
18
100
AcDbEntity
  8
PV0001_1
  6
PHANTOM2
 48
0.5
370
    25
100
AcDbLine
 10
526.728967681428
 20
-58.49919578973327
 30
0.0
 11
527.878992095488
 21
-58.49919578973327
 31
0.0
  0
LINE
  5
11F3
330
18
100
AcDbEntity
  8
PV0001_1
  6
PHANTOM2
 48
0.5
370
    25
100
AcDbLine
 10
526.728967681428
 20
-48.69920799677328
 30
0.0
 11
526.728967681428
 21
-58.69920799677328
 31
0.0
  0
LINE
  5
11F4
330
18
100
AcDbEntity
  8
PV0001_1
  6
PHANTOM2
 48
0.5
370
    25
100
AcDbLine
 10
527.878992095488
 20
-48.69920799677328
 30
0.0
 11
527.878992095488
 21
-58.69920799677328
 31
0.0
  0
LINE
  5
11F5
330
18
100
AcDbEntity
  8
PV0001_1
  6
PHANTOM2
 48
0.5
370
    25
100
AcDbLine
 10
527.878992095488
 20
-58.69920799677328
 30
0.0
 11
530.728967681428
 21
-58.69920799677328
 31
0.0
  0
LINE
  5
11F6
330
18
100
AcDbEntity
  8
PV0001_1
  6
PHANTOM2
 48
0.5
370
    25
100
AcDbLine
 10
526.728967681428
 20
-48.89922020380328
 30
0.0
 11
527.878992095488
 21
-48.89922020380328
 31
0.0
  0
LINE
  5
11F7
330
18
100
AcDbEntity
  8
PV0001_1
  6
PHANTOM2
 48
0.5
370
    25
100
AcDbLine
 10
527.878992095488
 20
-48.69920799677328
 30
0.0
 11
530.728967681428
 21
-48.69920799677328
 31
0.0
  0
LINE
  5
122A
330
18
100
AcDbEntity
  8
0
  6
AM_ISO08W050
370
    -2
100
AcDbLine
 10
613.4224142287402
 20
-23.69920799677328
 30
0.0
 11
613.4224142287402
 21
-83.69920799677329
 31
0.0
  0
LINE
  5
122B
330
18
100
AcDbEntity
  8
0
370
    -2
100
AcDbLine
 10
629.0748900712385
 20
-75.69920799677328
 30
0.0
 11
597.7699383862415
 21
-75.69920799677328
 31
0.0
  0
LINE
  5
122C
330
18
100
AcDbEntity
  8
0
  6
AM_ISO08W050
370
    -2
100
AcDbLine
 10
643.42241422874
 20
-53.69920799677328
 30
0.0
 11
583.4224142287402
 21
-53.69920799677328
 31
0.0
  0
LINE
  5
122D
330
18
100
AcDbEntity
  8
0
370
    -2
100
AcDbLine
 10
597.7699383862413
 20
-31.69920799677328
 30
0.0
 11
629.0748900712385
 21
-31.69920799677328
 31
0.0
  0
LINE
  5
122E
330
18
100
AcDbEntity
  8
0
  6
AM_ISO08W050
370
    -2
100
AcDbLine
 10
634.6356176643369
 20
-32.48600456117674
 30
0.0
 11
592.2092107931438
 21
-74.91241143236971
 31
0.0
  0
LINE
  5
122F
330
18
100
AcDbEntity
  8
0
  6
AM_ISO08W050
370
    -2
100
AcDbLine
 10
634.6356176643364
 20
-74.91241143236971
 30
0.0
 11
592.2092107931436
 21
-32.48600456117669
 31
0.0
  0
CIRCLE
  5
1230
330
18
100
AcDbEntity
  8
0
  6
AM_ISO08W050
370
    -2
100
AcDbCircle
 10
613.4224142287398
 20
-53.69920799677316
 30
0.0
 40
22.0
  0
CIRCLE
  5
1231
330
18
100
AcDbEntity
  8
0
370
    -2
100
AcDbCircle
 10
613.4224142287402
 20
-53.69920799677323
 30
0.0
 40
13.0
  0
CIRCLE
  5
1232
330
18
100
AcDbEntity
  8
0
  6
DASHED2
370
    -2
100
AcDbCircle
 10
613.4224142287402
 20
-53.69920799677323
 30
0.0
 40
18.0
  0
CIRCLE
  5
1233
330
18
100
AcDbEntity
  8
0
370
    -2
100
AcDbCircle
 10
628.9787634148439
 20
-38.1428588106694
 30
0.0
 40
4.0
  0
CIRCLE
  5
1234
330
18
100
AcDbEntity
  8
0
370
    -2
100
AcDbCircle
 10
628.9787634148439
 20
-38.14285881066934
 30
0.0
 40
2.25
  0
ARC
  5
1235
330
18
100
AcDbEntity
  8
0
370
    -2
100
AcDbCircle
 10
613.4224142287398
 20
-53.69920799677316
 30
0.0
 40
27.0
100
AcDbArc
 50
35.43094468733995
 51
54.5690553126596
  0
LINE
  5
1236
330
18
100
AcDbEntity
  8
0
370
    -2
100
AcDbLine
 10
635.42241422874
 20
-38.04673215427494
 30
0.0
 11
635.42241422874
 21
-69.3516838392714
 31
0.0
  0
CIRCLE
  5
1237
330
18
100
AcDbEntity
  8
0
370
    -2
100
AcDbCircle
 10
628.9787634148439
 20
-69.25555718287722
 30
0.0
 40
2.25
  0
CIRCLE
  5
1238
330
18
100
AcDbEntity
  8
0
370
    -2
100
AcDbCircle
 10
628.9787634148439
 20
-69.25555718287728
 30
0.0
 40
4.0
  0
ARC
  5
1239
330
18
100
AcDbEntity
  8
0
370
    -2
100
AcDbCircle
 10
613.4224142287398
 20
-53.69920799677316
 30
0.0
 40
27.0
100
AcDbArc
 50
305.4309446873404
 51
324.5690553126601
  0
CIRCLE
  5
123A
330
18
100
AcDbEntity
  8
0
370
    -2
100
AcDbCircle
 10
597.866065042636
 20
-38.14285881066917
 30
0.0
 40
4.0
  0
CIRCLE
  5
123B
330
18
100
AcDbEntity
  8
0
370
    -2
100
AcDbCircle
 10
597.866065042636
 20
-38.14285881066911
 30
0.0
 40
2.25
  0
ARC
  5
123C
330
18
100
AcDbEntity
  8
0
370
    -2
100
AcDbCircle
 10
613.4224142287398
 20
-53.69920799677316
 30
0.0
 40
27.0
100
AcDbArc
 50
125.4309446873404
 51
144.56905531266
  0
LINE
  5
123D
330
18
100
AcDbEntity
  8
0
370
    -2
100
AcDbLine
 10
591.4224142287402
 20
-69.35168383927202
 30
0.0
 11
591.4224142287402
 21
-38.04673215427431
 31
0.0
  0
CIRCLE
  5
123E
330
18
100
AcDbEntity
  8
0
370
    -2
100
AcDbCircle
 10
597.866065042636
 20
-69.25555718287745
 30
0.0
 40
2.25
  0
CIRCLE
  5
123F
330
18
100
AcDbEntity
  8
0
370
    -2
100
AcDbCircle
 10
597.866065042636
 20
-69.25555718287751
 30
0.0
 40
4.0
  0
ARC
  5
1240
330
18
100
AcDbEntity
  8
0
370
    -2
100
AcDbCircle
 10
613.4224142287398
 20
-53.69920799677316
 30
0.0
 40
27.0
100
AcDbArc
 50
215.43094468734
 51
234.5690553126596
  0
CIRCLE
  5
1241
330
18
100
AcDbEntity
  8
0
370
    -2
100
AcDbCircle
 10
613.4224142287402
 20
-53.69920799677323
 30
0.0
 40
13.5
  0
MTEXT
  5
1243
330
18
100
AcDbEntity
  8
0
100
AcDbMText
 10
230.0634460929555
 20
-81.6674402496555
 30
0.0
 40
3.2
 41
42.45010258357979
 71
     1
 72
     5
  1
BUM-12
  7
CONVERT
 73
     1
 44
1.0
1001
ACAD
1000
MTEXTBEGIN
1070
    73
1070
     1
1070
    44
1040
1.0
1070
    74
1070
     0
1000
MTEXTEND
  0
LINE
  5
1290
330
18
100
AcDbEntity
  8
center
 62
     0
100
AcDbLine
 10
197.7289676814279
 20
-135.7532271730444
 30
0.0
 11
330.6172271854393
 21
-135.7532271730444
 31
0.0
  0
LINE
  5
1291
330
18
100
AcDbEntity
  8
outline
 62
     0
100
AcDbLine
 10
225.7289676814279
 20
-141.1192271730444
 30
0.0
 11
226.8270878934263
 21
-141.7532271730444
 31
0.0
  0
LINE
  5
1292
330
18
100
AcDbEntity
  8
outline
 62
     0
100
AcDbLine
 10
215.7289676814279
 20
-141.1192271730444
 30
0.0
 11
225.7289676814279
 21
-141.1192271730444
 31
0.0
  0
LINE
  5
1293
330
18
100
AcDbEntity
  8
outline
 62
     0
100
AcDbLine
 10
225.7289676814279
 20
-130.3872271730444
 30
0.0
 11
226.8270878934267
 21
-129.7532271730444
 31
0.0
  0
LINE
  5
1294
330
18
100
AcDbEntity
  8
outline
 62
     0
100
AcDbLine
 10
215.7289676814279
 20
-130.3872271730444
 30
0.0
 11
225.7289676814279
 21
-130.3872271730444
 31
0.0
  0
LINE
  5
1295
330
18
100
AcDbEntity
  8
note
100
AcDbLine
 10
216.228967681428
 20
-141.7532271730444
 30
0.0
 11
245.4289676814282
 21
-141.7532271730444
 31
0.0
  0
LINE
  5
1296
330
18
100
AcDbEntity
  8
note
100
AcDbLine
 10
255.4289676814282
 20
-128.2532271730444
 30
0.0
 11
255.4289676814278
 21
-143.2532271730444
 31
0.0
  0
LINE
  5
1297
330
18
100
AcDbEntity
  8
note
100
AcDbLine
 10
261.6789676814278
 20
-142.7532271730444
 30
0.0
 11
261.6789676814283
 21
-128.7532271730444
 31
0.0
  0
LINE
  5
1298
330
18
100
AcDbEntity
  8
note
100
AcDbLine
 10
260.728967681428
 20
-141.8032271730444
 30
0.0
 11
261.6789676814278
 21
-142.7532271730444
 31
0.0
  0
LINE
  5
1299
330
18
100
AcDbEntity
  8
note
100
AcDbLine
 10
260.728967681428
 20
-129.7032271730443
 30
0.0
 11
261.6789676814278
 21
-128.7532271730444
 31
0.0
  0
LINE
  5
129A
330
18
100
AcDbEntity
  8
note
100
AcDbLine
 10
260.728967681428
 20
-141.8032271730444
 30
0.0
 11
256.228967681428
 21
-141.8032271730444
 31
0.0
  0
LINE
  5
129B
330
18
100
AcDbEntity
  8
note
100
AcDbLine
 10
260.728967681428
 20
-129.7032271730443
 30
0.0
 11
260.728967681428
 21
-141.8032271730444
 31
0.0
  0
LINE
  5
129C
330
18
100
AcDbEntity
  8
note
100
AcDbLine
 10
256.228967681428
 20
-129.7032271730442
 30
0.0
 11
260.728967681428
 21
-129.7032271730443
 31
0.0
  0
LINE
  5
129D
330
18
100
AcDbEntity
  8
note
100
AcDbLine
 10
245.4289676814282
 20
-129.7532271730444
 30
0.0
 11
216.228967681428
 21
-129.7532271730444
 31
0.0
  0
LINE
  5
129E
330
18
100
AcDbEntity
  8
note
100
AcDbLine
 10
245.928967681428
 20
-128.2532271730444
 30
0.0
 11
245.9289676814282
 21
-143.2532271730444
 31
0.0
  0
LINE
  5
129F
330
18
100
AcDbEntity
  8
note
100
AcDbLine
 10
216.228967681428
 20
-129.7532271730444
 30
0.0
 11
216.228967681428
 21
-141.7532271730444
 31
0.0
  0
LINE
  5
12A0
330
18
100
AcDbEntity
  8
note
100
AcDbLine
 10
201.2289676814279
 20
-130.7532271730444
 30
0.0
 11
201.2289676814279
 21
-140.7532271730444
 31
0.0
  0
LINE
  5
12A1
330
18
100
AcDbEntity
  8
note
100
AcDbLine
 10
225.7289676814279
 20
-141.7532271730444
 30
0.0
 11
225.7289676814279
 21
-129.7532271730444
 31
0.0
  0
LINE
  5
12A2
330
18
100
AcDbEntity
  8
note
100
AcDbLine
 10
200.7289676814279
 20
-140.2532271730444
 30
0.0
 11
201.2289676814279
 21
-140.7532271730444
 31
0.0
1001
GENIUS_GENFIL_13
1070
     0
1040
0.5
1040
0.5
1040
0.5000000000000569
1040
45.00000000001302
1000
~T
1001
GENIUS_GENOREF_13
1005
12EA
  0
LINE
  5
12A3
330
18
100
AcDbEntity
  8
note
100
AcDbLine
 10
215.7289676814279
 20
-140.7532271730444
 30
0.0
 11
201.2289676814279
 21
-140.7532271730444
 31
0.0
  0
LINE
  5
12A4
330
18
100
AcDbEntity
  8
note
100
AcDbLine
 10
200.7289676814279
 20
-131.2532271730444
 30
0.0
 11
201.2289676814279
 21
-130.7532271730444
 31
0.0
1001
GENIUS_GENFIL_13
1070
     0
1040
0.5
1040
0.5
1040
0.5000000000000569
1040
45.00000000000325
1000
~T
1001
GENIUS_GENOREF_13
1005
12EB
  0
LINE
  5
12A5
330
18
100
AcDbEntity
  8
note
100
AcDbLine
 10
215.7289676814279
 20
-130.7532271730444
 30
0.0
 11
201.2289676814279
 21
-130.7532271730444
 31
0.0
  0
LINE
  5
12A6
330
18
100
AcDbEntity
  8
note
100
AcDbLine
 10
215.7289676814279
 20
-141.2532271730444
 30
0.0
 11
216.228967681428
 21
-141.7532271730444
 31
0.0
1001
GENIUS_GENFIL_13
1070
     0
1040
0.5
1040
0.5
1040
0.5000000000000569
1040
45.00000000000325
1000
~T
1001
GENIUS_GENOREF_13
1005
12EC
  0
LINE
  5
12A7
330
18
100
AcDbEntity
  8
note
100
AcDbLine
 10
216.228967681428
 20
-129.7532271730444
 30
0.0
 11
215.7289676814279
 21
-130.2532271730444
 31
0.0
1001
GENIUS_GENFIL_13
1070
     0
1040
0.5
1040
0.5
1040
0.5000000000000569
1040
45.00000000000651
1000
~T
1001
GENIUS_GENOREF_13
1005
12ED
  0
LINE
  5
12A8
330
18
100
AcDbEntity
  8
note
100
AcDbLine
 10
215.7289676814279
 20
-130.2532271730444
 30
0.0
 11
215.7289676814279
 21
-141.2532271730444
 31
0.0
  0
LINE
  5
12A9
330
18
100
AcDbEntity
  8
note
100
AcDbLine
 10
245.728967681428
 20
-128.4532271730444
 30
0.0
 11
245.928967681428
 21
-128.2532271730444
 31
0.0
1001
GENIUS_GENREC_14
1002
{
1000
PYDIR
1011
245.728967681428
1021
-143.2532271730444
1031
0.0
1002
}
1002
{
1000
PXDIR
1011
255.728967681428
1021
-128.2532271730444
1031
0.0
1002
}
1002
{
1000
PORI
1011
245.728967681428
1021
-128.2532271730444
1031
0.0
1002
}
1002
{
1000
PINS
1011
245.728967681428
1021
-128.2532271730444
1031
0.0
1002
}
1002
{
1000
PINS2
1011
255.728967681428
1021
-143.2532271730444
1031
0.0
1002
}
1002
{
1000
C
1070
     1
1002
}
1001
GENIUS_GENODEF_13
1002
{
1000
HIER
1070
     0
1002
}
1002
{
1000
MANEDIT
1070
     0
1002
}
1002
{
1000
NOSEL
1070
     0
1002
}
1002
{
1000
BEHIND
1070
     0
1002
}
1002
{
1000
OTHER
1070
     0
1002
}
1002
{
1000
REACTOR
1002
}
1001
GENIUS_GENOBJ-N-REC_13
1002
{
1000
OWNER
1000
GEN
1002
}
  0
ARC
  5
12AA
330
18
100
AcDbEntity
  8
note
100
AcDbCircle
 10
245.4289676814282
 20
-129.4532271730444
 30
0.0
 40
0.3
100
AcDbArc
 50
270.0
 51
0.0
1001
GENIUS_GENREC_14
1002
{
1000
PYDIR
1011
245.728967681428
1021
-143.2532271730444
1031
0.0
1002
}
1002
{
1000
PXDIR
1011
255.728967681428
1021
-128.2532271730444
1031
0.0
1002
}
1002
{
1000
PORI
1011
245.728967681428
1021
-128.2532271730444
1031
0.0
1002
}
1002
{
1000
PINS
1011
245.728967681428
1021
-128.2532271730444
1031
0.0
1002
}
1002
{
1000
PINS2
1011
255.728967681428
1021
-143.2532271730444
1031
0.0
1002
}
1002
{
1000
C
1070
     1
1002
}
1001
GENIUS_GENOBJ-N-REC_13
1002
{
1000
OWNER
1000
GEN
1002
}
1001
GENIUS_GENOBJ-N-FIL_13
1002
{
1000
OWNER
1000
GEN
1002
}
1001
GENIUS_GENODEF_13
1002
{
1000
HIER
1070
     0
1002
}
1002
{
1000
MANEDIT
1070
     0
1002
}
1002
{
1000
NOSEL
1070
     0
1002
}
1002
{
1000
BEHIND
1070
     0
1002
}
1002
{
1000
OTHER
1070
     0
1002
}
1002
{
1000
REACTOR
1002
}
  0
ARC
  5
12AB
330
18
100
AcDbEntity
  8
note
100
AcDbCircle
 10
245.4289676814282
 20
-142.0532271730444
 30
0.0
 40
0.3
100
AcDbArc
 50
0.0
 51
90.0
1001
GENIUS_GENREC_14
1002
{
1000
PYDIR
1011
245.728967681428
1021
-143.2532271730444
1031
0.0
1002
}
1002
{
1000
PXDIR
1011
255.728967681428
1021
-128.2532271730444
1031
0.0
1002
}
1002
{
1000
PORI
1011
245.728967681428
1021
-128.2532271730444
1031
0.0
1002
}
1002
{
1000
PINS
1011
245.728967681428
1021
-128.2532271730444
1031
0.0
1002
}
1002
{
1000
PINS2
1011
255.728967681428
1021
-143.2532271730444
1031
0.0
1002
}
1002
{
1000
C
1070
     1
1002
}
1001
GENIUS_GENOREF_13
1005
12EE
  0
LINE
  5
12AC
330
18
100
AcDbEntity
  8
note
100
AcDbLine
 10
245.728967681428
 20
-143.0532271730444
 30
0.0
 11
245.728967681428
 21
-128.4532271730444
 31
0.0
1001
GENIUS_GENREC_14
1002
{
1000
PYDIR
1011
245.728967681428
1021
-143.2532271730444
1031
0.0
1002
}
1002
{
1000
PXDIR
1011
255.728967681428
1021
-128.2532271730444
1031
0.0
1002
}
1002
{
1000
PORI
1011
245.728967681428
1021
-128.2532271730444
1031
0.0
1002
}
1002
{
1000
PINS
1011
245.728967681428
1021
-128.2532271730444
1031
0.0
1002
}
1002
{
1000
PINS2
1011
255.728967681428
1021
-143.2532271730444
1031
0.0
1002
}
1002
{
1000
C
1070
     1
1002
}
1001
GENIUS_GENODEF_13
1002
{
1000
HIER
1070
     0
1002
}
1002
{
1000
MANEDIT
1070
     0
1002
}
1002
{
1000
NOSEL
1070
     0
1002
}
1002
{
1000
BEHIND
1070
     0
1002
}
1002
{
1000
OTHER
1070
     0
1002
}
1002
{
1000
REACTOR
1002
}
1001
GENIUS_GENOBJ-N-REC_13
1002
{
1000
OWNER
1000
GEN
1002
}
  0
LINE
  5
12AD
330
18
100
AcDbEntity
  8
note
100
AcDbLine
 10
245.9289676814282
 20
-143.2532271730444
 30
0.0
 11
245.728967681428
 21
-143.0532271730444
 31
0.0
1001
GENIUS_GENREC_14
1002
{
1000
PYDIR
1011
245.728967681428
1021
-143.2532271730444
1031
0.0
1002
}
1002
{
1000
PXDIR
1011
255.728967681428
1021
-128.2532271730444
1031
0.0
1002
}
1002
{
1000
PORI
1011
245.728967681428
1021
-128.2532271730444
1031
0.0
1002
}
1002
{
1000
PINS
1011
245.728967681428
1021
-128.2532271730444
1031
0.0
1002
}
1002
{
1000
PINS2
1011
255.728967681428
1021
-143.2532271730444
1031
0.0
1002
}
1002
{
1000
C
1070
     1
1002
}
1001
GENIUS_GENODEF_13
1002
{
1000
HIER
1070
     0
1002
}
1002
{
1000
MANEDIT
1070
     0
1002
}
1002
{
1000
NOSEL
1070
     0
1002
}
1002
{
1000
BEHIND
1070
     0
1002
}
1002
{
1000
OTHER
1070
     0
1002
}
1002
{
1000
REACTOR
1002
}
1001
GENIUS_GENOBJ-N-REC_13
1002
{
1000
OWNER
1000
GEN
1002
}
  0
LINE
  5
12AE
330
18
100
AcDbEntity
  8
note
100
AcDbLine
 10
255.4289676814278
 20
-143.2532271730444
 30
0.0
 11
245.9289676814282
 21
-143.2532271730444
 31
0.0
1001
GENIUS_GENREC_14
1002
{
1000
PYDIR
1011
245.728967681428
1021
-143.2532271730444
1031
0.0
1002
}
1002
{
1000
PXDIR
1011
255.728967681428
1021
-128.2532271730444
1031
0.0
1002
}
1002
{
1000
PORI
1011
245.728967681428
1021
-128.2532271730444
1031
0.0
1002
}
1002
{
1000
PINS
1011
245.728967681428
1021
-128.2532271730444
1031
0.0
1002
}
1002
{
1000
PINS2
1011
255.728967681428
1021
-143.2532271730444
1031
0.0
1002
}
1002
{
1000
C
1070
     1
1002
}
1001
GENIUS_GENODEF_13
1002
{
1000
HIER
1070
     0
1002
}
1002
{
1000
MANEDIT
1070
     0
1002
}
1002
{
1000
NOSEL
1070
     0
1002
}
1002
{
1000
BEHIND
1070
     0
1002
}
1002
{
1000
OTHER
1070
     0
1002
}
1002
{
1000
REACTOR
1002
}
1001
GENIUS_GENOBJ-N-REC_13
1002
{
1000
OWNER
1000
GEN
1002
}
  0
LINE
  5
12AF
330
18
100
AcDbEntity
  8
note
100
AcDbLine
 10
255.728967681428
 20
-142.9532271730443
 30
0.0
 11
255.4289676814278
 21
-143.2532271730444
 31
0.0
1001
GENIUS_GENREC_14
1002
{
1000
PYDIR
1011
245.728967681428
1021
-143.2532271730444
1031
0.0
1002
}
1002
{
1000
PXDIR
1011
255.728967681428
1021
-128.2532271730444
1031
0.0
1002
}
1002
{
1000
PORI
1011
245.728967681428
1021
-128.2532271730444
1031
0.0
1002
}
1002
{
1000
PINS
1011
245.728967681428
1021
-128.2532271730444
1031
0.0
1002
}
1002
{
1000
PINS2
1011
255.728967681428
1021
-143.2532271730444
1031
0.0
1002
}
1002
{
1000
C
1070
     1
1002
}
1001
GENIUS_GENODEF_13
1002
{
1000
HIER
1070
     0
1002
}
1002
{
1000
MANEDIT
1070
     0
1002
}
1002
{
1000
NOSEL
1070
     0
1002
}
1002
{
1000
BEHIND
1070
     0
1002
}
1002
{
1000
OTHER
1070
     0
1002
}
1002
{
1000
REACTOR
1002
}
1001
GENIUS_GENOBJ-N-REC_13
1002
{
1000
OWNER
1000
GEN
1002
}
  0
ARC
  5
12B0
330
18
100
AcDbEntity
  8
note
100
AcDbCircle
 10
256.228967681428
 20
-129.2032271730442
 30
0.0
 40
0.5
100
AcDbArc
 50
180.0
 51
270.0
1001
GENIUS_GENREC_14
1002
{
1000
PYDIR
1011
245.728967681428
1021
-143.2532271730444
1031
0.0
1002
}
1002
{
1000
PXDIR
1011
255.728967681428
1021
-128.2532271730444
1031
0.0
1002
}
1002
{
1000
PORI
1011
245.728967681428
1021
-128.2532271730444
1031
0.0
1002
}
1002
{
1000
PINS
1011
245.728967681428
1021
-128.2532271730444
1031
0.0
1002
}
1002
{
1000
PINS2
1011
255.728967681428
1021
-143.2532271730444
1031
0.0
1002
}
1002
{
1000
C
1070
     1
1002
}
1001
GENIUS_GENOBJ-N-REC_13
1002
{
1000
OWNER
1000
GEN
1002
}
1001
GENIUS_GENODEF_13
1002
{
1000
HIER
1070
     0
1002
}
1002
{
1000
MANEDIT
1070
     0
1002
}
1002
{
1000
NOSEL
1070
     0
1002
}
1002
{
1000
BEHIND
1070
     0
1002
}
1002
{
1000
OTHER
1070
     0
1002
}
1002
{
1000
REACTOR
1002
}
1001
GENIUS_GENOBJ-N-FIL_13
1002
{
1000
OWNER
1000
GEN
1002
}
  0
ARC
  5
12B1
330
18
100
AcDbEntity
  8
note
100
AcDbCircle
 10
256.228967681428
 20
-142.3032271730443
 30
0.0
 40
0.5
100
AcDbArc
 50
90.0
 51
180.0
1001
GENIUS_GENREC_14
1002
{
1000
PYDIR
1011
245.728967681428
1021
-143.2532271730444
1031
0.0
1002
}
1002
{
1000
PXDIR
1011
255.728967681428
1021
-128.2532271730444
1031
0.0
1002
}
1002
{
1000
PORI
1011
245.728967681428
1021
-128.2532271730444
1031
0.0
1002
}
1002
{
1000
PINS
1011
245.728967681428
1021
-128.2532271730444
1031
0.0
1002
}
1002
{
1000
PINS2
1011
255.728967681428
1021
-143.2532271730444
1031
0.0
1002
}
1002
{
1000
C
1070
     1
1002
}
1001
GENIUS_GENOREF_13
1005
12EF
  0
LINE
  5
12B2
330
18
100
AcDbEntity
  8
note
100
AcDbLine
 10
255.728967681428
 20
-128.5532271730444
 30
0.0
 11
255.728967681428
 21
-142.9532271730443
 31
0.0
1001
GENIUS_GENREC_14
1002
{
1000
PYDIR
1011
245.728967681428
1021
-143.2532271730444
1031
0.0
1002
}
1002
{
1000
PXDIR
1011
255.728967681428
1021
-128.2532271730444
1031
0.0
1002
}
1002
{
1000
PORI
1011
245.728967681428
1021
-128.2532271730444
1031
0.0
1002
}
1002
{
1000
PINS
1011
245.728967681428
1021
-128.2532271730444
1031
0.0
1002
}
1002
{
1000
PINS2
1011
255.728967681428
1021
-143.2532271730444
1031
0.0
1002
}
1002
{
1000
C
1070
     1
1002
}
1001
GENIUS_GENODEF_13
1002
{
1000
HIER
1070
     0
1002
}
1002
{
1000
MANEDIT
1070
     0
1002
}
1002
{
1000
NOSEL
1070
     0
1002
}
1002
{
1000
BEHIND
1070
     0
1002
}
1002
{
1000
OTHER
1070
     0
1002
}
1002
{
1000
REACTOR
1002
}
1001
GENIUS_GENOBJ-N-REC_13
1002
{
1000
OWNER
1000
GEN
1002
}
  0
LINE
  5
12B3
330
18
100
AcDbEntity
  8
note
100
AcDbLine
 10
255.4289676814282
 20
-128.2532271730444
 30
0.0
 11
255.728967681428
 21
-128.5532271730444
 31
0.0
1001
GENIUS_GENREC_14
1002
{
1000
PYDIR
1011
245.728967681428
1021
-143.2532271730444
1031
0.0
1002
}
1002
{
1000
PXDIR
1011
255.728967681428
1021
-128.2532271730444
1031
0.0
1002
}
1002
{
1000
PORI
1011
245.728967681428
1021
-128.2532271730444
1031
0.0
1002
}
1002
{
1000
PINS
1011
245.728967681428
1021
-128.2532271730444
1031
0.0
1002
}
1002
{
1000
PINS2
1011
255.728967681428
1021
-143.2532271730444
1031
0.0
1002
}
1002
{
1000
C
1070
     1
1002
}
1001
GENIUS_GENODEF_13
1002
{
1000
HIER
1070
     0
1002
}
1002
{
1000
MANEDIT
1070
     0
1002
}
1002
{
1000
NOSEL
1070
     0
1002
}
1002
{
1000
BEHIND
1070
     0
1002
}
1002
{
1000
OTHER
1070
     0
1002
}
1002
{
1000
REACTOR
1002
}
1001
GENIUS_GENOBJ-N-REC_13
1002
{
1000
OWNER
1000
GEN
1002
}
  0
LINE
  5
12B4
330
18
100
AcDbEntity
  8
note
100
AcDbLine
 10
245.928967681428
 20
-128.2532271730444
 30
0.0
 11
255.4289676814282
 21
-128.2532271730444
 31
0.0
1001
GENIUS_GENREC_14
1002
{
1000
PYDIR
1011
245.728967681428
1021
-143.2532271730444
1031
0.0
1002
}
1002
{
1000
PXDIR
1011
255.728967681428
1021
-128.2532271730444
1031
0.0
1002
}
1002
{
1000
PORI
1011
245.728967681428
1021
-128.2532271730444
1031
0.0
1002
}
1002
{
1000
PINS
1011
245.728967681428
1021
-128.2532271730444
1031
0.0
1002
}
1002
{
1000
PINS2
1011
255.728967681428
1021
-143.2532271730444
1031
0.0
1002
}
1002
{
1000
C
1070
     1
1002
}
1001
GENIUS_GENODEF_13
1002
{
1000
HIER
1070
     0
1002
}
1002
{
1000
MANEDIT
1070
     0
1002
}
1002
{
1000
NOSEL
1070
     0
1002
}
1002
{
1000
BEHIND
1070
     0
1002
}
1002
{
1000
OTHER
1070
     0
1002
}
1002
{
1000
REACTOR
1002
}
1001
GENIUS_GENOBJ-N-REC_13
1002
{
1000
OWNER
1000
GEN
1002
}
  0
LINE
  5
12B5
330
18
100
AcDbEntity
  8
note
100
AcDbLine
 10
200.7289676814279
 20
-140.2532271730444
 30
0.0
 11
200.7289676814279
 21
-131.2532271730444
 31
0.0
  0
LINE
  5
12B6
330
18
100
AcDbEntity
  8
imaginary
 62
     0
 48
0.95
100
AcDbLine
 10
324.956662714864
 20
-142.7532271730444
 30
0.0
 11
261.6789676814278
 21
-142.7532271730444
 31
0.0
  0
LINE
  5
12B7
330
18
100
AcDbEntity
  8
imaginary
 62
     0
100
AcDbLine
 10
324.956662714864
 20
-141.8197271730445
 30
0.0
 11
260.7454676814277
 21
-141.8197271730445
 31
0.0
  0
LINE
  5
12B8
330
18
100
AcDbEntity
  8
imaginary
 62
     0
100
AcDbLine
 10
324.956662714864
 20
-129.6867271730444
 30
0.0
 11
260.7454676814277
 21
-129.6867271730445
 31
0.0
  0
LINE
  5
12B9
330
18
100
AcDbEntity
  8
imaginary
 62
     0
 48
0.95
100
AcDbLine
 10
324.956662714864
 20
-128.7532271730444
 30
0.0
 11
261.6789676814278
 21
-128.7532271730444
 31
0.0
  0
LINE
  5
12BA
330
18
100
AcDbEntity
  8
PV0001_1
  6
PHANTOM2
 48
0.5
370
    25
100
AcDbLine
 10
527.878992095488
 20
-130.7532271730444
 30
0.0
 11
530.728967681428
 21
-130.7532271730444
 31
0.0
  0
LINE
  5
12BB
330
18
100
AcDbEntity
  8
PV0001_1
  6
PHANTOM2
 48
0.5
370
    25
100
AcDbLine
 10
526.728967681428
 20
-130.9532393800744
 30
0.0
 11
527.878992095488
 21
-130.9532393800744
 31
0.0
  0
LINE
  5
12BC
330
18
100
AcDbEntity
  8
PV0001_1
  6
PHANTOM2
 48
0.5
370
    25
100
AcDbLine
 10
527.878992095488
 20
-140.7532271730444
 30
0.0
 11
530.728967681428
 21
-140.7532271730444
 31
0.0
  0
LINE
  5
12BD
330
18
100
AcDbEntity
  8
PV0001_1
  6
PHANTOM2
 48
0.5
370
    25
100
AcDbLine
 10
527.878992095488
 20
-130.7532271730444
 30
0.0
 11
527.878992095488
 21
-140.7532271730444
 31
0.0
  0
LINE
  5
12BE
330
18
100
AcDbEntity
  8
PV0001_1
  6
PHANTOM2
 48
0.5
370
    25
100
AcDbLine
 10
526.728967681428
 20
-130.7532271730444
 30
0.0
 11
526.728967681428
 21
-140.7532271730444
 31
0.0
  0
LINE
  5
12BF
330
18
100
AcDbEntity
  8
PV0001_1
  6
PHANTOM2
 48
0.5
370
    25
100
AcDbLine
 10
526.728967681428
 20
-140.5532149660044
 30
0.0
 11
527.878992095488
 21
-140.5532149660044
 31
0.0
  0
LINE
  5
12C0
330
18
100
AcDbEntity
  8
PV0001_1
  6
PHANTOM2
 48
0.5
370
    25
100
AcDbLine
 10
518.7289676814279
 20
-130.7532271730444
 30
0.0
 11
526.728967681428
 21
-130.7532271730444
 31
0.0
  0
LINE
  5
12C1
330
18
100
AcDbEntity
  8
PV0001_1
  6
PHANTOM2
 48
0.5
370
    25
100
AcDbLine
 10
518.7289676814279
 20
-140.7532271730444
 30
0.0
 11
526.728967681428
 21
-140.7532271730444
 31
0.0
  0
LINE
  5
12C2
330
18
100
AcDbEntity
  8
PV0001_1
  6
PHANTOM2
 48
0.5
370
    25
100
AcDbLine
 10
530.728967681428
 20
-130.7532271730444
 30
0.0
 11
530.728967681428
 21
-140.7532271730444
 31
0.0
  0
LINE
  5
12C3
330
18
100
AcDbEntity
  8
PV0001_1
  6
DASHED2
 48
0.5
370
    50
100
AcDbLine
 10
527.7289676814279
 20
-130.9532393800744
 30
0.0
 11
526.729028716578
 21
-130.9532393800744
 31
0.0
  0
LINE
  5
12C4
330
18
100
AcDbEntity
  8
PV0001_1
  6
DASHED2
 48
0.5
370
    50
100
AcDbLine
 10
527.7289676814279
 20
-140.5532149660044
 30
0.0
 11
526.729028716578
 21
-140.5532149660044
 31
0.0
  0
LINE
  5
12C5
330
18
100
AcDbEntity
  8
PV0001_1
  6
DASHED2
 48
0.5
370
    50
100
AcDbLine
 10
526.728967681428
 20
-140.7532271730444
 30
0.0
 11
518.7289676814279
 21
-140.7532271730444
 31
0.0
  0
LINE
  5
12C6
330
18
100
AcDbEntity
  8
PV0001_1
  6
DASHED2
 48
0.5
370
    50
100
AcDbLine
 10
526.728967681428
 20
-130.7532271730444
 30
0.0
 11
518.7289676814279
 21
-130.7532271730444
 31
0.0
  0
LINE
  5
12C7
330
18
100
AcDbEntity
  8
PV0001_1
  6
DASHED2
 48
0.5
370
    50
100
AcDbLine
 10
527.7289676814279
 20
-130.9532393800744
 30
0.0
 11
526.729028716578
 21
-130.9532393800744
 31
0.0
  0
LINE
  5
12C8
330
18
100
AcDbEntity
  8
PV0001_1
  6
DASHED2
 48
0.5
370
    50
100
AcDbLine
 10
527.7289676814279
 20
-140.5532149660044
 30
0.0
 11
526.729028716578
 21
-140.5532149660044
 31
0.0
  0
LINE
  5
12DF
330
18
100
AcDbEntity
  8
center
 62
     0
100
AcDbLine
 10
433.3780443155021
 20
-135.7532271730444
 30
0.0
 11
533.8535223242656
 21
-135.7532271730444
 31
0.0
  0
LINE
  5
12E0
330
18
100
AcDbEntity
  8
imaginary
 62
     0
100
AcDbLine
 10
440.5000804048865
 20
-141.8197271730444
 30
0.0
 11
518.7289676814279
 21
-141.8197271730443
 31
0.0
  0
LINE
  5
12E1
330
18
100
AcDbEntity
  8
note
100
AcDbLine
 10
518.228967681428
 20
-128.7532271730444
 30
0.0
 11
518.228967681428
 21
-142.7532271730444
 31
0.0
  0
LINE
  5
12E2
330
18
100
AcDbEntity
  8
note
100
AcDbLine
 10
518.228967681428
 20
-128.7532271730444
 30
0.0
 11
518.7289676814279
 21
-129.2532271730444
 31
0.0
1001
GENIUS_GENFIL_13
1070
     0
1040
0.5
1040
0.5
1040
0.5000000000001137
1040
45.0
1000
~T
1001
GENIUS_GENOREF_13
1005
12E8
  0
LINE
  5
12E3
330
18
100
AcDbEntity
  8
note
100
AcDbLine
 10
518.228967681428
 20
-142.7532271730444
 30
0.0
 11
518.7289676814279
 21
-142.2532271730444
 31
0.0
1001
GENIUS_GENFIL_13
1070
     0
1040
0.5
1040
0.5
1040
0.5000000000001137
1040
44.99999999999348
1000
~T
1001
GENIUS_GENOREF_13
1005
12E9
  0
LINE
  5
12E4
330
18
100
AcDbEntity
  8
note
100
AcDbLine
 10
518.7289676814279
 20
-129.2532271730444
 30
0.0
 11
518.7289676814279
 21
-142.2532271730444
 31
0.0
  0
LINE
  5
12E5
330
18
100
AcDbEntity
  8
imaginary
 62
     0
100
AcDbLine
 10
440.5000804048865
 20
-142.7532271730444
 30
0.0
 11
518.228967681428
 21
-142.7532271730444
 31
0.0
  0
LINE
  5
12E6
330
18
100
AcDbEntity
  8
imaginary
 62
     0
100
AcDbLine
 10
440.5000804048865
 20
-129.6867271730443
 30
0.0
 11
518.7289676814279
 21
-129.6867271730443
 31
0.0
  0
LINE
  5
12E7
330
18
100
AcDbEntity
  8
imaginary
 62
     0
100
AcDbLine
 10
440.5000804048865
 20
-128.7532271730444
 30
0.0
 11
518.228967681428
 21
-128.7532271730444
 31
0.0
  0
POINT
  5
12E8
330
18
100
AcDbEntity
  8
0
 60
     1
100
AcDbPoint
 10
-311.1234455673132
 20
-444.9994135574804
 30
0.0
1001
GENIUS_GENOENT_13
1002
{
1000
MYREF
1005
12E8
1002
}
1002
{
1000
GRP
1005
0
1002
}
1001
GENIUS_GENOBJ-N-CHA_13
1002
{
1000
OWNER
1000
GEN
1002
}
1001
GENIUS_GENOLIS_13
1002
{
1000
ENT
1005
0
1005
12E2
1002
}
1001
GENIUS_GENODEF_13
1002
{
1000
HIER
1070
     1
1002
}
1002
{
1000
MANEDIT
1070
     1
1002
}
1002
{
1000
NOSEL
1070
     0
1002
}
1002
{
1000
BEHIND
1070
     0
1002
}
1002
{
1000
OTHER
1070
     0
1002
}
1002
{
1000
REACTOR
1002
}
  0
POINT
  5
12E9
330
18
100
AcDbEntity
  8
0
 60
     1
100
AcDbPoint
 10
-311.1234455673132
 20
-444.9994135574804
 30
0.0
1001
GENIUS_GENOLIS_13
1002
{
1000
ENT
1005
12E3
1002
}
1001
GENIUS_GENOENT_13
1002
{
1000
MYREF
1005
12E9
1002
}
1002
{
1000
GRP
1005
0
1002
}
1001
GENIUS_GENOBJ-N-CHA_13
1002
{
1000
OWNER
1000
GEN
1002
}
1001
GENIUS_GENODEF_13
1002
{
1000
HIER
1070
     1
1002
}
1002
{
1000
MANEDIT
1070
     0
1002
}
1002
{
1000
NOSEL
1070
     0
1002
}
1002
{
1000
BEHIND
1070
     0
1002
}
1002
{
1000
OTHER
1070
     0
1002
}
1002
{
1000
REACTOR
1002
}
  0
POINT
  5
12EA
330
18
100
AcDbEntity
  8
0
 60
     1
100
AcDbPoint
 10
-311.1234455673132
 20
-444.9994135574804
 30
0.0
1001
GENIUS_GENODEF_13
1002
{
1000
HIER
1070
     1
1002
}
1002
{
1000
MANEDIT
1070
     0
1002
}
1002
{
1000
NOSEL
1070
     0
1002
}
1002
{
1000
BEHIND
1070
     0
1002
}
1002
{
1000
OTHER
1070
     0
1002
}
1002
{
1000
REACTOR
1002
}
1001
GENIUS_GENOLIS_13
1002
{
1000
ENT
1005
12A2
1002
}
1001
GENIUS_GENOENT_13
1002
{
1000
MYREF
1005
12EA
1002
}
1002
{
1000
GRP
1005
0
1002
}
1001
GENIUS_GENOBJ-N-CHA_13
1002
{
1000
OWNER
1000
GEN
1002
}
  0
POINT
  5
12EB
330
18
100
AcDbEntity
  8
0
 60
     1
100
AcDbPoint
 10
-311.1234455673132
 20
-444.9994135574804
 30
0.0
1001
GENIUS_GENOLIS_13
1002
{
1000
ENT
1005
0
1005
12A4
1002
}
1001
GENIUS_GENOENT_13
1002
{
1000
MYREF
1005
12EB
1002
}
1002
{
1000
GRP
1005
0
1002
}
1001
GENIUS_GENOBJ-N-CHA_13
1002
{
1000
OWNER
1000
GEN
1002
}
1001
GENIUS_GENODEF_13
1002
{
1000
HIER
1070
     1
1002
}
1002
{
1000
MANEDIT
1070
     1
1002
}
1002
{
1000
NOSEL
1070
     0
1002
}
1002
{
1000
BEHIND
1070
     0
1002
}
1002
{
1000
OTHER
1070
     0
1002
}
1002
{
1000
REACTOR
1002
}
  0
POINT
  5
12EC
330
18
100
AcDbEntity
  8
0
 60
     1
100
AcDbPoint
 10
-311.1234455673132
 20
-444.9994135574804
 30
0.0
1001
GENIUS_GENODEF_13
1002
{
1000
HIER
1070
     1
1002
}
1002
{
1000
MANEDIT
1070
     0
1002
}
1002
{
1000
NOSEL
1070
     0
1002
}
1002
{
1000
BEHIND
1070
     0
1002
}
1002
{
1000
OTHER
1070
     0
1002
}
1002
{
1000
REACTOR
1002
}
1001
GENIUS_GENOLIS_13
1002
{
1000
ENT
1005
12A6
1002
}
1001
GENIUS_GENOENT_13
1002
{
1000
MYREF
1005
12EC
1002
}
1002
{
1000
GRP
1005
0
1002
}
1001
GENIUS_GENOBJ-N-CHA_13
1002
{
1000
OWNER
1000
GEN
1002
}
  0
POINT
  5
12ED
330
18
100
AcDbEntity
  8
0
 60
     1
100
AcDbPoint
 10
-311.1234455673132
 20
-444.9994135574804
 30
0.0
1001
GENIUS_GENOLIS_13
1002
{
1000
ENT
1005
0
1005
12A7
1002
}
1001
GENIUS_GENOENT_13
1002
{
1000
MYREF
1005
12ED
1002
}
1002
{
1000
GRP
1005
0
1002
}
1001
GENIUS_GENOBJ-N-CHA_13
1002
{
1000
OWNER
1000
GEN
1002
}
1001
GENIUS_GENODEF_13
1002
{
1000
HIER
1070
     1
1002
}
1002
{
1000
MANEDIT
1070
     1
1002
}
1002
{
1000
NOSEL
1070
     0
1002
}
1002
{
1000
BEHIND
1070
     0
1002
}
1002
{
1000
OTHER
1070
     0
1002
}
1002
{
1000
REACTOR
1002
}
  0
POINT
  5
12EE
330
18
100
AcDbEntity
  8
0
 60
     1
100
AcDbPoint
 10
-311.1234455673132
 20
-444.9994135574804
 30
0.0
1001
GENIUS_GENOENT_13
1002
{
1000
MYREF
1005
12EE
1002
}
1002
{
1000
GRP
1005
0
1002
}
1001
GENIUS_GENOBJ-N-FIL_13
1002
{
1000
OWNER
1000
GEN
1002
}
1001
GENIUS_GENOLIS_13
1002
{
1000
ENT
1005
0
1005
12AB
1002
}
1001
GENIUS_GENODEF_13
1002
{
1000
HIER
1070
     1
1002
}
1002
{
1000
MANEDIT
1070
     1
1002
}
1002
{
1000
NOSEL
1070
     0
1002
}
1002
{
1000
BEHIND
1070
     0
1002
}
1002
{
1000
OTHER
1070
     0
1002
}
1002
{
1000
REACTOR
1002
}
  0
POINT
  5
12EF
330
18
100
AcDbEntity
  8
0
 60
     1
100
AcDbPoint
 10
-311.1234455673132
 20
-444.9994135574804
 30
0.0
1001
GENIUS_GENOENT_13
1002
{
1000
MYREF
1005
12EF
1002
}
1002
{
1000
GRP
1005
0
1002
}
1001
GENIUS_GENOBJ-N-FIL_13
1002
{
1000
OWNER
1000
GEN
1002
}
1001
GENIUS_GENOLIS_13
1002
{
1000
ENT
1005
0
1005
12B1
1002
}
1001
GENIUS_GENODEF_13
1002
{
1000
HIER
1070
     1
1002
}
1002
{
1000
MANEDIT
1070
     1
1002
}
1002
{
1000
NOSEL
1070
     0
1002
}
1002
{
1000
BEHIND
1070
     0
1002
}
1002
{
1000
OTHER
1070
     0
1002
}
1002
{
1000
REACTOR
1002
}
  0
MTEXT
  5
12F0
330
18
100
AcDbEntity
  8
0
100
AcDbMText
 10
517.0742683435019
 20
-83.94626576192109
 30
0.0
 40
3.2
 41
24.00701902674382
 71
     1
 72
     5
  1
BUM-10S
  7
CONVERT
 73
     1
 44
1.0
1001
ACAD
1000
MTEXTBEGIN
1070
    73
1070
     1
1070
    44
1040
1.0
1070
    74
1070
     0
1000
MTEXTEND
  0
LINE
  5
1313
330
18
100
AcDbEntity
  8
PV0001_1
  6
Continuous
 48
0.5
370
    50
100
AcDbLine
 10
526.728967681428
 20
-122.7532271730444
 30
0.0
 11
518.7289676814279
 21
-122.7532271730444
 31
0.0
  0
LINE
  5
1314
330
18
100
AcDbEntity
  8
PV0001_1
  6
Continuous
 48
0.5
370
    50
100
AcDbLine
 10
526.728967681428
 20
-122.7532271730444
 30
0.0
 11
526.728967681428
 21
-148.7532271730444
 31
0.0
  0
LINE
  5
1315
330
18
100
AcDbEntity
  8
PV0001_1
  6
Continuous
 48
0.5
370
    50
100
AcDbLine
 10
527.7289676814279
 20
-127.2532271730444
 30
0.0
 11
527.7289676814279
 21
-144.2532271730444
 31
0.0
  0
LINE
  5
1316
330
18
100
AcDbEntity
  8
PV0001_1
  6
Continuous
 48
0.5
370
    50
100
AcDbLine
 10
527.7289676814279
 20
-127.2532271730444
 30
0.0
 11
526.728967681428
 21
-127.2532271730444
 31
0.0
  0
LINE
  5
1317
330
18
100
AcDbEntity
  8
PV0001_1
  6
Continuous
 48
0.5
370
    50
100
AcDbLine
 10
518.7289676814279
 20
-122.7532271730444
 30
0.0
 11
518.7289676814279
 21
-148.7532271730444
 31
0.0
  0
LINE
  5
1318
330
18
100
AcDbEntity
  8
PV0001_1
  6
Continuous
 48
0.5
370
    50
100
AcDbLine
 10
527.7289676814279
 20
-144.2532271730444
 30
0.0
 11
526.728967681428
 21
-144.2532271730444
 31
0.0
  0
LINE
  5
1319
330
18
100
AcDbEntity
  8
PV0001_1
  6
Continuous
 48
0.5
370
    50
100
AcDbLine
 10
526.728967681428
 20
-148.7532271730444
 30
0.0
 11
518.7289676814279
 21
-148.7532271730444
 31
0.0
  0
LINE
  5
1337
330
18
100
AcDbEntity
  8
PV0001_1
  6
Continuous
370
    50
100
AcDbLine
 10
253.728967681428
 20
-157.7532271730444
 30
0.0
 11
253.728967681428
 21
-113.7532271730444
 31
0.0
  0
LINE
  5
1338
330
18
100
AcDbEntity
  8
PV0001_1
  6
DASHED2
 48
0.5
370
    50
100
AcDbLine
 10
247.728967681428
 20
-124.1968917238244
 30
0.0
 11
253.728967681428
 21
-124.1968917238244
 31
0.0
  0
LINE
  5
1339
330
18
100
AcDbEntity
  8
PV0001_1
  6
DASHED2
 48
0.5
370
    50
100
AcDbLine
 10
247.728967681428
 20
-116.1968917238244
 30
0.0
 11
253.728967681428
 21
-116.1968917238244
 31
0.0
  0
LINE
  5
133A
330
18
100
AcDbEntity
  8
PV0001_1
  6
DASHED2
 48
0.5
370
    50
100
AcDbLine
 10
240.7289676814279
 20
-122.4468917238244
 30
0.0
 11
247.728967681428
 21
-122.4468917238244
 31
0.0
  0
LINE
  5
133B
330
18
100
AcDbEntity
  8
PV0001_1
  6
DASHED2
 48
0.5
370
    50
100
AcDbLine
 10
240.7289676814279
 20
-117.9468917238244
 30
0.0
 11
247.728967681428
 21
-117.9468917238244
 31
0.0
  0
LINE
  5
133C
330
18
100
AcDbEntity
  8
PV0001_1
  6
CENTER2
 48
0.5
370
    25
100
AcDbLine
 10
238.5208377986079
 20
-120.1968917238244
 30
0.0
 11
255.187952056428
 21
-120.1968917238244
 31
0.0
  0
LINE
  5
133D
330
18
100
AcDbEntity
  8
PV0001_1
  6
Continuous
 48
0.5
370
    50
100
AcDbLine
 10
224.728967681428
 20
-117.7532271730444
 30
0.0
 11
240.7289676814279
 21
-117.7532271730444
 31
0.0
  0
LINE
  5
133E
330
18
100
AcDbEntity
  8
PV0001_1
  6
Continuous
 48
0.5
370
    50
100
AcDbLine
 10
240.7289676814279
 20
-113.7532271730444
 30
0.0
 11
253.728967681428
 21
-113.7532271730444
 31
0.0
  0
LINE
  5
133F
330
18
100
AcDbEntity
  8
PV0001_1
  6
Continuous
370
    50
100
AcDbLine
 10
247.728967681428
 20
-157.7532271730444
 30
0.0
 11
247.728967681428
 21
-113.7532271730444
 31
0.0
  0
LINE
  5
1340
330
18
100
AcDbEntity
  8
PV0001_1
  6
Continuous
370
    50
100
AcDbLine
 10
240.7289676814279
 20
-157.7532271730444
 30
0.0
 11
240.7289676814279
 21
-113.7532271730444
 31
0.0
  0
LINE
  5
1341
330
18
100
AcDbEntity
  8
PV0001_1
  6
Continuous
370
    50
100
AcDbLine
 10
224.728967681428
 20
-153.7532271730444
 30
0.0
 11
224.728967681428
 21
-117.7532271730444
 31
0.0
  0
LINE
  5
1342
330
18
100
AcDbEntity
  8
PV0001_1
  6
Continuous
 48
0.5
370
    50
100
AcDbLine
 10
224.728967681428
 20
-153.7532271730444
 30
0.0
 11
240.7289676814279
 21
-153.7532271730444
 31
0.0
  0
LINE
  5
1343
330
18
100
AcDbEntity
  8
PV0001_1
  6
Continuous
 48
0.5
370
    50
100
AcDbLine
 10
240.7289676814279
 20
-157.7532271730444
 30
0.0
 11
253.728967681428
 21
-157.7532271730444
 31
0.0
  0
LINE
  5
1344
330
18
100
AcDbEntity
  8
PV0001_1
  6
Continuous
 48
0.5
370
    50
100
AcDbLine
 10
224.728967681428
 20
-128.2532271730444
 30
0.0
 11
224.228967681428
 21
-128.2532271730444
 31
0.0
  0
LINE
  5
1345
330
18
100
AcDbEntity
  8
PV0001_1
  6
Continuous
 48
0.5
370
    50
100
AcDbLine
 10
223.2289676814279
 20
-126.2532271730444
 30
0.0
 11
223.2289676814279
 21
-145.2532271730444
 31
0.0
  0
LINE
  5
1346
330
18
100
AcDbEntity
  8
PV0001_1
  6
Continuous
 48
0.5
370
    50
100
AcDbLine
 10
224.228967681428
 20
-127.2532271730444
 30
0.0
 11
223.2289676814279
 21
-127.2532271730444
 31
0.0
  0
LINE
  5
1347
330
18
100
AcDbEntity
  8
PV0001_1
  6
Continuous
 48
0.5
370
    50
100
AcDbLine
 10
221.7289676814279
 20
-126.2532271730444
 30
0.0
 11
221.7289676814279
 21
-145.2532271730444
 31
0.0
  0
LINE
  5
1348
330
18
100
AcDbEntity
  8
PV0001_1
  6
Continuous
 48
0.5
370
    50
100
AcDbLine
 10
224.228967681428
 20
-127.2532271730444
 30
0.0
 11
224.228967681428
 21
-144.2532271730444
 31
0.0
  0
LINE
  5
1349
330
18
100
AcDbEntity
  8
PV0001_1
  6
Continuous
 48
0.5
370
    50
100
AcDbLine
 10
223.2289676814279
 20
-126.2532271730444
 30
0.0
 11
216.228967681428
 21
-126.2532271730444
 31
0.0
  0
LINE
  5
134A
330
18
100
AcDbEntity
  8
PV0001_1
  6
Continuous
 48
0.5
370
    50
100
AcDbLine
 10
216.228967681428
 20
-126.2532271730444
 30
0.0
 11
216.228967681428
 21
-145.2532271730444
 31
0.0
  0
LINE
  5
134B
330
18
100
AcDbEntity
  8
PV0001_1
  6
Continuous
 48
0.5
370
    50
100
AcDbLine
 10
224.728967681428
 20
-143.2532271730444
 30
0.0
 11
224.228967681428
 21
-143.2532271730444
 31
0.0
  0
LINE
  5
134C
330
18
100
AcDbEntity
  8
PV0001_1
  6
Continuous
 48
0.5
370
    50
100
AcDbLine
 10
223.2289676814279
 20
-145.2532271730444
 30
0.0
 11
216.228967681428
 21
-145.2532271730444
 31
0.0
  0
LINE
  5
134D
330
18
100
AcDbEntity
  8
PV0001_1
  6
Continuous
 48
0.5
370
    50
100
AcDbLine
 10
224.228967681428
 20
-144.2532271730444
 30
0.0
 11
223.2289676814279
 21
-144.2532271730444
 31
0.0
  0
MTEXT
  5
134E
330
18
100
AcDbEntity
  8
0
100
AcDbMText
 10
230.1274056741558
 20
-163.1030137598914
 30
0.0
 40
3.2
 41
25.31480291293974
 71
     1
 72
     5
  1
BUM-12
  7
CONVERT
 73
     1
 44
1.0
1001
ACAD
1000
MTEXTBEGIN
1070
    73
1070
     1
1070
    44
1040
1.0
1070
    74
1070
     0
1000
MTEXTEND
  0
MTEXT
  5
1367
330
18
100
AcDbEntity
  8
0
100
AcDbMText
 10
517.1585704949388
 20
-155.6937032652286
 30
0.0
 40
3.2
 41
21.33551951734625
 71
     1
 72
     5
  1
6000ZZ
  7
CONVERT
 73
     1
 44
1.0
1001
ACAD
1000
MTEXTBEGIN
1070
    73
1070
     1
1070
    44
1040
1.0
1070
    74
1070
     0
1000
MTEXTEND
  0
DIMENSION
  5
1390
330
18
100
AcDbEntity
  8
dimension
100
AcDbDimension
  2
*D3
 10
530.728967681428
 20
79.33984647680512
 30
0.0
 11
365.728967681428
 21
81.43984647680511
 31
0.0
 70
    32
  1
L
 71
     5
 42
330.0
  3
STANDARD
100
AcDbAlignedDimension
 13
200.728967681428
 23
103.4234099620989
 33
0.0
 14
530.728967681428
 24
101.4234099620989
 34
0.0
100
AcDbRotatedDimension
  0
LINE
  5
1426
330
18
100
AcDbEntity
  8
note
  6
DASHED2
 48
0.3
100
AcDbLine
 10
46.50688964150886
 20
100.5283102332243
 30
0.0
 11
46.50688964150886
 21
94.65058799075785
 31
0.0
  0
LINE
  5
1427
330
18
100
AcDbEntity
  8
note
  6
DASHED2
 48
0.3
100
AcDbLine
 10
44.00688964150886
 20
100.5283102332243
 30
0.0
 11
44.00688964150886
 21
94.65058799075785
 31
0.0
  0
CIRCLE
  5
1428
330
18
100
AcDbEntity
  8
note
100
AcDbCircle
 10
45.25688964150886
 20
91.92340996209891
 30
0.0
 40
3.0
  0
CIRCLE
  5
1429
330
18
100
AcDbEntity
  8
note
100
AcDbCircle
 10
45.25688964150886
 20
91.92340996209891
 30
0.0
 40
2.5
  0
LINE
  5
142A
330
18
100
AcDbEntity
  8
note
  6
DASHED2
 48
0.3
100
AcDbLine
 10
43.75688964150886
 20
88.9234099620989
 30
0.0
 11
46.75688964150886
 21
88.9234099620989
 31
0.0
  0
LINE
  5
142B
330
18
100
AcDbEntity
  8
center
  6
AM_ISO08W050x2
 62
     0
100
AcDbLine
 10
39.46288964150888
 20
91.92340996209891
 30
0.0
 11
51.05088964150884
 21
91.92340996209891
 31
0.0
1001
GENIUS_GENODEF_13
1002
{
1000
HIER
1070
     0
1002
}
1002
{
1000
MANEDIT
1070
     0
1002
}
1002
{
1000
NOSEL
1070
     0
1002
}
1002
{
1000
BEHIND
1070
     0
1002
}
1002
{
1000
OTHER
1070
     0
1002
}
1002
{
1000
REACTOR
1002
}
1001
GENIUS_GENOBJ-N-CEN_13
1002
{
1000
OWNER
1000
GEN
1002
}
  0
LINE
  5
142C
330
18
100
AcDbEntity
  8
note
  6
DASHED2
 48
0.3
100
AcDbLine
 10
46.50688964150886
 20
89.19623193343994
 30
0.0
 11
46.50688964150886
 21
85.45815901758459
 31
0.0
  0
LINE
  5
142D
330
18
100
AcDbEntity
  8
note
  6
DASHED2
 48
0.3
100
AcDbLine
 10
46.75688964150886
 20
88.9234099620989
 30
0.0
 11
46.75688964150886
 21
85.47346564145527
 31
0.0
  0
LINE
  5
142E
330
18
100
AcDbEntity
  8
note
  6
DASHED2
 48
0.3
100
AcDbLine
 10
44.00688964150886
 20
89.19623193343994
 30
0.0
 11
44.00688964150886
 21
85.45815901758459
 31
0.0
  0
LINE
  5
142F
330
18
100
AcDbEntity
  8
note
  6
DASHED2
 48
0.3
100
AcDbLine
 10
43.75688964150886
 20
85.47346564145527
 30
0.0
 11
43.75688964150886
 21
88.9234099620989
 31
0.0
  0
LINE
  5
146A
330
18
100
AcDbEntity
  8
note
  6
DASHED2
 48
0.3
100
AcDbLine
 10
375.9405792447962
 20
100.4234099620989
 30
0.0
 11
375.9405792447962
 21
85.42340996209896
 31
0.0
  0
LINE
  5
146B
330
18
100
AcDbEntity
  8
note
  6
DASHED2
 48
0.3
100
AcDbLine
 10
373.4405792447963
 20
94.42340996209896
 30
0.0
 11
373.4405792447963
 21
100.4234099620989
 31
0.0
  0
LINE
  5
146C
330
18
100
AcDbEntity
  8
center
  6
AM_ISO08W050x2
 62
     0
100
AcDbLine
 10
374.6905792447963
 20
103.2174099620989
 30
0.0
 11
374.6905792447963
 21
82.62940996209897
 31
0.0
1001
GENIUS_GENODEF_13
1002
{
1000
HIER
1070
     0
1002
}
1002
{
1000
MANEDIT
1070
     0
1002
}
1002
{
1000
NOSEL
1070
     0
1002
}
1002
{
1000
BEHIND
1070
     0
1002
}
1002
{
1000
OTHER
1070
     0
1002
}
1002
{
1000
REACTOR
1002
}
1001
GENIUS_GENOBJ-N-CEN_13
1002
{
1000
OWNER
1000
GEN
1002
}
  0
LINE
  5
146D
330
18
100
AcDbEntity
  8
note
  6
DASHED2
 48
0.3
100
AcDbLine
 10
368.1905792447963
 20
94.92340996209895
 30
0.0
 11
372.1905792447963
 21
94.92340996209895
 31
0.0
  0
LINE
  5
146E
330
18
100
AcDbEntity
  8
note
  6
DASHED2
 48
0.3
100
AcDbLine
 10
372.1905792447963
 20
94.92340996209895
 30
0.0
 11
372.1905792447963
 21
88.92340996209895
 31
0.0
  0
LINE
  5
146F
330
18
100
AcDbEntity
  8
note
  6
DASHED2
 48
0.3
100
AcDbLine
 10
368.1905792447963
 20
94.42340996209896
 30
0.0
 11
373.4405792447963
 21
94.42340996209896
 31
0.0
  0
LINE
  5
1470
330
18
100
AcDbEntity
  8
note
  6
DASHED2
 48
0.3
100
AcDbLine
 10
372.1905792447963
 20
88.92340996209895
 30
0.0
 11
368.1905792447963
 21
88.92340996209895
 31
0.0
  0
LINE
  5
1471
330
18
100
AcDbEntity
  8
note
  6
DASHED2
 48
0.3
100
AcDbLine
 10
373.1905792447963
 20
85.4234099620989
 30
0.0
 11
373.1905792447963
 21
88.92340996209895
 31
0.0
  0
LINE
  5
1472
330
18
100
AcDbEntity
  8
note
  6
DASHED2
 48
0.3
100
AcDbLine
 10
373.1905792447963
 20
88.92340996209895
 30
0.0
 11
376.1905792447962
 21
88.92340996209895
 31
0.0
  0
LINE
  5
1473
330
18
100
AcDbEntity
  8
note
  6
DASHED2
 48
0.3
100
AcDbLine
 10
373.4405792447963
 20
89.42340996209896
 30
0.0
 11
373.4405792447965
 21
85.4234099620989
 31
0.0
  0
LINE
  5
1474
330
18
100
AcDbEntity
  8
note
  6
DASHED2
 48
0.3
100
AcDbLine
 10
368.1905792447963
 20
89.42340996209896
 30
0.0
 11
373.4405792447963
 21
89.42340996209896
 31
0.0
  0
LINE
  5
1475
330
18
100
AcDbEntity
  8
note
  6
DASHED2
 48
0.3
100
AcDbLine
 10
376.1905792447962
 20
88.92340996209895
 30
0.0
 11
376.1905792447962
 21
85.42340996209896
 31
0.0
  0
LINE
  5
1484
330
18
100
AcDbEntity
  8
center
  6
AM_ISO08W050x2
 62
     0
100
AcDbLine
 10
365.3965792447963
 20
91.92340996209896
 30
0.0
 11
380.9845792447966
 21
91.92340996209896
 31
0.0
1001
GENIUS_GENODEF_13
1002
{
1000
HIER
1070
     0
1002
}
1002
{
1000
MANEDIT
1070
     0
1002
}
1002
{
1000
NOSEL
1070
     0
1002
}
1002
{
1000
BEHIND
1070
     0
1002
}
1002
{
1000
OTHER
1070
     0
1002
}
1002
{
1000
REACTOR
1002
}
1001
GENIUS_GENOBJ-N-CEN_13
1002
{
1000
OWNER
1000
GEN
1002
}
  0
ENDSEC
  0
SECTION
  2
OBJECTS
  0
DICTIONARY
  5
C
330
0
100
AcDbDictionary
281
     1
  3
ACAD_COLOR
350
607
  3
ACAD_GROUP
350
D
  3
ACAD_LAYOUT
350
5E
  3
ACAD_MATERIAL
350
606
  3
ACAD_MLINESTYLE
350
1B
  3
ACAD_PLOTSETTINGS
350
5F
  3
ACAD_PLOTSTYLENAME
350
5C
  3
ACAD_TABLESTYLE
350
1494
  3
ACDBHEADERROUNDTRIPXREC
350
1865
  3
AcDbVariableDictionary
350
14E2
  3
AcmDictionary
350
680
  3
AMG
350
60D
  3
AMGSNAPSETTINGS
350
70E
  3
SAKAE_DICT
350
598
  0
DICTIONARY
  5
5E4
330
18
100
AcDbDictionary
280
     1
281
     1
  3
ACAD_LAYOUTSELFREF
360
5E5
  0
DICTIONARY
  5
5E2
330
15
100
AcDbDictionary
280
     1
281
     1
  3
ACAD_LAYOUTSELFREF
360
5E3
  0
DICTIONARY
  5
607
102
{ACAD_REACTORS
330
C
102
}
330
C
100
AcDbDictionary
281
     1
  0
DICTIONARY
  5
D
102
{ACAD_REACTORS
330
C
102
}
330
C
100
AcDbDictionary
281
     1
  0
DICTIONARY
  5
5E
102
{ACAD_REACTORS
330
C
102
}
330
C
100
AcDbDictionary
281
     1
  3
Model
350
60
  3
ﾚｲｱｳﾄ1
350
61
  0
DICTIONARY
  5
606
102
{ACAD_REACTORS
330
C
102
}
330
C
100
AcDbDictionary
281
     1
  0
DICTIONARY
  5
1B
102
{ACAD_REACTORS
330
C
102
}
330
C
100
AcDbDictionary
281
     1
  3
STANDARD
350
1C
  0
DICTIONARY
  5
5F
102
{ACAD_REACTORS
330
C
102
}
330
C
100
AcDbDictionary
281
     1
  0
ACDBDICTIONARYWDFLT
  5
5C
102
{ACAD_REACTORS
330
C
102
}
330
C
100
AcDbDictionary
281
     1
  3
Normal
350
5D
100
AcDbDictionaryWithDefault
340
5D
1001
ACAD
1000
TREAT_AS_HARD
1070
     0
  0
DICTIONARY
  5
1494
102
{ACAD_REACTORS
330
C
102
}
330
C
100
AcDbDictionary
281
     1
  3
Standard
350
1495
  0
DICTIONARY
  5
1865
102
{ACAD_REACTORS
330
C
102
}
330
C
100
AcDbDictionary
281
     1
  0
DICTIONARY
  5
14E2
102
{ACAD_REACTORS
330
C
102
}
330
C
100
AcDbDictionary
281
     1
  3
CTABLESTYLE
350
14E3
  3
DIMASSOC
350
1509
  3
PROJECTNAME
350
150A
  0
DICTIONARY
  5
680
102
{ACAD_REACTORS
330
C
102
}
330
C
100
AcDbDictionary
281
     1
  3
AcmStdDictionary
350
68A
  3
AMDTSECTSYM_ARROWCOLOR
350
14AD
  0
DICTIONARY
  5
60D
102
{ACAD_REACTORS
330
C
102
}
330
C
100
AcDbDictionary
281
     1
  0
DICTIONARY
  5
70E
102
{ACAD_REACTORS
330
C
102
}
330
C
100
AcDbDictionary
281
     1
  0
DICTIONARY
  5
598
102
{ACAD_REACTORS
330
C
102
}
330
C
100
AcDbDictionary
281
     1
  3
XREC1
350
599
  0
XRECORD
  5
5E5
102
{ACAD_REACTORS
330
5E4
102
}
330
5E4
100
AcDbXrecord
280
     1
340
18
  0
XRECORD
  5
5E3
102
{ACAD_REACTORS
330
5E2
102
}
330
5E2
100
AcDbXrecord
280
     1
340
15
  0
LAYOUT
  5
60
102
{ACAD_XDICTIONARY
360
1866
102
}
102
{ACAD_REACTORS
330
5E
102
}
330
5E
100
AcDbPlotSettings
  1

  2
BT8050.pc3
  4
A4_(297.00_x_210.00_MM)
  6

 40
0.7937499880790711
 41
0.7937499880790711
 42
0.79376220703125
 43
0.7937469482421875
 44
297.0
 45
210.0
 46
6.769999999999999
 47
19.11
 48
0.0
 49
0.0
140
0.0
141
0.0
142
1.0
143
2.7
 70
 11940
 72
     1
 73
     0
 74
     1
  7
kuroda-monochrome.ctb
 75
     0
147
0.3703703703703703
148
63.57750660751299
149
187.8591082855128
100
AcDbLayout
  1
Model
 70
     1
 71
     0
 10
0.0
 20
0.0
 11
12.0
 21
9.0
 12
0.0
 22
0.0
 32
0.0
 14
0.0
 24
0.0
 34
0.0
 15
0.0
 25
0.0
 35
0.0
146
0.0
 13
0.0
 23
0.0
 33
0.0
 16
1.0
 26
0.0
 36
0.0
 17
0.0
 27
1.0
 37
0.0
 76
     0
330
18
  0
LAYOUT
  5
61
102
{ACAD_XDICTIONARY
360
1868
102
}
102
{ACAD_REACTORS
330
5E
102
}
330
5E
100
AcDbPlotSettings
  1

  2
\\BLUEWAVE2\EPSON LP-9200SX
  4

  6

 40
0.0
 41
0.0
 42
0.0
 43
0.0
 44
0.0
 45
0.0
 46
0.0
 47
0.0
 48
0.0
 49
0.0
140
0.0
141
0.0
142
1.0
143
1.0
 70
   688
 72
     0
 73
     0
 74
     5
  7
kuroda-monochrome.ctb
 75
    16
147
1.0
148
0.0
149
0.0
100
AcDbLayout
  1
ﾚｲｱｳﾄ1
 70
     1
 71
     1
 10
0.0
 20
0.0
 11
420.0
 21
297.0
 12
0.0
 22
0.0
 32
0.0
 14
1.000000000000000E+20
 24
1.000000000000000E+20
 34
1.000000000000000E+20
 15
-1.000000000000000E+20
 25
-1.000000000000000E+20
 35
-1.000000000000000E+20
146
0.0
 13
0.0
 23
0.0
 33
0.0
 16
1.0
 26
0.0
 36
0.0
 17
0.0
 27
1.0
 37
0.0
 76
     0
330
15
  0
MLINESTYLE
  5
1C
102
{ACAD_REACTORS
330
1B
102
}
330
1B
100
AcDbMlineStyle
  2
STANDARD
 70
     0
  3

 62
   256
 51
90.0
 52
90.0
 71
     2
 49
0.5
 62
   256
  6
BYLAYER
 49
-0.5
 62
   256
  6
BYLAYER
  0
ACDBPLACEHOLDER
  5
5D
102
{ACAD_REACTORS
330
5C
102
}
330
5C
  0
TABLESTYLE
  5
1495
102
{ACAD_REACTORS
330
1494
102
}
330
1494
100
AcDbTableStyle
  3
Standard
 70
     0
 71
     0
 40
1.5
 41
1.5
280
     0
281
     0
  7
STANDARD
140
4.5
170
     2
 62
     0
 63
     7
283
     0
274
    -2
284
     1
 64
     0
275
    -2
285
     1
 65
     0
276
    -2
286
     1
 66
     0
277
    -2
287
     1
 67
     0
278
    -2
288
     1
 68
     0
279
    -2
289
     1
 69
     0
  7
STANDARD
140
6.0
170
     5
 62
     0
 63
     7
283
     0
274
    -2
284
     1
 64
     0
275
    -2
285
     1
 65
     0
276
    -2
286
     1
 66
     0
277
    -2
287
     1
 67
     0
278
    -2
288
     1
 68
     0
279
    -2
289
     1
 69
     0
  7
STANDARD
140
4.5
170
     5
 62
     0
 63
     7
283
     0
274
    -2
284
     1
 64
     0
275
    -2
285
     1
 65
     0
276
    -2
286
     1
 66
     0
277
    -2
287
     1
 67
     0
278
    -2
288
     1
 68
     0
279
    -2
289
     1
 69
     0
  0
DICTIONARYVAR
  5
14E3
102
{ACAD_REACTORS
330
14E2
102
}
330
14E2
100
DictionaryVariables
280
     0
  1
STANDARD
  0
DICTIONARYVAR
  5
1509
102
{ACAD_REACTORS
330
14E2
102
}
330
14E2
100
DictionaryVariables
280
     0
  1
1
  0
DICTIONARYVAR
  5
150A
102
{ACAD_REACTORS
330
14E2
102
}
330
14E2
100
DictionaryVariables
280
     0
  1

  0
DICTIONARY
  5
68A
102
{ACAD_REACTORS
330
680
102
}
330
680
100
AcDbDictionary
281
     1
  0
XRECORD
  5
14AD
102
{ACAD_REACTORS
330
680
102
}
330
680
100
AcDbXrecord
280
     1
 90
-1023410169
  0
XRECORD
  5
599
102
{ACAD_REACTORS
330
598
102
}
330
598
100
AcDbXrecord
280
     1
  1
PV
 40
1.0
 50
0.0
 51
0.0
 52
0.0
 53
0.0
  0
DICTIONARY
  5
1866
330
60
100
AcDbDictionary
280
     1
281
     1
  3
ACAD_XREC_ROUNDTRIP
360
1867
  0
DICTIONARY
  5
1868
330
61
100
AcDbDictionary
280
     1
281
     1
  3
ACAD_XREC_ROUNDTRIP
360
1869
  0
XRECORD
  5
1867
102
{ACAD_REACTORS
330
1866
102
}
330
1866
100
AcDbXrecord
280
     1
102
SHADEPLOT
 70
     0
102
SHADEPLOTRESLEVEL
 70
     2
102
SHADEPLOTCUSTOMDPI
 70
   200
  0
XRECORD
  5
1869
102
{ACAD_REACTORS
330
1868
102
}
330
1868
100
AcDbXrecord
280
     1
102
SHADEPLOT
 70
     0
102
SHADEPLOTRESLEVEL
 70
     2
102
SHADEPLOTCUSTOMDPI
 70
   300
  0
ENDSEC
  0
EOF
