  0
SECTION
  2
HEADER
  9
$ACADVER
  1
AC1015
  9
$ACADMAINTVER
 70
    20
  9
$DWGCODEPAGE
  3
ANSI_932
  9
$INSBASE
 10
0.0
 20
0.0
 30
0.0
  9
$EXTMIN
 10
0.0
 20
-1131.0
 30
0.0
  9
$EXTMAX
 10
1481.0
 20
20.0
 30
0.0
  9
$LIMMIN
 10
0.0
 20
0.0
  9
$LIMMAX
 10
0.0
 20
0.0
  9
$ORTHOMODE
 70
     0
  9
$REGENMODE
 70
     1
  9
$FILLMODE
 70
     1
  9
$QTEXTMODE
 70
     0
  9
$MIRRTEXT
 70
     1
  9
$LTSCALE
 40
1.0
  9
$ATTMODE
 70
     1
  9
$TEXTSIZE
 40
2.5
  9
$TRACEWID
 40
1.0
  9
$TEXTSTYLE
  7
CONVERT
  9
$CLAYER
  8
0
  9
$CELTYPE
  6
BYLAYER
  9
$CECOLOR
 62
   256
  9
$CELTSCALE
 40
1.0
  9
$DISPSILH
 70
     0
  9
$DIMSCALE
 40
1.0
  9
$DIMASZ
 40
3.0
  9
$DIMEXO
 40
1.0
  9
$DIMDLI
 40
7.0
  9
$DIMRND
 40
0.0
  9
$DIMDLE
 40
0.0
  9
$DIMEXE
 40
2.0
  9
$DIMTP
 40
0.0
  9
$DIMTM
 40
0.0
  9
$DIMTXT
 40
2.799999999999999
  9
$DIMCEN
 40
0.0
  9
$DIMTSZ
 40
0.0
  9
$DIMTOL
 70
     0
  9
$DIMLIM
 70
     0
  9
$DIMTIH
 70
     0
  9
$DIMTOH
 70
     0
  9
$DIMSE1
 70
     0
  9
$DIMSE2
 70
     0
  9
$DIMTAD
 70
     1
  9
$DIMZIN
 70
     0
  9
$DIMBLK
  1

  9
$DIMASO
 70
     1
  9
$DIMSHO
 70
     1
  9
$DIMPOST
  1

  9
$DIMAPOST
  1

  9
$DIMALT
 70
     0
  9
$DIMALTD
 70
     4
  9
$DIMALTF
 40
0.0394
  9
$DIMLFAC
 40
1.0
  9
$DIMTOFL
 70
     1
  9
$DIMTVP
 40
0.0
  9
$DIMTIX
 70
     0
  9
$DIMSOXD
 70
     0
  9
$DIMSAH
 70
     1
  9
$DIMBLK1
  1
Open30
  9
$DIMBLK2
  1
Open30
  9
$DIMSTYLE
  2
STANDARD
  9
$DIMCLRD
 70
    44
  9
$DIMCLRE
 70
    44
  9
$DIMCLRT
 70
    44
  9
$DIMTFAC
 40
1.0
  9
$DIMGAP
 40
0.7
  9
$DIMJUST
 70
     0
  9
$DIMSD1
 70
     0
  9
$DIMSD2
 70
     0
  9
$DIMTOLJ
 70
     1
  9
$DIMTZIN
 70
     0
  9
$DIMALTZ
 70
     0
  9
$DIMALTTZ
 70
     0
  9
$DIMUPT
 70
     0
  9
$DIMDEC
 70
     3
  9
$DIMTDEC
 70
     3
  9
$DIMALTU
 70
     8
  9
$DIMALTTD
 70
     4
  9
$DIMTXSTY
  7
STANDARD
  9
$DIMAUNIT
 70
     0
  9
$DIMADEC
 70
     0
  9
$DIMALTRND
 40
0.0
  9
$DIMAZIN
 70
     0
  9
$DIMDSEP
 70
    46
  9
$DIMATFIT
 70
     0
  9
$DIMFRAC
 70
     0
  9
$DIMLDRBLK
  1
Open30
  9
$DIMLUNIT
 70
     2
  9
$DIMLWD
 70
    -2
  9
$DIMLWE
 70
    -2
  9
$DIMTMOVE
 70
     0
  9
$LUNITS
 70
     2
  9
$LUPREC
 70
     4
  9
$SKETCHINC
 40
1.0
  9
$FILLETRAD
 40
10.0
  9
$AUNITS
 70
     0
  9
$AUPREC
 70
     0
  9
$MENU
  1
.
  9
$ELEVATION
 40
0.0
  9
$PELEVATION
 40
0.0
  9
$THICKNESS
 40
0.0
  9
$LIMCHECK
 70
     0
  9
$CHAMFERA
 40
10.0
  9
$CHAMFERB
 40
10.0
  9
$CHAMFERC
 40
20.0
  9
$CHAMFERD
 40
0.0
  9
$SKPOLY
 70
     0
  9
$TDCREATE
 40
2451067.751276933
  9
$TDUCREATE
 40
2451067.376276933
  9
$TDUPDATE
 40
2454174.427518762
  9
$TDUUPDATE
 40
2454174.052518762
  9
$TDINDWG
 40
0.0659751505
  9
$TDUSRTIMER
 40
0.0659751505
  9
$USRTIMER
 70
     1
  9
$ANGBASE
 50
0.0
  9
$ANGDIR
 70
     0
  9
$PDMODE
 70
     1
  9
$PDSIZE
 40
0.0
  9
$PLINEWID
 40
0.0
  9
$SPLFRAME
 70
     0
  9
$SPLINETYPE
 70
     6
  9
$SPLINESEGS
 70
     8
  9
$HANDSEED
  5
FA6
  9
$SURFTAB1
 70
     6
  9
$SURFTAB2
 70
     6
  9
$SURFTYPE
 70
     6
  9
$SURFU
 70
     6
  9
$SURFV
 70
     6
  9
$UCSBASE
  2

  9
$UCSNAME
  2

  9
$UCSORG
 10
0.0
 20
0.0
 30
0.0
  9
$UCSXDIR
 10
1.0
 20
0.0
 30
0.0
  9
$UCSYDIR
 10
0.0
 20
1.0
 30
0.0
  9
$UCSORTHOREF
  2

  9
$UCSORTHOVIEW
 70
     0
  9
$UCSORGTOP
 10
0.0
 20
0.0
 30
0.0
  9
$UCSORGBOTTOM
 10
0.0
 20
0.0
 30
0.0
  9
$UCSORGLEFT
 10
0.0
 20
0.0
 30
0.0
  9
$UCSORGRIGHT
 10
0.0
 20
0.0
 30
0.0
  9
$UCSORGFRONT
 10
0.0
 20
0.0
 30
0.0
  9
$UCSORGBACK
 10
0.0
 20
0.0
 30
0.0
  9
$PUCSBASE
  2

  9
$PUCSNAME
  2

  9
$PUCSORG
 10
0.0
 20
0.0
 30
0.0
  9
$PUCSXDIR
 10
1.0
 20
0.0
 30
0.0
  9
$PUCSYDIR
 10
0.0
 20
1.0
 30
0.0
  9
$PUCSORTHOREF
  2

  9
$PUCSORTHOVIEW
 70
     0
  9
$PUCSORGTOP
 10
0.0
 20
0.0
 30
0.0
  9
$PUCSORGBOTTOM
 10
0.0
 20
0.0
 30
0.0
  9
$PUCSORGLEFT
 10
0.0
 20
0.0
 30
0.0
  9
$PUCSORGRIGHT
 10
0.0
 20
0.0
 30
0.0
  9
$PUCSORGFRONT
 10
0.0
 20
0.0
 30
0.0
  9
$PUCSORGBACK
 10
0.0
 20
0.0
 30
0.0
  9
$USERI1
 70
     0
  9
$USERI2
 70
     0
  9
$USERI3
 70
     0
  9
$USERI4
 70
     0
  9
$USERI5
 70
     0
  9
$USERR1
 40
0.0
  9
$USERR2
 40
0.0
  9
$USERR3
 40
0.0
  9
$USERR4
 40
0.0
  9
$USERR5
 40
0.0
  9
$WORLDVIEW
 70
     1
  9
$SHADEDGE
 70
     3
  9
$SHADEDIF
 70
    70
  9
$TILEMODE
 70
     1
  9
$MAXACTVP
 70
    48
  9
$PINSBASE
 10
0.0
 20
0.0
 30
0.0
  9
$PLIMCHECK
 70
     0
  9
$PEXTMIN
 10
1.000000000000000E+20
 20
1.000000000000000E+20
 30
1.000000000000000E+20
  9
$PEXTMAX
 10
-1.000000000000000E+20
 20
-1.000000000000000E+20
 30
-1.000000000000000E+20
  9
$PLIMMIN
 10
0.0
 20
0.0
  9
$PLIMMAX
 10
420.0
 20
297.0
  9
$UNITMODE
 70
     0
  9
$VISRETAIN
 70
     1
  9
$PLINEGEN
 70
     0
  9
$PSLTSCALE
 70
     1
  9
$TREEDEPTH
 70
  3020
  9
$CMLSTYLE
  2
STANDARD
  9
$CMLJUST
 70
     0
  9
$CMLSCALE
 40
20.0
  9
$PROXYGRAPHICS
 70
     1
  9
$MEASUREMENT
 70
     1
  9
$CELWEIGHT
370
    -1
  9
$ENDCAPS
280
     0
  9
$JOINSTYLE
280
     0
  9
$LWDISPLAY
290
     0
  9
$INSUNITS
 70
     0
  9
$HYPERLINKBASE
  1

  9
$STYLESHEET
  1
kuroda-monochrome.ctb
  9
$XEDIT
290
     1
  9
$CEPSNTYPE
380
     0
  9
$PSTYLEMODE
290
     1
  9
$FINGERPRINTGUID
  2
{881B1582-4BC7-11D3-AB9D-00805F8B7187}
  9
$VERSIONGUID
  2
{D8DBA35F-BABA-409C-AAFC-7F7CC4C4D986}
  9
$EXTNAMES
290
     1
  9
$PSVPSCALE
 40
0.0
  9
$OLESTARTUP
290
     0
  0
ENDSEC
  0
SECTION
  2
CLASSES
  0
CLASS
  1
ACDBDICTIONARYWDFLT
  2
AcDbDictionaryWithDefault
  3
ObjectDBX Classes
 90
        0
280
     0
281
     0
  0
CLASS
  1
ACDBPLACEHOLDER
  2
AcDbPlaceHolder
  3
ObjectDBX Classes
 90
        0
280
     0
281
     0
  0
CLASS
  1
LAYOUT
  2
AcDbLayout
  3
ObjectDBX Classes
 90
        0
280
     0
281
     0
  0
CLASS
  1
ACME_DOCUMENT
  2
AcMeDbDoc
  3
AcMeServices
 90
        0
280
     0
281
     0
  0
CLASS
  1
AMGSETTINGSOBJ
  2
AmgSettingsObj
  3
"AcadM|Product Description: AutoCAD Mechanical 2000|Company: Autodesk"
 90
        0
280
     0
281
     0
  0
CLASS
  1
AMGOBJPROPCFG
  2
AmgObjPropCfg
  3
"AmgLay|Product Description: AutoCAD Mechanical 2000|Company: Autodesk"
 90
        1
280
     0
281
     0
  0
CLASS
  1
ACMESCOPE
  2
AcMeScope
  3
AcMeServices
 90
        0
280
     0
281
     0
  0
CLASS
  1
ACMECOMMANDHISTORY
  2
AcMeCommandHistory
  3
AcMeServices
 90
        0
280
     0
281
     0
  0
CLASS
  1
ACIMSYSVARMAN
  2
AcImSysVarManager
  3
AcMeServices
 90
        0
280
     0
281
     0
  0
CLASS
  1
ACIMINTSYSVAR
  2
AcImIntSysVar
  3
AcMeServices
 90
        0
280
     0
281
     0
  0
CLASS
  1
ACMEDRAWINGMAN
  2
AcMeDrawingMan
  3
AcMeServices
 90
        0
280
     0
281
     0
  0
CLASS
  1
ACMEVIEW
  2
AcMeView
  3
AcMeServices
 90
        0
280
     0
281
     0
  0
CLASS
  1
ACDBENTITYCACHE
  2
AcMeEntityCache
  3
AcMeServices
 90
        0
280
     0
281
     0
  0
CLASS
  1
GSMANAGER
  2
AcMeGSManager
  3
AcMeServices
 90
        0
280
     0
281
     0
  0
CLASS
  1
AMDTINTERNALREACTOR
  2
AmdtInternalReactor
  3
AcMeServices
 90
        0
280
     0
281
     0
  0
CLASS
  1
ACMESTATEMGR
  2
AcMeStateMgr
  3
AcMeServices
 90
        0
280
     0
281
     0
  0
CLASS
  1
ACGREFMASTER
  2
AcGrefMaster
  3
AcAttribServices
 90
        0
280
     0
281
     0
  0
CLASS
  1
AM_DRAWING_MGR
  2
AcDmDwgMgr
  3
AcMechDwgViewMgmt
 90
        0
280
     0
281
     0
  0
CLASS
  1
AM_DWG_DOCUMENT
  2
AcDmDwgDocument
  3
AcMechDwgViewMgmt
 90
        0
280
     0
281
     0
  0
CLASS
  1
AM_DWG_SHEET
  2
AcDmSheet
  3
AcMechDwgViewMgmt
 90
        0
280
     0
281
     0
  0
CLASS
  1
AM_VIEWDIMPARMAP
  2
AcDmViewDimParMap
  3
AcMechDwgViewMgmt
 90
        0
280
     0
281
     0
  0
CLASS
  1
ACIMREALSYSVAR
  2
AcImRealSysVar
  3
AcMeServices
 90
        0
280
     0
281
     0
  0
CLASS
  1
AM_DWGMGR_NAME
  2
AcDmDwgMgrName
  3
AcMechDwgViewMgmt
 90
        0
280
     0
281
     0
  0
CLASS
  1
ACME_DATABASE
  2
AcMeDbDatabase
  3
AcMeServices
 90
        0
280
     0
281
     0
  0
CLASS
  1
ACRFINSADJUSTERMGR
  2
AcRfInsAdjusterMgr
  3
AcMeServices
 90
        0
280
     0
281
     0
  0
CLASS
  1
ACGREFACADMASTER
  2
AcGrefacadMaster
  3
AcGrefServices
 90
        0
280
     0
281
     0
  0
CLASS
  1
AMDTMENUSTATEMGR
  2
AmdtMenuStateMgr
  3
McadcomServices
 90
        0
280
     0
281
     0
  0
CLASS
  1
AMDTMCOMMENUSTATE
  2
AmdtMcomMenuState
  3
McadcomServices
 90
        0
280
     0
281
     0
  0
CLASS
  1
AMIMASTER
  2
AmiMaster
  3
AmiServices
 90
        0
280
     0
281
     0
  0
CLASS
  1
MAPIAMMOUDLE
  2
MApiAmModule
  3
MApiAmServices
 90
        0
280
     0
281
     0
  0
CLASS
  1
AMDTADMENUSTATE
  2
AmdtAdMenuState
  3
DesignerServices
 90
        0
280
     0
281
     0
  0
CLASS
  1
ADAPPL
  2
AcAdAppl
  3
DesignerServices
 90
        0
280
     0
281
     0
  0
CLASS
  1
DEPMGR
  2
AcAdDepMgr
  3
DesignerServices
 90
        0
280
     0
281
     0
  0
CLASS
  1
PARAMMGR
  2
AcAdParamMgr
  3
DesignerServices
 90
        0
280
     0
281
     0
  0
CLASS
  1
PARAMSCOPE
  2
AcAdParamScope
  3
DesignerServices
 90
        0
280
     0
281
     0
  0
CLASS
  1
NAMEDAPPL
  2
AcAdNamedAppl
  3
DesignerServices
 90
        0
280
     0
281
     0
  0
CLASS
  1
AMDTDMMENUSTATE
  2
AmdtDmMenuState
  3
AcMechDwgViewMgmt
 90
        0
280
     0
281
     0
  0
CLASS
  1
AMDTAMMENUSTATE
  2
AmdtAmMenuState
  3
DesignerAssemblies
 90
        0
280
     0
281
     0
  0
CLASS
  1
ACIMSTRSYSVAR
  2
AcImStrSysVar
  3
AcMeServices
 90
        0
280
     0
281
     0
  0
CLASS
  1
ACAMPROJECT
  2
AcAmProject
  3
DesignerAssemblies
 90
        0
280
     0
281
     0
  0
CLASS
  1
ACAMGRCOMPDEF
  2
AcAmGrCompDef
  3
DesignerAssemblies
 90
        0
280
     0
281
     0
  0
CLASS
  1
ACCMCONTEXT
  2
AcCmContext
  3
DesignerAssemblies
 90
        0
280
     0
281
     0
  0
CLASS
  1
ACAMCOMPDEF
  2
AcAmCompDef
  3
DesignerAssemblies
 90
        0
280
     0
281
     0
  0
CLASS
  1
ACAMCOMPDEFMGR
  2
AcAmCompDefMgr
  3
DesignerAssemblies
 90
        0
280
     0
281
     0
  0
CLASS
  1
AMCONTEXTMGR
  2
AcAmContextMgr
  3
DesignerAssemblies
 90
        0
280
     0
281
     0
  0
CLASS
  1
ACAMCONTEXTMODELER
  2
AcAmContextModeler
  3
DesignerAssemblies
 90
        0
280
     0
281
     0
  0
CLASS
  1
ACMDATADICTIONARY
  2
AcmDataDictionary
  3
"AcmSymBB|Product Description: AutoCAD Mechanical 2004 DX|Company: Autodesk"
 90
        0
280
     0
281
     0
  0
CLASS
  1
CATALOGSTATE
  2
AcAmCatalogState
  3
DesignerAssemblies
 90
        0
280
     0
281
     0
  0
CLASS
  1
ACAMGRCOMPDEFSET
  2
AcAmGrCompDefSet
  3
DesignerAssemblies
 90
        0
280
     0
281
     0
  0
CLASS
  1
AMDTBROWSERDBTAB
  2
AmdtBrowserDbTab
  3
McadcomServices
 90
        0
280
     0
281
     0
  0
CLASS
  1
CBROWSERAPPOBJECT
  2
CBrowserAppObject
  3
McadcomServices
 90
        0
280
     0
281
     0
  0
CLASS
  1
DM_PLACEHOLDER
  2
AcDmSelsetPlaceholder
  3
AcMechDwgViewMgmt
 90
        0
280
     0
281
     0
  0
CLASS
  1
ACMSTANDARDANSI
  2
AcmStandardANSI
  3
"Amdt_StdImp|Product Description: AutoCAD Mechanical 2004 DX|Company: Autodesk"
 90
        0
280
     0
281
     0
  0
CLASS
  1
ACMSURFSTANDARDANSI
  2
AcmSurfTextStdANSI
  3
"Amdt_StdImp|Product Description: AutoCAD Mechanical 2004 DX|Company: Autodesk"
 90
        0
280
     0
281
     0
  0
CLASS
  1
ACMFCFSTANDARDANSI
  2
AcmFCFStdANSI
  3
"Amdt_StdImp|Product Description: AutoCAD Mechanical 2004 DX|Company: Autodesk"
 90
        0
280
     0
281
     0
  0
CLASS
  1
ACMWELDSTANDARDANSI
  2
AcmWeldingStdANSI
  3
"Amdt_StdImp|Product Description: AutoCAD Mechanical 2004 DX|Company: Autodesk"
 90
        0
280
     0
281
     0
  0
CLASS
  1
ACMIDSTANDARDANSI
  2
AcmIdStdANSI
  3
"Amdt_StdImp|Product Description: AutoCAD Mechanical 2004 DX|Company: Autodesk"
 90
        0
280
     0
281
     0
  0
CLASS
  1
ACMDATUMSTANDARDANSI
  2
AcmDatumStdANSI
  3
"Amdt_StdImp|Product Description: AutoCAD Mechanical 2004 DX|Company: Autodesk"
 90
        0
280
     0
281
     0
  0
CLASS
  1
ACMBOMSTANDARDANSI
  2
AcmBOMStdANSI
  3
"Amdt_StdImp|Product Description: AutoCAD Mechanical 2004 DX|Company: Autodesk"
 90
        0
280
     0
281
     0
  0
CLASS
  1
ACMDETAILSTANDARDANSI
  2
AmdtDetailSymStdANSI
  3
"Amdt_StdImp|Product Description: AutoCAD Mechanical 2004 DX|Company: Autodesk"
 90
        0
280
     0
281
     0
  0
CLASS
  1
ACMSECTIONSTANDARDANSI
  2
AmdtSectionSymStdANSI
  3
"Amdt_StdImp|Product Description: AutoCAD Mechanical 2004 DX|Company: Autodesk"
 90
        0
280
     0
281
     0
  0
CLASS
  1
ACMCENTERLINESTANDARDANSI
  2
AmdtCenterLineStdANSI
  3
"Amdt_StdImp|Product Description: AutoCAD Mechanical 2004 DX|Company: Autodesk"
 90
        0
280
     0
281
     0
  0
CLASS
  1
ACAMGLAYSTD
  2
AcAmgLayStd
  3
"AcAmgLayStd|Product Description: AutoCAD Mechanical 2000|Company: Autodesk"
 90
        0
280
     0
281
     0
  0
CLASS
  1
ACAMGDIMSTD
  2
AcAmgDimStd
  3
"AcAmgDimStd|Product Description: AutoCAD Mechanical 2000|Company: Autodesk"
 90
        0
280
     0
281
     0
  0
CLASS
  1
ACAMGTITLESTD
  2
AcAmgTitleStd
  3
"TITLEAPP"
 90
        0
280
     0
281
     0
  0
CLASS
  1
ACMNOTESTANDARDANSI
  2
AmdtNoteStdANSI
  3
"Amdt_StdImp|Product Description: AutoCAD Mechanical 2004 DX|Company: Autodesk"
 90
        0
280
     0
281
     0
  0
CLASS
  1
ACMTHREADLINESTANDARDANSI
  2
AmdtThreadLineStdANSI
  3
"Amdt_StdImp|Product Description: AutoCAD Mechanical 2004 DX|Company: Autodesk"
 90
        0
280
     0
281
     0
  0
CLASS
  1
ACMSTANDARDISO
  2
AcmStandardISO
  3
"Amdt_StdImp|Product Description: AutoCAD Mechanical 2004 DX|Company: Autodesk"
 90
        0
280
     0
281
     0
  0
CLASS
  1
AMDTEDGESTANDARDISO
  2
AmdtEdgeStdISO
  3
"Amdt_StdImp|Product Description: AutoCAD Mechanical 2004 DX|Company: Autodesk"
 90
        0
280
     0
281
     0
  0
CLASS
  1
ACMSURFSTANDARDISO
  2
AcmSurfTextStdISO
  3
"Amdt_StdImp|Product Description: AutoCAD Mechanical 2004 DX|Company: Autodesk"
 90
        0
280
     0
281
     0
  0
CLASS
  1
ACMFCFSTANDARDISO
  2
AcmFCFStdISO
  3
"Amdt_StdImp|Product Description: AutoCAD Mechanical 2004 DX|Company: Autodesk"
 90
        0
280
     0
281
     0
  0
CLASS
  1
ACMWELDSTANDARDISO
  2
AcmWeldingStdISO
  3
"Amdt_StdImp|Product Description: AutoCAD Mechanical 2004 DX|Company: Autodesk"
 90
        0
280
     0
281
     0
  0
CLASS
  1
ACMIDSTANDARDISO
  2
AcmIdStdISO
  3
"Amdt_StdImp|Product Description: AutoCAD Mechanical 2004 DX|Company: Autodesk"
 90
        0
280
     0
281
     0
  0
CLASS
  1
ACMDATUMSTANDARDISO
  2
AcmDatumStdISO
  3
"Amdt_StdImp|Product Description: AutoCAD Mechanical 2004 DX|Company: Autodesk"
 90
        0
280
     0
281
     0
  0
CLASS
  1
ACMBOMSTANDARDISO
  2
AcmBOMStdISO
  3
"Amdt_StdImp|Product Description: AutoCAD Mechanical 2004 DX|Company: Autodesk"
 90
        0
280
     0
281
     0
  0
CLASS
  1
ACMDETAILSTANDARDISO
  2
AmdtDetailSymStdISO
  3
"Amdt_StdImp|Product Description: AutoCAD Mechanical 2004 DX|Company: Autodesk"
 90
        0
280
     0
281
     0
  0
CLASS
  1
ACMSECTIONSTANDARDISO
  2
AmdtSectionSymStdISO
  3
"Amdt_StdImp|Product Description: AutoCAD Mechanical 2004 DX|Company: Autodesk"
 90
        0
280
     0
281
     0
  0
CLASS
  1
ACMCENTERLINESTANDARDISO
  2
AmdtCenterLineStdISO
  3
"Amdt_StdImp|Product Description: AutoCAD Mechanical 2004 DX|Company: Autodesk"
 90
        0
280
     0
281
     0
  0
CLASS
  1
ACMNOTESTANDARDISO
  2
AmdtNoteStdISO
  3
"Amdt_StdImp|Product Description: AutoCAD Mechanical 2004 DX|Company: Autodesk"
 90
        0
280
     0
281
     0
  0
CLASS
  1
ACMTHREADLINESTANDARDISO
  2
AmdtThreadLineStdISO
  3
"Amdt_StdImp|Product Description: AutoCAD Mechanical 2004 DX|Company: Autodesk"
 90
        0
280
     0
281
     0
  0
CLASS
  1
ACMSTANDARDJIS
  2
AcmStandardJIS
  3
"Amdt_StdImp|Product Description: AutoCAD Mechanical 2004 DX|Company: Autodesk"
 90
        0
280
     0
281
     0
  0
CLASS
  1
ACMSURFSTANDARDJIS
  2
AcmSurfTextStdJIS
  3
"Amdt_StdImp|Product Description: AutoCAD Mechanical 2004 DX|Company: Autodesk"
 90
        0
280
     0
281
     0
  0
CLASS
  1
ACMFCFSTANDARDJIS
  2
AcmFCFStdJIS
  3
"Amdt_StdImp|Product Description: AutoCAD Mechanical 2004 DX|Company: Autodesk"
 90
        0
280
     0
281
     0
  0
CLASS
  1
ACMWELDSTANDARDJIS
  2
AcmWeldingStdJIS
  3
"Amdt_StdImp|Product Description: AutoCAD Mechanical 2004 DX|Company: Autodesk"
 90
        0
280
     0
281
     0
  0
CLASS
  1
ACMIDSTANDARDJIS
  2
AcmIdStdJIS
  3
"Amdt_StdImp|Product Description: AutoCAD Mechanical 2004 DX|Company: Autodesk"
 90
        0
280
     0
281
     0
  0
CLASS
  1
ACMDATUMSTANDARDJIS
  2
AcmDatumStdJIS
  3
"Amdt_StdImp|Product Description: AutoCAD Mechanical 2004 DX|Company: Autodesk"
 90
        0
280
     0
281
     0
  0
CLASS
  1
ACMBOMSTANDARDJIS
  2
AcmBOMStdJIS
  3
"Amdt_StdImp|Product Description: AutoCAD Mechanical 2004 DX|Company: Autodesk"
 90
        0
280
     0
281
     0
  0
CLASS
  1
ACMDETAILSTANDARDJIS
  2
AmdtDetailSymStdJIS
  3
"Amdt_StdImp|Product Description: AutoCAD Mechanical 2004 DX|Company: Autodesk"
 90
        0
280
     0
281
     0
  0
CLASS
  1
ACMSECTIONSTANDARDJIS
  2
AmdtSectionSymStdJIS
  3
"Amdt_StdImp|Product Description: AutoCAD Mechanical 2004 DX|Company: Autodesk"
 90
        0
280
     0
281
     0
  0
CLASS
  1
ACMCENTERLINESTANDARDJIS
  2
AmdtCenterLineStdJIS
  3
"Amdt_StdImp|Product Description: AutoCAD Mechanical 2004 DX|Company: Autodesk"
 90
        0
280
     0
281
     0
  0
CLASS
  1
ACMTHREADLINESTANDARDJIS
  2
AmdtThreadLineStdJIS
  3
"Amdt_StdImp|Product Description: AutoCAD Mechanical 2004 DX|Company: Autodesk"
 90
        0
280
     0
281
     0
  0
CLASS
  1
ACMNOTESTANDARDJIS
  2
AmdtNoteStdJIS
  3
"Amdt_StdImp|Product Description: AutoCAD Mechanical 2004 DX|Company: Autodesk"
 90
        0
280
     0
281
     0
  0
CLASS
  1
ACAMGFILTERDAT
  2
AcAmgFilterDat
  3
"AcadM|Product Description: AutoCAD Mechanical 2000|Company: Autodesk"
 90
    32768
280
     0
281
     0
  0
CLASS
  1
LAYER_INDEX
  2
AcDbLayerIndex
  3
ObjectDBX Classes
 90
    32768
280
     0
281
     0
  0
CLASS
  1
IDBUFFER
  2
AcDbIdBuffer
  3
ObjectDBX Classes
 90
    32768
280
     0
281
     0
  0
CLASS
  1
TABLESTYLE
  2
AcDbTableStyle
  3
ObjectDBX Classes
 90
     2047
280
     0
281
     0
  0
CLASS
  1
DICTIONARYVAR
  2
AcDbDictionaryVar
  3
ObjectDBX Classes
 90
        0
280
     0
281
     0
  0
ENDSEC
  0
SECTION
  2
TABLES
  0
TABLE
  2
VPORT
  5
8
330
0
100
AcDbSymbolTable
 70
     3
  0
VPORT
  5
FA0
330
8
100
AcDbSymbolTableRecord
100
AcDbViewportTableRecord
  2
*Active
 70
     0
 10
0.0
 20
0.0
 11
1.0
 21
1.0
 12
783.8865548270846
 22
-555.4955928682475
 13
0.0
 23
0.0
 14
10.0
 24
10.0
 15
10.0
 25
10.0
 16
0.0
 26
0.0
 36
1.0
 17
0.0
 27
0.0
 37
0.0
 40
1226.05446985956
 41
1.285904255319148
 42
50.0
 43
0.0
 44
0.0
 50
0.0
 51
0.0
 71
     0
 72
   100
 73
     1
 74
     1
 75
     0
 76
     0
 77
     0
 78
     0
281
     0
 65
     1
110
0.0
120
0.0
130
0.0
111
1.0
121
0.0
131
0.0
112
0.0
122
1.0
132
0.0
 79
     0
146
0.0
  0
ENDTAB
  0
TABLE
  2
LTYPE
  5
5
330
0
100
AcDbSymbolTable
 70
    22
  0
LTYPE
  5
12
330
5
100
AcDbSymbolTableRecord
100
AcDbLinetypeTableRecord
  2
BYBLOCK
 70
     0
  3

 72
    65
 73
     0
 40
0.0
  0
LTYPE
  5
13
330
5
100
AcDbSymbolTableRecord
100
AcDbLinetypeTableRecord
  2
BYLAYER
 70
     0
  3

 72
    65
 73
     0
 40
0.0
  0
LTYPE
  5
14
330
5
100
AcDbSymbolTableRecord
100
AcDbLinetypeTableRecord
  2
CONTINUOUS
 70
     0
  3
Solid line
 72
    65
 73
     0
 40
0.0
  0
LTYPE
  5
22
330
5
100
AcDbSymbolTableRecord
100
AcDbLinetypeTableRecord
  2
CENTER
 70
     0
  3
__ . __
 72
    65
 73
     4
 40
7.0
 49
4.0
 74
     0
 49
-1.0
 74
     0
 49
1.0
 74
     0
 49
-1.0
 74
     0
  0
LTYPE
  5
23
330
5
100
AcDbSymbolTableRecord
100
AcDbLinetypeTableRecord
  2
CENTER2
 70
     0
  3
Center (.5x) ___ _ ___ _ ___ _ ___ _ ___ _ ___
 72
    65
 73
     4
 40
28.575
 49
19.05
 74
     0
 49
-3.174999999999999
 74
     0
 49
3.174999999999999
 74
     0
 49
-3.174999999999999
 74
     0
  0
LTYPE
  5
24
330
5
100
AcDbSymbolTableRecord
100
AcDbLinetypeTableRecord
  2
PHANTOM
 70
     0
  3
Phantom ______  __  __  ______  __  __  ______
 72
    65
 73
     6
 40
63.5
 49
31.75
 74
     0
 49
-6.349999999999999
 74
     0
 49
6.349999999999999
 74
     0
 49
-6.349999999999999
 74
     0
 49
6.349999999999999
 74
     0
 49
-6.349999999999999
 74
     0
  0
LTYPE
  5
25
330
5
100
AcDbSymbolTableRecord
100
AcDbLinetypeTableRecord
  2
PHANTOM2
 70
     0
  3
Phantom (.5x) ___ _ _ ___ _ _ ___ _ _ ___ _ _
 72
    65
 73
     6
 40
31.75
 49
15.875
 74
     0
 49
-3.174999999999999
 74
     0
 49
3.174999999999999
 74
     0
 49
-3.174999999999999
 74
     0
 49
3.174999999999999
 74
     0
 49
-3.174999999999999
 74
     0
  0
LTYPE
  5
26
330
5
100
AcDbSymbolTableRecord
100
AcDbLinetypeTableRecord
  2
DASHED
 70
     0
  3
Dashed __ __ __ __ __ __ __ __ __ __ __ __ __ _
 72
    65
 73
     2
 40
19.05
 49
12.7
 74
     0
 49
-6.349999999999999
 74
     0
  0
LTYPE
  5
27
330
5
100
AcDbSymbolTableRecord
100
AcDbLinetypeTableRecord
  2
DASHED2
 70
     0
  3
Dashed (.5x) _ _ _ _ _ _ _ _ _ _ _ _ _ _ _ _ _
 72
    65
 73
     2
 40
9.524999999999998
 49
6.349999999999999
 74
     0
 49
-3.174999999999999
 74
     0
  0
LTYPE
  5
383
330
5
100
AcDbSymbolTableRecord
100
AcDbLinetypeTableRecord
  2
AM_ISO02W050
 70
     0
  3
__ __ __ __ __ __ __ __ __ __ __ __ __ __ __
 72
    65
 73
     2
 40
7.5
 49
6.0
 74
     0
 49
-1.5
 74
     0
  0
LTYPE
  5
384
330
5
100
AcDbSymbolTableRecord
100
AcDbLinetypeTableRecord
  2
AM_ISO08W050
 70
     0
  3
____ . ____ . ____ . ____ . ____ . ____ . ____
 72
    65
 73
     4
 40
18.0
 49
12.0
 74
     0
 49
-1.5
 74
     0
 49
3.0
 74
     0
 49
-1.5
 74
     0
  0
LTYPE
  5
385
330
5
100
AcDbSymbolTableRecord
100
AcDbLinetypeTableRecord
  2
AM_ISO09W050
 70
     0
  3
_____ . . _____ . . _____ . . ____ .. ____
 72
    65
 73
     6
 40
22.5
 49
12.0
 74
     0
 49
-1.5
 74
     0
 49
3.0
 74
     0
 49
-1.5
 74
     0
 49
3.0
 74
     0
 49
-1.5
 74
     0
  0
LTYPE
  5
386
330
5
100
AcDbSymbolTableRecord
100
AcDbLinetypeTableRecord
  2
Amconstr
 70
     0
  3
_______________________
 72
    65
 73
     2
 40
9999.0
 49
9999.0
 74
     0
 49
0.0
 74
     0
  0
LTYPE
  5
387
330
5
100
AcDbSymbolTableRecord
100
AcDbLinetypeTableRecord
  2
AM_ISO02W050x2
 70
     0
  3
 _ _ _ _ _ _ _ _ _ _ _ _
 72
    65
 73
     2
 40
3.75
 49
3.0
 74
     0
 49
-0.75
 74
     0
  0
LTYPE
  5
388
330
5
100
AcDbSymbolTableRecord
100
AcDbLinetypeTableRecord
  2
AM_ISO08W050x2
 70
     0
  3
__ . __ . __ . __ . __ . __
 72
    65
 73
     4
 40
9.0
 49
6.0
 74
     0
 49
-0.75
 74
     0
 49
1.5
 74
     0
 49
-0.75
 74
     0
  0
LTYPE
  5
389
330
5
100
AcDbSymbolTableRecord
100
AcDbLinetypeTableRecord
  2
Amzigzag
 70
     0
  3
/\/-/\/-/\/-/\/-/\/-/\/
 72
    65
 73
     2
 40
11.0001
 49
0.0001
 74
     4
 75
   135
340
21
 46
0.04
 50
0.0
 44
0.0
 45
0.0
 49
-11.0
 74
     0
  0
LTYPE
  5
3A4
330
5
100
AcDbSymbolTableRecord
100
AcDbLinetypeTableRecord
  2
HIDDEN
 70
     0
  3
Hidden __ __ __ __ __ __ __ __ __ __ __ __ __ _
 72
    65
 73
     2
 40
9.524999999999998
 49
6.349999999999999
 74
     0
 49
-3.174999999999999
 74
     0
  0
LTYPE
  5
3EB
330
5
100
AcDbSymbolTableRecord
100
AcDbLinetypeTableRecord
  2
ACANSTGB
 70
     0
  3
__ . . __ . .
 72
    65
 73
     6
 40
0.35433070866
 49
0.15748031496
 74
     0
 49
-0.03937007874
 74
     0
 49
0.03937007874
 74
     0
 49
-0.03937007874
 74
     0
 49
0.03937007874
 74
     0
 49
-0.03937007874
 74
     0
  0
LTYPE
  5
3EC
330
5
100
AcDbSymbolTableRecord
100
AcDbLinetypeTableRecord
  2
ACANSTGL
 70
     0
  3
_ _ _ _ _
 72
    65
 73
     2
 40
0.11811023622
 49
0.07874015748
 74
     0
 49
-0.03937007874
 74
     0
  0
LTYPE
  5
408
330
5
100
AcDbSymbolTableRecord
100
AcDbLinetypeTableRecord
  2
ACISOWELD
 70
     0
  3
_ _ _ _ _
 72
    65
 73
     2
 40
2.0
 49
2.0
 74
     0
 49
-1.0
 74
     0
  0
LTYPE
  5
40B
330
5
100
AcDbSymbolTableRecord
100
AcDbLinetypeTableRecord
  2
ACISOTGB
 70
     0
  3
__ . . __ . .
 72
    65
 73
     6
 40
9.0
 49
4.0
 74
     0
 49
-1.0
 74
     0
 49
1.0
 74
     0
 49
-1.0
 74
     0
 49
1.0
 74
     0
 49
-1.0
 74
     0
  0
LTYPE
  5
40C
330
5
100
AcDbSymbolTableRecord
100
AcDbLinetypeTableRecord
  2
ACISOTGL
 70
     0
  3
_ _ _ _ _
 72
    65
 73
     2
 40
3.0
 49
2.0
 74
     0
 49
-1.0
 74
     0
  0
LTYPE
  5
426
330
5
100
AcDbSymbolTableRecord
100
AcDbLinetypeTableRecord
  2
ACJISTGB
 70
     0
  3
__ . . __ . .
 72
    65
 73
     6
 40
9.0
 49
4.0
 74
     0
 49
-1.0
 74
     0
 49
1.0
 74
     0
 49
-1.0
 74
     0
 49
1.0
 74
     0
 49
-1.0
 74
     0
  0
LTYPE
  5
427
330
5
100
AcDbSymbolTableRecord
100
AcDbLinetypeTableRecord
  2
ACJISTGL
 70
     0
  3
_ _ _ _ _
 72
    65
 73
     2
 40
3.0
 49
2.0
 74
     0
 49
-1.0
 74
     0
  0
ENDTAB
  0
TABLE
  2
LAYER
  5
2
330
0
100
AcDbSymbolTable
 70
     7
  0
LAYER
  5
E
330
2
100
AcDbSymbolTableRecord
100
AcDbLayerTableRecord
  2
0
 70
     0
 62
     7
  6
CONTINUOUS
370
    -3
390
5D
  0
LAYER
  5
74
330
2
100
AcDbSymbolTableRecord
100
AcDbLayerTableRecord
  2
Defpoints
 70
     0
 62
     7
  6
CONTINUOUS
290
     0
370
    -3
390
5D
  0
LAYER
  5
75
330
2
100
AcDbSymbolTableRecord
100
AcDbLayerTableRecord
  2
PV0001_1
 70
     0
 62
     7
  6
CONTINUOUS
370
    -3
390
5D
  0
LAYER
  5
438
330
2
100
AcDbSymbolTableRecord
100
AcDbLayerTableRecord
  2
outline
 70
     0
 62
     4
  6
CONTINUOUS
370
    50
390
5D
  0
LAYER
  5
8F9
330
2
100
AcDbSymbolTableRecord
100
AcDbLayerTableRecord
  2
AM_CL
 70
     0
 62
     1
  6
Amconstr
370
    25
390
5D
  0
LAYER
  5
9F3
330
2
100
AcDbSymbolTableRecord
100
AcDbLayerTableRecord
  2
center
 70
     0
 62
     2
  6
CENTER2
370
    25
390
5D
  0
LAYER
  5
A2D
330
2
100
AcDbSymbolTableRecord
100
AcDbLayerTableRecord
  2
dimension
 70
     0
 62
     7
  6
CONTINUOUS
370
    25
390
5D
  0
ENDTAB
  0
TABLE
  2
STYLE
  5
3
330
0
100
AcDbSymbolTable
 70
    10
  0
STYLE
  5
F
330
3
100
AcDbSymbolTableRecord
100
AcDbTextStyleTableRecord
  2
STANDARD
 70
     0
 40
0.0
 41
1.0
 50
0.0
 71
     0
 42
2.5
  3
monotxt.shx
  4
extfont.shx
  0
STYLE
  5
21
330
3
100
AcDbSymbolTableRecord
100
AcDbTextStyleTableRecord
  2

 70
     1
 40
0.0
 41
1.0
 50
0.0
 71
     0
 42
2.5
  3
ltypeshp.shx
  4

  0
STYLE
  5
30
330
3
100
AcDbSymbolTableRecord
100
AcDbTextStyleTableRecord
  2
DIM
 70
     0
 40
0.0
 41
1.0
 50
0.0
 71
     0
 42
2.5
  3
monotxt.shx
  4
extfont.shx
  0
STYLE
  5
31
330
3
100
AcDbSymbolTableRecord
100
AcDbTextStyleTableRecord
  2
CONVERT
 70
     0
 40
0.0
 41
1.0
 50
0.0
 71
     0
 42
2.5
  3
monotxt.shx
  4
extfont.shx
  0
STYLE
  5
3E4
330
3
100
AcDbSymbolTableRecord
100
AcDbTextStyleTableRecord
  2
ACANSTS
 70
     0
 40
1.0
 41
1.0
 50
0.0
 71
     0
 42
5.0
  3
romans.shx
  4
extfont.shx
  0
STYLE
  5
3E7
330
3
100
AcDbSymbolTableRecord
100
AcDbTextStyleTableRecord
  2
ACANSGDT
 70
     0
 40
0.0
 41
1.0
 50
0.0
 71
     0
 42
5.0
  3
amgdtans.shx
  4

  0
STYLE
  5
402
330
3
100
AcDbSymbolTableRecord
100
AcDbTextStyleTableRecord
  2
ACISOTS
 70
     0
 40
1.0
 41
1.0
 50
0.0
 71
     0
 42
2.5
  3
isocp.shx
  4
extfont.shx
  0
STYLE
  5
406
330
3
100
AcDbSymbolTableRecord
100
AcDbTextStyleTableRecord
  2
ACISOGDT
 70
     0
 40
0.0
 41
1.0
 50
0.0
 71
     0
 42
2.5
  3
amgdt.shx
  4

  0
STYLE
  5
41F
330
3
100
AcDbSymbolTableRecord
100
AcDbTextStyleTableRecord
  2
ACJISTS
 70
     0
 40
1.0
 41
1.0
 50
0.0
 71
     0
 42
2.5
  3
isocp.shx
  4
bigfont.shx
  0
STYLE
  5
422
330
3
100
AcDbSymbolTableRecord
100
AcDbTextStyleTableRecord
  2
ACJISGDT
 70
     0
 40
0.0
 41
1.0
 50
0.0
 71
     0
 42
2.5
  3
amgdt.shx
  4

  0
ENDTAB
  0
TABLE
  2
VIEW
  5
6
330
0
100
AcDbSymbolTable
 70
     0
  0
ENDTAB
  0
TABLE
  2
UCS
  5
7
330
0
100
AcDbSymbolTable
 70
     0
  0
ENDTAB
  0
TABLE
  2
APPID
  5
9
330
0
100
AcDbSymbolTable
 70
    28
  0
APPID
  5
10
330
9
100
AcDbSymbolTableRecord
100
AcDbRegAppTableRecord
  2
ACAD
 70
     0
  0
APPID
  5
367
330
9
100
AcDbSymbolTableRecord
100
AcDbRegAppTableRecord
  2
MCAD_NO_VIS
 70
     0
  0
APPID
  5
368
330
9
100
AcDbSymbolTableRecord
100
AcDbRegAppTableRecord
  2
ACAD_TEMP_GRAPHIC
 70
     0
  0
APPID
  5
369
330
9
100
AcDbSymbolTableRecord
100
AcDbRegAppTableRecord
  2
GENIUS_GENREC_14
 70
     0
  0
APPID
  5
36A
330
9
100
AcDbSymbolTableRecord
100
AcDbRegAppTableRecord
  2
GENIUS_GENODEF_13
 70
     0
  0
APPID
  5
36B
330
9
100
AcDbSymbolTableRecord
100
AcDbRegAppTableRecord
  2
GENIUS_GENOBJ-N-REC_13
 70
     0
  0
APPID
  5
36C
330
9
100
AcDbSymbolTableRecord
100
AcDbRegAppTableRecord
  2
GENIUS_GENOBJ-N-CEN_13
 70
     0
  0
APPID
  5
36D
330
9
100
AcDbSymbolTableRecord
100
AcDbRegAppTableRecord
  2
GENIUS_GENDTOL_13
 70
     0
  0
APPID
  5
36E
330
9
100
AcDbSymbolTableRecord
100
AcDbRegAppTableRecord
  2
GENIUS_GENDIMSH_14
 70
     0
  0
APPID
  5
36F
330
9
100
AcDbSymbolTableRecord
100
AcDbRegAppTableRecord
  2
ACATTRIBSERVICES
 70
     0
  0
APPID
  5
370
330
9
100
AcDbSymbolTableRecord
100
AcDbRegAppTableRecord
  2
GENIUS_GENFIL_13
 70
     0
  0
APPID
  5
371
330
9
100
AcDbSymbolTableRecord
100
AcDbRegAppTableRecord
  2
GENIUS_GENOBJ-N-CHA_13
 70
     0
  0
APPID
  5
372
330
9
100
AcDbSymbolTableRecord
100
AcDbRegAppTableRecord
  2
GENIUS_GENOLIS_13
 70
     0
  0
APPID
  5
373
330
9
100
AcDbSymbolTableRecord
100
AcDbRegAppTableRecord
  2
GENIUS_GENOENT_13
 70
     0
  0
APPID
  5
374
330
9
100
AcDbSymbolTableRecord
100
AcDbRegAppTableRecord
  2
GENIUS_GENOREF_13
 70
     0
  0
APPID
  5
375
330
9
100
AcDbSymbolTableRecord
100
AcDbRegAppTableRecord
  2
GENIUS_GENOBJ-N-CRS_13
 70
     0
  0
APPID
  5
376
330
9
100
AcDbSymbolTableRecord
100
AcDbRegAppTableRecord
  2
GENIUS_GENOBJ-N-TIT_13
 70
     0
  0
APPID
  5
377
330
9
100
AcDbSymbolTableRecord
100
AcDbRegAppTableRecord
  2
GENIUS_GENTITLE_13
 70
     0
  0
APPID
  5
378
330
9
100
AcDbSymbolTableRecord
100
AcDbRegAppTableRecord
  2
GENIUS_GENSCREG_15
 70
     0
  0
APPID
  5
379
330
9
100
AcDbSymbolTableRecord
100
AcDbRegAppTableRecord
  2
GENIUS_GENOBJ-N-SDF_13
 70
     0
  0
APPID
  5
37A
330
9
100
AcDbSymbolTableRecord
100
AcDbRegAppTableRecord
  2
GENIUS_GENTRA_14
 70
     0
  0
APPID
  5
37B
330
9
100
AcDbSymbolTableRecord
100
AcDbRegAppTableRecord
  2
GENIUS_GENOBJ-N-FIL_13
 70
     0
  0
APPID
  5
37C
330
9
100
AcDbSymbolTableRecord
100
AcDbRegAppTableRecord
  2
AD_DRAW
 70
     0
  0
APPID
  5
37D
330
9
100
AcDbSymbolTableRecord
100
AcDbRegAppTableRecord
  2
DESIGNERASSEMBLIES
 70
     0
  0
APPID
  5
37E
330
9
100
AcDbSymbolTableRecord
100
AcDbRegAppTableRecord
  2
ACADM_DIM_EDIT
 70
     0
  0
APPID
  5
37F
330
9
100
AcDbSymbolTableRecord
100
AcDbRegAppTableRecord
  2
AMDT_DM_ADJ
 70
     0
  0
APPID
  5
E7C
330
9
100
AcDbSymbolTableRecord
100
AcDbRegAppTableRecord
  2
ACAD_DSTYLE_DIMARC_LENGTH_SYMBOL
 70
     0
  0
APPID
  5
E7D
330
9
100
AcDbSymbolTableRecord
100
AcDbRegAppTableRecord
  2
ACAD_DSTYLE_DIMJOGGED_JOGANGLE_SYMBOL
 70
     0
  0
ENDTAB
  0
TABLE
  2
DIMSTYLE
  5
A
330
0
100
AcDbSymbolTable
 70
    28
100
AcDbDimStyleTable
 71
     0
  0
DIMSTYLE
105
1D
102
{ACAD_REACTORS
330
76
330
8D5
102
}
330
A
100
AcDbSymbolTableRecord
100
AcDbDimStyleTableRecord
  2
STANDARD
 70
     0
 41
3.0
 42
1.0
 43
7.0
 44
2.0
 73
     0
 74
     0
 77
     1
140
2.799999999999999
141
0.0
143
0.0394
147
0.7
171
     4
172
     1
173
     1
176
    44
177
    44
178
    44
271
     3
272
     3
273
     8
274
     4
289
     0
340
F
341
32
343
32
344
32
  0
DIMSTYLE
105
3F4
330
A
100
AcDbSymbolTableRecord
100
AcDbDimStyleTableRecord
  2
AM_ANSI
 70
     0
  4
mm
 41
0.1
 42
0.05
 43
0.5
 44
0.1
 47
0.1
 48
0.1
 78
     7
 79
     2
140
0.12
141
0.0
146
0.71
147
0.06
176
   256
177
   256
178
     2
274
     4
340
F
371
    -1
372
    -1
1001
ACAD_DSTYLE_DIMARC_LENGTH_SYMBOL
1070
   379
1070
     1
1001
ACAD_DSTYLE_DIMJOGGED_JOGANGLE_SYMBOL
1070
   384
1040
0.7853981633974483
  0
DIMSTYLE
105
3F5
330
A
100
AcDbSymbolTableRecord
100
AcDbDimStyleTableRecord
  2
AM_ANSI$3
 70
     0
  4
mm
 41
0.1
 42
0.05
 43
0.5
 44
0.1
 47
0.1
 48
0.1
 78
     7
 79
     2
140
0.12
141
0.0
146
0.71
147
0.06
176
   256
177
   256
178
     2
274
     4
288
     1
289
     0
340
F
371
    -1
372
    -1
1001
ACAD_DSTYLE_DIMARC_LENGTH_SYMBOL
1070
   379
1070
     1
1001
ACAD_DSTYLE_DIMJOGGED_JOGANGLE_SYMBOL
1070
   384
1040
0.7853981633974483
  0
DIMSTYLE
105
3F6
330
A
100
AcDbSymbolTableRecord
100
AcDbDimStyleTableRecord
  2
AM_ANSI$4
 70
     0
  4
mm
 41
0.1
 42
0.05
 43
0.5
 44
0.1
 47
0.1
 48
0.1
 78
     7
 79
     2
140
0.12
141
0.0
146
0.71
147
0.06
176
   256
177
   256
178
     2
274
     4
288
     1
289
     0
340
F
371
    -1
372
    -1
1001
ACAD_DSTYLE_DIMARC_LENGTH_SYMBOL
1070
   379
1070
     1
1001
ACAD_DSTYLE_DIMJOGGED_JOGANGLE_SYMBOL
1070
   384
1040
0.7853981633974483
  0
DIMSTYLE
105
3F7
330
A
100
AcDbSymbolTableRecord
100
AcDbDimStyleTableRecord
  2
AM_ANSI$7
 70
     0
  4
mm
 41
0.1
 42
0.05
 43
0.5
 44
0.1
 47
0.1
 48
0.1
 78
     7
 79
     2
140
0.24
141
0.0
146
0.71
147
0.06
176
   256
177
   256
178
     2
274
     4
340
F
371
    -1
372
    -1
1001
ACAD_DSTYLE_DIMARC_LENGTH_SYMBOL
1070
   379
1070
     1
1001
ACAD_DSTYLE_DIMJOGGED_JOGANGLE_SYMBOL
1070
   384
1040
0.7853981633974483
  0
DIMSTYLE
105
3F8
330
A
100
AcDbSymbolTableRecord
100
AcDbDimStyleTableRecord
  2
AM_ANSI$SF
 70
     0
  4
mm
 41
0.1
 42
0.05
 43
0.5
 44
0.1
 47
0.1
 48
0.1
 75
     1
 76
     1
 78
     7
 79
     2
140
0.12
141
0.0
146
0.71
147
0.06
176
   256
177
   256
178
     2
274
     4
340
F
371
    -1
372
    -1
1001
ACAD_DSTYLE_DIMARC_LENGTH_SYMBOL
1070
   379
1070
     1
1001
ACAD_DSTYLE_DIMJOGGED_JOGANGLE_SYMBOL
1070
   384
1040
0.7853981633974483
  0
DIMSTYLE
105
3F9
330
A
100
AcDbSymbolTableRecord
100
AcDbDimStyleTableRecord
  2
AM_ANSI$SH
 70
     0
  4
mm
 41
0.1
 42
0.05
 43
0.5
 44
0.1
 47
0.1
 48
0.1
 75
     1
 76
     1
 78
     7
 79
     2
140
0.12
141
0.0
146
0.71
147
0.06
173
     1
176
   256
177
   256
178
     2
274
     4
340
F
343
3FA
371
    -1
372
    -1
1001
ACAD_DSTYLE_DIMARC_LENGTH_SYMBOL
1070
   379
1070
     1
1001
ACAD_DSTYLE_DIMJOGGED_JOGANGLE_SYMBOL
1070
   384
1040
0.7853981633974483
  0
DIMSTYLE
105
414
330
A
100
AcDbSymbolTableRecord
100
AcDbDimStyleTableRecord
  2
AM_ISO
 70
     0
  4
"
 41
2.5
 42
1.0
 43
10.0
 44
1.0
 47
0.1
 48
0.1
 73
     0
 74
     0
 77
     1
 78
     8
 79
     2
140
3.5
141
0.0
143
0.0393701
146
0.71
147
1.5
172
     1
176
   256
177
   256
178
     2
271
     2
272
     3
274
     4
283
     0
284
     8
340
F
371
    -1
372
    -1
1001
ACAD_DSTYLE_DIMARC_LENGTH_SYMBOL
1070
   379
1070
     1
1001
ACAD_DSTYLE_DIMJOGGED_JOGANGLE_SYMBOL
1070
   384
1040
0.7853981633974483
  0
DIMSTYLE
105
415
330
A
100
AcDbSymbolTableRecord
100
AcDbDimStyleTableRecord
  2
AM_ISO$3
 70
     0
  4
"
 41
2.5
 42
1.0
 43
10.0
 44
1.0
 47
0.1
 48
0.1
 73
     0
 77
     1
 78
     8
 79
     2
140
3.5
141
0.0
143
0.0393701
146
0.71
147
1.5
176
   256
177
   256
178
     2
271
     2
272
     3
274
     4
283
     0
284
     8
288
     1
289
     0
340
F
371
    -1
372
    -1
1001
ACAD_DSTYLE_DIMARC_LENGTH_SYMBOL
1070
   379
1070
     1
1001
ACAD_DSTYLE_DIMJOGGED_JOGANGLE_SYMBOL
1070
   384
1040
0.7853981633974483
  0
DIMSTYLE
105
416
330
A
100
AcDbSymbolTableRecord
100
AcDbDimStyleTableRecord
  2
AM_ISO$4
 70
     0
  4
"
 41
2.5
 42
1.0
 43
10.0
 44
1.0
 47
0.1
 48
0.1
 73
     0
 77
     1
 78
     8
 79
     2
140
3.5
141
0.0
143
0.0393701
146
0.71
147
1.5
176
   256
177
   256
178
     2
271
     2
272
     3
274
     4
283
     0
284
     8
288
     1
289
     0
340
F
371
    -1
372
    -1
1001
ACAD_DSTYLE_DIMARC_LENGTH_SYMBOL
1070
   379
1070
     1
1001
ACAD_DSTYLE_DIMJOGGED_JOGANGLE_SYMBOL
1070
   384
1040
0.7853981633974483
  0
DIMSTYLE
105
417
330
A
100
AcDbSymbolTableRecord
100
AcDbDimStyleTableRecord
  2
AM_ISO$6
 70
     0
  4
"
 41
2.5
 42
1.0
 43
10.0
 44
1.0
 47
0.1
 48
0.1
 73
     0
 74
     0
 78
     8
 79
     2
140
3.5
141
0.0
143
0.0393701
146
0.71
147
1.5
172
     1
176
   256
177
   256
178
     2
271
     2
272
     3
274
     4
283
     0
284
     8
340
F
371
    -1
372
    -1
1001
ACAD_DSTYLE_DIMARC_LENGTH_SYMBOL
1070
   379
1070
     1
1001
ACAD_DSTYLE_DIMJOGGED_JOGANGLE_SYMBOL
1070
   384
1040
0.7853981633974483
  0
DIMSTYLE
105
418
330
A
100
AcDbSymbolTableRecord
100
AcDbDimStyleTableRecord
  2
AM_ISO$7
 70
     0
  4
"
 41
2.5
 42
1.0
 43
10.0
 44
1.0
 47
0.1
 48
0.1
 73
     0
 74
     0
 77
     1
 78
     8
 79
     2
140
5.0
141
0.0
143
0.0393701
146
0.71
147
1.5
172
     1
176
   256
177
   256
178
     2
271
     2
272
     3
274
     4
283
     0
284
     8
340
F
371
    -1
372
    -1
1001
ACAD_DSTYLE_DIMARC_LENGTH_SYMBOL
1070
   379
1070
     1
1001
ACAD_DSTYLE_DIMJOGGED_JOGANGLE_SYMBOL
1070
   384
1040
0.7853981633974483
  0
DIMSTYLE
105
419
330
A
100
AcDbSymbolTableRecord
100
AcDbDimStyleTableRecord
  2
AM_ISO$SF
 70
     0
  4
"
 41
2.5
 42
1.0
 43
10.0
 44
1.0
 47
0.1
 48
0.1
 73
     0
 74
     0
 75
     1
 76
     1
 77
     1
 78
     8
 79
     2
140
3.5
141
0.0
143
0.0393701
146
0.71
147
1.5
172
     1
176
   256
177
   256
178
     2
271
     2
272
     3
274
     4
283
     0
284
     8
340
F
371
    -1
372
    -1
1001
ACAD_DSTYLE_DIMARC_LENGTH_SYMBOL
1070
   379
1070
     1
1001
ACAD_DSTYLE_DIMJOGGED_JOGANGLE_SYMBOL
1070
   384
1040
0.7853981633974483
  0
DIMSTYLE
105
41A
330
A
100
AcDbSymbolTableRecord
100
AcDbDimStyleTableRecord
  2
AM_ISO$SH
 70
     0
  4
"
 41
2.5
 42
1.0
 43
10.0
 44
1.0
 47
0.1
 48
0.1
 73
     0
 74
     0
 75
     1
 76
     1
 77
     1
 78
     8
 79
     2
140
3.5
141
0.0
143
0.0393701
144
2.0
146
0.71
147
1.5
172
     1
173
     1
176
   256
177
   256
178
     2
271
     2
272
     3
274
     4
283
     0
284
     8
340
F
343
3FA
371
    -1
372
    -1
1001
ACAD_DSTYLE_DIMARC_LENGTH_SYMBOL
1070
   379
1070
     1
1001
ACAD_DSTYLE_DIMJOGGED_JOGANGLE_SYMBOL
1070
   384
1040
0.7853981633974483
  0
DIMSTYLE
105
434
330
A
100
AcDbSymbolTableRecord
100
AcDbDimStyleTableRecord
  2
kuroda_sunpo
 70
     0
  4
"
 41
2.5
 42
1.0
 43
8.0
 44
1.0
 47
0.1
 48
0.1
 73
     0
 74
     0
 77
     3
 78
     8
 79
     2
140
3.2
141
0.0
143
0.0393701
146
0.71
147
1.5
172
     1
176
     7
177
     7
178
     7
179
     2
271
     3
272
     3
275
     1
283
     0
340
F
341
A7
342
A7
371
    -1
372
    -1
  0
DIMSTYLE
105
43C
330
A
100
AcDbSymbolTableRecord
100
AcDbDimStyleTableRecord
  2
kuroda_sunpo$3
 70
     0
  4
"
 41
2.5
 42
1.0
 43
8.0
 44
1.0
 47
0.1
 48
0.1
 73
     0
 77
     3
 78
     8
 79
     2
140
3.2
141
0.0
143
0.0393701
146
0.71
147
1.5
176
     7
177
     7
178
     7
179
     2
271
     3
272
     3
275
     1
283
     0
288
     1
289
     0
340
F
341
A7
342
A7
371
    -1
372
    -1
  0
DIMSTYLE
105
43D
330
A
100
AcDbSymbolTableRecord
100
AcDbDimStyleTableRecord
  2
kuroda_sunpo$4
 70
     0
  4
"
 41
2.5
 42
1.0
 43
8.0
 44
1.0
 47
0.1
 48
0.1
 73
     0
 77
     3
 78
     8
 79
     2
140
3.2
141
0.0
143
0.0393701
146
0.71
147
1.5
176
     7
177
     7
178
     7
179
     2
271
     3
272
     3
275
     1
283
     0
288
     1
289
     0
340
F
341
A7
342
A7
371
    -1
372
    -1
  0
DIMSTYLE
105
43E
330
A
100
AcDbSymbolTableRecord
100
AcDbDimStyleTableRecord
  2
kuroda_sunpo$6
 70
     0
  4
"
 41
2.5
 42
1.0
 43
8.0
 44
1.0
 47
0.1
 48
0.1
 73
     0
 74
     0
 78
     8
 79
     2
140
3.2
141
0.0
143
0.0393701
146
0.71
147
1.5
172
     1
176
     7
177
     7
178
     7
179
     2
271
     3
272
     3
275
     1
283
     0
340
F
341
A7
342
A7
371
    -1
372
    -1
  0
DIMSTYLE
105
43F
330
A
100
AcDbSymbolTableRecord
100
AcDbDimStyleTableRecord
  2
kuroda_sunpo$SF
 70
     0
  4
"
 41
2.5
 42
1.0
 43
8.0
 44
1.0
 47
0.1
 48
0.1
 73
     0
 74
     0
 75
     1
 76
     1
 77
     3
 78
     8
 79
     2
140
5.0
141
0.0
143
0.0393701
146
0.71
147
1.5
172
     1
176
   256
177
   256
178
     7
179
     2
271
     3
272
     3
275
     1
283
     0
340
F
341
32
342
32
371
    -1
372
    -1
  0
DIMSTYLE
105
446
330
A
100
AcDbSymbolTableRecord
100
AcDbDimStyleTableRecord
  2
kuroda_sunpo$SH
 70
     0
  4
"
 41
2.5
 42
1.0
 43
8.0
 44
1.0
 47
0.1
 48
0.1
 73
     0
 74
     0
 75
     1
 76
     1
 77
     3
 78
     8
 79
     2
140
5.0
141
0.0
143
0.0393701
144
2.0
146
0.71
147
1.5
172
     1
173
     1
176
   256
177
   256
178
     7
179
     2
271
     3
272
     3
275
     1
283
     0
340
F
341
32
342
32
343
3FA
371
    -1
372
    -1
  0
DIMSTYLE
105
459
330
A
100
AcDbSymbolTableRecord
100
AcDbDimStyleTableRecord
  2
JIS-KURODA
 70
     0
  4
"
 41
2.5
 42
1.0
 43
10.0
 44
1.0
 47
0.1
 48
0.1
 73
     0
 74
     0
 77
     3
 78
     8
 79
     2
140
3.2
141
0.0
143
0.0393701
146
0.71
147
1.5
172
     1
174
     1
176
     7
177
     7
178
     7
271
     2
272
     2
283
     0
284
     8
340
F
341
A7
342
A7
371
    -1
372
    -1
1001
ACAD_DSTYLE_DIMARC_LENGTH_SYMBOL
1070
   379
1070
     1
1001
ACAD_DSTYLE_DIMJOGGED_JOGANGLE_SYMBOL
1070
   384
1040
0.7853981633974483
  0
DIMSTYLE
105
45A
330
A
100
AcDbSymbolTableRecord
100
AcDbDimStyleTableRecord
  2
JIS-KURODA$2
 70
     0
  4
"
 41
2.5
 42
1.0
 43
10.0
 44
1.0
 47
0.1
 48
0.1
 73
     0
 74
     0
 77
     3
 78
     8
 79
     2
140
3.2
141
0.0
143
0.0393701
146
0.71
147
1.5
172
     1
174
     1
176
     7
177
     7
178
     7
271
     2
272
     2
283
     0
284
     8
340
F
341
A7
342
A7
371
    -1
372
    -1
1001
ACAD_DSTYLE_DIMARC_LENGTH_SYMBOL
1070
   379
1070
     1
1001
ACAD_DSTYLE_DIMJOGGED_JOGANGLE_SYMBOL
1070
   384
1040
0.7853981633974483
  0
DIMSTYLE
105
45B
330
A
100
AcDbSymbolTableRecord
100
AcDbDimStyleTableRecord
  2
JIS-KURODA$3
 70
     0
  4
"
 41
2.5
 42
1.0
 43
10.0
 44
1.0
 47
0.1
 48
0.1
 73
     0
 74
     0
 77
     3
 78
     8
 79
     2
140
3.2
141
0.0
143
0.0393701
146
0.71
147
1.5
172
     1
176
     7
177
     7
178
     7
271
     2
272
     2
283
     0
284
     8
288
     1
289
     2
340
F
341
32
342
A7
371
    -1
372
    -1
1001
ACAD_DSTYLE_DIMARC_LENGTH_SYMBOL
1070
   379
1070
     1
1001
ACAD_DSTYLE_DIMJOGGED_JOGANGLE_SYMBOL
1070
   384
1040
0.7853981633974483
  0
DIMSTYLE
105
45C
330
A
100
AcDbSymbolTableRecord
100
AcDbDimStyleTableRecord
  2
JIS-KURODA$4
 70
     0
  4
"
 41
2.5
 42
1.0
 43
10.0
 44
1.0
 47
0.1
 48
0.1
 73
     0
 77
     3
 78
     8
 79
     2
140
3.2
141
0.0
143
0.0393701
146
0.71
147
1.5
173
     1
176
     7
177
     7
178
     7
271
     2
272
     2
279
     1
283
     0
284
     8
288
     1
289
     0
340
F
341
32
343
32
344
A7
371
    -1
372
    -1
1001
ACAD_DSTYLE_DIMARC_LENGTH_SYMBOL
1070
   379
1070
     1
1001
ACAD_DSTYLE_DIMJOGGED_JOGANGLE_SYMBOL
1070
   384
1040
0.7853981633974483
  0
DIMSTYLE
105
45D
330
A
100
AcDbSymbolTableRecord
100
AcDbDimStyleTableRecord
  2
JIS-KURODA$6
 70
     0
  4
"
 41
2.5
 42
1.0
 43
10.0
 44
1.0
 47
0.1
 48
0.1
 73
     0
 74
     0
 78
     8
 79
     2
140
3.2
141
0.0
143
0.0393701
146
0.71
147
1.5
172
     1
176
     7
177
     7
178
     7
271
     2
272
     2
279
     1
283
     0
284
     8
340
F
341
32
342
32
371
    -1
372
    -1
1001
ACAD_DSTYLE_DIMARC_LENGTH_SYMBOL
1070
   379
1070
     1
1001
ACAD_DSTYLE_DIMJOGGED_JOGANGLE_SYMBOL
1070
   384
1040
0.7853981633974483
  0
DIMSTYLE
105
45E
330
A
100
AcDbSymbolTableRecord
100
AcDbDimStyleTableRecord
  2
JIS-KURODA$7
 70
     0
  4
"
 41
2.5
 42
1.0
 43
10.0
 44
1.0
 47
0.1
 48
0.1
 73
     0
 74
     0
 77
     3
 78
     8
 79
     2
140
4.000000000000003
141
0.0
143
0.0393701
146
0.71
147
1.5
172
     1
176
     7
177
     7
178
     7
271
     2
272
     2
279
     1
283
     0
284
     8
340
F
341
A7
342
32
371
    -1
372
    -1
1001
ACAD_DSTYLE_DIMARC_LENGTH_SYMBOL
1070
   379
1070
     1
1001
ACAD_DSTYLE_DIMJOGGED_JOGANGLE_SYMBOL
1070
   384
1040
0.7853981633974483
  0
DIMSTYLE
105
45F
330
A
100
AcDbSymbolTableRecord
100
AcDbDimStyleTableRecord
  2
JIS-KURODA$SF
 70
     0
  4
"
 41
2.5
 42
1.0
 43
10.0
 44
1.0
 47
0.1
 48
0.1
 73
     0
 74
     0
 75
     1
 76
     1
 77
     3
 78
     8
 79
     2
140
3.5
141
0.0
143
0.0393701
146
0.71
147
1.5
172
     1
176
   256
177
   256
178
     7
271
     2
272
     3
274
     4
283
     0
284
     8
340
F
341
32
342
32
343
32
344
32
371
    -1
372
    -1
1001
ACAD_DSTYLE_DIMARC_LENGTH_SYMBOL
1070
   379
1070
     1
1001
ACAD_DSTYLE_DIMJOGGED_JOGANGLE_SYMBOL
1070
   384
1040
0.7853981633974483
  0
DIMSTYLE
105
460
330
A
100
AcDbSymbolTableRecord
100
AcDbDimStyleTableRecord
  2
JIS-KURODA$SH
 70
     0
  4
"
 41
2.5
 42
1.0
 43
10.0
 44
1.0
 47
0.1
 48
0.1
 73
     0
 74
     0
 75
     1
 76
     1
 77
     3
 78
     8
 79
     2
140
3.5
141
0.0
143
0.0393701
144
2.0
146
0.71
147
1.5
172
     1
173
     1
176
   256
177
   256
178
     7
271
     2
272
     3
274
     4
283
     0
284
     8
340
F
341
32
342
32
343
3FA
344
32
371
    -1
372
    -1
1001
ACAD_DSTYLE_DIMARC_LENGTH_SYMBOL
1070
   379
1070
     1
1001
ACAD_DSTYLE_DIMJOGGED_JOGANGLE_SYMBOL
1070
   384
1040
0.7853981633974483
  0
ENDTAB
  0
TABLE
  2
BLOCK_RECORD
  5
1
330
0
100
AcDbSymbolTable
 70
     6
  0
BLOCK_RECORD
  5
18
102
{ACAD_XDICTIONARY
360
34E
102
}
330
1
100
AcDbSymbolTableRecord
100
AcDbBlockTableRecord
  2
*MODEL_SPACE
340
60
  0
BLOCK_RECORD
  5
15
102
{ACAD_XDICTIONARY
360
34C
102
}
330
1
100
AcDbSymbolTableRecord
100
AcDbBlockTableRecord
  2
*PAPER_SPACE
340
61
  0
BLOCK_RECORD
  5
32
330
1
100
AcDbSymbolTableRecord
100
AcDbBlockTableRecord
  2
_Open30
340
0
  0
BLOCK_RECORD
  5
77
330
1
100
AcDbSymbolTableRecord
100
AcDbBlockTableRecord
  2
*D1
340
0
  0
BLOCK_RECORD
  5
A7
330
1
100
AcDbSymbolTableRecord
100
AcDbBlockTableRecord
  2
_Open
340
0
  0
BLOCK_RECORD
  5
3FA
330
1
100
AcDbSymbolTableRecord
100
AcDbBlockTableRecord
  2
GENAXEH
340
0
  0
BLOCK_RECORD
  5
8D6
330
1
100
AcDbSymbolTableRecord
100
AcDbBlockTableRecord
  2
*D4
340
0
  0
ENDTAB
  0
ENDSEC
  0
SECTION
  2
BLOCKS
  0
BLOCK
  5
19
330
18
100
AcDbEntity
  8
0
100
AcDbBlockBegin
  2
*MODEL_SPACE
 70
     0
 10
0.0
 20
0.0
 30
0.0
  3
*MODEL_SPACE
  1

  0
ENDBLK
  5
1A
330
18
100
AcDbEntity
  8
0
100
AcDbBlockEnd
  0
BLOCK
  5
16
330
15
100
AcDbEntity
 67
     1
  8
0
100
AcDbBlockBegin
  2
*PAPER_SPACE
 70
     0
 10
0.0
 20
0.0
 30
0.0
  3
*PAPER_SPACE
  1

  0
ENDBLK
  5
17
330
15
100
AcDbEntity
 67
     1
  8
0
100
AcDbBlockEnd
  0
BLOCK
  5
F5B
330
32
100
AcDbEntity
  8
0
100
AcDbBlockBegin
  2
_Open30
 70
     0
 10
0.0
 20
0.0
 30
0.0
  3
_Open30
  1

  0
LINE
  5
F5C
330
32
100
AcDbEntity
  8
0
 62
     0
370
    -2
100
AcDbLine
 10
-1.0
 20
0.26794919
 30
0.0
 11
0.0
 21
0.0
 31
0.0
  0
LINE
  5
F5D
330
32
100
AcDbEntity
  8
0
 62
     0
370
    -2
100
AcDbLine
 10
0.0
 20
0.0
 30
0.0
 11
-1.0
 21
-0.26794919
 31
0.0
  0
LINE
  5
F5E
330
32
100
AcDbEntity
  8
0
 62
     0
370
    -2
100
AcDbLine
 10
0.0
 20
0.0
 30
0.0
 11
-1.0
 21
0.0
 31
0.0
  0
ENDBLK
  5
F5F
330
32
100
AcDbEntity
  8
0
100
AcDbBlockEnd
  0
BLOCK
  5
81
330
77
100
AcDbEntity
  8
0
100
AcDbBlockBegin
  2
*D1
 70
     1
 10
0.0
 20
0.0
 30
0.0
  3
*D1
  1

  0
LINE
  5
354
330
77
100
AcDbEntity
  8
PV0001_1
 62
    44
100
AcDbLine
 10
249.0
 20
-161.99998474121
 30
0.0
 11
249.0
 21
-207.92613220214
 31
0.0
  0
LINE
  5
355
330
77
100
AcDbEntity
  8
PV0001_1
 62
    44
100
AcDbLine
 10
1249.0
 20
-161.99998474121
 30
0.0
 11
1249.0
 21
-207.92613220214
 31
0.0
  0
LINE
  5
356
330
77
100
AcDbEntity
  8
PV0001_1
 62
    44
100
AcDbLine
 10
252.0
 20
-205.92613220214
 30
0.0
 11
1246.0
 21
-205.92613220214
 31
0.0
  0
INSERT
  5
357
330
77
100
AcDbEntity
  8
PV0001_1
 62
    44
100
AcDbBlockReference
  2
_Open
 10
249.0
 20
-205.92613220214
 30
0.0
 41
3.0
 42
3.0
 43
3.0
 50
180.0
  0
INSERT
  5
358
330
77
100
AcDbEntity
  8
PV0001_1
 62
    44
100
AcDbBlockReference
  2
_Open
 10
1249.0
 20
-205.92613220214
 30
0.0
 41
3.0
 42
3.0
 43
3.0
  0
MTEXT
  5
359
330
77
100
AcDbEntity
  8
PV0001_1
 62
    44
100
AcDbMText
 10
749.0
 20
-203.62613220214
 30
0.0
 40
3.2
 41
0.0
 71
     5
 72
     5
  1
\A1;L
 73
     1
 44
1.0
1001
ACAD
1000
MTEXTBEGIN
1070
    73
1070
     1
1070
    44
1040
1.0
1070
    74
1070
     0
1000
MTEXTEND
  0
POINT
  5
35A
330
77
100
AcDbEntity
  8
Defpoints
 62
     0
100
AcDbPoint
 10
249.0
 20
-160.99998474121
 30
0.0
  0
POINT
  5
35B
330
77
100
AcDbEntity
  8
Defpoints
 62
     0
100
AcDbPoint
 10
1249.0
 20
-160.99998474121
 30
0.0
  0
POINT
  5
35C
330
77
100
AcDbEntity
  8
Defpoints
 62
     0
100
AcDbPoint
 10
1249.0
 20
-205.92613220214
 30
0.0
  0
ENDBLK
  5
82
330
77
100
AcDbEntity
  8
0
100
AcDbBlockEnd
  0
BLOCK
  5
F50
330
A7
100
AcDbEntity
  8
0
100
AcDbBlockBegin
  2
_Open
 70
     0
 10
0.0
 20
0.0
 30
0.0
  3
_Open
  1

  0
LINE
  5
F51
330
A7
100
AcDbEntity
  8
outline
 62
     0
370
    -2
100
AcDbLine
 10
-1.0
 20
0.1666666666666666
 30
0.0
 11
0.0
 21
0.0
 31
0.0
  0
LINE
  5
F53
330
A7
100
AcDbEntity
  8
outline
 62
     0
370
    -2
100
AcDbLine
 10
-1.0
 20
-0.1666666666666666
 30
0.0
 11
0.0
 21
0.0
 31
0.0
  0
LINE
  5
F54
330
A7
100
AcDbEntity
  8
outline
 62
     0
370
    -2
100
AcDbLine
 10
0.0
 20
0.0
 30
0.0
 11
-1.0
 21
0.0
 31
0.0
  0
ENDBLK
  5
F55
330
A7
100
AcDbEntity
  8
0
100
AcDbBlockEnd
  0
BLOCK
  5
F15
330
3FA
100
AcDbEntity
  8
0
100
AcDbBlockBegin
  2
GENAXEH
 70
     0
 10
0.0
 20
0.0
 30
0.0
  3
GENAXEH
  1

  0
LINE
  5
F16
330
3FA
100
AcDbEntity
  8
0
100
AcDbLine
 10
-1.0
 20
0.0
 30
0.0
 11
1.0
 21
0.0
 31
0.0
  0
ENDBLK
  5
F17
330
3FA
100
AcDbEntity
  8
0
100
AcDbBlockEnd
  0
BLOCK
  5
8E0
330
8D6
100
AcDbEntity
  8
0
100
AcDbBlockBegin
  2
*D4
 70
     1
 10
0.0
 20
0.0
 30
0.0
  3
*D4
  1

  0
LINE
  5
8E2
330
8D6
100
AcDbEntity
  8
PV0001_1
 62
    44
370
    -2
100
AcDbLine
 10
249.0
 20
-737.49998474121
 30
0.0
 11
249.0
 21
-783.42613220214
 31
0.0
  0
LINE
  5
8E3
330
8D6
100
AcDbEntity
  8
PV0001_1
 62
    44
370
    -2
100
AcDbLine
 10
1249.0
 20
-737.49998474121
 30
0.0
 11
1249.0
 21
-783.42613220214
 31
0.0
  0
LINE
  5
8E4
330
8D6
100
AcDbEntity
  8
PV0001_1
 62
    44
370
    -2
100
AcDbLine
 10
252.0
 20
-781.42613220214
 30
0.0
 11
1246.0
 21
-781.42613220214
 31
0.0
  0
INSERT
  5
8E5
330
8D6
100
AcDbEntity
  8
PV0001_1
 62
    44
370
    -2
100
AcDbBlockReference
  2
_Open
 10
249.0
 20
-781.42613220214
 30
0.0
 41
3.0
 42
3.0
 43
3.0
 50
180.0
  0
INSERT
  5
8E6
330
8D6
100
AcDbEntity
  8
PV0001_1
 62
    44
370
    -2
100
AcDbBlockReference
  2
_Open
 10
1249.0
 20
-781.42613220214
 30
0.0
 41
3.0
 42
3.0
 43
3.0
  0
MTEXT
  5
8E7
330
8D6
100
AcDbEntity
  8
PV0001_1
 62
    44
100
AcDbMText
 10
749.0
 20
-779.1261322021401
 30
0.0
 40
3.2
 41
0.0
 71
     5
 72
     1
  1
\A1;L
 73
     1
 44
1.0
1001
ACAD
1000
MTEXTBEGIN
1070
    73
1070
     1
1070
    44
1040
1.0
1070
    74
1070
     0
1000
MTEXTEND
  0
POINT
  5
8E8
330
8D6
100
AcDbEntity
  8
Defpoints
 62
     0
100
AcDbPoint
 10
249.0
 20
-736.49998474121
 30
0.0
  0
POINT
  5
8E9
330
8D6
100
AcDbEntity
  8
Defpoints
 62
     0
100
AcDbPoint
 10
1249.0
 20
-736.49998474121
 30
0.0
  0
POINT
  5
8EA
330
8D6
100
AcDbEntity
  8
Defpoints
 62
     0
100
AcDbPoint
 10
1249.0
 20
-781.42613220214
 30
0.0
  0
ENDBLK
  5
8E1
330
8D6
100
AcDbEntity
  8
0
100
AcDbBlockEnd
  0
ENDSEC
  0
SECTION
  2
ENTITIES
  0
DIMENSION
  5
76
330
18
100
AcDbEntity
  8
PV0001_1
100
AcDbDimension
  2
*D1
 10
1249.0
 20
-205.92613220214
 30
0.0
 11
749.0
 21
-205.92613220214
 31
0.0
 70
   160
  1
L
 71
     5
 42
-1.0
  3
STANDARD
100
AcDbAlignedDimension
 13
249.0
 23
-160.99998474121
 33
0.0
 14
1249.0
 24
-160.99998474121
 34
0.0
100
AcDbRotatedDimension
1001
ACAD
1000
DSTYLE
1002
{
1070
   284
1070
     8
1070
   140
1040
3.2
1070
   271
1070
     0
1070
    45
1040
0.1
1070
   173
1070
     1
1070
     6
1000
OPEN
1070
     7
1000
OPEN
1002
}
  0
LINE
  5
C8
330
18
100
AcDbEntity
  8
PV0001_1
  6
Continuous
370
    50
100
AcDbLine
 10
1481.0
 20
20.0
 30
0.0
 11
1481.0
 21
-555.4999999999999
 31
0.0
  0
LINE
  5
C9
330
18
100
AcDbEntity
  8
PV0001_1
  6
Continuous
370
    50
100
AcDbLine
 10
0.0
 20
20.0
 30
0.0
 11
1481.0
 21
20.0
 31
0.0
  0
LINE
  5
CA
330
18
100
AcDbEntity
  8
PV0001_1
  6
Continuous
370
    50
100
AcDbLine
 10
0.0
 20
20.0
 30
0.0
 11
0.0
 21
-555.4999999999999
 31
0.0
  0
LINE
  5
CB
330
18
100
AcDbEntity
  8
PV0001_1
  6
Continuous
 48
0.5
370
    50
100
AcDbLine
 10
39.671600341796
 20
13.399993896484
 30
0.0
 11
40.92251586914
 21
13.399993896484
 31
0.0
  0
LINE
  5
CC
330
18
100
AcDbEntity
  8
PV0001_1
  6
Continuous
 48
0.5
370
    50
100
AcDbLine
 10
41.800003051757
 20
11.600006103515
 30
0.0
 11
43.399993896484
 21
11.600006103515
 31
0.0
  0
LINE
  5
CD
330
18
100
AcDbEntity
  8
PV0001_1
  6
Continuous
 48
0.5
370
    50
100
AcDbLine
 10
41.51231384277299
 20
12.463258743286
 30
0.0
 11
41.800056457519
 21
11.600040435791
 31
0.0
  0
LINE
  5
CE
330
18
100
AcDbEntity
  8
PV0001_1
  6
Continuous
 48
0.5
370
    50
100
AcDbLine
 10
38.487823486328
 20
13.663226127624
 30
0.0
 11
39.154487609863
 21
15.663226127624
 31
0.0
  0
LINE
  5
CF
330
18
100
AcDbEntity
  8
PV0001_1
  6
Continuous
 48
0.5
370
    50
100
AcDbLine
 10
41.399993896484
 20
16.399997711181
 30
0.0
 11
43.400001525878
 21
11.599986076355
 31
0.0
  0
LINE
  5
D0
330
18
100
AcDbEntity
  8
PV0001_1
  6
Continuous
 48
0.5
370
    50
100
AcDbLine
 10
38.199981689453
 20
16.400003433227
 30
0.0
 11
36.199989318847
 21
11.600021362304
 31
0.0
  0
LINE
  5
D1
330
18
100
AcDbEntity
  8
PV0001_1
  6
Continuous
 48
0.5
370
    50
100
AcDbLine
 10
40.445644378662
 20
15.663269996643
 30
0.0
 11
41.112312316894
 21
13.663270950317
 31
0.0
  0
LINE
  5
D2
330
18
100
AcDbEntity
  8
PV0001_1
  6
Continuous
 48
0.5
370
    50
100
AcDbLine
 10
37.800079345703
 20
11.599996566772
 30
0.0
 11
38.087825775146
 21
12.463243484497
 31
0.0
  0
LINE
  5
D3
330
18
100
AcDbEntity
  8
PV0001_1
  6
Continuous
 48
0.5
370
    50
100
AcDbLine
 10
38.677490234375
 20
13.399993896484
 30
0.0
 11
39.671600341796
 21
13.399993896484
 31
0.0
  0
LINE
  5
D4
330
18
100
AcDbEntity
  8
PV0001_1
  6
Continuous
 48
0.5
370
    50
100
AcDbLine
 10
38.27749633789
 20
12.600006103515
 30
0.0
 11
41.322509765625
 21
12.600006103515
 31
0.0
  0
LINE
  5
D5
330
18
100
AcDbEntity
  8
PV0001_1
  6
Continuous
 48
0.5
370
    50
100
AcDbLine
 10
38.199996948242
 20
16.399993896484
 30
0.0
 11
41.399993896484
 21
16.399993896484
 31
0.0
  0
LINE
  5
D6
330
18
100
AcDbEntity
  8
PV0001_1
  6
Continuous
 48
0.5
370
    50
100
AcDbLine
 10
39.344146728515
 20
15.799987792968
 30
0.0
 11
40.25585937499999
 21
15.799987792968
 31
0.0
  0
LINE
  5
D7
330
18
100
AcDbEntity
  8
PV0001_1
  6
Continuous
 48
0.5
370
    50
100
AcDbLine
 10
36.199996948242
 20
11.600006103515
 30
0.0
 11
37.800003051757
 21
11.600006103515
 31
0.0
  0
LINE
  5
D8
330
18
100
AcDbEntity
  8
PV0001_1
  6
Continuous
 48
0.5
370
    50
100
AcDbLine
 10
31.600006103515
 20
12.399993896484
 30
0.0
 11
33.80000305175701
 21
12.399993896484
 31
0.0
  0
LINE
  5
D9
330
18
100
AcDbEntity
  8
PV0001_1
  6
Continuous
 48
0.5
370
    50
100
AcDbLine
 10
34.600006103515
 20
15.0
 30
0.0
 11
34.600006103515
 21
13.200012207031
 31
0.0
  0
LINE
  5
DA
330
18
100
AcDbEntity
  8
PV0001_1
  6
Continuous
 48
0.5
370
    50
100
AcDbLine
 10
31.399993896484
 20
15.600006103515
 30
0.0
 11
31.399993896484
 21
12.600006103515
 31
0.0
  0
LINE
  5
DB
330
18
100
AcDbEntity
  8
PV0001_1
  6
Continuous
 48
0.5
370
    50
100
AcDbLine
 10
29.800003051757
 20
16.400024414062
 30
0.0
 11
29.800003051757
 21
11.600006103515
 31
0.0
  0
LINE
  5
DC
330
18
100
AcDbEntity
  8
PV0001_1
  6
Continuous
 48
0.5
370
    50
100
AcDbLine
 10
36.199996948242
 20
15.0
 30
0.0
 11
36.199996948242
 21
13.0
 31
0.0
  0
LINE
  5
DD
330
18
100
AcDbEntity
  8
PV0001_1
  6
Continuous
 48
0.5
370
    50
100
AcDbLine
 10
27.800003051757
 20
15.0
 30
0.0
 11
27.800003051757
 21
13.200012207031
 31
0.0
  0
LINE
  5
DE
330
18
100
AcDbEntity
  8
PV0001_1
  6
Continuous
 48
0.5
370
    50
100
AcDbLine
 10
24.399993896484
 20
15.0
 30
0.0
 11
24.399993896484
 21
13.200012207031
 31
0.0
  0
LINE
  5
DF
330
18
100
AcDbEntity
  8
PV0001_1
  6
Continuous
 48
0.5
370
    50
100
AcDbLine
 10
25.199996948242
 20
12.399993896484
 30
0.0
 11
27.0
 21
12.399993896484
 31
0.0
  0
LINE
  5
E0
330
18
100
AcDbEntity
  8
PV0001_1
  6
Continuous
 48
0.5
370
    50
100
AcDbLine
 10
29.800003051757
 20
16.399993896484
 30
0.0
 11
34.800003051757
 21
16.399993896484
 31
0.0
  0
LINE
  5
E1
330
18
100
AcDbEntity
  8
PV0001_1
  6
Continuous
 48
0.5
370
    50
100
AcDbLine
 10
31.600006103515
 20
15.799987792968
 30
0.0
 11
33.80000305175701
 21
15.799987792968
 31
0.0
  0
LINE
  5
E2
330
18
100
AcDbEntity
  8
PV0001_1
  6
Continuous
 48
0.5
370
    50
100
AcDbLine
 10
29.793655395507
 20
11.600006103515
 30
0.0
 11
34.800003051757
 21
11.600006103515
 31
0.0
  0
LINE
  5
E3
330
18
100
AcDbEntity
  8
PV0001_1
  6
Continuous
 48
0.5
370
    50
100
AcDbLine
 10
29.399993896484
 20
15.0
 30
0.0
 11
29.399993896484
 21
13.0
 31
0.0
  0
LINE
  5
E4
330
18
100
AcDbEntity
  8
PV0001_1
  6
Continuous
 48
0.5
370
    50
100
AcDbLine
 10
22.800003051757
 20
15.0
 30
0.0
 11
22.800003051757
 21
13.0
 31
0.0
  0
LINE
  5
E5
330
18
100
AcDbEntity
  8
PV0001_1
  6
Continuous
 48
0.5
370
    50
100
AcDbLine
 10
20.800003051757
 20
12.600006103515
 30
0.0
 11
20.800003051757
 21
11.600006103515
 31
0.0
  0
LINE
  5
E6
330
18
100
AcDbEntity
  8
PV0001_1
  6
Continuous
 48
0.5
370
    50
100
AcDbLine
 10
24.199996948242
 20
16.399993896484
 30
0.0
 11
28.0
 21
16.399993896484
 31
0.0
  0
LINE
  5
E7
330
18
100
AcDbEntity
  8
PV0001_1
  6
Continuous
 48
0.5
370
    50
100
AcDbLine
 10
25.199996948242
 20
15.799987792968
 30
0.0
 11
27.0
 21
15.799987792968
 31
0.0
  0
LINE
  5
E8
330
18
100
AcDbEntity
  8
PV0001_1
  6
Continuous
 48
0.5
370
    50
100
AcDbLine
 10
24.199996948242
 20
11.600006103515
 30
0.0
 11
28.0
 21
11.600006103515
 31
0.0
  0
LINE
  5
E9
330
18
100
AcDbEntity
  8
PV0001_1
  6
Continuous
 48
0.5
370
    50
100
AcDbLine
 10
17.899993896484
 20
12.799987792968
 30
0.0
 11
17.899993896484
 21
11.600006103515
 31
0.0
  0
LINE
  5
EA
330
18
100
AcDbEntity
  8
PV0001_1
  6
Continuous
 48
0.5
370
    50
100
AcDbLine
 10
20.800003051757
 20
11.600006103515
 30
0.0
 11
22.5
 21
11.600006103515
 31
0.0
  0
LINE
  5
EB
330
18
100
AcDbEntity
  8
PV0001_1
  6
Continuous
 48
0.5
370
    50
100
AcDbLine
 10
18.100006103515
 20
13.899993896484
 30
0.0
 11
20.199996948242
 21
13.899993896484
 31
0.0
  0
LINE
  5
EC
330
18
100
AcDbEntity
  8
PV0001_1
  6
Continuous
 48
0.5
370
    50
100
AcDbLine
 10
18.100006103515
 20
15.799987792968
 30
0.0
 11
20.199996948242
 21
15.799987792968
 31
0.0
  0
LINE
  5
ED
330
18
100
AcDbEntity
  8
PV0001_1
  6
Continuous
 48
0.5
370
    50
100
AcDbLine
 10
18.300003051757
 20
13.200012207031
 30
0.0
 11
20.199996948242
 21
13.200012207031
 31
0.0
  0
LINE
  5
EE
330
18
100
AcDbEntity
  8
PV0001_1
  6
Continuous
 48
0.5
370
    50
100
AcDbLine
 10
17.899993896484
 20
15.600006103515
 30
0.0
 11
17.899993896484
 21
14.100006103515
 31
0.0
  0
LINE
  5
EF
330
18
100
AcDbEntity
  8
PV0001_1
  6
Continuous
 48
0.5
370
    50
100
AcDbLine
 10
20.800003051757
 20
15.200012207031
 30
0.0
 11
20.800003051757
 21
14.5
 31
0.0
  0
LINE
  5
F0
330
18
100
AcDbEntity
  8
PV0001_1
  6
Continuous
 48
0.5
370
    50
100
AcDbLine
 10
16.300003051757
 20
16.400024414062
 30
0.0
 11
16.300003051757
 21
11.600006103515
 31
0.0
  0
LINE
  5
F1
330
18
100
AcDbEntity
  8
PV0001_1
  6
Continuous
 48
0.5
370
    50
100
AcDbLine
 10
16.300003051757
 20
11.600006103515
 30
0.0
 11
17.899993896484
 21
11.600006103515
 31
0.0
  0
LINE
  5
F2
330
18
100
AcDbEntity
  8
PV0001_1
  6
Continuous
 48
0.5
370
    50
100
AcDbLine
 10
16.300003051757
 20
16.399993896484
 30
0.0
 11
21.0
 21
16.399993896484
 31
0.0
  0
LINE
  5
F3
330
18
100
AcDbEntity
  8
PV0001_1
  6
Continuous
 48
0.5
370
    50
100
AcDbLine
 10
14.399993896484
 20
16.399993896484
 30
0.0
 11
15.800003051757
 21
16.399993896484
 31
0.0
  0
LINE
  5
F4
330
18
100
AcDbEntity
  8
PV0001_1
  6
Continuous
 48
0.5
370
    50
100
AcDbLine
 10
11.600006103515
 20
12.399993896484
 30
0.0
 11
13.800003051757
 21
12.399993896484
 31
0.0
  0
LINE
  5
F5
330
18
100
AcDbEntity
  8
PV0001_1
  6
Continuous
 48
0.5
370
    50
100
AcDbLine
 10
14.399993896484
 20
16.400024414062
 30
0.0
 11
14.399993896484
 21
13.0
 31
0.0
  0
LINE
  5
F6
330
18
100
AcDbEntity
  8
PV0001_1
  6
Continuous
 48
0.5
370
    50
100
AcDbLine
 10
11.0
 20
16.399993896484
 30
0.0
 11
11.0
 21
13.0
 31
0.0
  0
LINE
  5
F7
330
18
100
AcDbEntity
  8
PV0001_1
  6
Continuous
 48
0.5
370
    50
100
AcDbLine
 10
15.800003051757
 20
16.400024414062
 30
0.0
 11
15.800003051757
 21
12.799987792968
 31
0.0
  0
LINE
  5
F8
330
18
100
AcDbEntity
  8
PV0001_1
  6
Continuous
 48
0.5
370
    50
100
AcDbLine
 10
4.6000061035156
 20
13.799987792968
 30
0.0
 11
4.6000061035156
 21
11.600006103515
 31
0.0
  0
LINE
  5
F9
330
18
100
AcDbEntity
  8
PV0001_1
  6
Continuous
 48
0.5
370
    50
100
AcDbLine
 10
7.199996948242199
 20
16.399993896484
 30
0.0
 11
9.199996948242199
 21
16.399993896484
 31
0.0
  0
LINE
  5
FA
330
18
100
AcDbEntity
  8
PV0001_1
  6
Continuous
 48
0.5
370
    50
100
AcDbLine
 10
7.6000061035156
 20
11.600006103515
 30
0.0
 11
9.6000061035156
 21
11.600006103515
 31
0.0
  0
LINE
  5
FB
330
18
100
AcDbEntity
  8
PV0001_1
  6
Continuous
 48
0.5
370
    50
100
AcDbLine
 10
7.330967426299999
 20
14.530930519104
 30
0.0
 11
9.2000274658203
 21
16.399990081787
 31
0.0
  0
LINE
  5
FC
330
18
100
AcDbEntity
  8
PV0001_1
  6
Continuous
 48
0.5
370
    50
100
AcDbLine
 10
5.860056400299099
 20
14.677218437194
 30
0.0
 11
7.1999974250793
 21
16.39999961853
 31
0.0
  0
LINE
  5
FD
330
18
100
AcDbEntity
  8
PV0001_1
  6
Continuous
 48
0.5
370
    50
100
AcDbLine
 10
7.3205423355103
 20
14.259415626525
 30
0.0
 11
9.600020408630399
 21
11.600024223327
 31
0.0
  0
LINE
  5
FE
330
18
100
AcDbEntity
  8
PV0001_1
  6
Continuous
 48
0.5
370
    50
100
AcDbLine
 10
5.859954833984399
 20
13.919975280761
 30
0.0
 11
7.5999603271484
 21
11.599967956543
 31
0.0
  0
LINE
  5
FF
330
18
100
AcDbEntity
  8
PV0001_1
  6
Continuous
 48
0.5
370
    50
100
AcDbLine
 10
4.8000030517578
 20
14.600006103515
 30
0.0
 11
5.7021789550781
 21
14.600006103515
 31
0.0
  0
LINE
  5
100
330
18
100
AcDbEntity
  8
PV0001_1
  6
Continuous
 48
0.5
370
    50
100
AcDbLine
 10
4.8000030517578
 20
14.0
 30
0.0
 11
5.699996948242199
 21
14.0
 31
0.0
  0
LINE
  5
101
330
18
100
AcDbEntity
  8
PV0001_1
  6
Continuous
 48
0.5
370
    50
100
AcDbLine
 10
9.6000061035156
 20
16.399993896484
 30
0.0
 11
11.0
 21
16.399993896484
 31
0.0
  0
LINE
  5
102
330
18
100
AcDbEntity
  8
PV0001_1
  6
Continuous
 48
0.5
370
    50
100
AcDbLine
 10
10.800003051757
 20
11.600006103515
 30
0.0
 11
14.600006103515
 21
11.600006103515
 31
0.0
  0
LINE
  5
103
330
18
100
AcDbEntity
  8
PV0001_1
  6
Continuous
 48
0.5
370
    50
100
AcDbLine
 10
9.6000061035156
 20
16.399993896484
 30
0.0
 11
9.6000061035156
 21
12.799987792968
 31
0.0
  0
LINE
  5
104
330
18
100
AcDbEntity
  8
PV0001_1
  6
Continuous
 48
0.5
370
    50
100
AcDbLine
 10
4.6000061035156
 20
16.399993896484
 30
0.0
 11
4.6000061035156
 21
14.799987792968
 31
0.0
  0
LINE
  5
105
330
18
100
AcDbEntity
  8
PV0001_1
  6
Continuous
 48
0.5
370
    50
100
AcDbLine
 10
3.0
 20
16.399993896484
 30
0.0
 11
4.6000061035156
 21
16.399993896484
 31
0.0
  0
LINE
  5
106
330
18
100
AcDbEntity
  8
PV0001_1
  6
Continuous
 48
0.5
370
    50
100
AcDbLine
 10
3.0
 20
16.399993896484
 30
0.0
 11
3.0
 21
11.600006103515
 31
0.0
  0
LINE
  5
107
330
18
100
AcDbEntity
  8
PV0001_1
  6
Continuous
 48
0.5
370
    50
100
AcDbLine
 10
3.0
 20
11.600006103515
 30
0.0
 11
4.6000061035156
 21
11.600006103515
 31
0.0
  0
LINE
  5
108
330
18
100
AcDbEntity
  8
PV0001_1
  6
Continuous
 48
0.5
370
    50
100
AcDbLine
 10
108.39999389648
 20
20.0
 30
0.0
 11
108.39999389648
 21
8.0
 31
0.0
  0
LINE
  5
109
330
18
100
AcDbEntity
  8
PV0001_1
  6
Continuous
 48
0.5
370
    50
100
AcDbLine
 10
46.399993896484
 20
20.0
 30
0.0
 11
46.399993896484
 21
8.0
 31
0.0
  0
LINE
  5
10A
330
18
100
AcDbEntity
  8
PV0001_1
  6
Continuous
 48
0.5
370
   100
100
AcDbLine
 10
281.71597290039
 20
16.700012207031
 30
0.0
 11
281.71597290039
 21
11.299987792968
 31
0.0
  0
LINE
  5
10B
330
18
100
AcDbEntity
  8
PV0001_1
  6
Continuous
 48
0.5
370
   100
100
AcDbLine
 10
275.23599243164
 20
12.379631996154
 30
0.0
 11
281.71597290039
 21
11.299633979797
 31
0.0
  0
LINE
  5
10C
330
18
100
AcDbEntity
  8
PV0001_1
  6
Continuous
 48
0.5
370
   100
100
AcDbLine
 10
275.23596191406
 20
15.619995117187
 30
0.0
 11
275.23596191406
 21
12.379943847656
 31
0.0
  0
LINE
  5
10D
330
18
100
AcDbEntity
  8
PV0001_1
  6
Continuous
 48
0.5
370
   100
100
AcDbLine
 10
275.23605346679
 20
15.619656562805
 30
0.0
 11
281.71606445312
 21
16.699659347534
 31
0.0
  0
LINE
  5
10E
330
18
100
AcDbEntity
  8
PV0001_1
  6
CENTER2
 48
0.5
370
    25
100
AcDbLine
 10
274.3935546875
 20
14.0
 30
0.0
 11
282.82943725585
 21
14.0
 31
0.0
  0
LINE
  5
10F
330
18
100
AcDbEntity
  8
PV0001_1
  6
CENTER2
 48
0.5
370
    25
100
AcDbLine
 10
266.30798339843
 20
17.94482421875
 30
0.0
 11
266.30798339843
 21
10.267120361328
 31
0.0
  0
LINE
  5
110
330
18
100
AcDbEntity
  8
PV0001_1
  6
CENTER2
 48
0.5
370
    25
100
AcDbLine
 10
262.46533203125
 20
14.0
 30
0.0
 11
270.05261230468
 21
14.0
 31
0.0
  0
LINE
  5
111
330
18
100
AcDbEntity
  8
PV0001_1
  6
Continuous
 48
0.5
370
    50
100
AcDbLine
 10
289.30798339843
 20
20.0
 30
0.0
 11
289.30798339843
 21
8.0
 31
0.0
  0
LINE
  5
112
330
18
100
AcDbEntity
  8
PV0001_1
  6
Continuous
 48
0.5
370
    50
100
AcDbLine
 10
259.30798339843
 20
20.0
 30
0.0
 11
259.30798339843
 21
8.0
 31
0.0
  0
LINE
  5
113
330
18
100
AcDbEntity
  8
PV0001_1
  6
Continuous
 48
0.5
370
    50
100
AcDbLine
 10
232.39999389648
 20
20.0
 30
0.0
 11
232.39999389648
 21
8.0
 31
0.0
  0
LINE
  5
114
330
18
100
AcDbEntity
  8
PV0001_1
  6
Continuous
370
    50
100
AcDbLine
 10
108.39999389648
 20
-4.0
 30
0.0
 11
259.30798339843
 21
-4.0
 31
0.0
  0
LINE
  5
115
330
18
100
AcDbEntity
  8
PV0001_1
  6
Continuous
 48
0.5
370
    50
100
AcDbLine
 10
232.39999389648
 20
8.0
 30
0.0
 11
232.39999389648
 21
-4.0
 31
0.0
  0
LINE
  5
116
330
18
100
AcDbEntity
  8
PV0001_1
  6
Continuous
 48
0.5
370
    50
100
AcDbLine
 10
108.39999389648
 20
8.0
 30
0.0
 11
108.39999389648
 21
-4.0
 31
0.0
  0
LINE
  5
117
330
18
100
AcDbEntity
  8
PV0001_1
  6
Continuous
 48
0.5
370
    50
100
AcDbLine
 10
259.30798339843
 20
8.0
 30
0.0
 11
259.30798339843
 21
-4.0
 31
0.0
  0
LINE
  5
118
330
18
100
AcDbEntity
  8
PV0001_1
  6
Continuous
370
    50
100
AcDbLine
 10
0.0
 20
-555.4999999999999
 30
0.0
 11
1481.0
 21
-555.4999999999999
 31
0.0
  0
LINE
  5
119
330
18
100
AcDbEntity
  8
PV0001_1
  6
Continuous
370
    50
100
AcDbLine
 10
108.39999389648
 20
-16.0
 30
0.0
 11
259.30798339843
 21
-16.0
 31
0.0
  0
LINE
  5
11A
330
18
100
AcDbEntity
  8
PV0001_1
  6
Continuous
 48
0.5
370
    50
100
AcDbLine
 10
232.39999389648
 20
-4.0
 30
0.0
 11
232.39999389648
 21
-16.0
 31
0.0
  0
LINE
  5
11B
330
18
100
AcDbEntity
  8
PV0001_1
  6
Continuous
 48
0.5
370
    50
100
AcDbLine
 10
108.39999389648
 20
-4.0
 30
0.0
 11
108.39999389648
 21
-16.0
 31
0.0
  0
LINE
  5
11C
330
18
100
AcDbEntity
  8
PV0001_1
  6
Continuous
 48
0.5
370
    50
100
AcDbLine
 10
259.30798339843
 20
-4.0
 30
0.0
 11
259.30798339843
 21
-16.0
 31
0.0
  0
LINE
  5
11D
330
18
100
AcDbEntity
  8
PV0001_1
  6
CENTER2
370
    25
100
AcDbLine
 10
171.5
 20
-319.86364746093
 30
0.0
 11
171.5
 21
-218.04545593261
 31
0.0
  0
LINE
  5
11E
330
18
100
AcDbEntity
  8
PV0001_1
  6
CENTER2
370
    25
100
AcDbLine
 10
204.36116027832
 20
-268.5
 30
0.0
 11
134.00001525878
 21
-268.5
 31
0.0
  0
LINE
  5
11F
330
18
100
AcDbEntity
  8
PV0001_1
  6
Continuous
370
    50
100
AcDbLine
 10
193.77108764648
 20
-295.5
 30
0.0
 11
149.22894287109
 21
-295.5
 31
0.0
  0
LINE
  5
120
330
18
100
AcDbEntity
  8
PV0001_1
  6
Continuous
370
    50
100
AcDbLine
 10
193.77108764648
 20
-241.50001525878
 30
0.0
 11
149.22894287109
 21
-241.50001525878
 31
0.0
  0
LINE
  5
121
330
18
100
AcDbEntity
  8
PV0001_1
  6
Continuous
370
    50
100
AcDbLine
 10
144.50001525878
 20
-290.7710571289
 30
0.0
 11
144.50001525878
 21
-246.22891235351
 31
0.0
  0
LINE
  5
122
330
18
100
AcDbEntity
  8
PV0001_1
  6
Continuous
370
    50
100
AcDbLine
 10
198.5
 20
-290.7710571289
 30
0.0
 11
198.5
 21
-246.22891235351
 31
0.0
  0
LINE
  5
123
330
18
100
AcDbEntity
  8
PV0001_1
  6
CENTER2
 48
0.5
370
    25
100
AcDbLine
 10
156.65100097656
 20
-283.34896850585
 30
0.0
 11
145.9966430664
 21
-294.00332641601
 31
0.0
  0
LINE
  5
124
330
18
100
AcDbEntity
  8
PV0001_1
  6
CENTER2
 48
0.5
370
    25
100
AcDbLine
 10
186.34901428222
 20
-283.34899902343
 30
0.0
 11
197.00335693359
 21
-294.00335693359
 31
0.0
  0
LINE
  5
125
330
18
100
AcDbEntity
  8
PV0001_1
  6
CENTER2
 48
0.5
370
    25
100
AcDbLine
 10
156.65098571777
 20
-253.65098571777
 30
0.0
 11
145.9966430664
 21
-242.99665832519
 31
0.0
  0
LINE
  5
126
330
18
100
AcDbEntity
  8
PV0001_1
  6
CENTER2
 48
0.5
370
    25
100
AcDbLine
 10
186.34899902343
 20
-253.65097045898
 30
0.0
 11
197.00335693359
 21
-242.99659729003
 31
0.0
  0
LINE
  5
127
330
18
100
AcDbEntity
  8
PV0001_1
  6
Continuous
370
    50
100
AcDbLine
 10
141.5
 20
-315.99996948242
 30
0.0
 11
141.5
 21
-220.99998474121
 31
0.0
  0
LINE
  5
128
330
18
100
AcDbEntity
  8
PV0001_1
  6
Continuous
370
    50
100
AcDbLine
 10
199.50001525878
 20
-296.5
 30
0.0
 11
199.50001525878
 21
-240.49996948242
 31
0.0
  0
LINE
  5
129
330
18
100
AcDbEntity
  8
PV0001_1
  6
Continuous
370
    50
100
AcDbLine
 10
186.50001525878
 20
-221.0
 30
0.0
 11
141.50001525878
 21
-221.0
 31
0.0
  0
LINE
  5
12A
330
18
100
AcDbEntity
  8
PV0001_1
  6
Continuous
370
    50
100
AcDbLine
 10
186.50001525878
 20
-316.0
 30
0.0
 11
141.50001525878
 21
-316.0
 31
0.0
  0
LINE
  5
12B
330
18
100
AcDbEntity
  8
PV0001_1
  6
Continuous
 48
0.5
370
    50
100
AcDbLine
 10
199.50001525878
 20
-296.5
 30
0.0
 11
186.50001525878
 21
-296.5
 31
0.0
  0
LINE
  5
12C
330
18
100
AcDbEntity
  8
PV0001_1
  6
Continuous
 48
0.5
370
    50
100
AcDbLine
 10
199.50001525878
 20
-240.5
 30
0.0
 11
186.50001525878
 21
-240.5
 31
0.0
  0
LINE
  5
12D
330
18
100
AcDbEntity
  8
PV0001_1
  6
Continuous
 48
0.5
370
    50
100
AcDbLine
 10
186.5
 20
-315.99996948242
 30
0.0
 11
186.5
 21
-296.5
 31
0.0
  0
LINE
  5
12E
330
18
100
AcDbEntity
  8
PV0001_1
  6
Continuous
 48
0.5
370
    50
100
AcDbLine
 10
186.5
 20
-240.49996948242
 30
0.0
 11
186.5
 21
-220.99998474121
 31
0.0
  0
LINE
  5
12F
330
18
100
AcDbEntity
  8
PV0001_1
  6
CENTER2
370
    25
100
AcDbLine
 10
189.58367919921
 20
-306.0
 30
0.0
 11
139.60098266601
 21
-306.0
 31
0.0
  0
LINE
  5
130
330
18
100
AcDbEntity
  8
PV0001_1
  6
DASHED2
370
    50
100
AcDbLine
 10
171.50001525878
 20
-311.5
 30
0.0
 11
141.50001525878
 21
-311.5
 31
0.0
  0
LINE
  5
131
330
18
100
AcDbEntity
  8
PV0001_1
  6
DASHED2
370
    50
100
AcDbLine
 10
171.50001525878
 20
-300.5
 30
0.0
 11
141.50001525878
 21
-300.5
 31
0.0
  0
LINE
  5
132
330
18
100
AcDbEntity
  8
PV0001_1
  6
DASHED2
 48
0.5
370
    50
100
AcDbLine
 10
186.50001525878
 20
-314.5
 30
0.0
 11
171.50001525878
 21
-314.5
 31
0.0
  0
LINE
  5
133
330
18
100
AcDbEntity
  8
PV0001_1
  6
DASHED2
 48
0.5
370
    50
100
AcDbLine
 10
186.50001525878
 20
-297.49996948242
 30
0.0
 11
171.50001525878
 21
-297.49996948242
 31
0.0
  0
LINE
  5
134
330
18
100
AcDbEntity
  8
PV0001_1
  6
DASHED2
 48
0.5
370
    50
100
AcDbLine
 10
171.5
 20
-314.49996948242
 30
0.0
 11
171.5
 21
-297.49996948242
 31
0.0
  0
LINE
  5
135
330
18
100
AcDbEntity
  8
PV0001_1
  6
DASHED2
 48
0.5
370
    50
100
AcDbLine
 10
186.50001525878
 20
-239.50001525878
 30
0.0
 11
171.50001525878
 21
-239.50001525878
 31
0.0
  0
LINE
  5
136
330
18
100
AcDbEntity
  8
PV0001_1
  6
DASHED2
 48
0.5
370
    50
100
AcDbLine
 10
171.5
 20
-222.49996948242
 30
0.0
 11
171.5
 21
-239.5
 31
0.0
  0
LINE
  5
137
330
18
100
AcDbEntity
  8
PV0001_1
  6
DASHED2
370
    50
100
AcDbLine
 10
171.50001525878
 20
-236.50001525878
 30
0.0
 11
141.50001525878
 21
-236.50001525878
 31
0.0
  0
LINE
  5
138
330
18
100
AcDbEntity
  8
PV0001_1
  6
CENTER2
370
    25
100
AcDbLine
 10
189.58367919921
 20
-231.0
 30
0.0
 11
139.60098266601
 21
-231.0
 31
0.0
  0
LINE
  5
139
330
18
100
AcDbEntity
  8
PV0001_1
  6
DASHED2
370
    50
100
AcDbLine
 10
171.50001525878
 20
-225.5
 30
0.0
 11
141.50001525878
 21
-225.5
 31
0.0
  0
LINE
  5
13A
330
18
100
AcDbEntity
  8
PV0001_1
  6
DASHED2
 48
0.5
370
    50
100
AcDbLine
 10
186.50001525878
 20
-222.49998474121
 30
0.0
 11
171.50001525878
 21
-222.49998474121
 31
0.0
  0
LINE
  5
13B
330
18
100
AcDbEntity
  8
PV0001_1
  6
Continuous
 48
0.5
370
    50
100
AcDbLine
 10
156.5
 20
-277.51388549804
 30
0.0
 11
156.5
 21
-259.48608398437
 31
0.0
  0
LINE
  5
13C
330
18
100
AcDbEntity
  8
PV0001_1
  6
Continuous
 48
0.5
370
    50
100
AcDbLine
 10
186.5
 20
-277.51388549804
 30
0.0
 11
186.5
 21
-259.48608398437
 31
0.0
  0
LINE
  5
13D
330
18
100
AcDbEntity
  8
PV0001_1
  6
Continuous
 48
0.5
370
    50
100
AcDbLine
 10
180.51390075683
 20
-253.5
 30
0.0
 11
162.48611450195
 21
-253.5
 31
0.0
  0
LINE
  5
13E
330
18
100
AcDbEntity
  8
PV0001_1
  6
Continuous
 48
0.5
370
    50
100
AcDbLine
 10
180.51390075683
 20
-283.5
 30
0.0
 11
162.48611450195
 21
-283.5
 31
0.0
  0
LINE
  5
13F
330
18
100
AcDbEntity
  8
PV0001_1
  6
CENTER2
370
    25
100
AcDbLine
 10
171.5
 20
-351.0
 30
0.0
 11
171.5
 21
-426.0
 31
0.0
  0
LINE
  5
140
330
18
100
AcDbEntity
  8
PV0001_1
  6
CENTER2
370
    25
100
AcDbLine
 10
134.0
 20
-388.5
 30
0.0
 11
209.0
 21
-388.5
 31
0.0
  0
LINE
  5
141
330
18
100
AcDbEntity
  8
PV0001_1
  6
Continuous
370
    50
100
AcDbLine
 10
137.5
 20
-363.0
 30
0.0
 11
137.5
 21
-414.0
 31
0.0
  0
LINE
  5
142
330
18
100
AcDbEntity
  8
PV0001_1
  6
Continuous
370
    50
100
AcDbLine
 10
205.5
 20
-363.0
 30
0.0
 11
205.5
 21
-414.0
 31
0.0
  0
LINE
  5
143
330
18
100
AcDbEntity
  8
PV0001_1
  6
Continuous
370
    50
100
AcDbLine
 10
146.0
 20
-422.4999999999999
 30
0.0
 11
197.0
 21
-422.4999999999999
 31
0.0
  0
LINE
  5
144
330
18
100
AcDbEntity
  8
PV0001_1
  6
Continuous
370
    50
100
AcDbLine
 10
146.0
 20
-354.5
 30
0.0
 11
197.0
 21
-354.5
 31
0.0
  0
LINE
  5
145
330
18
100
AcDbEntity
  8
PV0001_1
  6
CENTER2
370
    25
100
AcDbLine
 10
139.10659790039
 20
-420.8933715820299
 30
0.0
 11
204.53297424316
 21
-355.46701049804
 31
0.0
  0
LINE
  5
146
330
18
100
AcDbEntity
  8
PV0001_1
  6
CENTER2
370
    25
100
AcDbLine
 10
203.89344787597
 20
-420.8934020995999
 30
0.0
 11
138.4670715332
 21
-355.46704101562
 31
0.0
  0
LINE
  5
147
330
18
100
AcDbEntity
  8
PV0001_1
  6
CENTER2
 48
0.5
370
    25
100
AcDbLine
 10
164.0005493164
 20
-406.60534667968
 30
0.0
 11
157.01734924316
 21
-423.4642333984299
 31
0.0
  0
LINE
  5
148
330
18
100
AcDbEntity
  8
PV0001_1
  6
CENTER2
 48
0.5
370
    25
100
AcDbLine
 10
189.60536193847
 20
-395.99945068359
 30
0.0
 11
206.46429443359
 21
-402.9826660156199
 31
0.0
  0
LINE
  5
149
330
18
100
AcDbEntity
  8
PV0001_1
  6
CENTER2
 48
0.5
370
    25
100
AcDbLine
 10
178.99945068359
 20
-370.39462280273
 30
0.0
 11
185.98263549804
 21
-353.53573608398
 31
0.0
  0
LINE
  5
14A
330
18
100
AcDbEntity
  8
PV0001_1
  6
CENTER2
 48
0.5
370
    25
100
AcDbLine
 10
153.3946685791
 20
-381.00051879882
 30
0.0
 11
136.53576660156
 21
-374.01733398437
 31
0.0
  0
LINE
  5
14B
330
18
100
AcDbEntity
  8
PV0001_1
  6
Continuous
 48
0.5
370
    50
100
AcDbLine
 10
186.5
 20
-379.48611450195
 30
0.0
 11
186.5
 21
-397.51388549804
 31
0.0
  0
LINE
  5
14C
330
18
100
AcDbEntity
  8
PV0001_1
  6
Continuous
 48
0.5
370
    50
100
AcDbLine
 10
156.5
 20
-379.48611450195
 30
0.0
 11
156.5
 21
-397.51388549804
 31
0.0
  0
LINE
  5
14D
330
18
100
AcDbEntity
  8
PV0001_1
  6
Continuous
 48
0.5
370
    50
100
AcDbLine
 10
162.48612976074
 20
-373.5
 30
0.0
 11
180.51388549804
 21
-373.5
 31
0.0
  0
LINE
  5
14E
330
18
100
AcDbEntity
  8
PV0001_1
  6
Continuous
 48
0.5
370
    50
100
AcDbLine
 10
162.48612976074
 20
-403.5
 30
0.0
 11
180.51388549804
 21
-403.5
 31
0.0
  0
LINE
  5
14F
330
18
100
AcDbEntity
  8
PV0001_1
  6
Continuous
370
    50
100
AcDbLine
 10
1395.0
 20
-221.0
 30
0.0
 11
1395.0
 21
-316.0
 31
0.0
  0
LINE
  5
150
330
18
100
AcDbEntity
  8
PV0001_1
  6
Continuous
370
    50
100
AcDbLine
 10
1350.0
 20
-221.0
 30
0.0
 11
1395.0
 21
-221.0
 31
0.0
  0
LINE
  5
151
330
18
100
AcDbEntity
  8
PV0001_1
  6
Continuous
370
    50
100
AcDbLine
 10
1350.0
 20
-316.0
 30
0.0
 11
1395.0
 21
-316.0
 31
0.0
  0
LINE
  5
152
330
18
100
AcDbEntity
  8
PV0001_1
  6
CENTER2
370
    25
100
AcDbLine
 10
1365.0
 20
-216.17440795898
 30
0.0
 11
1365.0
 21
-321.60076904296
 31
0.0
  0
LINE
  5
153
330
18
100
AcDbEntity
  8
PV0001_1
  6
CENTER2
370
    25
100
AcDbLine
 10
1330.5037841796
 20
-268.5
 30
0.0
 11
1401.4340820312
 21
-268.5
 31
0.0
  0
LINE
  5
154
330
18
100
AcDbEntity
  8
PV0001_1
  6
Continuous
370
    50
100
AcDbLine
 10
1337.0
 20
-240.5
 30
0.0
 11
1337.0
 21
-296.5
 31
0.0
  0
LINE
  5
155
330
18
100
AcDbEntity
  8
PV0001_1
  6
Continuous
 48
0.5
370
    50
100
AcDbLine
 10
1350.0
 20
-221.0
 30
0.0
 11
1350.0
 21
-240.5
 31
0.0
  0
LINE
  5
156
330
18
100
AcDbEntity
  8
PV0001_1
  6
Continuous
 48
0.5
370
    50
100
AcDbLine
 10
1337.0
 20
-240.5
 30
0.0
 11
1350.0
 21
-240.5
 31
0.0
  0
LINE
  5
157
330
18
100
AcDbEntity
  8
PV0001_1
  6
Continuous
 48
0.5
370
    50
100
AcDbLine
 10
1337.0
 20
-296.5
 30
0.0
 11
1350.0
 21
-296.5
 31
0.0
  0
LINE
  5
158
330
18
100
AcDbEntity
  8
PV0001_1
  6
Continuous
 48
0.5
370
    50
100
AcDbLine
 10
1350.0
 20
-296.5
 30
0.0
 11
1350.0
 21
-316.0
 31
0.0
  0
LINE
  5
159
330
18
100
AcDbEntity
  8
PV0001_1
  6
CENTER2
370
    25
100
AcDbLine
 10
1345.5120849609
 20
-231.0
 30
0.0
 11
1397.9989013671
 21
-231.0
 31
0.0
  0
LINE
  5
15A
330
18
100
AcDbEntity
  8
PV0001_1
  6
CENTER2
370
    25
100
AcDbLine
 10
1346.6407470703
 20
-306.0
 30
0.0
 11
1397.9989013671
 21
-306.0
 31
0.0
  0
LINE
  5
15B
330
18
100
AcDbEntity
  8
PV0001_1
  6
DASHED2
370
    50
100
AcDbLine
 10
1365.0
 20
-225.5
 30
0.0
 11
1395.0
 21
-225.5
 31
0.0
  0
LINE
  5
15C
330
18
100
AcDbEntity
  8
PV0001_1
  6
DASHED2
370
    50
100
AcDbLine
 10
1365.0
 20
-236.50001525878
 30
0.0
 11
1395.0
 21
-236.50001525878
 31
0.0
  0
LINE
  5
15D
330
18
100
AcDbEntity
  8
PV0001_1
  6
DASHED2
370
    50
100
AcDbLine
 10
1365.0
 20
-311.5
 30
0.0
 11
1395.0
 21
-311.5
 31
0.0
  0
LINE
  5
15E
330
18
100
AcDbEntity
  8
PV0001_1
  6
DASHED2
370
    50
100
AcDbLine
 10
1365.0
 20
-300.5
 30
0.0
 11
1395.0
 21
-300.5
 31
0.0
  0
LINE
  5
15F
330
18
100
AcDbEntity
  8
PV0001_1
  6
DASHED2
 48
0.5
370
    50
100
AcDbLine
 10
1350.0
 20
-314.5
 30
0.0
 11
1365.0
 21
-314.5
 31
0.0
  0
LINE
  5
160
330
18
100
AcDbEntity
  8
PV0001_1
  6
DASHED2
 48
0.5
370
    50
100
AcDbLine
 10
1350.0
 20
-297.49996948242
 30
0.0
 11
1365.0
 21
-297.49996948242
 31
0.0
  0
LINE
  5
161
330
18
100
AcDbEntity
  8
PV0001_1
  6
DASHED2
 48
0.5
370
    50
100
AcDbLine
 10
1350.0
 20
-222.49998474121
 30
0.0
 11
1365.0
 21
-222.49998474121
 31
0.0
  0
LINE
  5
162
330
18
100
AcDbEntity
  8
PV0001_1
  6
DASHED2
 48
0.5
370
    50
100
AcDbLine
 10
1350.0
 20
-239.50001525878
 30
0.0
 11
1365.0
 21
-239.50001525878
 31
0.0
  0
LINE
  5
163
330
18
100
AcDbEntity
  8
PV0001_1
  6
DASHED2
 48
0.5
370
    50
100
AcDbLine
 10
1365.0
 20
-222.49996948242
 30
0.0
 11
1365.0
 21
-239.5
 31
0.0
  0
LINE
  5
164
330
18
100
AcDbEntity
  8
PV0001_1
  6
DASHED2
 48
0.5
370
    50
100
AcDbLine
 10
1365.0
 20
-297.49996948242
 30
0.0
 11
1365.0
 21
-314.5
 31
0.0
  0
LINE
  5
165
330
18
100
AcDbEntity
  8
PV0001_1
  6
CENTER2
370
    25
100
AcDbLine
 10
244.36364746093
 20
-148.5
 30
0.0
 11
1273.2663574218
 21
-148.5
 31
0.0
  0
LINE
  5
166
330
18
100
AcDbEntity
  8
PV0001_1
  6
Continuous
370
    50
100
AcDbLine
 10
0.0
 20
8.0
 30
0.0
 11
289.30798339843
 21
8.0
 31
0.0
  0
LINE
  5
167
330
18
100
AcDbEntity
  8
PV0001_1
  6
Continuous
 48
0.5
370
    50
100
AcDbLine
 10
249.0
 20
-136.00006103515
 30
0.0
 11
249.0
 21
-160.99998474121
 31
0.0
  0
LINE
  5
168
330
18
100
AcDbEntity
  8
PV0001_1
  6
Continuous
 48
0.5
370
    50
100
AcDbLine
 10
1249.0
 20
-135.99998474121
 30
0.0
 11
1249.0
 21
-160.99998474121
 31
0.0
  0
LINE
  5
169
330
18
100
AcDbEntity
  8
PV0001_1
  6
Continuous
370
    50
100
AcDbLine
 10
249.0
 20
-160.99998474121
 30
0.0
 11
410.99996948242
 21
-160.99998474121
 31
0.0
  0
LINE
  5
16A
330
18
100
AcDbEntity
  8
PV0001_1
  6
Continuous
370
    50
100
AcDbLine
 10
249.0
 20
-136.00006103515
 30
0.0
 11
410.99996948242
 21
-136.00006103515
 31
0.0
  0
LINE
  5
16B
330
18
100
AcDbEntity
  8
PV0001_1
  6
Continuous
370
    25
100
AcDbLine
 10
249.0
 20
-137.75
 30
0.0
 11
410.99996948242
 21
-137.75
 31
0.0
  0
LINE
  5
16C
330
18
100
AcDbEntity
  8
PV0001_1
  6
Continuous
370
    25
100
AcDbLine
 10
249.0
 20
-159.24998474121
 30
0.0
 11
410.99996948242
 21
-159.24998474121
 31
0.0
  0
LINE
  5
16D
330
18
100
AcDbEntity
  8
PV0001_1
  6
Continuous
370
    50
100
AcDbLine
 10
502.99996948242
 20
-135.99998474121
 30
0.0
 11
1249.0
 21
-135.99998474121
 31
0.0
  0
LINE
  5
16E
330
18
100
AcDbEntity
  8
PV0001_1
  6
Continuous
370
    25
100
AcDbLine
 10
502.99996948242
 20
-137.75
 30
0.0
 11
1249.0
 21
-137.75
 31
0.0
  0
LINE
  5
16F
330
18
100
AcDbEntity
  8
PV0001_1
  6
Continuous
370
    25
100
AcDbLine
 10
502.99996948242
 20
-159.24998474121
 30
0.0
 11
1249.0
 21
-159.24998474121
 31
0.0
  0
LINE
  5
170
330
18
100
AcDbEntity
  8
PV0001_1
  6
Continuous
370
    50
100
AcDbLine
 10
502.99996948242
 20
-160.99998474121
 30
0.0
 11
1249.0
 21
-160.99998474121
 31
0.0
  0
LINE
  5
171
330
18
100
AcDbEntity
  8
PV0001_1
  6
CENTER2
370
    25
100
AcDbLine
 10
127.40908813476
 20
-148.5
 30
0.0
 11
215.28787231445
 21
-148.5
 31
0.0
  0
LINE
  5
172
330
18
100
AcDbEntity
  8
PV0001_1
  6
CENTER2
370
    25
100
AcDbLine
 10
171.5
 20
-95.01513671875001
 30
0.0
 11
171.5
 21
-200.7727355957
 31
0.0
  0
LINE
  5
173
330
18
100
AcDbEntity
  8
PV0001_1
  6
CENTER2
370
    25
100
AcDbLine
 10
145.38562011718
 20
-193.73138427734
 30
0.0
 11
197.80102539062
 21
-102.94525909423
 31
0.0
  0
LINE
  5
174
330
18
100
AcDbEntity
  8
PV0001_1
  6
CENTER2
370
    25
100
AcDbLine
 10
145.23413085937
 20
-103.00618743896
 30
0.0
 11
197.33163452148
 21
-193.24169921875
 31
0.0
  0
LINE
  5
175
330
18
100
AcDbEntity
  8
PV0001_1
  6
Continuous
370
    50
100
AcDbLine
 10
141.5
 20
-111.03001403808
 30
0.0
 11
141.5
 21
-185.96998596191
 31
0.0
  0
LINE
  5
176
330
18
100
AcDbEntity
  8
PV0001_1
  6
Continuous
370
    50
100
AcDbLine
 10
201.5
 20
-111.03001403808
 30
0.0
 11
201.5
 21
-185.96998596191
 31
0.0
  0
LINE
  5
177
330
18
100
AcDbEntity
  8
PV0001_1
  6
DASHED2
 48
0.5
370
    50
100
AcDbLine
 10
168.5
 20
-106.5
 30
0.0
 11
174.5
 21
-106.5
 31
0.0
  0
LINE
  5
178
330
18
100
AcDbEntity
  8
PV0001_1
  6
DASHED2
 48
0.5
370
    50
100
AcDbLine
 10
174.5
 20
-100.59384155273
 30
0.0
 11
174.5
 21
-106.5
 31
0.0
  0
LINE
  5
179
330
18
100
AcDbEntity
  8
PV0001_1
  6
DASHED2
 48
0.5
370
    50
100
AcDbLine
 10
168.5
 20
-100.59384155273
 30
0.0
 11
168.5
 21
-106.5
 31
0.0
  0
LINE
  5
17A
330
18
100
AcDbEntity
  8
PV0001_1
  6
DASHED2
370
    50
100
AcDbLine
 10
174.0
 20
-100.56515502929
 30
0.0
 11
174.0
 21
-134.62339782714
 31
0.0
  0
LINE
  5
17B
330
18
100
AcDbEntity
  8
PV0001_1
  6
DASHED2
370
    50
100
AcDbLine
 10
169.0
 20
-100.56515502929
 30
0.0
 11
169.0
 21
-134.62339782714
 31
0.0
  0
LINE
  5
17C
330
18
100
AcDbEntity
  8
PV0001_1
  6
Continuous
370
    50
100
AcDbLine
 10
410.99996948242
 20
-100.5
 30
0.0
 11
410.99996948242
 21
-196.5
 31
0.0
  0
LINE
  5
17D
330
18
100
AcDbEntity
  8
PV0001_1
  6
Continuous
370
    50
100
AcDbLine
 10
502.99996948242
 20
-118.5
 30
0.0
 11
502.99996948242
 21
-178.5
 31
0.0
  0
LINE
  5
17E
330
18
100
AcDbEntity
  8
PV0001_1
  6
Continuous
 48
0.5
370
    50
100
AcDbLine
 10
410.99996948242
 20
-196.5
 30
0.0
 11
425.99996948242
 21
-196.5
 31
0.0
  0
LINE
  5
17F
330
18
100
AcDbEntity
  8
PV0001_1
  6
Continuous
 48
0.5
370
    50
100
AcDbLine
 10
410.99996948242
 20
-100.5
 30
0.0
 11
425.99996948242
 21
-100.5
 31
0.0
  0
LINE
  5
180
330
18
100
AcDbEntity
  8
PV0001_1
  6
Continuous
370
    50
100
AcDbLine
 10
425.99996948242
 20
-178.5
 30
0.0
 11
502.99996948242
 21
-178.5
 31
0.0
  0
LINE
  5
181
330
18
100
AcDbEntity
  8
PV0001_1
  6
Continuous
370
    50
100
AcDbLine
 10
425.99996948242
 20
-118.5
 30
0.0
 11
502.99996948242
 21
-118.5
 31
0.0
  0
LINE
  5
182
330
18
100
AcDbEntity
  8
PV0001_1
  6
Continuous
370
    50
100
AcDbLine
 10
425.99996948242
 20
-100.5
 30
0.0
 11
425.99996948242
 21
-196.5
 31
0.0
  0
LINE
  5
183
330
18
100
AcDbEntity
  8
PV0001_1
  6
CENTER2
370
    25
100
AcDbLine
 10
429.3507385253899
 20
-165.13804626464
 30
0.0
 11
459.7476196289
 21
-132.82008361816
 31
0.0
  0
LINE
  5
184
330
18
100
AcDbEntity
  8
PV0001_1
  6
CENTER2
370
    25
100
AcDbLine
 10
458.8880920410099
 20
-165.6300201416
 30
0.0
 11
490.7523498535099
 21
-131.751953125
 31
0.0
  0
LINE
  5
185
330
18
100
AcDbEntity
  8
PV0001_1
  6
CENTER2
370
    25
100
AcDbLine
 10
420.9999694824199
 20
-97.13870239257801
 30
0.0
 11
420.9999694824199
 21
-137.93618774414
 31
0.0
  0
LINE
  5
186
330
18
100
AcDbEntity
  8
PV0001_1
  6
DASHED2
 48
0.5
370
    50
100
AcDbLine
 10
417.99996948242
 20
-106.5
 30
0.0
 11
423.99996948242
 21
-106.5
 31
0.0
  0
LINE
  5
187
330
18
100
AcDbEntity
  8
PV0001_1
  6
DASHED2
 48
0.5
370
    50
100
AcDbLine
 10
423.99996948242
 20
-100.5
 30
0.0
 11
423.99996948242
 21
-106.5
 31
0.0
  0
LINE
  5
188
330
18
100
AcDbEntity
  8
PV0001_1
  6
DASHED2
 48
0.5
370
    50
100
AcDbLine
 10
417.99996948242
 20
-100.5
 30
0.0
 11
417.99996948242
 21
-106.5
 31
0.0
  0
LINE
  5
189
330
18
100
AcDbEntity
  8
PV0001_1
  6
DASHED2
370
    50
100
AcDbLine
 10
423.49996948242
 20
-100.5
 30
0.0
 11
423.49996948242
 21
-134.39999389648
 31
0.0
  0
LINE
  5
18A
330
18
100
AcDbEntity
  8
PV0001_1
  6
DASHED2
370
    50
100
AcDbLine
 10
418.49996948242
 20
-100.5
 30
0.0
 11
418.49996948242
 21
-134.39999389648
 31
0.0
  0
LINE
  5
18B
330
18
100
AcDbEntity
  8
PV0001_1
  6
Continuous
370
    50
100
AcDbLine
 10
339.0
 20
-315.99996948242
 30
0.0
 11
339.0
 21
-220.99998474121
 31
0.0
  0
LINE
  5
18C
330
18
100
AcDbEntity
  8
PV0001_1
  6
Continuous
370
    50
100
AcDbLine
 10
339.00003051757
 20
-221.0
 30
0.0
 11
297.0
 21
-221.0
 31
0.0
  0
LINE
  5
18D
330
18
100
AcDbEntity
  8
PV0001_1
  6
Continuous
370
    50
100
AcDbLine
 10
339.00003051757
 20
-316.0
 30
0.0
 11
297.0
 21
-316.0
 31
0.0
  0
LINE
  5
18E
330
18
100
AcDbEntity
  8
PV0001_1
  6
Continuous
370
    50
100
AcDbLine
 10
339.00003051757
 20
-240.5
 30
0.0
 11
297.0
 21
-240.5
 31
0.0
  0
LINE
  5
18F
330
18
100
AcDbEntity
  8
PV0001_1
  6
Continuous
370
    50
100
AcDbLine
 10
339.00003051757
 20
-296.5
 30
0.0
 11
297.0
 21
-296.5
 31
0.0
  0
LINE
  5
190
330
18
100
AcDbEntity
  8
PV0001_1
  6
Continuous
370
    50
100
AcDbLine
 10
297.0
 20
-315.99996948242
 30
0.0
 11
297.0
 21
-220.99998474121
 31
0.0
  0
LINE
  5
191
330
18
100
AcDbEntity
  8
PV0001_1
  6
CENTER2
 48
0.5
370
    25
100
AcDbLine
 10
307.0
 20
-316.5
 30
0.0
 11
307.0
 21
-295.49996948242
 31
0.0
  0
LINE
  5
192
330
18
100
AcDbEntity
  8
PV0001_1
  6
CENTER2
 48
0.5
370
    25
100
AcDbLine
 10
317.50003051757
 20
-306.0
 30
0.0
 11
296.5
 21
-306.0
 31
0.0
  0
LINE
  5
193
330
18
100
AcDbEntity
  8
PV0001_1
  6
CENTER2
 48
0.5
370
    25
100
AcDbLine
 10
317.50003051757
 20
-231.0
 30
0.0
 11
296.5
 21
-231.0
 31
0.0
  0
LINE
  5
194
330
18
100
AcDbEntity
  8
PV0001_1
  6
CENTER2
 48
0.5
370
    25
100
AcDbLine
 10
307.0
 20
-220.49996948242
 30
0.0
 11
307.0
 21
-241.5
 31
0.0
  0
LINE
  5
195
330
18
100
AcDbEntity
  8
PV0001_1
  6
CENTER2
 48
0.5
370
    25
100
AcDbLine
 10
318.5
 20
-306.0
 30
0.0
 11
339.5
 21
-306.0
 31
0.0
  0
LINE
  5
196
330
18
100
AcDbEntity
  8
PV0001_1
  6
CENTER2
 48
0.5
370
    25
100
AcDbLine
 10
329.0
 20
-316.5
 30
0.0
 11
329.0
 21
-295.49996948242
 31
0.0
  0
LINE
  5
197
330
18
100
AcDbEntity
  8
PV0001_1
  6
CENTER2
 48
0.5
370
    25
100
AcDbLine
 10
318.5
 20
-231.0
 30
0.0
 11
339.5
 21
-231.0
 31
0.0
  0
LINE
  5
198
330
18
100
AcDbEntity
  8
PV0001_1
  6
CENTER2
 48
0.5
370
    25
100
AcDbLine
 10
329.0
 20
-220.49996948242
 30
0.0
 11
329.0
 21
-241.5
 31
0.0
  0
LINE
  5
199
330
18
100
AcDbEntity
  8
PV0001_1
  6
Continuous
370
    50
100
AcDbLine
 10
287.0
 20
-295.49996948242
 30
0.0
 11
287.0
 21
-241.5
 31
0.0
  0
LINE
  5
19A
330
18
100
AcDbEntity
  8
PV0001_1
  6
Continuous
 48
0.5
370
    50
100
AcDbLine
 10
277.0
 20
-283.49996948242
 30
0.0
 11
277.0
 21
-253.49998474121
 31
0.0
  0
LINE
  5
19B
330
18
100
AcDbEntity
  8
PV0001_1
  6
Continuous
 48
0.5
370
    50
100
AcDbLine
 10
287.0
 20
-283.5
 30
0.0
 11
277.0
 21
-283.5
 31
0.0
  0
LINE
  5
19C
330
18
100
AcDbEntity
  8
PV0001_1
  6
Continuous
 48
0.5
370
    50
100
AcDbLine
 10
287.0
 20
-253.5
 30
0.0
 11
277.0
 21
-253.5
 31
0.0
  0
LINE
  5
19D
330
18
100
AcDbEntity
  8
PV0001_1
  6
Continuous
 48
0.5
370
    50
100
AcDbLine
 10
297.0
 20
-295.5
 30
0.0
 11
287.0
 21
-295.5
 31
0.0
  0
LINE
  5
19E
330
18
100
AcDbEntity
  8
PV0001_1
  6
Continuous
 48
0.5
370
    50
100
AcDbLine
 10
297.0
 20
-241.50001525878
 30
0.0
 11
287.0
 21
-241.50001525878
 31
0.0
  0
LINE
  5
19F
330
18
100
AcDbEntity
  8
PV0001_1
  6
DASHED2
 48
0.5
370
    50
100
AcDbLine
 10
1245.0
 20
-478.5000000000001
 30
0.0
 11
1231.0
 21
-478.5000000000001
 31
0.0
  0
LINE
  5
1A0
330
18
100
AcDbEntity
  8
PV0001_1
  6
DASHED2
 48
0.5
370
    50
100
AcDbLine
 10
1245.0
 20
-498.5000000000001
 30
0.0
 11
1231.0
 21
-498.5000000000001
 31
0.0
  0
LINE
  5
1A1
330
18
100
AcDbEntity
  8
PV0001_1
  6
Continuous
370
    50
100
AcDbLine
 10
339.0
 20
-360.0
 30
0.0
 11
339.0
 21
-417.0
 31
0.0
  0
LINE
  5
1A2
330
18
100
AcDbEntity
  8
PV0001_1
  6
Continuous
370
    50
100
AcDbLine
 10
287.0
 20
-354.5
 30
0.0
 11
287.0
 21
-422.4999999999999
 31
0.0
  0
LINE
  5
1A3
330
18
100
AcDbEntity
  8
PV0001_1
  6
Continuous
370
    50
100
AcDbLine
 10
297.0
 20
-354.5
 30
0.0
 11
297.0
 21
-422.4999999999999
 31
0.0
  0
LINE
  5
1A4
330
18
100
AcDbEntity
  8
PV0001_1
  6
Continuous
370
    50
100
AcDbLine
 10
309.0
 20
-354.5
 30
0.0
 11
309.0
 21
-422.4999999999999
 31
0.0
  0
LINE
  5
1A5
330
18
100
AcDbEntity
  8
PV0001_1
  6
Continuous
 48
0.5
370
    50
100
AcDbLine
 10
309.0
 20
-422.4999999999999
 30
0.0
 11
287.0
 21
-422.4999999999999
 31
0.0
  0
LINE
  5
1A6
330
18
100
AcDbEntity
  8
PV0001_1
  6
Continuous
 48
0.5
370
    50
100
AcDbLine
 10
309.0
 20
-354.5
 30
0.0
 11
287.0
 21
-354.5
 31
0.0
  0
LINE
  5
1A7
330
18
100
AcDbEntity
  8
PV0001_1
  6
Continuous
370
    50
100
AcDbLine
 10
339.0
 20
-417.0
 30
0.0
 11
309.0
 21
-417.0
 31
0.0
  0
LINE
  5
1A8
330
18
100
AcDbEntity
  8
PV0001_1
  6
Continuous
370
    50
100
AcDbLine
 10
339.0
 20
-360.0
 30
0.0
 11
309.0
 21
-360.0
 31
0.0
  0
LINE
  5
1A9
330
18
100
AcDbEntity
  8
PV0001_1
  6
CENTER2
 48
0.5
370
    25
100
AcDbLine
 10
311.35864257812
 20
-413.24871826171
 30
0.0
 11
285.2600402832
 21
-413.24871826171
 31
0.0
  0
LINE
  5
1AA
330
18
100
AcDbEntity
  8
PV0001_1
  6
DASHED2
 48
0.5
370
    50
100
AcDbLine
 10
309.0
 20
-409.94873046875
 30
0.0
 11
297.0
 21
-409.94873046875
 31
0.0
  0
LINE
  5
1AB
330
18
100
AcDbEntity
  8
PV0001_1
  6
DASHED2
 48
0.5
370
    50
100
AcDbLine
 10
309.0
 20
-416.54873657226
 30
0.0
 11
297.0
 21
-416.54873657226
 31
0.0
  0
LINE
  5
1AC
330
18
100
AcDbEntity
  8
PV0001_1
  6
DASHED2
 48
0.5
370
    50
100
AcDbLine
 10
297.0
 20
-407.7487182617099
 30
0.0
 11
287.0
 21
-407.7487182617099
 31
0.0
  0
LINE
  5
1AD
330
18
100
AcDbEntity
  8
PV0001_1
  6
DASHED2
 48
0.5
370
    50
100
AcDbLine
 10
297.0
 20
-418.74871826171
 30
0.0
 11
287.0
 21
-418.74871826171
 31
0.0
  0
LINE
  5
1AE
330
18
100
AcDbEntity
  8
PV0001_1
  6
Continuous
370
    50
100
AcDbLine
 10
277.0
 20
-373.5
 30
0.0
 11
277.0
 21
-403.5
 31
0.0
  0
LINE
  5
1AF
330
18
100
AcDbEntity
  8
PV0001_1
  6
Continuous
 48
0.5
370
    50
100
AcDbLine
 10
287.0
 20
-403.5
 30
0.0
 11
277.0
 21
-403.5
 31
0.0
  0
LINE
  5
1B0
330
18
100
AcDbEntity
  8
PV0001_1
  6
Continuous
 48
0.5
370
    50
100
AcDbLine
 10
287.0
 20
-373.5
 30
0.0
 11
277.0
 21
-373.5
 31
0.0
  0
LINE
  5
1B1
330
18
100
AcDbEntity
  8
PV0001_1
  6
Continuous
370
    50
100
AcDbLine
 10
1231.0
 20
-465.0000000000001
 30
0.0
 11
1231.0
 21
-512.0
 31
0.0
  0
LINE
  5
1B2
330
18
100
AcDbEntity
  8
PV0001_1
  6
Continuous
370
    50
100
AcDbLine
 10
1245.0
 20
-465.0000000000001
 30
0.0
 11
1245.0
 21
-512.0
 31
0.0
  0
LINE
  5
1B3
330
18
100
AcDbEntity
  8
PV0001_1
  6
Continuous
 48
0.5
370
    50
100
AcDbLine
 10
1245.0
 20
-465.0000000000001
 30
0.0
 11
1231.0
 21
-465.0000000000001
 31
0.0
  0
LINE
  5
1B4
330
18
100
AcDbEntity
  8
PV0001_1
  6
Continuous
 48
0.5
370
    50
100
AcDbLine
 10
1245.0
 20
-512.0
 30
0.0
 11
1231.0
 21
-512.0
 31
0.0
  0
LINE
  5
1B5
330
18
100
AcDbEntity
  8
PV0001_1
  6
Continuous
 48
0.5
370
    50
100
AcDbLine
 10
1246.1999511718
 20
-474.5
 30
0.0
 11
1246.1999511718
 21
-502.5000000000001
 31
0.0
  0
LINE
  5
1B6
330
18
100
AcDbEntity
  8
PV0001_1
  6
Continuous
 48
0.5
370
    50
100
AcDbLine
 10
1246.1999511718
 20
-474.5
 30
0.0
 11
1245.0
 21
-474.5
 31
0.0
  0
LINE
  5
1B7
330
18
100
AcDbEntity
  8
PV0001_1
  6
Continuous
 48
0.5
370
    50
100
AcDbLine
 10
1246.1999511718
 20
-502.5000000000001
 30
0.0
 11
1245.0
 21
-502.5000000000001
 31
0.0
  0
LINE
  5
1B8
330
18
100
AcDbEntity
  8
PV0001_1
  6
Continuous
 48
0.5
370
    50
100
AcDbLine
 10
1246.1999511718
 20
-479.0
 30
0.0
 11
1245.0
 21
-479.0
 31
0.0
  0
LINE
  5
1B9
330
18
100
AcDbEntity
  8
PV0001_1
  6
Continuous
 48
0.5
370
    50
100
AcDbLine
 10
1246.1999511718
 20
-498.0000000000001
 30
0.0
 11
1245.0
 21
-498.0000000000001
 31
0.0
  0
LINE
  5
1BA
330
18
100
AcDbEntity
  8
PV0001_1
  6
Continuous
370
    50
100
AcDbLine
 10
291.0
 20
-517.0
 30
0.0
 11
291.0
 21
-460.0
 31
0.0
  0
LINE
  5
1BB
330
18
100
AcDbEntity
  8
PV0001_1
  6
Continuous
370
    50
100
AcDbLine
 10
343.0
 20
-522.5
 30
0.0
 11
343.0
 21
-454.4999999999999
 31
0.0
  0
LINE
  5
1BC
330
18
100
AcDbEntity
  8
PV0001_1
  6
Continuous
370
    50
100
AcDbLine
 10
333.0
 20
-522.5
 30
0.0
 11
333.0
 21
-454.4999999999999
 31
0.0
  0
LINE
  5
1BD
330
18
100
AcDbEntity
  8
PV0001_1
  6
Continuous
370
    50
100
AcDbLine
 10
321.0
 20
-522.5
 30
0.0
 11
321.0
 21
-454.4999999999999
 31
0.0
  0
LINE
  5
1BE
330
18
100
AcDbEntity
  8
PV0001_1
  6
Continuous
 48
0.5
370
    50
100
AcDbLine
 10
321.0
 20
-454.4999999999999
 30
0.0
 11
343.0
 21
-454.4999999999999
 31
0.0
  0
LINE
  5
1BF
330
18
100
AcDbEntity
  8
PV0001_1
  6
Continuous
 48
0.5
370
    50
100
AcDbLine
 10
321.0
 20
-522.5
 30
0.0
 11
343.0
 21
-522.5
 31
0.0
  0
LINE
  5
1C0
330
18
100
AcDbEntity
  8
PV0001_1
  6
Continuous
370
    50
100
AcDbLine
 10
291.0
 20
-460.0
 30
0.0
 11
321.0
 21
-460.0
 31
0.0
  0
LINE
  5
1C1
330
18
100
AcDbEntity
  8
PV0001_1
  6
Continuous
370
    50
100
AcDbLine
 10
291.0
 20
-517.0
 30
0.0
 11
321.0
 21
-517.0
 31
0.0
  0
LINE
  5
1C2
330
18
100
AcDbEntity
  8
PV0001_1
  6
CENTER2
 48
0.5
370
    25
100
AcDbLine
 10
318.64135742187
 20
-463.7512817382799
 30
0.0
 11
344.73995971679
 21
-463.7512817382799
 31
0.0
  0
LINE
  5
1C3
330
18
100
AcDbEntity
  8
PV0001_1
  6
DASHED2
 48
0.5
370
    50
100
AcDbLine
 10
321.0
 20
-467.05126953125
 30
0.0
 11
333.0
 21
-467.05126953125
 31
0.0
  0
LINE
  5
1C4
330
18
100
AcDbEntity
  8
PV0001_1
  6
DASHED2
 48
0.5
370
    50
100
AcDbLine
 10
321.0
 20
-460.4512634277299
 30
0.0
 11
333.0
 21
-460.4512634277299
 31
0.0
  0
LINE
  5
1C5
330
18
100
AcDbEntity
  8
PV0001_1
  6
DASHED2
 48
0.5
370
    50
100
AcDbLine
 10
333.0
 20
-469.25128173828
 30
0.0
 11
343.0
 21
-469.25128173828
 31
0.0
  0
LINE
  5
1C6
330
18
100
AcDbEntity
  8
PV0001_1
  6
DASHED2
 48
0.5
370
    50
100
AcDbLine
 10
333.0
 20
-458.25128173828
 30
0.0
 11
343.0
 21
-458.25128173828
 31
0.0
  0
LINE
  5
1C7
330
18
100
AcDbEntity
  8
PV0001_1
  6
Continuous
370
    50
100
AcDbLine
 10
277.0
 20
-473.5
 30
0.0
 11
277.0
 21
-503.5
 31
0.0
  0
LINE
  5
1C8
330
18
100
AcDbEntity
  8
PV0001_1
  6
Continuous
 48
0.5
370
    50
100
AcDbLine
 10
289.0
 20
-503.5
 30
0.0
 11
277.0
 21
-503.5
 31
0.0
  0
LINE
  5
1C9
330
18
100
AcDbEntity
  8
PV0001_1
  6
Continuous
 48
0.5
370
    50
100
AcDbLine
 10
289.0
 20
-473.5
 30
0.0
 11
277.0
 21
-473.5
 31
0.0
  0
LINE
  5
1CA
330
18
100
AcDbEntity
  8
PV0001_1
  6
Continuous
370
    50
100
AcDbLine
 10
289.0
 20
-473.5
 30
0.0
 11
289.0
 21
-503.5
 31
0.0
  0
LINE
  5
1CB
330
18
100
AcDbEntity
  8
PV0001_1
  6
Continuous
 48
0.5
370
    50
100
AcDbLine
 10
290.0
 20
-475.4999999999999
 30
0.0
 11
290.0
 21
-501.4999999999999
 31
0.0
  0
LINE
  5
1CC
330
18
100
AcDbEntity
  8
PV0001_1
  6
Continuous
 48
0.5
370
    50
100
AcDbLine
 10
290.0
 20
-475.4999999999999
 30
0.0
 11
289.0
 21
-475.4999999999999
 31
0.0
  0
LINE
  5
1CD
330
18
100
AcDbEntity
  8
PV0001_1
  6
Continuous
 48
0.5
370
    50
100
AcDbLine
 10
290.0
 20
-501.4999999999999
 30
0.0
 11
289.0
 21
-501.4999999999999
 31
0.0
  0
LINE
  5
1CE
330
18
100
AcDbEntity
  8
PV0001_1
  6
Continuous
 48
0.5
370
    50
100
AcDbLine
 10
291.0
 20
-476.0
 30
0.0
 11
290.0
 21
-476.0
 31
0.0
  0
LINE
  5
1CF
330
18
100
AcDbEntity
  8
PV0001_1
  6
Continuous
 48
0.5
370
    50
100
AcDbLine
 10
291.0
 20
-501.0
 30
0.0
 11
290.0
 21
-501.0
 31
0.0
  0
LINE
  5
1D0
330
18
100
AcDbEntity
  8
PV0001_1
  6
CENTER2
 48
0.5
370
    25
100
AcDbLine
 10
1238.0
 20
-295.49996948242
 30
0.0
 11
1238.0
 21
-316.5
 31
0.0
  0
LINE
  5
1D1
330
18
100
AcDbEntity
  8
PV0001_1
  6
CENTER2
 48
0.5
370
    25
100
AcDbLine
 10
1248.5
 20
-306.0
 30
0.0
 11
1227.4998779296
 21
-306.0
 31
0.0
  0
LINE
  5
1D2
330
18
100
AcDbEntity
  8
PV0001_1
  6
CENTER2
 48
0.5
370
    25
100
AcDbLine
 10
1238.0
 20
-220.49996948242
 30
0.0
 11
1238.0
 21
-241.5
 31
0.0
  0
LINE
  5
1D3
330
18
100
AcDbEntity
  8
PV0001_1
  6
CENTER2
 48
0.5
370
    25
100
AcDbLine
 10
1248.5
 20
-231.0
 30
0.0
 11
1227.4998779296
 21
-231.0
 31
0.0
  0
LINE
  5
1D4
330
18
100
AcDbEntity
  8
PV0001_1
  6
Continuous
 48
0.5
370
    50
100
AcDbLine
 10
1225.0
 20
-240.5
 30
0.0
 11
1251.0
 21
-240.5
 31
0.0
  0
LINE
  5
1D5
330
18
100
AcDbEntity
  8
PV0001_1
  6
Continuous
 48
0.5
370
    50
100
AcDbLine
 10
1225.0
 20
-296.5
 30
0.0
 11
1251.0
 21
-296.5
 31
0.0
  0
LINE
  5
1D6
330
18
100
AcDbEntity
  8
PV0001_1
  6
Continuous
 48
0.5
370
    50
100
AcDbLine
 10
1225.0
 20
-316.0
 30
0.0
 11
1251.0
 21
-316.0
 31
0.0
  0
LINE
  5
1D7
330
18
100
AcDbEntity
  8
PV0001_1
  6
Continuous
 48
0.5
370
    50
100
AcDbLine
 10
1225.0
 20
-221.0
 30
0.0
 11
1251.0
 21
-221.0
 31
0.0
  0
LINE
  5
1D8
330
18
100
AcDbEntity
  8
PV0001_1
  6
Continuous
370
    50
100
AcDbLine
 10
1251.0
 20
-220.99998474121
 30
0.0
 11
1251.0
 21
-315.99996948242
 31
0.0
  0
LINE
  5
1D9
330
18
100
AcDbEntity
  8
PV0001_1
  6
Continuous
370
    50
100
AcDbLine
 10
1225.0
 20
-220.99998474121
 30
0.0
 11
1225.0
 21
-315.99996948242
 31
0.0
  0
LINE
  5
1DA
330
18
100
AcDbEntity
  8
PV0001_1
  6
DASHED2
 48
0.5
370
    50
100
AcDbLine
 10
1246.1999511718
 20
-282.49996948242
 30
0.0
 11
1246.1999511718
 21
-254.5
 31
0.0
  0
LINE
  5
1DB
330
18
100
AcDbEntity
  8
PV0001_1
  6
DASHED2
 48
0.5
370
    50
100
AcDbLine
 10
1246.1999511718
 20
-259.0
 30
0.0
 11
1245.0
 21
-259.0
 31
0.0
  0
LINE
  5
1DC
330
18
100
AcDbEntity
  8
PV0001_1
  6
DASHED2
 48
0.5
370
    50
100
AcDbLine
 10
1246.1999511718
 20
-278.0
 30
0.0
 11
1245.0
 21
-278.0
 31
0.0
  0
LINE
  5
1DD
330
18
100
AcDbEntity
  8
PV0001_1
  6
DASHED2
 48
0.5
370
    50
100
AcDbLine
 10
1246.1999511718
 20
-254.50001525878
 30
0.0
 11
1245.0
 21
-254.50001525878
 31
0.0
  0
LINE
  5
1DE
330
18
100
AcDbEntity
  8
PV0001_1
  6
DASHED2
 48
0.5
370
    50
100
AcDbLine
 10
1246.1999511718
 20
-282.49996948242
 30
0.0
 11
1245.0
 21
-282.49996948242
 31
0.0
  0
LINE
  5
1DF
330
18
100
AcDbEntity
  8
PV0001_1
  6
DASHED2
 48
0.5
370
    50
100
AcDbLine
 10
1245.0
 20
-258.5
 30
0.0
 11
1231.0
 21
-258.5
 31
0.0
  0
LINE
  5
1E0
330
18
100
AcDbEntity
  8
PV0001_1
  6
DASHED2
370
    50
100
AcDbLine
 10
1231.0
 20
-244.99998474121
 30
0.0
 11
1231.0
 21
-292.0
 31
0.0
  0
LINE
  5
1E1
330
18
100
AcDbEntity
  8
PV0001_1
  6
DASHED2
 48
0.5
370
    50
100
AcDbLine
 10
1245.0
 20
-244.99998474121
 30
0.0
 11
1231.0
 21
-244.99998474121
 31
0.0
  0
LINE
  5
1E2
330
18
100
AcDbEntity
  8
PV0001_1
  6
DASHED2
370
    50
100
AcDbLine
 10
1245.0
 20
-244.99998474121
 30
0.0
 11
1245.0
 21
-292.0
 31
0.0
  0
LINE
  5
1E3
330
18
100
AcDbEntity
  8
PV0001_1
  6
DASHED2
 48
0.5
370
    50
100
AcDbLine
 10
1245.0
 20
-292.0
 30
0.0
 11
1231.0
 21
-292.0
 31
0.0
  0
LINE
  5
1E4
330
18
100
AcDbEntity
  8
PV0001_1
  6
DASHED2
 48
0.5
370
    50
100
AcDbLine
 10
1245.0
 20
-278.5
 30
0.0
 11
1231.0
 21
-278.5
 31
0.0
  0
LINE
  5
1E5
330
18
100
AcDbEntity
  8
PV0001_1
  6
CENTER2
370
    25
100
AcDbLine
 10
244.36364746093
 20
-68.5
 30
0.0
 11
428.5651855468699
 21
-68.5
 31
0.0
  0
LINE
  5
1E6
330
18
100
AcDbEntity
  8
PV0001_1
  6
CENTER2
370
    25
100
AcDbLine
 10
244.36364746093
 20
-388.5
 30
0.0
 11
428.5651855468699
 21
-388.5
 31
0.0
  0
LINE
  5
1E7
330
18
100
AcDbEntity
  8
PV0001_1
  6
CENTER2
370
    25
100
AcDbLine
 10
1072.8243408203
 20
-68.5
 30
0.0
 11
1277.7836914062
 21
-68.5
 31
0.0
  0
LINE
  5
1E8
330
18
100
AcDbEntity
  8
PV0001_1
  6
Continuous
 48
0.5
370
    50
100
AcDbLine
 10
349.0
 20
-56.000061035156
 30
0.0
 11
349.0
 21
-80.99998474120999
 31
0.0
  0
LINE
  5
1E9
330
18
100
AcDbEntity
  8
PV0001_1
  6
Continuous
 48
0.5
370
    50
100
AcDbLine
 10
249.0
 20
-61.0
 30
0.0
 11
249.0
 21
-75.99998474121
 31
0.0
  0
LINE
  5
1EA
330
18
100
AcDbEntity
  8
PV0001_1
  6
Continuous
 48
0.5
370
    50
100
AcDbLine
 10
1249.0
 20
-58.5
 30
0.0
 11
1249.0
 21
-78.5
 31
0.0
  0
LINE
  5
1EB
330
18
100
AcDbEntity
  8
PV0001_1
  6
DASHED2
 48
0.5
370
    50
100
AcDbLine
 10
329.0
 20
-80.99998474120999
 30
0.0
 11
349.0
 21
-80.99998474120999
 31
0.0
  0
LINE
  5
1EC
330
18
100
AcDbEntity
  8
PV0001_1
  6
DASHED2
 48
0.5
370
    50
100
AcDbLine
 10
329.0
 20
-56.000061035156
 30
0.0
 11
349.0
 21
-56.000061035156
 31
0.0
  0
LINE
  5
1ED
330
18
100
AcDbEntity
  8
PV0001_1
  6
Continuous
370
    25
100
AcDbLine
 10
349.0
 20
-57.75
 30
0.0
 11
399.0
 21
-57.75
 31
0.0
  0
LINE
  5
1EE
330
18
100
AcDbEntity
  8
PV0001_1
  6
Continuous
370
    25
100
AcDbLine
 10
349.0
 20
-79.24998474121
 30
0.0
 11
399.0
 21
-79.24998474121
 31
0.0
  0
LINE
  5
1EF
330
18
100
AcDbEntity
  8
PV0001_1
  6
Continuous
370
    50
100
AcDbLine
 10
1099.0
 20
-55.99998474121
 30
0.0
 11
1231.0
 21
-55.99998474121
 31
0.0
  0
LINE
  5
1F0
330
18
100
AcDbEntity
  8
PV0001_1
  6
Continuous
370
    25
100
AcDbLine
 10
1099.0
 20
-57.75
 30
0.0
 11
1231.0
 21
-57.75
 31
0.0
  0
LINE
  5
1F1
330
18
100
AcDbEntity
  8
PV0001_1
  6
Continuous
370
    25
100
AcDbLine
 10
1099.0
 20
-79.24998474121
 30
0.0
 11
1231.0
 21
-79.24998474121
 31
0.0
  0
LINE
  5
1F2
330
18
100
AcDbEntity
  8
PV0001_1
  6
Continuous
370
    50
100
AcDbLine
 10
1099.0
 20
-80.99998474120999
 30
0.0
 11
1231.0
 21
-80.99998474120999
 31
0.0
  0
LINE
  5
1F3
330
18
100
AcDbEntity
  8
PV0001_1
  6
Continuous
 48
0.5
370
    50
100
AcDbLine
 10
292.0
 20
-58.5
 30
0.0
 11
292.0
 21
-78.49998474121
 31
0.0
  0
LINE
  5
1F4
330
18
100
AcDbEntity
  8
PV0001_1
  6
DASHED2
 48
0.5
370
    50
100
AcDbLine
 10
329.0
 20
-56.000061035156
 30
0.0
 11
329.0
 21
-80.99998474120999
 31
0.0
  0
LINE
  5
1F5
330
18
100
AcDbEntity
  8
PV0001_1
  6
Continuous
 48
0.5
370
    50
100
AcDbLine
 10
249.0
 20
-61.0
 30
0.0
 11
276.0
 21
-61.0
 31
0.0
  0
LINE
  5
1F6
330
18
100
AcDbEntity
  8
PV0001_1
  6
Continuous
370
    50
100
AcDbLine
 10
349.0
 20
-80.99998474120999
 30
0.0
 11
399.0
 21
-80.99998474120999
 31
0.0
  0
LINE
  5
1F7
330
18
100
AcDbEntity
  8
PV0001_1
  6
Continuous
370
    50
100
AcDbLine
 10
276.0
 20
-78.49998474121
 30
0.0
 11
348.70001220703
 21
-78.49998474121
 31
0.0
  0
LINE
  5
1F8
330
18
100
AcDbEntity
  8
PV0001_1
  6
Continuous
370
    50
100
AcDbLine
 10
349.0
 20
-56.000061035156
 30
0.0
 11
399.0
 21
-56.000061035156
 31
0.0
  0
LINE
  5
1F9
330
18
100
AcDbEntity
  8
PV0001_1
  6
Continuous
370
    50
100
AcDbLine
 10
276.0
 20
-58.5
 30
0.0
 11
348.70001220703
 21
-58.5
 31
0.0
  0
LINE
  5
1FA
330
18
100
AcDbEntity
  8
PV0001_1
  6
Continuous
 48
0.5
370
    50
100
AcDbLine
 10
276.0
 20
-58.5
 30
0.0
 11
276.0
 21
-78.49998474121
 31
0.0
  0
LINE
  5
1FB
330
18
100
AcDbEntity
  8
PV0001_1
  6
Continuous
 48
0.5
370
    50
100
AcDbLine
 10
249.0
 20
-75.99998474121
 30
0.0
 11
276.0
 21
-75.99998474121
 31
0.0
  0
LINE
  5
1FC
330
18
100
AcDbEntity
  8
PV0001_1
  6
Continuous
 48
0.5
370
    25
100
AcDbLine
 10
276.0
 20
-77.95850372314401
 30
0.0
 11
292.0
 21
-77.95850372314401
 31
0.0
  0
LINE
  5
1FD
330
18
100
AcDbEntity
  8
PV0001_1
  6
Continuous
 48
0.5
370
    25
100
AcDbLine
 10
276.0
 20
-59.041500091552
 30
0.0
 11
292.0
 21
-59.041500091552
 31
0.0
  0
LINE
  5
1FE
330
18
100
AcDbEntity
  8
PV0001_1
  6
Continuous
 48
0.5
370
    25
100
AcDbLine
 10
292.0
 20
-77.95850372314401
 30
0.0
 11
292.93789672851
 21
-78.499992370605
 31
0.0
  0
LINE
  5
1FF
330
18
100
AcDbEntity
  8
PV0001_1
  6
Continuous
 48
0.5
370
    50
100
AcDbLine
 10
1231.0
 20
-55.99998474121
 30
0.0
 11
1231.0
 21
-80.99998474120999
 31
0.0
  0
LINE
  5
200
330
18
100
AcDbEntity
  8
PV0001_1
  6
Continuous
 48
0.5
370
    25
100
AcDbLine
 10
292.0
 20
-59.041496276855
 30
0.0
 11
292.93789672851
 21
-58.5
 31
0.0
  0
LINE
  5
201
330
18
100
AcDbEntity
  8
PV0001_1
  6
Continuous
 48
0.5
370
    50
100
AcDbLine
 10
1246.3499755859
 20
-58.5
 30
0.0
 11
1246.3499755859
 21
-78.5
 31
0.0
  0
LINE
  5
202
330
18
100
AcDbEntity
  8
PV0001_1
  6
Continuous
 48
0.5
370
    50
100
AcDbLine
 10
1245.0
 20
-58.5
 30
0.0
 11
1245.0
 21
-78.5
 31
0.0
  0
LINE
  5
203
330
18
100
AcDbEntity
  8
PV0001_1
  6
Continuous
 48
0.5
370
    50
100
AcDbLine
 10
1246.3499755859
 20
-58.5
 30
0.0
 11
1249.0
 21
-58.5
 31
0.0
  0
LINE
  5
204
330
18
100
AcDbEntity
  8
PV0001_1
  6
Continuous
 48
0.5
370
    50
100
AcDbLine
 10
1246.3499755859
 20
-78.5
 30
0.0
 11
1249.0
 21
-78.5
 31
0.0
  0
LINE
  5
205
330
18
100
AcDbEntity
  8
PV0001_1
  6
Continuous
 48
0.5
370
    50
100
AcDbLine
 10
1245.0
 20
-78.0
 30
0.0
 11
1246.3499755859
 21
-78.0
 31
0.0
  0
LINE
  5
206
330
18
100
AcDbEntity
  8
PV0001_1
  6
Continuous
 48
0.5
370
    50
100
AcDbLine
 10
1231.2999267578
 20
-78.5
 30
0.0
 11
1245.0
 21
-78.5
 31
0.0
  0
LINE
  5
207
330
18
100
AcDbEntity
  8
PV0001_1
  6
Continuous
 48
0.5
370
    50
100
AcDbLine
 10
1231.2999267578
 20
-58.5
 30
0.0
 11
1245.0
 21
-58.5
 31
0.0
  0
LINE
  5
208
330
18
100
AcDbEntity
  8
PV0001_1
  6
Continuous
 48
0.5
370
    50
100
AcDbLine
 10
1245.0
 20
-59.0
 30
0.0
 11
1246.3499755859
 21
-59.0
 31
0.0
  0
LINE
  5
209
330
18
100
AcDbEntity
  8
PV0001_1
  6
CENTER2
370
    25
100
AcDbLine
 10
244.36364746093
 20
-268.5
 30
0.0
 11
428.5651855468699
 21
-268.5
 31
0.0
  0
LINE
  5
20A
330
18
100
AcDbEntity
  8
PV0001_1
  6
CENTER2
370
    25
100
AcDbLine
 10
1072.8243408203
 20
-488.5000000000001
 30
0.0
 11
1277.7836914062
 21
-488.5000000000001
 31
0.0
  0
LINE
  5
20B
330
18
100
AcDbEntity
  8
PV0001_1
  6
PHANTOM2
 48
0.5
370
    25
100
AcDbLine
 10
349.0
 20
-256.00006103515
 30
0.0
 11
349.0
 21
-281.0
 31
0.0
  0
LINE
  5
20C
330
18
100
AcDbEntity
  8
PV0001_1
  6
PHANTOM2
 48
0.5
370
    25
100
AcDbLine
 10
249.0
 20
-261.0
 30
0.0
 11
249.0
 21
-276.0
 31
0.0
  0
LINE
  5
20D
330
18
100
AcDbEntity
  8
PV0001_1
  6
PHANTOM2
 48
0.5
370
    25
100
AcDbLine
 10
329.0
 20
-281.0
 30
0.0
 11
349.0
 21
-281.0
 31
0.0
  0
LINE
  5
20E
330
18
100
AcDbEntity
  8
PV0001_1
  6
PHANTOM2
 48
0.5
370
    25
100
AcDbLine
 10
329.0
 20
-256.00006103515
 30
0.0
 11
349.0
 21
-256.00006103515
 31
0.0
  0
LINE
  5
20F
330
18
100
AcDbEntity
  8
PV0001_1
  6
PHANTOM2
370
    25
100
AcDbLine
 10
349.0
 20
-257.75
 30
0.0
 11
399.0
 21
-257.75
 31
0.0
  0
LINE
  5
210
330
18
100
AcDbEntity
  8
PV0001_1
  6
PHANTOM2
370
    25
100
AcDbLine
 10
349.0
 20
-279.25
 30
0.0
 11
399.0
 21
-279.25
 31
0.0
  0
LINE
  5
211
330
18
100
AcDbEntity
  8
PV0001_1
  6
PHANTOM2
 48
0.5
370
    25
100
AcDbLine
 10
1245.0
 20
-479.0
 30
0.0
 11
1246.3499755859
 21
-479.0
 31
0.0
  0
LINE
  5
212
330
18
100
AcDbEntity
  8
PV0001_1
  6
PHANTOM2
 48
0.5
370
    25
100
AcDbLine
 10
1231.2999267578
 20
-478.5000000000001
 30
0.0
 11
1245.0
 21
-478.5000000000001
 31
0.0
  0
LINE
  5
213
330
18
100
AcDbEntity
  8
PV0001_1
  6
PHANTOM2
 48
0.5
370
    25
100
AcDbLine
 10
1231.2999267578
 20
-498.5000000000001
 30
0.0
 11
1245.0
 21
-498.5000000000001
 31
0.0
  0
LINE
  5
214
330
18
100
AcDbEntity
  8
PV0001_1
  6
PHANTOM2
 48
0.5
370
    25
100
AcDbLine
 10
292.0
 20
-258.5
 30
0.0
 11
292.0
 21
-278.5
 31
0.0
  0
LINE
  5
215
330
18
100
AcDbEntity
  8
PV0001_1
  6
PHANTOM2
 48
0.5
370
    25
100
AcDbLine
 10
329.0
 20
-256.00006103515
 30
0.0
 11
329.0
 21
-281.0
 31
0.0
  0
LINE
  5
216
330
18
100
AcDbEntity
  8
PV0001_1
  6
PHANTOM2
 48
0.5
370
    25
100
AcDbLine
 10
249.0
 20
-261.0
 30
0.0
 11
276.0
 21
-261.0
 31
0.0
  0
LINE
  5
217
330
18
100
AcDbEntity
  8
PV0001_1
  6
PHANTOM2
370
    25
100
AcDbLine
 10
349.0
 20
-281.0
 30
0.0
 11
399.0
 21
-281.0
 31
0.0
  0
LINE
  5
218
330
18
100
AcDbEntity
  8
PV0001_1
  6
PHANTOM2
370
    25
100
AcDbLine
 10
276.0
 20
-278.5
 30
0.0
 11
348.70001220703
 21
-278.5
 31
0.0
  0
LINE
  5
219
330
18
100
AcDbEntity
  8
PV0001_1
  6
PHANTOM2
370
    25
100
AcDbLine
 10
349.0
 20
-256.00006103515
 30
0.0
 11
399.0
 21
-256.00006103515
 31
0.0
  0
LINE
  5
21A
330
18
100
AcDbEntity
  8
PV0001_1
  6
PHANTOM2
370
    25
100
AcDbLine
 10
276.0
 20
-258.5
 30
0.0
 11
348.70001220703
 21
-258.5
 31
0.0
  0
LINE
  5
21B
330
18
100
AcDbEntity
  8
PV0001_1
  6
PHANTOM2
 48
0.5
370
    25
100
AcDbLine
 10
276.0
 20
-258.5
 30
0.0
 11
276.0
 21
-278.5
 31
0.0
  0
LINE
  5
21C
330
18
100
AcDbEntity
  8
PV0001_1
  6
PHANTOM2
 48
0.5
370
    25
100
AcDbLine
 10
249.0
 20
-276.0
 30
0.0
 11
276.0
 21
-276.0
 31
0.0
  0
LINE
  5
21D
330
18
100
AcDbEntity
  8
PV0001_1
  6
PHANTOM2
 48
0.5
370
    25
100
AcDbLine
 10
276.0
 20
-277.95849609375
 30
0.0
 11
292.0
 21
-277.95849609375
 31
0.0
  0
LINE
  5
21E
330
18
100
AcDbEntity
  8
PV0001_1
  6
PHANTOM2
 48
0.5
370
    25
100
AcDbLine
 10
276.0
 20
-259.04150390625
 30
0.0
 11
292.0
 21
-259.04150390625
 31
0.0
  0
LINE
  5
21F
330
18
100
AcDbEntity
  8
PV0001_1
  6
PHANTOM2
 48
0.5
370
    25
100
AcDbLine
 10
292.0
 20
-277.95849609375
 30
0.0
 11
292.93789672851
 21
-278.5
 31
0.0
  0
LINE
  5
220
330
18
100
AcDbEntity
  8
PV0001_1
  6
PHANTOM2
 48
0.5
370
    25
100
AcDbLine
 10
1245.0
 20
-498.0000000000001
 30
0.0
 11
1246.3499755859
 21
-498.0000000000001
 31
0.0
  0
LINE
  5
221
330
18
100
AcDbEntity
  8
PV0001_1
  6
PHANTOM2
 48
0.5
370
    25
100
AcDbLine
 10
292.0
 20
-259.04150390625
 30
0.0
 11
292.93789672851
 21
-258.5
 31
0.0
  0
LINE
  5
222
330
18
100
AcDbEntity
  8
PV0001_1
  6
PHANTOM2
 48
0.5
370
    25
100
AcDbLine
 10
1246.3499755859
 20
-498.5000000000001
 30
0.0
 11
1249.0
 21
-498.5000000000001
 31
0.0
  0
LINE
  5
223
330
18
100
AcDbEntity
  8
PV0001_1
  6
PHANTOM2
 48
0.5
370
    25
100
AcDbLine
 10
1246.3499755859
 20
-478.5000000000001
 30
0.0
 11
1249.0
 21
-478.5000000000001
 31
0.0
  0
LINE
  5
224
330
18
100
AcDbEntity
  8
PV0001_1
  6
PHANTOM2
 48
0.5
370
    25
100
AcDbLine
 10
1245.0
 20
-478.5000000000001
 30
0.0
 11
1245.0
 21
-498.5000000000001
 31
0.0
  0
LINE
  5
225
330
18
100
AcDbEntity
  8
PV0001_1
  6
PHANTOM2
 48
0.5
370
    25
100
AcDbLine
 10
1246.3499755859
 20
-478.5000000000001
 30
0.0
 11
1246.3499755859
 21
-498.5000000000001
 31
0.0
  0
LINE
  5
226
330
18
100
AcDbEntity
  8
PV0001_1
  6
PHANTOM2
 48
0.5
370
    25
100
AcDbLine
 10
1231.0
 20
-476.0000000000001
 30
0.0
 11
1231.0
 21
-501.0000000000001
 31
0.0
  0
LINE
  5
227
330
18
100
AcDbEntity
  8
PV0001_1
  6
PHANTOM2
370
    25
100
AcDbLine
 10
1099.0
 20
-501.0000000000001
 30
0.0
 11
1231.0
 21
-501.0000000000001
 31
0.0
  0
LINE
  5
228
330
18
100
AcDbEntity
  8
PV0001_1
  6
PHANTOM2
370
    25
100
AcDbLine
 10
1099.0
 20
-499.2500000000001
 30
0.0
 11
1231.0
 21
-499.2500000000001
 31
0.0
  0
LINE
  5
229
330
18
100
AcDbEntity
  8
PV0001_1
  6
PHANTOM2
370
    25
100
AcDbLine
 10
1099.0
 20
-477.7500000000001
 30
0.0
 11
1231.0
 21
-477.7500000000001
 31
0.0
  0
LINE
  5
22A
330
18
100
AcDbEntity
  8
PV0001_1
  6
PHANTOM2
370
    25
100
AcDbLine
 10
1099.0
 20
-476.0000000000001
 30
0.0
 11
1231.0
 21
-476.0000000000001
 31
0.0
  0
LINE
  5
22B
330
18
100
AcDbEntity
  8
PV0001_1
  6
PHANTOM2
 48
0.5
370
    25
100
AcDbLine
 10
1249.0
 20
-478.5000000000001
 30
0.0
 11
1249.0
 21
-498.5000000000001
 31
0.0
  0
LINE
  5
22C
330
18
100
AcDbEntity
  8
PV0001_1
  6
PHANTOM2
 48
0.5
370
    25
100
AcDbLine
 10
292.0
 20
-379.04150390625
 30
0.0
 11
292.93792724609
 21
-378.5
 31
0.0
  0
LINE
  5
22D
330
18
100
AcDbEntity
  8
PV0001_1
  6
PHANTOM2
 48
0.5
370
    25
100
AcDbLine
 10
292.0
 20
-397.95849609375
 30
0.0
 11
292.93789672851
 21
-398.5
 31
0.0
  0
LINE
  5
22E
330
18
100
AcDbEntity
  8
PV0001_1
  6
PHANTOM2
 48
0.5
370
    25
100
AcDbLine
 10
276.0
 20
-379.04150390625
 30
0.0
 11
292.0
 21
-379.04150390625
 31
0.0
  0
LINE
  5
22F
330
18
100
AcDbEntity
  8
PV0001_1
  6
PHANTOM2
 48
0.5
370
    25
100
AcDbLine
 10
276.0
 20
-397.95849609375
 30
0.0
 11
292.0
 21
-397.95849609375
 31
0.0
  0
LINE
  5
230
330
18
100
AcDbEntity
  8
PV0001_1
  6
PHANTOM2
 48
0.5
370
    25
100
AcDbLine
 10
249.0
 20
-396.0
 30
0.0
 11
276.0
 21
-396.0
 31
0.0
  0
LINE
  5
231
330
18
100
AcDbEntity
  8
PV0001_1
  6
PHANTOM2
 48
0.5
370
    25
100
AcDbLine
 10
276.0
 20
-378.5
 30
0.0
 11
276.0
 21
-398.5
 31
0.0
  0
LINE
  5
232
330
18
100
AcDbEntity
  8
PV0001_1
  6
PHANTOM2
370
    25
100
AcDbLine
 10
276.0
 20
-378.5
 30
0.0
 11
348.70001220703
 21
-378.5
 31
0.0
  0
LINE
  5
233
330
18
100
AcDbEntity
  8
PV0001_1
  6
PHANTOM2
370
    25
100
AcDbLine
 10
349.0
 20
-376.00006103515
 30
0.0
 11
399.0
 21
-376.00006103515
 31
0.0
  0
LINE
  5
234
330
18
100
AcDbEntity
  8
PV0001_1
  6
PHANTOM2
370
    25
100
AcDbLine
 10
276.0
 20
-398.5
 30
0.0
 11
348.70001220703
 21
-398.5
 31
0.0
  0
LINE
  5
235
330
18
100
AcDbEntity
  8
PV0001_1
  6
PHANTOM2
370
    25
100
AcDbLine
 10
349.0
 20
-401.0
 30
0.0
 11
399.0
 21
-401.0
 31
0.0
  0
LINE
  5
236
330
18
100
AcDbEntity
  8
PV0001_1
  6
PHANTOM2
 48
0.5
370
    25
100
AcDbLine
 10
249.0
 20
-381.0
 30
0.0
 11
276.0
 21
-381.0
 31
0.0
  0
LINE
  5
237
330
18
100
AcDbEntity
  8
PV0001_1
  6
PHANTOM2
 48
0.5
370
    25
100
AcDbLine
 10
329.0
 20
-376.00006103515
 30
0.0
 11
329.0
 21
-401.0
 31
0.0
  0
LINE
  5
238
330
18
100
AcDbEntity
  8
PV0001_1
  6
PHANTOM2
 48
0.5
370
    25
100
AcDbLine
 10
292.0
 20
-378.5
 30
0.0
 11
292.0
 21
-398.5
 31
0.0
  0
LINE
  5
239
330
18
100
AcDbEntity
  8
PV0001_1
  6
CENTER2
370
    25
100
AcDbLine
 10
244.36364746093
 20
-488.4999999999999
 30
0.0
 11
428.5651855468699
 21
-488.4999999999999
 31
0.0
  0
LINE
  5
23A
330
18
100
AcDbEntity
  8
PV0001_1
  6
PHANTOM2
370
    25
100
AcDbLine
 10
349.0
 20
-399.25
 30
0.0
 11
399.0
 21
-399.25
 31
0.0
  0
LINE
  5
23B
330
18
100
AcDbEntity
  8
PV0001_1
  6
PHANTOM2
370
    25
100
AcDbLine
 10
349.0
 20
-377.75
 30
0.0
 11
399.0
 21
-377.75
 31
0.0
  0
LINE
  5
23C
330
18
100
AcDbEntity
  8
PV0001_1
  6
PHANTOM2
 48
0.5
370
    25
100
AcDbLine
 10
329.0
 20
-376.00006103515
 30
0.0
 11
349.0
 21
-376.00006103515
 31
0.0
  0
LINE
  5
23D
330
18
100
AcDbEntity
  8
PV0001_1
  6
PHANTOM2
 48
0.5
370
    25
100
AcDbLine
 10
329.0
 20
-401.0
 30
0.0
 11
349.0
 21
-401.0
 31
0.0
  0
LINE
  5
23E
330
18
100
AcDbEntity
  8
PV0001_1
  6
PHANTOM2
 48
0.5
370
    25
100
AcDbLine
 10
249.0
 20
-381.0
 30
0.0
 11
249.0
 21
-396.0
 31
0.0
  0
LINE
  5
23F
330
18
100
AcDbEntity
  8
PV0001_1
  6
PHANTOM2
 48
0.5
370
    25
100
AcDbLine
 10
349.0
 20
-376.00006103515
 30
0.0
 11
349.0
 21
-401.0
 31
0.0
  0
LINE
  5
240
330
18
100
AcDbEntity
  8
PV0001_1
  6
CENTER2
370
    25
100
AcDbLine
 10
1072.8243408203
 20
-268.5
 30
0.0
 11
1277.7836914062
 21
-268.5
 31
0.0
  0
LINE
  5
241
330
18
100
AcDbEntity
  8
PV0001_1
  6
PHANTOM2
 48
0.5
370
    25
100
AcDbLine
 10
1249.0
 20
-258.5
 30
0.0
 11
1249.0
 21
-278.5
 31
0.0
  0
LINE
  5
242
330
18
100
AcDbEntity
  8
PV0001_1
  6
PHANTOM2
370
    25
100
AcDbLine
 10
1099.0
 20
-255.99998474121
 30
0.0
 11
1231.0
 21
-255.99998474121
 31
0.0
  0
LINE
  5
243
330
18
100
AcDbEntity
  8
PV0001_1
  6
PHANTOM2
370
    25
100
AcDbLine
 10
1099.0
 20
-257.75
 30
0.0
 11
1231.0
 21
-257.75
 31
0.0
  0
LINE
  5
244
330
18
100
AcDbEntity
  8
PV0001_1
  6
PHANTOM2
370
    25
100
AcDbLine
 10
1099.0
 20
-279.25
 30
0.0
 11
1231.0
 21
-279.25
 31
0.0
  0
LINE
  5
245
330
18
100
AcDbEntity
  8
PV0001_1
  6
PHANTOM2
370
    25
100
AcDbLine
 10
1099.0
 20
-281.0
 30
0.0
 11
1231.0
 21
-281.0
 31
0.0
  0
LINE
  5
246
330
18
100
AcDbEntity
  8
PV0001_1
  6
PHANTOM2
 48
0.5
370
    25
100
AcDbLine
 10
1231.0
 20
-255.99998474121
 30
0.0
 11
1231.0
 21
-281.0
 31
0.0
  0
LINE
  5
247
330
18
100
AcDbEntity
  8
PV0001_1
  6
PHANTOM2
 48
0.5
370
    25
100
AcDbLine
 10
1246.3499755859
 20
-258.5
 30
0.0
 11
1246.3499755859
 21
-278.5
 31
0.0
  0
LINE
  5
248
330
18
100
AcDbEntity
  8
PV0001_1
  6
PHANTOM2
 48
0.5
370
    25
100
AcDbLine
 10
1245.0
 20
-258.5
 30
0.0
 11
1245.0
 21
-278.5
 31
0.0
  0
LINE
  5
249
330
18
100
AcDbEntity
  8
PV0001_1
  6
PHANTOM2
 48
0.5
370
    25
100
AcDbLine
 10
1246.3499755859
 20
-258.5
 30
0.0
 11
1249.0
 21
-258.5
 31
0.0
  0
LINE
  5
24A
330
18
100
AcDbEntity
  8
PV0001_1
  6
PHANTOM2
 48
0.5
370
    25
100
AcDbLine
 10
1246.3499755859
 20
-278.5
 30
0.0
 11
1249.0
 21
-278.5
 31
0.0
  0
LINE
  5
24B
330
18
100
AcDbEntity
  8
PV0001_1
  6
PHANTOM2
 48
0.5
370
    25
100
AcDbLine
 10
1245.0
 20
-278.0
 30
0.0
 11
1246.3499755859
 21
-278.0
 31
0.0
  0
LINE
  5
24C
330
18
100
AcDbEntity
  8
PV0001_1
  6
PHANTOM2
 48
0.5
370
    25
100
AcDbLine
 10
1231.2999267578
 20
-278.5
 30
0.0
 11
1245.0
 21
-278.5
 31
0.0
  0
LINE
  5
24D
330
18
100
AcDbEntity
  8
PV0001_1
  6
PHANTOM2
 48
0.5
370
    25
100
AcDbLine
 10
1231.2999267578
 20
-258.5
 30
0.0
 11
1245.0
 21
-258.5
 31
0.0
  0
LINE
  5
24E
330
18
100
AcDbEntity
  8
PV0001_1
  6
PHANTOM2
 48
0.5
370
    25
100
AcDbLine
 10
1245.0
 20
-259.0
 30
0.0
 11
1246.3499755859
 21
-259.0
 31
0.0
  0
LINE
  5
24F
330
18
100
AcDbEntity
  8
PV0001_1
  6
PHANTOM2
 48
0.5
370
    25
100
AcDbLine
 10
349.0
 20
-476.0000610351499
 30
0.0
 11
349.0
 21
-501.0
 31
0.0
  0
LINE
  5
250
330
18
100
AcDbEntity
  8
PV0001_1
  6
PHANTOM2
 48
0.5
370
    25
100
AcDbLine
 10
249.0
 20
-481.0
 30
0.0
 11
249.0
 21
-496.0
 31
0.0
  0
LINE
  5
251
330
18
100
AcDbEntity
  8
PV0001_1
  6
PHANTOM2
 48
0.5
370
    25
100
AcDbLine
 10
329.0
 20
-501.0
 30
0.0
 11
349.0
 21
-501.0
 31
0.0
  0
LINE
  5
252
330
18
100
AcDbEntity
  8
PV0001_1
  6
PHANTOM2
 48
0.5
370
    25
100
AcDbLine
 10
329.0
 20
-476.0000610351499
 30
0.0
 11
349.0
 21
-476.0000610351499
 31
0.0
  0
LINE
  5
253
330
18
100
AcDbEntity
  8
PV0001_1
  6
PHANTOM2
370
    25
100
AcDbLine
 10
349.0
 20
-477.7499999999999
 30
0.0
 11
399.0
 21
-477.7499999999999
 31
0.0
  0
LINE
  5
254
330
18
100
AcDbEntity
  8
PV0001_1
  6
PHANTOM2
370
    25
100
AcDbLine
 10
349.0
 20
-499.2499999999999
 30
0.0
 11
399.0
 21
-499.2499999999999
 31
0.0
  0
LINE
  5
255
330
18
100
AcDbEntity
  8
PV0001_1
  6
PHANTOM2
 48
0.5
370
    25
100
AcDbLine
 10
292.0
 20
-478.5
 30
0.0
 11
292.0
 21
-498.5
 31
0.0
  0
LINE
  5
256
330
18
100
AcDbEntity
  8
PV0001_1
  6
PHANTOM2
 48
0.5
370
    25
100
AcDbLine
 10
329.0
 20
-476.0000610351499
 30
0.0
 11
329.0
 21
-501.0
 31
0.0
  0
LINE
  5
257
330
18
100
AcDbEntity
  8
PV0001_1
  6
PHANTOM2
 48
0.5
370
    25
100
AcDbLine
 10
249.0
 20
-481.0
 30
0.0
 11
276.0
 21
-481.0
 31
0.0
  0
LINE
  5
258
330
18
100
AcDbEntity
  8
PV0001_1
  6
PHANTOM2
370
    25
100
AcDbLine
 10
349.0
 20
-501.0
 30
0.0
 11
399.0
 21
-501.0
 31
0.0
  0
LINE
  5
259
330
18
100
AcDbEntity
  8
PV0001_1
  6
PHANTOM2
370
    25
100
AcDbLine
 10
276.0
 20
-498.5
 30
0.0
 11
348.70001220703
 21
-498.5
 31
0.0
  0
LINE
  5
25A
330
18
100
AcDbEntity
  8
PV0001_1
  6
PHANTOM2
370
    25
100
AcDbLine
 10
349.0
 20
-476.0000610351499
 30
0.0
 11
399.0
 21
-476.0000610351499
 31
0.0
  0
LINE
  5
25B
330
18
100
AcDbEntity
  8
PV0001_1
  6
PHANTOM2
370
    25
100
AcDbLine
 10
276.0
 20
-478.5
 30
0.0
 11
348.70001220703
 21
-478.5
 31
0.0
  0
LINE
  5
25C
330
18
100
AcDbEntity
  8
PV0001_1
  6
PHANTOM2
 48
0.5
370
    25
100
AcDbLine
 10
276.0
 20
-478.5
 30
0.0
 11
276.0
 21
-498.5
 31
0.0
  0
LINE
  5
25D
330
18
100
AcDbEntity
  8
PV0001_1
  6
PHANTOM2
 48
0.5
370
    25
100
AcDbLine
 10
249.0
 20
-496.0
 30
0.0
 11
276.0
 21
-496.0
 31
0.0
  0
LINE
  5
25E
330
18
100
AcDbEntity
  8
PV0001_1
  6
PHANTOM2
 48
0.5
370
    25
100
AcDbLine
 10
276.0
 20
-497.95849609375
 30
0.0
 11
292.0
 21
-497.95849609375
 31
0.0
  0
LINE
  5
25F
330
18
100
AcDbEntity
  8
PV0001_1
  6
PHANTOM2
 48
0.5
370
    25
100
AcDbLine
 10
276.0
 20
-479.04150390625
 30
0.0
 11
292.0
 21
-479.04150390625
 31
0.0
  0
LINE
  5
260
330
18
100
AcDbEntity
  8
PV0001_1
  6
PHANTOM2
 48
0.5
370
    25
100
AcDbLine
 10
292.0
 20
-497.95852661132
 30
0.0
 11
292.93789672851
 21
-498.5
 31
0.0
  0
LINE
  5
261
330
18
100
AcDbEntity
  8
PV0001_1
  6
PHANTOM2
 48
0.5
370
    25
100
AcDbLine
 10
292.0
 20
-479.04150390625
 30
0.0
 11
292.93792724609
 21
-478.5
 31
0.0
  0
ARC
  5
262
330
18
100
AcDbEntity
  8
PV0001_1
  6
Continuous
 48
0.5
370
    50
100
AcDbCircle
 10
39.344146728515
 20
15.600006103515
 30
0.0
 40
0.2000000029802
100
AcDbArc
 50
89.99998201390964
 51
161.5651331937947
  0
ARC
  5
263
330
18
100
AcDbEntity
  8
PV0001_1
  6
Continuous
 48
0.5
370
    50
100
AcDbCircle
 10
40.92251586914
 20
13.600006103515
 30
0.0
 40
0.2000000029802
100
AcDbArc
 50
270.0000179860904
 51
18.4348803528989
  0
ARC
  5
264
330
18
100
AcDbEntity
  8
PV0001_1
  6
Continuous
 48
0.5
370
    50
100
AcDbCircle
 10
38.677490234375
 20
13.600006103515
 30
0.0
 40
0.2000000029802
100
AcDbArc
 50
161.5650375711494
 51
270.000000683247
  0
ARC
  5
265
330
18
100
AcDbEntity
  8
PV0001_1
  6
Continuous
 48
0.5
370
    50
100
AcDbCircle
 10
34.800003051757
 20
15.0
 30
0.0
 40
1.399999976158099
100
AcDbArc
 50
0.0
 51
89.99998201390964
  0
ARC
  5
266
330
18
100
AcDbEntity
  8
PV0001_1
  6
Continuous
 48
0.5
370
    50
100
AcDbCircle
 10
34.800003051757
 20
13.0
 30
0.0
 40
1.399999976158099
100
AcDbArc
 50
270.0000179860904
 51
0.0
  0
ARC
  5
267
330
18
100
AcDbEntity
  8
PV0001_1
  6
Continuous
 48
0.5
370
    50
100
AcDbCircle
 10
33.80000305175701
 20
15.0
 30
0.0
 40
0.8000000119209
100
AcDbArc
 50
0.0
 51
89.99998201390964
  0
ARC
  5
268
330
18
100
AcDbEntity
  8
PV0001_1
  6
Continuous
 48
0.5
370
    50
100
AcDbCircle
 10
33.80000305175701
 20
13.200012207031
 30
0.0
 40
0.8000000119209
100
AcDbArc
 50
270.0000179860904
 51
0.0
  0
ARC
  5
269
330
18
100
AcDbEntity
  8
PV0001_1
  6
Continuous
 48
0.5
370
    50
100
AcDbCircle
 10
31.600006103515
 20
12.600006103515
 30
0.0
 40
0.2000000029802
100
AcDbArc
 50
179.9999776881987
 51
270.0000280040004
  0
ARC
  5
26A
330
18
100
AcDbEntity
  8
PV0001_1
  6
Continuous
 48
0.5
370
    50
100
AcDbCircle
 10
31.600006103515
 20
15.600006103515
 30
0.0
 40
0.2000000029802
100
AcDbArc
 50
89.99998201390964
 51
179.9999640278192
  0
ARC
  5
26B
330
18
100
AcDbEntity
  8
PV0001_1
  6
Continuous
 48
0.5
370
    50
100
AcDbCircle
 10
27.0
 20
15.0
 30
0.0
 40
0.8000000119209
100
AcDbArc
 50
0.0
 51
89.99998201390964
  0
ARC
  5
26C
330
18
100
AcDbEntity
  8
PV0001_1
  6
Continuous
 48
0.5
370
    50
100
AcDbCircle
 10
27.0
 20
13.200012207031
 30
0.0
 40
0.8000000119209
100
AcDbArc
 50
270.0000179860904
 51
0.0
  0
ARC
  5
26D
330
18
100
AcDbEntity
  8
PV0001_1
  6
Continuous
 48
0.5
370
    50
100
AcDbCircle
 10
25.199996948242
 20
13.200012207031
 30
0.0
 40
0.8000000119209
100
AcDbArc
 50
179.9999776881987
 51
270.0000280040004
  0
ARC
  5
26E
330
18
100
AcDbEntity
  8
PV0001_1
  6
Continuous
 48
0.5
370
    50
100
AcDbCircle
 10
25.199996948242
 20
15.0
 30
0.0
 40
0.8000000119209
100
AcDbArc
 50
89.99998201390964
 51
179.9999640278192
  0
ARC
  5
26F
330
18
100
AcDbEntity
  8
PV0001_1
  6
Continuous
 48
0.5
370
    50
100
AcDbCircle
 10
24.199996948242
 20
15.0
 30
0.0
 40
1.399999976158099
100
AcDbArc
 50
89.99998201390964
 51
179.9999640278192
  0
ARC
  5
270
330
18
100
AcDbEntity
  8
PV0001_1
  6
Continuous
 48
0.5
370
    50
100
AcDbCircle
 10
28.0
 20
15.0
 30
0.0
 40
1.399999976158099
100
AcDbArc
 50
0.0
 51
89.99998201390964
  0
ARC
  5
271
330
18
100
AcDbEntity
  8
PV0001_1
  6
Continuous
 48
0.5
370
    50
100
AcDbCircle
 10
28.0
 20
13.0
 30
0.0
 40
1.399999976158099
100
AcDbArc
 50
270.0000179860904
 51
0.0
  0
ARC
  5
272
330
18
100
AcDbEntity
  8
PV0001_1
  6
Continuous
 48
0.5
370
    50
100
AcDbCircle
 10
24.199996948242
 20
13.0
 30
0.0
 40
1.399999976158099
100
AcDbArc
 50
179.9999776881987
 51
270.0000280040004
  0
ARC
  5
273
330
18
100
AcDbEntity
  8
PV0001_1
  6
Continuous
 48
0.5
370
    50
100
AcDbCircle
 10
20.199996948242
 20
15.200012207031
 30
0.0
 40
0.6000000238419
100
AcDbArc
 50
0.0
 51
89.99998201390964
  0
ARC
  5
274
330
18
100
AcDbEntity
  8
PV0001_1
  6
Continuous
 48
0.5
370
    50
100
AcDbCircle
 10
20.199996948242
 20
14.5
 30
0.0
 40
0.6000000238419
100
AcDbArc
 50
270.0000179860904
 51
0.0
  0
ARC
  5
275
330
18
100
AcDbEntity
  8
PV0001_1
  6
Continuous
 48
0.5
370
    50
100
AcDbCircle
 10
18.100006103515
 20
14.100006103515
 30
0.0
 40
0.2000000029802
100
AcDbArc
 50
179.9999776881987
 51
270.0000280040004
  0
ARC
  5
276
330
18
100
AcDbEntity
  8
PV0001_1
  6
Continuous
 48
0.5
370
    50
100
AcDbCircle
 10
18.100006103515
 20
15.600006103515
 30
0.0
 40
0.2000000029802
100
AcDbArc
 50
89.99998201390964
 51
179.9999640278192
  0
ARC
  5
277
330
18
100
AcDbEntity
  8
PV0001_1
  6
Continuous
 48
0.5
370
    50
100
AcDbCircle
 10
21.779830932617
 20
13.389404296875
 30
0.0
 40
0.2000000029802
100
AcDbArc
 50
117.3049472966005
 51
234.4267362404176
  0
ARC
  5
278
330
18
100
AcDbEntity
  8
PV0001_1
  6
Continuous
 48
0.5
370
    50
100
AcDbCircle
 10
20.199996948242
 20
12.600006103515
 30
0.0
 40
0.6000000238419
100
AcDbArc
 50
0.0
 51
89.99998201390964
  0
ARC
  5
279
330
18
100
AcDbEntity
  8
PV0001_1
  6
Continuous
 48
0.5
370
    50
100
AcDbCircle
 10
18.300003051757
 20
12.799987792968
 30
0.0
 40
0.4000000059605
100
AcDbArc
 50
89.99998201390964
 51
179.9999640278192
  0
ARC
  5
27A
330
18
100
AcDbEntity
  8
PV0001_1
  6
Continuous
 48
0.5
370
    50
100
AcDbCircle
 10
21.0
 20
14.900024414062
 30
0.0
 40
1.5
100
AcDbArc
 50
297.304990098971
 51
0.0
  0
ARC
  5
27B
330
18
100
AcDbEntity
  8
PV0001_1
  6
Continuous
 48
0.5
370
    50
100
AcDbCircle
 10
21.0
 20
14.900024414062
 30
0.0
 40
1.5
100
AcDbArc
 50
0.0
 51
89.99998201390964
  0
ARC
  5
27C
330
18
100
AcDbEntity
  8
PV0001_1
  6
Continuous
 48
0.5
370
    50
100
AcDbCircle
 10
20.5
 20
11.600006103515
 30
0.0
 40
2.0
100
AcDbArc
 50
0.0
 51
54.42673123145972
  0
ARC
  5
27D
330
18
100
AcDbEntity
  8
PV0001_1
  6
Continuous
 48
0.5
370
    50
100
AcDbCircle
 10
11.600006103515
 20
13.0
 30
0.0
 40
0.6000000238419
100
AcDbArc
 50
179.9999776881987
 51
270.0000280040004
  0
ARC
  5
27E
330
18
100
AcDbEntity
  8
PV0001_1
  6
Continuous
 48
0.5
370
    50
100
AcDbCircle
 10
13.800003051757
 20
13.0
 30
0.0
 40
0.6000000238419
100
AcDbArc
 50
270.0000179860904
 51
0.0
  0
ARC
  5
27F
330
18
100
AcDbEntity
  8
PV0001_1
  6
Continuous
 48
0.5
370
    50
100
AcDbCircle
 10
14.600006103515
 20
12.799987792968
 30
0.0
 40
1.2000000476837
100
AcDbArc
 50
270.0000179860904
 51
0.0
  0
ARC
  5
280
330
18
100
AcDbEntity
  8
PV0001_1
  6
Continuous
 48
0.5
370
    50
100
AcDbCircle
 10
10.800003051757
 20
12.799987792968
 30
0.0
 40
1.2000000476837
100
AcDbArc
 50
179.9999776881987
 51
270.0000280040004
  0
ARC
  5
281
330
18
100
AcDbEntity
  8
PV0001_1
  6
Continuous
 48
0.5
370
    50
100
AcDbCircle
 10
4.8000030517578
 20
13.799987792968
 30
0.0
 40
0.2000000029802
100
AcDbArc
 50
89.99998201390964
 51
179.9999640278192
  0
ARC
  5
282
330
18
100
AcDbEntity
  8
PV0001_1
  6
Continuous
 48
0.5
370
    50
100
AcDbCircle
 10
4.8000030517578
 20
14.799987792968
 30
0.0
 40
0.2000000029802
100
AcDbArc
 50
179.9999776881987
 51
270.0000280040004
  0
ARC
  5
283
330
18
100
AcDbEntity
  8
PV0001_1
  6
Continuous
 48
0.5
370
    50
100
AcDbCircle
 10
5.699996948242199
 20
13.799987792968
 30
0.0
 40
0.2000000029802
100
AcDbArc
 50
36.86990755486351
 51
89.99998201390964
  0
ARC
  5
284
330
18
100
AcDbEntity
  8
PV0001_1
  6
Continuous
 48
0.5
370
    50
100
AcDbCircle
 10
5.7021789550781
 20
14.799987792968
 30
0.0
 40
0.2000000029802
100
AcDbArc
 50
270.0000179860904
 51
322.1249959578259
  0
ARC
  5
285
330
18
100
AcDbEntity
  8
PV0001_1
  6
Continuous
 48
0.5
370
    50
100
AcDbCircle
 10
7.472381591796899
 20
14.389526367187
 30
0.0
 40
0.2000000029802
100
AcDbArc
 50
135.0000549831359
 51
220.6012585677736
  0
CIRCLE
  5
286
330
18
100
AcDbEntity
  8
PV0001_1
  6
Continuous
 48
0.5
370
   100
100
AcDbCircle
 10
266.30798339843
 20
13.999938964843
 30
0.0
 40
2.700000047683699
  0
ARC
  5
287
330
18
100
AcDbEntity
  8
PV0001_1
  6
Continuous
 48
0.5
370
    50
100
AcDbCircle
 10
40.25585937499999
 20
15.600006103515
 30
0.0
 40
0.2000000029802
100
AcDbArc
 50
18.43505281517194
 51
89.99998201390964
  0
ARC
  5
288
330
18
100
AcDbEntity
  8
PV0001_1
  6
Continuous
 48
0.5
370
    50
100
AcDbCircle
 10
38.27749633789
 20
12.400024414062
 30
0.0
 40
0.2000000029802
100
AcDbArc
 50
89.99998201390964
 51
161.5650102503904
  0
ARC
  5
289
330
18
100
AcDbEntity
  8
PV0001_1
  6
Continuous
 48
0.5
370
    50
100
AcDbCircle
 10
41.322509765625
 20
12.400024414062
 30
0.0
 40
0.2000000029802
100
AcDbArc
 50
18.4348803528989
 51
89.99998201390964
  0
CIRCLE
  5
28A
330
18
100
AcDbEntity
  8
PV0001_1
  6
Continuous
 48
0.5
370
   100
100
AcDbCircle
 10
266.30798339843
 20
13.999938964843
 30
0.0
 40
1.6200001239777
  0
CIRCLE
  5
28B
330
18
100
AcDbEntity
  8
PV0001_1
  6
Continuous
370
    50
100
AcDbCircle
 10
171.5
 20
-268.5
 30
0.0
 40
18.5
  0
ARC
  5
28C
330
18
100
AcDbEntity
  8
PV0001_1
  6
Continuous
 48
0.5
370
    50
100
AcDbCircle
 10
171.5
 20
-268.5
 30
0.0
 40
35.0
100
AcDbArc
 50
219.5176526984167
 51
230.4823466183362
  0
ARC
  5
28D
330
18
100
AcDbEntity
  8
PV0001_1
  6
Continuous
 48
0.5
370
    50
100
AcDbCircle
 10
171.5
 20
-268.5
 30
0.0
 40
35.0
100
AcDbArc
 50
309.5176620330854
 51
320.482355953005
  0
ARC
  5
28E
330
18
100
AcDbEntity
  8
PV0001_1
  6
Continuous
 48
0.5
370
    50
100
AcDbCircle
 10
171.5
 20
-268.5
 30
0.0
 40
35.0
100
AcDbArc
 50
39.51763380171324
 51
50.48232772163281
  0
ARC
  5
28F
330
18
100
AcDbEntity
  8
PV0001_1
  6
Continuous
 48
0.5
370
    50
100
AcDbCircle
 10
171.5
 20
-268.5
 30
0.0
 40
35.0
100
AcDbArc
 50
129.5176397212842
 51
140.4823336412038
  0
CIRCLE
  5
290
330
18
100
AcDbEntity
  8
PV0001_1
  6
CENTER2
370
    25
100
AcDbCircle
 10
171.5
 20
-268.5
 30
0.0
 40
28.5
  0
CIRCLE
  5
291
330
18
100
AcDbEntity
  8
PV0001_1
  6
Continuous
370
    50
100
AcDbCircle
 10
151.34747314453
 20
-288.65252685546
 30
0.0
 40
5.5
  0
CIRCLE
  5
292
330
18
100
AcDbEntity
  8
PV0001_1
  6
Continuous
370
    50
100
AcDbCircle
 10
191.65255737304
 20
-288.65252685546
 30
0.0
 40
5.5
  0
CIRCLE
  5
293
330
18
100
AcDbEntity
  8
PV0001_1
  6
Continuous
370
    50
100
AcDbCircle
 10
151.34747314453
 20
-248.34745788574
 30
0.0
 40
5.5
  0
CIRCLE
  5
294
330
18
100
AcDbEntity
  8
PV0001_1
  6
Continuous
370
    50
100
AcDbCircle
 10
191.65255737304
 20
-248.34745788574
 30
0.0
 40
5.5
  0
ARC
  5
295
330
18
100
AcDbEntity
  8
PV0001_1
  6
Continuous
 48
0.5
370
    50
100
AcDbCircle
 10
171.5
 20
-268.5
 30
0.0
 40
17.5
100
AcDbArc
 50
211.0027154073534
 51
238.9972702490257
  0
ARC
  5
296
330
18
100
AcDbEntity
  8
PV0001_1
  6
Continuous
 48
0.5
370
    50
100
AcDbCircle
 10
171.5
 20
-268.5
 30
0.0
 40
17.5
100
AcDbArc
 50
301.002738402396
 51
328.9972932440682
  0
ARC
  5
297
330
18
100
AcDbEntity
  8
PV0001_1
  6
Continuous
 48
0.5
370
    50
100
AcDbCircle
 10
171.5
 20
-268.5
 30
0.0
 40
17.5
100
AcDbArc
 50
31.00268285027047
 51
58.99725476741425
  0
ARC
  5
298
330
18
100
AcDbEntity
  8
PV0001_1
  6
Continuous
 48
0.5
370
    50
100
AcDbCircle
 10
171.5
 20
-268.5
 30
0.0
 40
17.5
100
AcDbArc
 50
121.0027160905948
 51
148.9972709322727
  0
CIRCLE
  5
299
330
18
100
AcDbEntity
  8
PV0001_1
  6
Continuous
370
    50
100
AcDbCircle
 10
151.34747314453
 20
-288.65252685546
 30
0.0
 40
5.0
  0
CIRCLE
  5
29A
330
18
100
AcDbEntity
  8
PV0001_1
  6
Continuous
370
    50
100
AcDbCircle
 10
151.34747314453
 20
-248.34745788574
 30
0.0
 40
5.0
  0
CIRCLE
  5
29B
330
18
100
AcDbEntity
  8
PV0001_1
  6
Continuous
370
    50
100
AcDbCircle
 10
191.65255737304
 20
-248.34745788574
 30
0.0
 40
5.0
  0
CIRCLE
  5
29C
330
18
100
AcDbEntity
  8
PV0001_1
  6
Continuous
370
    50
100
AcDbCircle
 10
191.65255737304
 20
-288.65252685546
 30
0.0
 40
5.0
  0
ARC
  5
29D
330
18
100
AcDbEntity
  8
PV0001_1
  6
Continuous
 48
0.5
370
    50
100
AcDbCircle
 10
171.5
 20
-388.5
 30
0.0
 40
42.5
100
AcDbArc
 50
36.86989730957598
 51
53.1301017798052
  0
ARC
  5
29E
330
18
100
AcDbEntity
  8
PV0001_1
  6
Continuous
 48
0.5
370
    50
100
AcDbCircle
 10
171.5
 20
-388.5
 30
0.0
 40
42.5
100
AcDbArc
 50
126.8699168895322
 51
143.1301247748534
  0
ARC
  5
29F
330
18
100
AcDbEntity
  8
PV0001_1
  6
Continuous
 48
0.5
370
    50
100
AcDbCircle
 10
171.5
 20
-388.5
 30
0.0
 40
42.5
100
AcDbArc
 50
216.8698752251466
 51
233.1300831104678
  0
ARC
  5
2A0
330
18
100
AcDbEntity
  8
PV0001_1
  6
Continuous
 48
0.5
370
    50
100
AcDbCircle
 10
171.5
 20
-388.5
 30
0.0
 40
42.5
100
AcDbArc
 50
306.8698982201948
 51
323.130102690424
  0
CIRCLE
  5
2A1
330
18
100
AcDbEntity
  8
PV0001_1
  6
Continuous
370
    50
100
AcDbCircle
 10
171.5
 20
-388.5
 30
0.0
 40
18.5
  0
CIRCLE
  5
2A2
330
18
100
AcDbEntity
  8
PV0001_1
  6
CENTER2
370
    25
100
AcDbCircle
 10
171.5
 20
-388.5
 30
0.0
 40
35.0
  0
CIRCLE
  5
2A3
330
18
100
AcDbEntity
  8
PV0001_1
  6
CENTER2
370
    25
100
AcDbCircle
 10
171.5
 20
-388.5
 30
0.0
 40
28.5
  0
CIRCLE
  5
2A4
330
18
100
AcDbEntity
  8
PV0001_1
  6
Continuous
370
    50
100
AcDbCircle
 10
196.24874877929
 20
-363.75128173828
 30
0.0
 40
5.5
  0
CIRCLE
  5
2A5
330
18
100
AcDbEntity
  8
PV0001_1
  6
Continuous
370
    50
100
AcDbCircle
 10
146.75128173828
 20
-363.75128173828
 30
0.0
 40
5.5
  0
CIRCLE
  5
2A6
330
18
100
AcDbEntity
  8
PV0001_1
  6
Continuous
370
    50
100
AcDbCircle
 10
146.75128173828
 20
-413.24871826171
 30
0.0
 40
5.5
  0
CIRCLE
  5
2A7
330
18
100
AcDbEntity
  8
PV0001_1
  6
Continuous
370
    50
100
AcDbCircle
 10
196.24874877929
 20
-413.24871826171
 30
0.0
 40
5.5
  0
CIRCLE
  5
2A8
330
18
100
AcDbEntity
  8
PV0001_1
  6
Continuous
370
    50
100
AcDbCircle
 10
160.59353637695
 20
-414.8305664062499
 30
0.0
 40
5.5
  0
CIRCLE
  5
2A9
330
18
100
AcDbEntity
  8
PV0001_1
  6
Continuous
370
    50
100
AcDbCircle
 10
197.83056640625
 20
-399.40649414062
 30
0.0
 40
5.5
  0
CIRCLE
  5
2AA
330
18
100
AcDbEntity
  8
PV0001_1
  6
Continuous
370
    50
100
AcDbCircle
 10
182.40649414062
 20
-362.16943359375
 30
0.0
 40
5.5
  0
CIRCLE
  5
2AB
330
18
100
AcDbEntity
  8
PV0001_1
  6
Continuous
370
    50
100
AcDbCircle
 10
145.16943359375
 20
-377.59350585937
 30
0.0
 40
5.5
  0
CIRCLE
  5
2AC
330
18
100
AcDbEntity
  8
PV0001_1
  6
Continuous
 48
0.5
370
    50
100
AcDbCircle
 10
146.75128173828
 20
-363.75128173828
 30
0.0
 40
3.2999999523163
  0
CIRCLE
  5
2AD
330
18
100
AcDbEntity
  8
PV0001_1
  6
Continuous
 48
0.5
370
    50
100
AcDbCircle
 10
146.75128173828
 20
-413.24871826171
 30
0.0
 40
3.2999999523163
  0
CIRCLE
  5
2AE
330
18
100
AcDbEntity
  8
PV0001_1
  6
Continuous
 48
0.5
370
    50
100
AcDbCircle
 10
196.24874877929
 20
-413.24871826171
 30
0.0
 40
3.2999999523163
  0
CIRCLE
  5
2AF
330
18
100
AcDbEntity
  8
PV0001_1
  6
Continuous
 48
0.5
370
    50
100
AcDbCircle
 10
196.24874877929
 20
-363.75128173828
 30
0.0
 40
3.2999999523163
  0
ARC
  5
2B0
330
18
100
AcDbEntity
  8
PV0001_1
  6
Continuous
 48
0.5
370
    50
100
AcDbCircle
 10
171.5
 20
-388.5
 30
0.0
 40
17.5
100
AcDbArc
 50
31.00274090687492
 51
58.99728208816759
  0
ARC
  5
2B1
330
18
100
AcDbEntity
  8
PV0001_1
  6
Continuous
 48
0.5
370
    50
100
AcDbCircle
 10
171.5
 20
-388.5
 30
0.0
 40
17.5
100
AcDbArc
 50
211.0027017469739
 51
238.9972565886462
  0
ARC
  5
2B2
330
18
100
AcDbEntity
  8
PV0001_1
  6
Continuous
 48
0.5
370
    50
100
AcDbCircle
 10
171.5
 20
-388.5
 30
0.0
 40
17.5
100
AcDbArc
 50
121.0027434113538
 51
148.9972845926465
  0
ARC
  5
2B3
330
18
100
AcDbEntity
  8
PV0001_1
  6
Continuous
 48
0.5
370
    50
100
AcDbCircle
 10
171.5
 20
-388.5
 30
0.0
 40
17.5
100
AcDbArc
 50
301.0027179118324
 51
328.9972829987864
  0
CIRCLE
  5
2B4
330
18
100
AcDbEntity
  8
PV0001_1
  6
Continuous
370
    50
100
AcDbCircle
 10
145.16943359375
 20
-377.59350585937
 30
0.0
 40
5.0
  0
CIRCLE
  5
2B5
330
18
100
AcDbEntity
  8
PV0001_1
  6
Continuous
370
    50
100
AcDbCircle
 10
160.59353637695
 20
-414.8305664062499
 30
0.0
 40
5.0
  0
CIRCLE
  5
2B6
330
18
100
AcDbEntity
  8
PV0001_1
  6
Continuous
370
    50
100
AcDbCircle
 10
197.83056640625
 20
-399.40649414062
 30
0.0
 40
5.0
  0
CIRCLE
  5
2B7
330
18
100
AcDbEntity
  8
PV0001_1
  6
Continuous
370
    50
100
AcDbCircle
 10
182.40649414062
 20
-362.16943359375
 30
0.0
 40
5.0
  0
CIRCLE
  5
2B8
330
18
100
AcDbEntity
  8
PV0001_1
  6
Continuous
370
    50
100
AcDbCircle
 10
1365.0
 20
-268.5
 30
0.0
 40
23.500001907348
  0
CIRCLE
  5
2B9
330
18
100
AcDbEntity
  8
PV0001_1
  6
CENTER2
370
    25
100
AcDbCircle
 10
171.5
 20
-148.5
 30
0.0
 40
39.0
  0
ARC
  5
2BA
330
18
100
AcDbEntity
  8
PV0001_1
  6
Continuous
370
    50
100
AcDbCircle
 10
171.5
 20
-148.5
 30
0.0
 40
48.0
100
AcDbArc
 50
51.31781353637737
 51
128.682211963144
  0
CIRCLE
  5
2BC
330
18
100
AcDbEntity
  8
PV0001_1
  6
Continuous
370
    50
100
AcDbCircle
 10
171.5
 20
-148.5
 30
0.0
 40
12.5
  0
ARC
  5
2BD
330
18
100
AcDbEntity
  8
PV0001_1
  6
Continuous
370
    50
100
AcDbCircle
 10
171.5
 20
-148.5
 30
0.0
 40
48.0
100
AcDbArc
 50
231.3177880368559
 51
308.6821864636226
  0
CIRCLE
  5
2BE
330
18
100
AcDbEntity
  8
PV0001_1
  6
Continuous
 48
0.5
370
    50
100
AcDbCircle
 10
152.0
 20
-114.72500610351
 30
0.0
 40
4.5
  0
CIRCLE
  5
2BF
330
18
100
AcDbEntity
  8
PV0001_1
  6
Continuous
 48
0.5
370
    50
100
AcDbCircle
 10
191.0
 20
-114.72500610351
 30
0.0
 40
4.5
  0
CIRCLE
  5
2C0
330
18
100
AcDbEntity
  8
PV0001_1
  6
Continuous
 48
0.5
370
    50
100
AcDbCircle
 10
152.0
 20
-182.27499389648
 30
0.0
 40
4.5
  0
CIRCLE
  5
2C1
330
18
100
AcDbEntity
  8
PV0001_1
  6
Continuous
 48
0.5
370
    50
100
AcDbCircle
 10
191.0
 20
-182.27499389648
 30
0.0
 40
4.5
  0
CIRCLE
  5
2C2
330
18
100
AcDbEntity
  8
PV0001_1
  6
Continuous
370
    50
100
AcDbCircle
 10
307.00003051757
 20
-306.0
 30
0.0
 40
5.5
  0
CIRCLE
  5
2C3
330
18
100
AcDbEntity
  8
PV0001_1
  6
Continuous
370
    50
100
AcDbCircle
 10
307.00003051757
 20
-306.0
 30
0.0
 40
8.5
  0
CIRCLE
  5
2C4
330
18
100
AcDbEntity
  8
PV0001_1
  6
Continuous
370
    50
100
AcDbCircle
 10
307.0
 20
-231.0
 30
0.0
 40
8.5
  0
CIRCLE
  5
2C5
330
18
100
AcDbEntity
  8
PV0001_1
  6
Continuous
370
    50
100
AcDbCircle
 10
307.0
 20
-231.0
 30
0.0
 40
5.5
  0
CIRCLE
  5
2C6
330
18
100
AcDbEntity
  8
PV0001_1
  6
Continuous
370
    50
100
AcDbCircle
 10
329.00003051757
 20
-305.99996948242
 30
0.0
 40
8.5
  0
CIRCLE
  5
2C7
330
18
100
AcDbEntity
  8
PV0001_1
  6
Continuous
370
    50
100
AcDbCircle
 10
329.00003051757
 20
-305.99996948242
 30
0.0
 40
5.5
  0
CIRCLE
  5
2C8
330
18
100
AcDbEntity
  8
PV0001_1
  6
Continuous
370
    50
100
AcDbCircle
 10
329.0
 20
-231.0
 30
0.0
 40
8.5
  0
CIRCLE
  5
2C9
330
18
100
AcDbEntity
  8
PV0001_1
  6
Continuous
370
    50
100
AcDbCircle
 10
329.0
 20
-231.0
 30
0.0
 40
5.5
  0
CIRCLE
  5
2CA
330
18
100
AcDbEntity
  8
PV0001_1
  6
Continuous
370
    50
100
AcDbCircle
 10
1238.0
 20
-231.0
 30
0.0
 40
8.5
  0
CIRCLE
  5
2CB
330
18
100
AcDbEntity
  8
PV0001_1
  6
Continuous
370
    50
100
AcDbCircle
 10
1238.0
 20
-306.0
 30
0.0
 40
8.5
  0
CIRCLE
  5
2CC
330
18
100
AcDbEntity
  8
PV0001_1
  6
Continuous
370
    50
100
AcDbCircle
 10
1238.0
 20
-306.0
 30
0.0
 40
5.5
  0
CIRCLE
  5
2CD
330
18
100
AcDbEntity
  8
PV0001_1
  6
Continuous
370
    50
100
AcDbCircle
 10
1238.0
 20
-231.0
 30
0.0
 40
5.5
  0
ARC
  5
2CE
330
18
100
AcDbEntity
  8
PV0001_1
  6
PHANTOM2
 48
0.5
370
    25
100
AcDbCircle
 10
348.70001220703
 20
-498.79998779296
 30
0.0
 40
0.3000000119209
100
AcDbArc
 50
0.0
 51
90.00000250447893
  0
ARC
  5
2CF
330
18
100
AcDbEntity
  8
PV0001_1
  6
PHANTOM2
 48
0.5
370
    25
100
AcDbCircle
 10
348.70001220703
 20
-478.2000122070299
 30
0.0
 40
0.3000000119209
100
AcDbArc
 50
269.9999974955211
 51
0.0
  0
ARC
  5
2D0
330
18
100
AcDbEntity
  8
PV0001_1
  6
PHANTOM2
 48
0.5
370
    25
100
AcDbCircle
 10
1231.2999267578
 20
-478.2000122070301
 30
0.0
 40
0.3000000119209
100
AcDbArc
 50
179.9999913485783
 51
270.000000683247
  0
ARC
  5
2D1
330
18
100
AcDbEntity
  8
PV0001_1
  6
PHANTOM2
 48
0.5
370
    25
100
AcDbCircle
 10
348.70001220703
 20
-378.20001220703
 30
0.0
 40
0.3000000119209
100
AcDbArc
 50
269.9999974955211
 51
0.0
  0
ARC
  5
2D2
330
18
100
AcDbEntity
  8
PV0001_1
  6
PHANTOM2
 48
0.5
370
    25
100
AcDbCircle
 10
348.70001220703
 20
-398.79998779296
 30
0.0
 40
0.3000000119209
100
AcDbArc
 50
0.0
 51
90.00000250447893
  0
ARC
  5
2D3
330
18
100
AcDbEntity
  8
PV0001_1
  6
PHANTOM2
 48
0.5
370
    25
100
AcDbCircle
 10
1231.2999267578
 20
-498.7999877929601
 30
0.0
 40
0.3000000119209
100
AcDbArc
 50
90.00000250447893
 51
180.0000050089578
  0
ARC
  5
2D4
330
18
100
AcDbEntity
  8
PV0001_1
  6
Continuous
 48
0.5
370
    50
100
AcDbCircle
 10
1231.2999267578
 20
-58.200000762939
 30
0.0
 40
0.3000000119209
100
AcDbArc
 50
179.9999913485783
 51
270.000000683247
  0
ARC
  5
2D5
330
18
100
AcDbEntity
  8
PV0001_1
  6
Continuous
 48
0.5
370
    50
100
AcDbCircle
 10
348.70001220703
 20
-58.200000762939
 30
0.0
 40
0.3000000119209
100
AcDbArc
 50
269.9999974955211
 51
0.0
  0
ARC
  5
2D6
330
18
100
AcDbEntity
  8
PV0001_1
  6
Continuous
 48
0.5
370
    50
100
AcDbCircle
 10
348.70001220703
 20
-78.799987792968
 30
0.0
 40
0.3000000119209
100
AcDbArc
 50
0.0
 51
90.00000250447893
  0
ARC
  5
2D7
330
18
100
AcDbEntity
  8
PV0001_1
  6
Continuous
 48
0.5
370
    50
100
AcDbCircle
 10
1231.2999267578
 20
-78.800003051757
 30
0.0
 40
0.3000000119209
100
AcDbArc
 50
90.00000250447893
 51
180.0000050089578
  0
ARC
  5
2D8
330
18
100
AcDbEntity
  8
PV0001_1
  6
PHANTOM2
 48
0.5
370
    25
100
AcDbCircle
 10
1231.2999267578
 20
-278.79998779296
 30
0.0
 40
0.3000000119209
100
AcDbArc
 50
90.00000250447893
 51
180.0000050089578
  0
ARC
  5
2D9
330
18
100
AcDbEntity
  8
PV0001_1
  6
PHANTOM2
 48
0.5
370
    25
100
AcDbCircle
 10
348.70001220703
 20
-278.79998779296
 30
0.0
 40
0.3000000119209
100
AcDbArc
 50
0.0
 51
90.00000250447893
  0
ARC
  5
2DA
330
18
100
AcDbEntity
  8
PV0001_1
  6
PHANTOM2
 48
0.5
370
    25
100
AcDbCircle
 10
348.70001220703
 20
-258.20001220703
 30
0.0
 40
0.3000000119209
100
AcDbArc
 50
269.9999974955211
 51
0.0
  0
ARC
  5
2DB
330
18
100
AcDbEntity
  8
PV0001_1
  6
PHANTOM2
 48
0.5
370
    25
100
AcDbCircle
 10
1231.2999267578
 20
-258.20001220703
 30
0.0
 40
0.3000000119209
100
AcDbArc
 50
179.9999913485783
 51
270.000000683247
  0
MTEXT
  5
2DC
330
18
100
AcDbEntity
  8
PV0001_1
 62
     7
370
    25
100
AcDbMText
 10
119.5427439212755
 20
12.5
 30
0.0
 40
4.799999999999999
 41
0.0
 71
     4
 72
     5
  1
\T1.40;\W0.61;GW2510ES-HULR-1000A
 73
     1
 44
1.0
1001
ACAD
1000
MTEXTBEGIN
1070
    73
1070
     1
1070
    44
1040
1.0
1070
    74
1070
     0
1000
MTEXTEND
  0
MTEXT
  5
2DD
330
18
100
AcDbEntity
  8
PV0001_1
 62
     7
370
    25
100
AcDbMText
 10
111.8284938931421
 20
18.0
 30
0.0
 40
3.2
 41
0.0
 71
     4
 72
     5
  1
\T1.40;\W0.61;MODEL
 73
     1
 44
1.0
1001
ACAD
1000
MTEXTBEGIN
1070
    73
1070
     1
1070
    44
1040
1.0
1070
    74
1070
     0
1000
MTEXTEND
  0
MTEXT
  5
2DE
330
18
100
AcDbEntity
  8
PV0001_1
 62
     7
370
    25
100
AcDbMText
 10
65.54274392127952
 20
12.5
 30
0.0
 40
4.799999999999999
 41
0.0
 71
     4
 72
     5
  1
\T1.40;\W0.61;GW2510ES
 73
     1
 44
1.0
1001
ACAD
1000
MTEXTBEGIN
1070
    73
1070
     1
1070
    44
1040
1.0
1070
    74
1070
     0
1000
MTEXTEND
  0
MTEXT
  5
2DF
330
18
100
AcDbEntity
  8
PV0001_1
 62
     7
370
    25
100
AcDbMText
 10
49.82849389314615
 20
18.0
 30
0.0
 40
3.2
 41
0.0
 71
     4
 72
     5
  1
\T1.40;\W0.61;FILE\U+3000NAME
 73
     1
 44
1.0
1001
ACAD
1000
MTEXTBEGIN
1070
    73
1070
     1
1070
    44
1040
1.0
1070
    74
1070
     0
1000
MTEXTEND
  0
MTEXT
  5
2E0
330
18
100
AcDbEntity
  8
PV0001_1
 62
     7
370
    25
100
AcDbMText
 10
235.8284938931421
 20
18.0
 30
0.0
 40
3.2
 41
0.0
 71
     4
 72
     5
  1
\T1.40;\W0.61;L
 73
     1
 44
1.0
1001
ACAD
1000
MTEXTBEGIN
1070
    73
1070
     1
1070
    44
1040
1.0
1070
    74
1070
     0
1000
MTEXTEND
  0
MTEXT
  5
2E1
330
18
100
AcDbEntity
  8
PV0001_1
 62
     7
370
    25
100
AcDbMText
 10
238.8814280033055
 20
11.976208686828
 30
0.0
 40
4.799999999999999
 41
0.0
 71
     4
 72
     5
  1
\T1.40;\W0.61;1000
 73
     1
 44
1.0
1001
ACAD
1000
MTEXTBEGIN
1070
    73
1070
     1
1070
    44
1040
1.0
1070
    74
1070
     0
1000
MTEXTEND
  0
MTEXT
  5
2E2
330
18
100
AcDbEntity
  8
PV0001_1
 62
     7
370
    25
100
AcDbMText
 10
111.8284938931421
 20
6.0
 30
0.0
 40
3.2
 41
0.0
 71
     4
 72
     5
  1
\T1.40;\W0.61;MODEL
 73
     1
 44
1.0
1001
ACAD
1000
MTEXTBEGIN
1070
    73
1070
     1
1070
    44
1040
1.0
1070
    74
1070
     0
1000
MTEXTEND
  0
MTEXT
  5
2E3
330
18
100
AcDbEntity
  8
PV0001_1
 62
     7
370
    25
100
AcDbMText
 10
235.8284938931421
 20
6.0
 30
0.0
 40
3.2
 41
0.0
 71
     4
 72
     5
  1
\T1.40;\W0.61;L
 73
     1
 44
1.0
1001
ACAD
1000
MTEXTBEGIN
1070
    73
1070
     1
1070
    44
1040
1.0
1070
    74
1070
     0
1000
MTEXTEND
  0
MTEXT
  5
2E4
330
18
100
AcDbEntity
  8
PV0001_1
 62
     7
370
    25
100
AcDbMText
 10
239.3932383060455
 20
1.038248062133799
 30
0.0
 40
4.799999999999999
 41
0.0
 71
     4
 72
     5
  1
\T1.40;\W0.61;2000
 73
     1
 44
1.0
1001
ACAD
1000
MTEXTBEGIN
1070
    73
1070
     1
1070
    44
1040
1.0
1070
    74
1070
     0
1000
MTEXTEND
  0
MTEXT
  5
2E5
330
18
100
AcDbEntity
  8
PV0001_1
 62
     7
370
    25
100
AcDbMText
 10
111.8284938931421
 20
-6.0
 30
0.0
 40
3.2
 41
0.0
 71
     4
 72
     5
  1
\T1.40;\W0.61;MODEL
 73
     1
 44
1.0
1001
ACAD
1000
MTEXTBEGIN
1070
    73
1070
     1
1070
    44
1040
1.0
1070
    74
1070
     0
1000
MTEXTEND
  0
MTEXT
  5
2E6
330
18
100
AcDbEntity
  8
PV0001_1
 62
     7
370
    25
100
AcDbMText
 10
235.8284938931421
 20
-6.0
 30
0.0
 40
3.2
 41
0.0
 71
     4
 72
     5
  1
\T1.40;\W0.61;L
 73
     1
 44
1.0
1001
ACAD
1000
MTEXTBEGIN
1070
    73
1070
     1
1070
    44
1040
1.0
1070
    74
1070
     0
1000
MTEXTEND
  0
MTEXT
  5
2E7
330
18
100
AcDbEntity
  8
PV0001_1
 62
     7
370
    25
100
AcDbMText
 10
239.7344858646355
 20
-11.271429061889
 30
0.0
 40
4.799999999999999
 41
0.0
 71
     4
 72
     5
  1
\T1.40;\W0.61;2500
 73
     1
 44
1.0
1001
ACAD
1000
MTEXTBEGIN
1070
    73
1070
     1
1070
    44
1040
1.0
1070
    74
1070
     0
1000
MTEXTEND
  0
MTEXT
  5
2E8
330
18
100
AcDbEntity
  8
PV0001_1
 62
     7
370
    25
100
AcDbMText
 10
119.5427439212755
 20
0.5000000000000001
 30
0.0
 40
4.799999999999999
 41
0.0
 71
     4
 72
     5
  1
\T1.40;\W0.61;GW2510ES-HULR-2000A
 73
     1
 44
1.0
1001
ACAD
1000
MTEXTBEGIN
1070
    73
1070
     1
1070
    44
1040
1.0
1070
    74
1070
     0
1000
MTEXTEND
  0
MTEXT
  5
2E9
330
18
100
AcDbEntity
  8
PV0001_1
 62
     7
370
    25
100
AcDbMText
 10
119.5427439212755
 20
-11.5
 30
0.0
 40
4.799999999999999
 41
0.0
 71
     4
 72
     5
  1
\T1.40;\W0.61;GW2510ES-HULR-2500A
 73
     1
 44
1.0
1001
ACAD
1000
MTEXTBEGIN
1070
    73
1070
     1
1070
    44
1040
1.0
1070
    74
1070
     0
1000
MTEXTEND
  0
MTEXT
  5
2EA
330
18
100
AcDbEntity
  8
PV0001_1
 62
     7
370
    25
100
AcDbMText
 10
307.1523159146221
 20
-321.68850708007
 30
0.0
 40
3.2
 41
0.0
 71
     4
 72
     5
  1
\T1.40;\W0.61;BUK-20F
 73
     1
 44
1.0
1001
ACAD
1000
MTEXTBEGIN
1070
    73
1070
     1
1070
    44
1040
1.0
1070
    74
1070
     0
1000
MTEXTEND
  0
MTEXT
  5
2EB
330
18
100
AcDbEntity
  8
PV0001_1
 62
     7
370
    25
100
AcDbMText
 10
322.4363430142322
 20
-527.9167480468699
 30
0.0
 40
3.2
 41
0.0
 71
     4
 72
     5
  1
\T1.40;\W0.61;BUM-20
 73
     1
 44
1.0
1001
ACAD
1000
MTEXTBEGIN
1070
    73
1070
     1
1070
    44
1040
1.0
1070
    74
1070
     0
1000
MTEXTEND
  0
MTEXT
  5
2EC
330
18
100
AcDbEntity
  8
PV0001_1
 62
     7
370
    25
100
AcDbMText
 10
1230.816805660662
 20
-517.8924255371
 30
0.0
 40
3.2
 41
0.0
 71
     4
 72
     5
  1
\T1.40;\W0.61;6204ZZ
 73
     1
 44
1.0
1001
ACAD
1000
MTEXTBEGIN
1070
    73
1070
     1
1070
    44
1040
1.0
1070
    74
1070
     0
1000
MTEXTEND
  0
MTEXT
  5
2ED
330
18
100
AcDbEntity
  8
PV0001_1
 62
     7
370
    25
100
AcDbMText
 10
285.0615566372821
 20
-428.34768676757
 30
0.0
 40
3.2
 41
0.0
 71
     4
 72
     5
  1
\T1.40;\W0.61;BUM-20
 73
     1
 44
1.0
1001
ACAD
1000
MTEXTBEGIN
1070
    73
1070
     1
1070
    44
1040
1.0
1070
    74
1070
     0
1000
MTEXTEND
  0
MTEXT
  5
2EE
330
18
100
AcDbEntity
  8
PV0001_1
 62
     7
370
    25
100
AcDbMText
 10
1228.747591793462
 20
-320.86386108398
 30
0.0
 40
3.2
 41
0.0
 71
     4
 72
     5
  1
\T1.40;\W0.61;BUK-20S
 73
     1
 44
1.0
1001
ACAD
1000
MTEXTBEGIN
1070
    73
1070
     1
1070
    44
1040
1.0
1070
    74
1070
     0
1000
MTEXTEND
  0
MTEXT
  5
2EF
330
18
100
AcDbEntity
  8
PV0001_1
 62
     7
370
    25
100
AcDbMText
 10
328.4284999966621
 20
-46.000061035156
 30
0.0
 40
3.2
 41
0.0
 71
     4
 72
     5
  1
\T1.40;\W0.61;OPTIONAL\U+3000COLLAR
 73
     1
 44
1.0
1001
ACAD
1000
MTEXTBEGIN
1070
    73
1070
     1
1070
    44
1040
1.0
1070
    74
1070
     0
1000
MTEXTEND
  0
MTEXT
  5
6AD
330
18
100
AcDbEntity
  8
PV0001_1
 62
     7
370
    25
100
AcDbMText
 10
328.4284999966621
 20
-621.500061035156
 30
0.0
 40
3.2
 41
0.0
 71
     4
 72
     5
  1
\T1.40;\W0.61;OPTIONAL\U+3000COLLAR
 73
     1
 44
1.0
1001
ACAD
1000
MTEXTBEGIN
1070
    73
1070
     1
1070
    44
1040
1.0
1070
    74
1070
     0
1000
MTEXTEND
  0
MTEXT
  5
6AE
330
18
100
AcDbEntity
  8
PV0001_1
 62
     7
370
    25
100
AcDbMText
 10
1228.747591793462
 20
-896.3638610839801
 30
0.0
 40
3.2
 41
0.0
 71
     4
 72
     5
  1
\T1.40;\W0.61;BUK-20S
 73
     1
 44
1.0
1001
ACAD
1000
MTEXTBEGIN
1070
    73
1070
     1
1070
    44
1040
1.0
1070
    74
1070
     0
1000
MTEXTEND
  0
MTEXT
  5
6AF
330
18
100
AcDbEntity
  8
PV0001_1
 62
     7
370
    25
100
AcDbMText
 10
285.0615566372821
 20
-1003.84768676757
 30
0.0
 40
3.2
 41
0.0
 71
     4
 72
     5
  1
\T1.40;\W0.61;BUM-20
 73
     1
 44
1.0
1001
ACAD
1000
MTEXTBEGIN
1070
    73
1070
     1
1070
    44
1040
1.0
1070
    74
1070
     0
1000
MTEXTEND
  0
MTEXT
  5
6B1
330
18
100
AcDbEntity
  8
PV0001_1
 62
     7
370
    25
100
AcDbMText
 10
322.4363430142321
 20
-1103.41674804687
 30
0.0
 40
3.2
 41
0.0
 71
     4
 72
     5
  1
\T1.40;\W0.61;BUM-20
 73
     1
 44
1.0
1001
ACAD
1000
MTEXTBEGIN
1070
    73
1070
     1
1070
    44
1040
1.0
1070
    74
1070
     0
1000
MTEXTEND
  0
MTEXT
  5
6B2
330
18
100
AcDbEntity
  8
PV0001_1
 62
     7
370
    25
100
AcDbMText
 10
307.1523159146222
 20
-897.1885070800698
 30
0.0
 40
3.2
 41
0.0
 71
     4
 72
     5
  1
\T1.40;\W0.61;BUK-20F
 73
     1
 44
1.0
1001
ACAD
1000
MTEXTBEGIN
1070
    73
1070
     1
1070
    44
1040
1.0
1070
    74
1070
     0
1000
MTEXTEND
  0
MTEXT
  5
6B3
330
18
100
AcDbEntity
  8
PV0001_1
 62
     7
370
    25
100
AcDbMText
 10
119.5427439212756
 20
-587.0
 30
0.0
 40
4.799999999999999
 41
0.0
 71
     4
 72
     5
  1
\T1.4;\W0.61;GW2510ES-NKLR-2500A
 73
     1
 44
1.0
1001
ACAD
1000
MTEXTBEGIN
1070
    73
1070
     1
1070
    44
1040
1.0
1070
    74
1070
     0
1000
MTEXTEND
  0
MTEXT
  5
6B4
330
18
100
AcDbEntity
  8
PV0001_1
 62
     7
370
    25
100
AcDbMText
 10
119.5427439212756
 20
-575.0
 30
0.0
 40
4.799999999999999
 41
0.0
 71
     4
 72
     5
  1
\T1.4;\W0.61;GW2510ES-NKLR-2000A
 73
     1
 44
1.0
1001
ACAD
1000
MTEXTBEGIN
1070
    73
1070
     1
1070
    44
1040
1.0
1070
    74
1070
     0
1000
MTEXTEND
  0
MTEXT
  5
6B5
330
18
100
AcDbEntity
  8
PV0001_1
 62
     7
370
    25
100
AcDbMText
 10
239.7344858646357
 20
-586.771429061889
 30
0.0
 40
4.799999999999999
 41
0.0
 71
     4
 72
     5
  1
\T1.40;\W0.61;2500
 73
     1
 44
1.0
1001
ACAD
1000
MTEXTBEGIN
1070
    73
1070
     1
1070
    44
1040
1.0
1070
    74
1070
     0
1000
MTEXTEND
  0
MTEXT
  5
6B6
330
18
100
AcDbEntity
  8
PV0001_1
 62
     7
370
    25
100
AcDbMText
 10
235.8284938931422
 20
-581.5
 30
0.0
 40
3.2
 41
0.0
 71
     4
 72
     5
  1
\T1.40;\W0.61;L
 73
     1
 44
1.0
1001
ACAD
1000
MTEXTBEGIN
1070
    73
1070
     1
1070
    44
1040
1.0
1070
    74
1070
     0
1000
MTEXTEND
  0
MTEXT
  5
6B7
330
18
100
AcDbEntity
  8
PV0001_1
 62
     7
370
    25
100
AcDbMText
 10
111.8284938931422
 20
-581.5
 30
0.0
 40
3.2
 41
0.0
 71
     4
 72
     5
  1
\T1.40;\W0.61;MODEL
 73
     1
 44
1.0
1001
ACAD
1000
MTEXTBEGIN
1070
    73
1070
     1
1070
    44
1040
1.0
1070
    74
1070
     0
1000
MTEXTEND
  0
MTEXT
  5
6B8
330
18
100
AcDbEntity
  8
PV0001_1
 62
     7
370
    25
100
AcDbMText
 10
239.3932383060455
 20
-574.4617519378662
 30
0.0
 40
4.799999999999999
 41
0.0
 71
     4
 72
     5
  1
\T1.40;\W0.61;2000
 73
     1
 44
1.0
1001
ACAD
1000
MTEXTBEGIN
1070
    73
1070
     1
1070
    44
1040
1.0
1070
    74
1070
     0
1000
MTEXTEND
  0
MTEXT
  5
6B9
330
18
100
AcDbEntity
  8
PV0001_1
 62
     7
370
    25
100
AcDbMText
 10
235.8284938931422
 20
-569.5
 30
0.0
 40
3.2
 41
0.0
 71
     4
 72
     5
  1
\T1.40;\W0.61;L
 73
     1
 44
1.0
1001
ACAD
1000
MTEXTBEGIN
1070
    73
1070
     1
1070
    44
1040
1.0
1070
    74
1070
     0
1000
MTEXTEND
  0
MTEXT
  5
6BA
330
18
100
AcDbEntity
  8
PV0001_1
 62
     7
370
    25
100
AcDbMText
 10
111.8284938931422
 20
-569.5
 30
0.0
 40
3.2
 41
0.0
 71
     4
 72
     5
  1
\T1.40;\W0.61;MODEL
 73
     1
 44
1.0
1001
ACAD
1000
MTEXTBEGIN
1070
    73
1070
     1
1070
    44
1040
1.0
1070
    74
1070
     0
1000
MTEXTEND
  0
MTEXT
  5
6BB
330
18
100
AcDbEntity
  8
PV0001_1
 62
     7
370
    25
100
AcDbMText
 10
238.8814280033055
 20
-563.5237913131719
 30
0.0
 40
4.799999999999999
 41
0.0
 71
     4
 72
     5
  1
\T1.40;\W0.61;1000
 73
     1
 44
1.0
1001
ACAD
1000
MTEXTBEGIN
1070
    73
1070
     1
1070
    44
1040
1.0
1070
    74
1070
     0
1000
MTEXTEND
  0
MTEXT
  5
6BC
330
18
100
AcDbEntity
  8
PV0001_1
 62
     7
370
    25
100
AcDbMText
 10
235.8284938931422
 20
-557.5
 30
0.0
 40
3.2
 41
0.0
 71
     4
 72
     5
  1
\T1.40;\W0.61;L
 73
     1
 44
1.0
1001
ACAD
1000
MTEXTBEGIN
1070
    73
1070
     1
1070
    44
1040
1.0
1070
    74
1070
     0
1000
MTEXTEND
  0
MTEXT
  5
6BD
330
18
100
AcDbEntity
  8
PV0001_1
 62
     7
370
    25
100
AcDbMText
 10
49.82849389314606
 20
-557.5
 30
0.0
 40
3.2
 41
0.0
 71
     4
 72
     5
  1
\T1.40;\W0.61;FILE\U+3000NAME
 73
     1
 44
1.0
1001
ACAD
1000
MTEXTBEGIN
1070
    73
1070
     1
1070
    44
1040
1.0
1070
    74
1070
     0
1000
MTEXTEND
  0
MTEXT
  5
6BE
330
18
100
AcDbEntity
  8
PV0001_1
 62
     7
370
    25
100
AcDbMText
 10
65.54274392127945
 20
-563.0
 30
0.0
 40
4.799999999999999
 41
0.0
 71
     4
 72
     5
  1
\T1.4;\W0.61;GW2510ES
 73
     1
 44
1.0
1001
ACAD
1000
MTEXTBEGIN
1070
    73
1070
     1
1070
    44
1040
1.0
1070
    74
1070
     0
1000
MTEXTEND
  0
MTEXT
  5
6BF
330
18
100
AcDbEntity
  8
PV0001_1
 62
     7
370
    25
100
AcDbMText
 10
111.8284938931422
 20
-557.5
 30
0.0
 40
3.2
 41
0.0
 71
     4
 72
     5
  1
\T1.40;\W0.61;MODEL
 73
     1
 44
1.0
1001
ACAD
1000
MTEXTBEGIN
1070
    73
1070
     1
1070
    44
1040
1.0
1070
    74
1070
     0
1000
MTEXTEND
  0
MTEXT
  5
6C0
330
18
100
AcDbEntity
  8
PV0001_1
 62
     7
370
    25
100
AcDbMText
 10
119.5427439212756
 20
-563.0
 30
0.0
 40
4.799999999999999
 41
0.0
 71
     4
 72
     5
  1
\T1.4;\W0.61;GW2510ES-NKLR-1000A
 73
     1
 44
1.0
1001
ACAD
1000
MTEXTBEGIN
1070
    73
1070
     1
1070
    44
1040
1.0
1070
    74
1070
     0
1000
MTEXTEND
  0
ARC
  5
6C1
330
18
100
AcDbEntity
  8
PV0001_1
  6
PHANTOM2
 48
0.5
370
    25
100
AcDbCircle
 10
1231.2999267578
 20
-833.70001220703
 30
0.0
 40
0.3000000119209
100
AcDbArc
 50
179.9999913485786
 51
270.000000683243
  0
ARC
  5
6C2
330
18
100
AcDbEntity
  8
PV0001_1
  6
PHANTOM2
 48
0.5
370
    25
100
AcDbCircle
 10
348.7000122070299
 20
-833.70001220703
 30
0.0
 40
0.3000000119209
100
AcDbArc
 50
269.9999974955182
 51
0.0
  0
ARC
  5
6C3
330
18
100
AcDbEntity
  8
PV0001_1
  6
PHANTOM2
 48
0.5
370
    25
100
AcDbCircle
 10
348.7000122070299
 20
-854.2999877929601
 30
0.0
 40
0.3000000119209
100
AcDbArc
 50
0.0
 51
90.00000250448172
  0
ARC
  5
6C4
330
18
100
AcDbEntity
  8
PV0001_1
  6
PHANTOM2
 48
0.5
370
    25
100
AcDbCircle
 10
1231.2999267578
 20
-854.2999877929601
 30
0.0
 40
0.3000000119209
100
AcDbArc
 50
90.00000250448172
 51
180.0000050089569
  0
ARC
  5
6C5
330
18
100
AcDbEntity
  8
PV0001_1
  6
Continuous
 48
0.5
370
    50
100
AcDbCircle
 10
1231.2999267578
 20
-654.3000030517569
 30
0.0
 40
0.3000000119209
100
AcDbArc
 50
90.00000250448172
 51
180.0000050089569
  0
ARC
  5
6C6
330
18
100
AcDbEntity
  8
PV0001_1
  6
Continuous
 48
0.5
370
    50
100
AcDbCircle
 10
348.7000122070299
 20
-654.299987792968
 30
0.0
 40
0.3000000119209
100
AcDbArc
 50
0.0
 51
90.00000250448172
  0
ARC
  5
6C7
330
18
100
AcDbEntity
  8
PV0001_1
  6
Continuous
 48
0.5
370
    50
100
AcDbCircle
 10
348.7000122070299
 20
-633.700000762939
 30
0.0
 40
0.3000000119209
100
AcDbArc
 50
269.9999974955182
 51
0.0
  0
ARC
  5
6C8
330
18
100
AcDbEntity
  8
PV0001_1
  6
Continuous
 48
0.5
370
    50
100
AcDbCircle
 10
1231.2999267578
 20
-633.700000762939
 30
0.0
 40
0.3000000119209
100
AcDbArc
 50
179.9999913485786
 51
270.000000683243
  0
ARC
  5
6CA
330
18
100
AcDbEntity
  8
PV0001_1
  6
PHANTOM2
 48
0.5
370
    25
100
AcDbCircle
 10
348.7000122070299
 20
-974.29998779296
 30
0.0
 40
0.3000000119209
100
AcDbArc
 50
0.0
 51
90.00000250448172
  0
ARC
  5
6CB
330
18
100
AcDbEntity
  8
PV0001_1
  6
PHANTOM2
 48
0.5
370
    25
100
AcDbCircle
 10
348.7000122070299
 20
-953.7000122070299
 30
0.0
 40
0.3000000119209
100
AcDbArc
 50
269.9999974955182
 51
0.0
  0
ARC
  5
6CD
330
18
100
AcDbEntity
  8
PV0001_1
  6
PHANTOM2
 48
0.5
370
    25
100
AcDbCircle
 10
348.7000122070299
 20
-1053.70001220703
 30
0.0
 40
0.3000000119209
100
AcDbArc
 50
269.9999974955182
 51
0.0
  0
ARC
  5
6CE
330
18
100
AcDbEntity
  8
PV0001_1
  6
PHANTOM2
 48
0.5
370
    25
100
AcDbCircle
 10
348.7000122070299
 20
-1074.29998779296
 30
0.0
 40
0.3000000119209
100
AcDbArc
 50
0.0
 51
90.00000250448172
  0
CIRCLE
  5
6CF
330
18
100
AcDbEntity
  8
PV0001_1
  6
Continuous
370
    50
100
AcDbCircle
 10
1238.0
 20
-806.4999999999999
 30
0.0
 40
5.5
  0
CIRCLE
  5
6D0
330
18
100
AcDbEntity
  8
PV0001_1
  6
Continuous
370
    50
100
AcDbCircle
 10
1238.0
 20
-881.4999999999999
 30
0.0
 40
5.5
  0
CIRCLE
  5
6D1
330
18
100
AcDbEntity
  8
PV0001_1
  6
Continuous
370
    50
100
AcDbCircle
 10
1238.0
 20
-881.4999999999999
 30
0.0
 40
8.5
  0
CIRCLE
  5
6D2
330
18
100
AcDbEntity
  8
PV0001_1
  6
Continuous
370
    50
100
AcDbCircle
 10
1238.0
 20
-806.4999999999999
 30
0.0
 40
8.5
  0
CIRCLE
  5
6D3
330
18
100
AcDbEntity
  8
PV0001_1
  6
Continuous
370
    50
100
AcDbCircle
 10
329.0
 20
-806.4999999999999
 30
0.0
 40
5.5
  0
CIRCLE
  5
6D4
330
18
100
AcDbEntity
  8
PV0001_1
  6
Continuous
370
    50
100
AcDbCircle
 10
329.0
 20
-806.4999999999999
 30
0.0
 40
8.5
  0
CIRCLE
  5
6D5
330
18
100
AcDbEntity
  8
PV0001_1
  6
Continuous
370
    50
100
AcDbCircle
 10
329.0000305175699
 20
-881.49996948242
 30
0.0
 40
5.5
  0
CIRCLE
  5
6D6
330
18
100
AcDbEntity
  8
PV0001_1
  6
Continuous
370
    50
100
AcDbCircle
 10
329.0000305175699
 20
-881.49996948242
 30
0.0
 40
8.5
  0
CIRCLE
  5
6D7
330
18
100
AcDbEntity
  8
PV0001_1
  6
Continuous
370
    50
100
AcDbCircle
 10
307.0
 20
-806.4999999999999
 30
0.0
 40
5.5
  0
CIRCLE
  5
6D8
330
18
100
AcDbEntity
  8
PV0001_1
  6
Continuous
370
    50
100
AcDbCircle
 10
307.0
 20
-806.4999999999999
 30
0.0
 40
8.5
  0
CIRCLE
  5
6D9
330
18
100
AcDbEntity
  8
PV0001_1
  6
Continuous
370
    50
100
AcDbCircle
 10
307.00003051757
 20
-881.4999999999999
 30
0.0
 40
8.5
  0
CIRCLE
  5
6DA
330
18
100
AcDbEntity
  8
PV0001_1
  6
Continuous
370
    50
100
AcDbCircle
 10
307.00003051757
 20
-881.4999999999999
 30
0.0
 40
5.5
  0
CIRCLE
  5
6E0
330
18
100
AcDbEntity
  8
PV0001_1
  6
Continuous
370
    50
100
AcDbCircle
 10
171.5
 20
-724.0
 30
0.0
 40
12.5
  0
CIRCLE
  5
6E4
330
18
100
AcDbEntity
  8
PV0001_1
  6
Continuous
370
    50
100
AcDbCircle
 10
1365.0
 20
-844.0
 30
0.0
 40
23.500001907348
  0
CIRCLE
  5
6E5
330
18
100
AcDbEntity
  8
PV0001_1
  6
Continuous
370
    50
100
AcDbCircle
 10
182.40649414062
 20
-937.66943359375
 30
0.0
 40
5.0
  0
CIRCLE
  5
6E6
330
18
100
AcDbEntity
  8
PV0001_1
  6
Continuous
370
    50
100
AcDbCircle
 10
197.83056640625
 20
-974.9064941406199
 30
0.0
 40
5.0
  0
CIRCLE
  5
6E7
330
18
100
AcDbEntity
  8
PV0001_1
  6
Continuous
370
    50
100
AcDbCircle
 10
160.5935363769499
 20
-990.33056640625
 30
0.0
 40
5.0
  0
CIRCLE
  5
6E8
330
18
100
AcDbEntity
  8
PV0001_1
  6
Continuous
370
    50
100
AcDbCircle
 10
145.16943359375
 20
-953.09350585937
 30
0.0
 40
5.0
  0
ARC
  5
6E9
330
18
100
AcDbEntity
  8
PV0001_1
  6
Continuous
 48
0.5
370
    50
100
AcDbCircle
 10
171.5
 20
-964.0
 30
0.0
 40
17.5
100
AcDbArc
 50
301.0027179118282
 51
328.9972829987855
  0
ARC
  5
6EA
330
18
100
AcDbEntity
  8
PV0001_1
  6
Continuous
 48
0.5
370
    50
100
AcDbCircle
 10
171.5
 20
-964.0
 30
0.0
 40
17.5
100
AcDbArc
 50
121.0027434113595
 51
148.9972845926499
  0
ARC
  5
6EB
330
18
100
AcDbEntity
  8
PV0001_1
  6
Continuous
 48
0.5
370
    50
100
AcDbCircle
 10
171.5
 20
-964.0
 30
0.0
 40
17.5
100
AcDbArc
 50
211.0027017469724
 51
238.9972565886405
  0
ARC
  5
6EC
330
18
100
AcDbEntity
  8
PV0001_1
  6
Continuous
 48
0.5
370
    50
100
AcDbCircle
 10
171.5
 20
-964.0
 30
0.0
 40
17.5
100
AcDbArc
 50
31.00274090687909
 51
58.99728208817175
  0
CIRCLE
  5
6ED
330
18
100
AcDbEntity
  8
PV0001_1
  6
Continuous
 48
0.5
370
    50
100
AcDbCircle
 10
196.24874877929
 20
-939.2512817382799
 30
0.0
 40
3.2999999523163
  0
CIRCLE
  5
6EE
330
18
100
AcDbEntity
  8
PV0001_1
  6
Continuous
 48
0.5
370
    50
100
AcDbCircle
 10
196.24874877929
 20
-988.74871826171
 30
0.0
 40
3.2999999523163
  0
CIRCLE
  5
6EF
330
18
100
AcDbEntity
  8
PV0001_1
  6
Continuous
 48
0.5
370
    50
100
AcDbCircle
 10
146.7512817382799
 20
-988.74871826171
 30
0.0
 40
3.2999999523163
  0
CIRCLE
  5
6F0
330
18
100
AcDbEntity
  8
PV0001_1
  6
Continuous
 48
0.5
370
    50
100
AcDbCircle
 10
146.7512817382799
 20
-939.2512817382799
 30
0.0
 40
3.2999999523163
  0
CIRCLE
  5
6F1
330
18
100
AcDbEntity
  8
PV0001_1
  6
Continuous
370
    50
100
AcDbCircle
 10
145.16943359375
 20
-953.09350585937
 30
0.0
 40
5.5
  0
CIRCLE
  5
6F2
330
18
100
AcDbEntity
  8
PV0001_1
  6
Continuous
370
    50
100
AcDbCircle
 10
182.40649414062
 20
-937.66943359375
 30
0.0
 40
5.5
  0
CIRCLE
  5
6F3
330
18
100
AcDbEntity
  8
PV0001_1
  6
Continuous
370
    50
100
AcDbCircle
 10
197.83056640625
 20
-974.9064941406199
 30
0.0
 40
5.5
  0
CIRCLE
  5
6F4
330
18
100
AcDbEntity
  8
PV0001_1
  6
Continuous
370
    50
100
AcDbCircle
 10
160.5935363769499
 20
-990.33056640625
 30
0.0
 40
5.5
  0
CIRCLE
  5
6F5
330
18
100
AcDbEntity
  8
PV0001_1
  6
Continuous
370
    50
100
AcDbCircle
 10
196.24874877929
 20
-988.74871826171
 30
0.0
 40
5.5
  0
CIRCLE
  5
6F6
330
18
100
AcDbEntity
  8
PV0001_1
  6
Continuous
370
    50
100
AcDbCircle
 10
146.7512817382799
 20
-988.74871826171
 30
0.0
 40
5.5
  0
CIRCLE
  5
6F7
330
18
100
AcDbEntity
  8
PV0001_1
  6
Continuous
370
    50
100
AcDbCircle
 10
146.7512817382799
 20
-939.2512817382799
 30
0.0
 40
5.5
  0
CIRCLE
  5
6F8
330
18
100
AcDbEntity
  8
PV0001_1
  6
Continuous
370
    50
100
AcDbCircle
 10
196.24874877929
 20
-939.2512817382799
 30
0.0
 40
5.5
  0
CIRCLE
  5
6F9
330
18
100
AcDbEntity
  8
PV0001_1
  6
CENTER2
370
    25
100
AcDbCircle
 10
171.5
 20
-964.0
 30
0.0
 40
28.5
  0
CIRCLE
  5
6FA
330
18
100
AcDbEntity
  8
PV0001_1
  6
CENTER2
370
    25
100
AcDbCircle
 10
171.5
 20
-964.0
 30
0.0
 40
35.0
  0
CIRCLE
  5
6FB
330
18
100
AcDbEntity
  8
PV0001_1
  6
Continuous
370
    50
100
AcDbCircle
 10
171.5
 20
-964.0
 30
0.0
 40
18.5
  0
ARC
  5
6FC
330
18
100
AcDbEntity
  8
PV0001_1
  6
Continuous
 48
0.5
370
    50
100
AcDbCircle
 10
171.5
 20
-964.0
 30
0.0
 40
42.5
100
AcDbArc
 50
306.8698982201897
 51
323.130102690418
  0
ARC
  5
6FD
330
18
100
AcDbEntity
  8
PV0001_1
  6
Continuous
 48
0.5
370
    50
100
AcDbCircle
 10
171.5
 20
-964.0
 30
0.0
 40
42.5
100
AcDbArc
 50
216.8698752251457
 51
233.1300831104633
  0
ARC
  5
6FE
330
18
100
AcDbEntity
  8
PV0001_1
  6
Continuous
 48
0.5
370
    50
100
AcDbCircle
 10
171.5
 20
-964.0
 30
0.0
 40
42.5
100
AcDbArc
 50
126.8699168895367
 51
143.1301247748543
  0
ARC
  5
6FF
330
18
100
AcDbEntity
  8
PV0001_1
  6
Continuous
 48
0.5
370
    50
100
AcDbCircle
 10
171.5
 20
-964.0
 30
0.0
 40
42.5
100
AcDbArc
 50
36.86989730958206
 51
53.13010177981031
  0
CIRCLE
  5
700
330
18
100
AcDbEntity
  8
PV0001_1
  6
Continuous
370
    50
100
AcDbCircle
 10
191.65255737304
 20
-864.15252685546
 30
0.0
 40
5.0
  0
CIRCLE
  5
701
330
18
100
AcDbEntity
  8
PV0001_1
  6
Continuous
370
    50
100
AcDbCircle
 10
191.65255737304
 20
-823.8474578857401
 30
0.0
 40
5.0
  0
CIRCLE
  5
702
330
18
100
AcDbEntity
  8
PV0001_1
  6
Continuous
370
    50
100
AcDbCircle
 10
151.3474731445299
 20
-823.8474578857401
 30
0.0
 40
5.0
  0
CIRCLE
  5
703
330
18
100
AcDbEntity
  8
PV0001_1
  6
Continuous
370
    50
100
AcDbCircle
 10
151.3474731445299
 20
-864.15252685546
 30
0.0
 40
5.0
  0
ARC
  5
704
330
18
100
AcDbEntity
  8
PV0001_1
  6
Continuous
 48
0.5
370
    50
100
AcDbCircle
 10
171.5
 20
-844.0
 30
0.0
 40
17.5
100
AcDbArc
 50
121.0027160905974
 51
148.9972709322778
  0
ARC
  5
705
330
18
100
AcDbEntity
  8
PV0001_1
  6
Continuous
 48
0.5
370
    50
100
AcDbCircle
 10
171.5
 20
-844.0
 30
0.0
 40
17.5
100
AcDbArc
 50
31.00268285027651
 51
58.99725476740971
  0
ARC
  5
706
330
18
100
AcDbEntity
  8
PV0001_1
  6
Continuous
 48
0.5
370
    50
100
AcDbCircle
 10
171.5
 20
-844.0
 30
0.0
 40
17.5
100
AcDbArc
 50
301.0027384023953
 51
328.99729324406
  0
ARC
  5
707
330
18
100
AcDbEntity
  8
PV0001_1
  6
Continuous
 48
0.5
370
    50
100
AcDbCircle
 10
171.5
 20
-844.0
 30
0.0
 40
17.5
100
AcDbArc
 50
211.0027154073501
 51
238.9972702490271
  0
CIRCLE
  5
708
330
18
100
AcDbEntity
  8
PV0001_1
  6
Continuous
370
    50
100
AcDbCircle
 10
191.65255737304
 20
-823.8474578857401
 30
0.0
 40
5.5
  0
CIRCLE
  5
709
330
18
100
AcDbEntity
  8
PV0001_1
  6
Continuous
370
    50
100
AcDbCircle
 10
151.3474731445299
 20
-823.8474578857401
 30
0.0
 40
5.5
  0
CIRCLE
  5
70A
330
18
100
AcDbEntity
  8
PV0001_1
  6
Continuous
370
    50
100
AcDbCircle
 10
191.65255737304
 20
-864.15252685546
 30
0.0
 40
5.5
  0
CIRCLE
  5
70B
330
18
100
AcDbEntity
  8
PV0001_1
  6
Continuous
370
    50
100
AcDbCircle
 10
151.3474731445299
 20
-864.15252685546
 30
0.0
 40
5.5
  0
CIRCLE
  5
70C
330
18
100
AcDbEntity
  8
PV0001_1
  6
CENTER2
370
    25
100
AcDbCircle
 10
171.5
 20
-844.0
 30
0.0
 40
28.5
  0
ARC
  5
70D
330
18
100
AcDbEntity
  8
PV0001_1
  6
Continuous
 48
0.5
370
    50
100
AcDbCircle
 10
171.5
 20
-844.0
 30
0.0
 40
35.0
100
AcDbArc
 50
129.5176397212902
 51
140.4823336412023
  0
ARC
  5
70E
330
18
100
AcDbEntity
  8
PV0001_1
  6
Continuous
 48
0.5
370
    50
100
AcDbCircle
 10
171.5
 20
-844.0
 30
0.0
 40
35.0
100
AcDbArc
 50
39.51763380171016
 51
50.48232772163639
  0
ARC
  5
70F
330
18
100
AcDbEntity
  8
PV0001_1
  6
Continuous
 48
0.5
370
    50
100
AcDbCircle
 10
171.5
 20
-844.0
 30
0.0
 40
35.0
100
AcDbArc
 50
309.5176620330786
 51
320.482355953009
  0
ARC
  5
710
330
18
100
AcDbEntity
  8
PV0001_1
  6
Continuous
 48
0.5
370
    50
100
AcDbCircle
 10
171.5
 20
-844.0
 30
0.0
 40
35.0
100
AcDbArc
 50
219.517652698416
 51
230.4823466183371
  0
CIRCLE
  5
711
330
18
100
AcDbEntity
  8
PV0001_1
  6
Continuous
370
    50
100
AcDbCircle
 10
171.5
 20
-844.0
 30
0.0
 40
18.5
  0
CIRCLE
  5
712
330
18
100
AcDbEntity
  8
PV0001_1
  6
Continuous
 48
0.5
370
   100
100
AcDbCircle
 10
266.30798339843
 20
-561.500061035157
 30
0.0
 40
1.6200001239777
  0
ARC
  5
713
330
18
100
AcDbEntity
  8
PV0001_1
  6
Continuous
 48
0.5
370
    50
100
AcDbCircle
 10
41.322509765625
 20
-563.0999755859379
 30
0.0
 40
0.2000000029802
100
AcDbArc
 50
18.43488035290148
 51
89.99998201391422
  0
ARC
  5
714
330
18
100
AcDbEntity
  8
PV0001_1
  6
Continuous
 48
0.5
370
    50
100
AcDbCircle
 10
38.27749633788994
 20
-563.0999755859379
 30
0.0
 40
0.2000000029802
100
AcDbArc
 50
89.99998201391422
 51
161.5650102503901
  0
ARC
  5
715
330
18
100
AcDbEntity
  8
PV0001_1
  6
Continuous
 48
0.5
370
    50
100
AcDbCircle
 10
40.25585937499999
 20
-559.899993896485
 30
0.0
 40
0.2000000029802
100
AcDbArc
 50
18.43505281517471
 51
89.99998201391422
  0
CIRCLE
  5
716
330
18
100
AcDbEntity
  8
PV0001_1
  6
Continuous
 48
0.5
370
   100
100
AcDbCircle
 10
266.30798339843
 20
-561.500061035157
 30
0.0
 40
2.700000047683699
  0
ARC
  5
717
330
18
100
AcDbEntity
  8
PV0001_1
  6
Continuous
 48
0.5
370
    50
100
AcDbCircle
 10
7.472381591796875
 20
-561.1104736328129
 30
0.0
 40
0.2000000029802
100
AcDbArc
 50
135.00005498313
 51
220.6012585677729
  0
ARC
  5
718
330
18
100
AcDbEntity
  8
PV0001_1
  6
Continuous
 48
0.5
370
    50
100
AcDbCircle
 10
5.702178955078125
 20
-560.700012207032
 30
0.0
 40
0.2000000029802
100
AcDbArc
 50
270.0000179860857
 51
322.1249959578304
  0
ARC
  5
719
330
18
100
AcDbEntity
  8
PV0001_1
  6
Continuous
 48
0.5
370
    50
100
AcDbCircle
 10
5.699996948242187
 20
-561.700012207032
 30
0.0
 40
0.2000000029802
100
AcDbArc
 50
36.86990755486321
 51
89.99998201391422
  0
ARC
  5
71A
330
18
100
AcDbEntity
  8
PV0001_1
  6
Continuous
 48
0.5
370
    50
100
AcDbCircle
 10
4.800003051757812
 20
-560.700012207032
 30
0.0
 40
0.2000000029802
100
AcDbArc
 50
179.9999776882002
 51
270.0000280039997
  0
ARC
  5
71B
330
18
100
AcDbEntity
  8
PV0001_1
  6
Continuous
 48
0.5
370
    50
100
AcDbCircle
 10
4.800003051757812
 20
-561.700012207032
 30
0.0
 40
0.2000000029802
100
AcDbArc
 50
89.99998201391422
 51
179.9999640278219
  0
ARC
  5
71C
330
18
100
AcDbEntity
  8
PV0001_1
  6
Continuous
 48
0.5
370
    50
100
AcDbCircle
 10
10.8000030517569
 20
-562.700012207032
 30
0.0
 40
1.2000000476837
100
AcDbArc
 50
179.9999776882002
 51
270.0000280039997
  0
ARC
  5
71D
330
18
100
AcDbEntity
  8
PV0001_1
  6
Continuous
 48
0.5
370
    50
100
AcDbCircle
 10
14.60000610351494
 20
-562.700012207032
 30
0.0
 40
1.2000000476837
100
AcDbArc
 50
270.0000179860857
 51
0.0
  0
ARC
  5
71E
330
18
100
AcDbEntity
  8
PV0001_1
  6
Continuous
 48
0.5
370
    50
100
AcDbCircle
 10
13.8000030517569
 20
-562.5
 30
0.0
 40
0.6000000238419
100
AcDbArc
 50
270.0000179860857
 51
0.0
  0
ARC
  5
71F
330
18
100
AcDbEntity
  8
PV0001_1
  6
Continuous
 48
0.5
370
    50
100
AcDbCircle
 10
11.60000610351494
 20
-562.5
 30
0.0
 40
0.6000000238419
100
AcDbArc
 50
179.9999776882002
 51
270.0000280039997
  0
ARC
  5
720
330
18
100
AcDbEntity
  8
PV0001_1
  6
Continuous
 48
0.5
370
    50
100
AcDbCircle
 10
20.5
 20
-563.899993896485
 30
0.0
 40
2.0
100
AcDbArc
 50
0.0
 51
54.42673123145912
  0
ARC
  5
721
330
18
100
AcDbEntity
  8
PV0001_1
  6
Continuous
 48
0.5
370
    50
100
AcDbCircle
 10
21.0
 20
-560.5999755859379
 30
0.0
 40
1.5
100
AcDbArc
 50
0.0
 51
89.99998201391422
  0
ARC
  5
722
330
18
100
AcDbEntity
  8
PV0001_1
  6
Continuous
 48
0.5
370
    50
100
AcDbCircle
 10
21.0
 20
-560.5999755859379
 30
0.0
 40
1.5
100
AcDbArc
 50
297.3049900989723
 51
0.0
  0
ARC
  5
723
330
18
100
AcDbEntity
  8
PV0001_1
  6
Continuous
 48
0.5
370
    50
100
AcDbCircle
 10
18.3000030517569
 20
-562.700012207032
 30
0.0
 40
0.4000000059605
100
AcDbArc
 50
89.99998201391422
 51
179.9999640278219
  0
ARC
  5
724
330
18
100
AcDbEntity
  8
PV0001_1
  6
Continuous
 48
0.5
370
    50
100
AcDbCircle
 10
20.19999694824196
 20
-562.8999938964851
 30
0.0
 40
0.6000000238419
100
AcDbArc
 50
0.0
 51
89.99998201391422
  0
ARC
  5
725
330
18
100
AcDbEntity
  8
PV0001_1
  6
Continuous
 48
0.5
370
    50
100
AcDbCircle
 10
21.77983093261696
 20
-562.1105957031249
 30
0.0
 40
0.2000000029802
100
AcDbArc
 50
117.3049472966021
 51
234.4267362404129
  0
ARC
  5
726
330
18
100
AcDbEntity
  8
PV0001_1
  6
Continuous
 48
0.5
370
    50
100
AcDbCircle
 10
18.10000610351494
 20
-559.899993896485
 30
0.0
 40
0.2000000029802
100
AcDbArc
 50
89.99998201391422
 51
179.9999640278219
  0
ARC
  5
727
330
18
100
AcDbEntity
  8
PV0001_1
  6
Continuous
 48
0.5
370
    50
100
AcDbCircle
 10
18.10000610351494
 20
-561.399993896485
 30
0.0
 40
0.2000000029802
100
AcDbArc
 50
179.9999776882002
 51
270.0000280039997
  0
ARC
  5
728
330
18
100
AcDbEntity
  8
PV0001_1
  6
Continuous
 48
0.5
370
    50
100
AcDbCircle
 10
20.19999694824196
 20
-561.0
 30
0.0
 40
0.6000000238419
100
AcDbArc
 50
270.0000179860857
 51
0.0
  0
ARC
  5
729
330
18
100
AcDbEntity
  8
PV0001_1
  6
Continuous
 48
0.5
370
    50
100
AcDbCircle
 10
20.19999694824196
 20
-560.2999877929689
 30
0.0
 40
0.6000000238419
100
AcDbArc
 50
0.0
 51
89.99998201391422
  0
ARC
  5
72A
330
18
100
AcDbEntity
  8
PV0001_1
  6
Continuous
 48
0.5
370
    50
100
AcDbCircle
 10
24.19999694824196
 20
-562.5
 30
0.0
 40
1.399999976158099
100
AcDbArc
 50
179.9999776882002
 51
270.0000280039997
  0
ARC
  5
72B
330
18
100
AcDbEntity
  8
PV0001_1
  6
Continuous
 48
0.5
370
    50
100
AcDbCircle
 10
28.0
 20
-562.5
 30
0.0
 40
1.399999976158099
100
AcDbArc
 50
270.0000179860857
 51
0.0
  0
ARC
  5
72C
330
18
100
AcDbEntity
  8
PV0001_1
  6
Continuous
 48
0.5
370
    50
100
AcDbCircle
 10
28.0
 20
-560.5
 30
0.0
 40
1.399999976158099
100
AcDbArc
 50
0.0
 51
89.99998201391422
  0
ARC
  5
72D
330
18
100
AcDbEntity
  8
PV0001_1
  6
Continuous
 48
0.5
370
    50
100
AcDbCircle
 10
24.19999694824196
 20
-560.5
 30
0.0
 40
1.399999976158099
100
AcDbArc
 50
89.99998201391422
 51
179.9999640278219
  0
ARC
  5
72E
330
18
100
AcDbEntity
  8
PV0001_1
  6
Continuous
 48
0.5
370
    50
100
AcDbCircle
 10
25.19999694824196
 20
-560.5
 30
0.0
 40
0.8000000119209
100
AcDbArc
 50
89.99998201391422
 51
179.9999640278219
  0
ARC
  5
72F
330
18
100
AcDbEntity
  8
PV0001_1
  6
Continuous
 48
0.5
370
    50
100
AcDbCircle
 10
25.19999694824196
 20
-562.2999877929689
 30
0.0
 40
0.8000000119209
100
AcDbArc
 50
179.9999776882002
 51
270.0000280039997
  0
ARC
  5
730
330
18
100
AcDbEntity
  8
PV0001_1
  6
Continuous
 48
0.5
370
    50
100
AcDbCircle
 10
27.0
 20
-562.2999877929689
 30
0.0
 40
0.8000000119209
100
AcDbArc
 50
270.0000179860857
 51
0.0
  0
ARC
  5
731
330
18
100
AcDbEntity
  8
PV0001_1
  6
Continuous
 48
0.5
370
    50
100
AcDbCircle
 10
27.0
 20
-560.5
 30
0.0
 40
0.8000000119209
100
AcDbArc
 50
0.0
 51
89.99998201391422
  0
ARC
  5
732
330
18
100
AcDbEntity
  8
PV0001_1
  6
Continuous
 48
0.5
370
    50
100
AcDbCircle
 10
31.60000610351494
 20
-559.899993896485
 30
0.0
 40
0.2000000029802
100
AcDbArc
 50
89.99998201391422
 51
179.9999640278219
  0
ARC
  5
733
330
18
100
AcDbEntity
  8
PV0001_1
  6
Continuous
 48
0.5
370
    50
100
AcDbCircle
 10
31.60000610351494
 20
-562.8999938964851
 30
0.0
 40
0.2000000029802
100
AcDbArc
 50
179.9999776882002
 51
270.0000280039997
  0
ARC
  5
734
330
18
100
AcDbEntity
  8
PV0001_1
  6
Continuous
 48
0.5
370
    50
100
AcDbCircle
 10
33.8000030517569
 20
-562.2999877929689
 30
0.0
 40
0.8000000119209
100
AcDbArc
 50
270.0000179860857
 51
0.0
  0
ARC
  5
735
330
18
100
AcDbEntity
  8
PV0001_1
  6
Continuous
 48
0.5
370
    50
100
AcDbCircle
 10
33.8000030517569
 20
-560.5
 30
0.0
 40
0.8000000119209
100
AcDbArc
 50
0.0
 51
89.99998201391422
  0
ARC
  5
736
330
18
100
AcDbEntity
  8
PV0001_1
  6
Continuous
 48
0.5
370
    50
100
AcDbCircle
 10
34.8000030517569
 20
-562.5
 30
0.0
 40
1.399999976158099
100
AcDbArc
 50
270.0000179860857
 51
0.0
  0
ARC
  5
737
330
18
100
AcDbEntity
  8
PV0001_1
  6
Continuous
 48
0.5
370
    50
100
AcDbCircle
 10
34.8000030517569
 20
-560.5
 30
0.0
 40
1.399999976158099
100
AcDbArc
 50
0.0
 51
89.99998201391422
  0
ARC
  5
738
330
18
100
AcDbEntity
  8
PV0001_1
  6
Continuous
 48
0.5
370
    50
100
AcDbCircle
 10
38.677490234375
 20
-561.899993896485
 30
0.0
 40
0.2000000029802
100
AcDbArc
 50
161.5650375711472
 51
270.000000683243
  0
ARC
  5
739
330
18
100
AcDbEntity
  8
PV0001_1
  6
Continuous
 48
0.5
370
    50
100
AcDbCircle
 10
40.92251586913994
 20
-561.899993896485
 30
0.0
 40
0.2000000029802
100
AcDbArc
 50
270.0000179860857
 51
18.43488035290148
  0
ARC
  5
73A
330
18
100
AcDbEntity
  8
PV0001_1
  6
Continuous
 48
0.5
370
    50
100
AcDbCircle
 10
39.34414672851494
 20
-559.899993896485
 30
0.0
 40
0.2000000029802
100
AcDbArc
 50
89.99998201391422
 51
161.5651331937946
  0
LINE
  5
73B
330
18
100
AcDbEntity
  8
PV0001_1
  6
PHANTOM2
 48
0.5
370
    25
100
AcDbLine
 10
292.0
 20
-1054.54150390625
 30
0.0
 11
292.9379272460901
 21
-1054.0
 31
0.0
  0
LINE
  5
73C
330
18
100
AcDbEntity
  8
PV0001_1
  6
PHANTOM2
 48
0.5
370
    25
100
AcDbLine
 10
292.0
 20
-1073.45852661132
 30
0.0
 11
292.9378967285099
 21
-1074.0
 31
0.0
  0
LINE
  5
73D
330
18
100
AcDbEntity
  8
PV0001_1
  6
PHANTOM2
 48
0.5
370
    25
100
AcDbLine
 10
276.0
 20
-1054.54150390625
 30
0.0
 11
292.0
 21
-1054.54150390625
 31
0.0
  0
LINE
  5
73E
330
18
100
AcDbEntity
  8
PV0001_1
  6
PHANTOM2
 48
0.5
370
    25
100
AcDbLine
 10
276.0
 20
-1073.45849609375
 30
0.0
 11
292.0
 21
-1073.45849609375
 31
0.0
  0
LINE
  5
73F
330
18
100
AcDbEntity
  8
PV0001_1
  6
PHANTOM2
 48
0.5
370
    25
100
AcDbLine
 10
249.0
 20
-1071.5
 30
0.0
 11
276.0
 21
-1071.5
 31
0.0
  0
LINE
  5
740
330
18
100
AcDbEntity
  8
PV0001_1
  6
PHANTOM2
 48
0.5
370
    25
100
AcDbLine
 10
276.0
 20
-1054.0
 30
0.0
 11
276.0
 21
-1074.0
 31
0.0
  0
LINE
  5
741
330
18
100
AcDbEntity
  8
PV0001_1
  6
PHANTOM2
370
    25
100
AcDbLine
 10
276.0
 20
-1054.0
 30
0.0
 11
348.7000122070299
 21
-1054.0
 31
0.0
  0
LINE
  5
742
330
18
100
AcDbEntity
  8
PV0001_1
  6
PHANTOM2
370
    25
100
AcDbLine
 10
349.0
 20
-1051.50006103515
 30
0.0
 11
399.0
 21
-1051.50006103515
 31
0.0
  0
LINE
  5
743
330
18
100
AcDbEntity
  8
PV0001_1
  6
PHANTOM2
370
    25
100
AcDbLine
 10
276.0
 20
-1074.0
 30
0.0
 11
348.7000122070299
 21
-1074.0
 31
0.0
  0
LINE
  5
744
330
18
100
AcDbEntity
  8
PV0001_1
  6
PHANTOM2
370
    25
100
AcDbLine
 10
349.0
 20
-1076.5
 30
0.0
 11
399.0
 21
-1076.5
 31
0.0
  0
LINE
  5
745
330
18
100
AcDbEntity
  8
PV0001_1
  6
PHANTOM2
 48
0.5
370
    25
100
AcDbLine
 10
249.0
 20
-1056.5
 30
0.0
 11
276.0
 21
-1056.5
 31
0.0
  0
LINE
  5
746
330
18
100
AcDbEntity
  8
PV0001_1
  6
PHANTOM2
 48
0.5
370
    25
100
AcDbLine
 10
329.0
 20
-1051.50006103515
 30
0.0
 11
329.0
 21
-1076.5
 31
0.0
  0
LINE
  5
747
330
18
100
AcDbEntity
  8
PV0001_1
  6
PHANTOM2
 48
0.5
370
    25
100
AcDbLine
 10
292.0
 20
-1054.0
 30
0.0
 11
292.0
 21
-1074.0
 31
0.0
  0
LINE
  5
748
330
18
100
AcDbEntity
  8
PV0001_1
  6
PHANTOM2
370
    25
100
AcDbLine
 10
349.0
 20
-1074.75
 30
0.0
 11
399.0
 21
-1074.75
 31
0.0
  0
LINE
  5
749
330
18
100
AcDbEntity
  8
PV0001_1
  6
PHANTOM2
370
    25
100
AcDbLine
 10
349.0
 20
-1053.25
 30
0.0
 11
399.0
 21
-1053.25
 31
0.0
  0
LINE
  5
74A
330
18
100
AcDbEntity
  8
PV0001_1
  6
PHANTOM2
 48
0.5
370
    25
100
AcDbLine
 10
329.0
 20
-1051.50006103515
 30
0.0
 11
349.0
 21
-1051.50006103515
 31
0.0
  0
LINE
  5
74B
330
18
100
AcDbEntity
  8
PV0001_1
  6
PHANTOM2
 48
0.5
370
    25
100
AcDbLine
 10
329.0
 20
-1076.5
 30
0.0
 11
349.0
 21
-1076.5
 31
0.0
  0
LINE
  5
74C
330
18
100
AcDbEntity
  8
PV0001_1
  6
PHANTOM2
 48
0.5
370
    25
100
AcDbLine
 10
249.0
 20
-1056.5
 30
0.0
 11
249.0
 21
-1071.5
 31
0.0
  0
LINE
  5
74D
330
18
100
AcDbEntity
  8
PV0001_1
  6
PHANTOM2
 48
0.5
370
    25
100
AcDbLine
 10
349.0
 20
-1051.50006103515
 30
0.0
 11
349.0
 21
-1076.5
 31
0.0
  0
LINE
  5
74E
330
18
100
AcDbEntity
  8
PV0001_1
  6
PHANTOM2
 48
0.5
370
    25
100
AcDbLine
 10
1245.0
 20
-834.5
 30
0.0
 11
1246.3499755859
 21
-834.5
 31
0.0
  0
LINE
  5
74F
330
18
100
AcDbEntity
  8
PV0001_1
  6
PHANTOM2
 48
0.5
370
    25
100
AcDbLine
 10
1231.2999267578
 20
-834.0
 30
0.0
 11
1245.0
 21
-834.0
 31
0.0
  0
LINE
  5
750
330
18
100
AcDbEntity
  8
PV0001_1
  6
PHANTOM2
 48
0.5
370
    25
100
AcDbLine
 10
1231.2999267578
 20
-854.0
 30
0.0
 11
1245.0
 21
-854.0
 31
0.0
  0
LINE
  5
751
330
18
100
AcDbEntity
  8
PV0001_1
  6
PHANTOM2
 48
0.5
370
    25
100
AcDbLine
 10
1245.0
 20
-853.5
 30
0.0
 11
1246.3499755859
 21
-853.5
 31
0.0
  0
LINE
  5
752
330
18
100
AcDbEntity
  8
PV0001_1
  6
PHANTOM2
 48
0.5
370
    25
100
AcDbLine
 10
1246.3499755859
 20
-854.0
 30
0.0
 11
1249.0
 21
-854.0
 31
0.0
  0
LINE
  5
753
330
18
100
AcDbEntity
  8
PV0001_1
  6
PHANTOM2
 48
0.5
370
    25
100
AcDbLine
 10
1246.3499755859
 20
-834.0
 30
0.0
 11
1249.0
 21
-834.0
 31
0.0
  0
LINE
  5
754
330
18
100
AcDbEntity
  8
PV0001_1
  6
PHANTOM2
 48
0.5
370
    25
100
AcDbLine
 10
1245.0
 20
-834.0
 30
0.0
 11
1245.0
 21
-854.0
 31
0.0
  0
LINE
  5
755
330
18
100
AcDbEntity
  8
PV0001_1
  6
PHANTOM2
 48
0.5
370
    25
100
AcDbLine
 10
1246.3499755859
 20
-834.0
 30
0.0
 11
1246.3499755859
 21
-854.0
 31
0.0
  0
LINE
  5
756
330
18
100
AcDbEntity
  8
PV0001_1
  6
PHANTOM2
 48
0.5
370
    25
100
AcDbLine
 10
1231.0
 20
-831.4999847412099
 30
0.0
 11
1231.0
 21
-856.4999999999999
 31
0.0
  0
LINE
  5
757
330
18
100
AcDbEntity
  8
PV0001_1
  6
PHANTOM2
370
    25
100
AcDbLine
 10
1099.0
 20
-856.4999999999999
 30
0.0
 11
1231.0
 21
-856.4999999999999
 31
0.0
  0
LINE
  5
758
330
18
100
AcDbEntity
  8
PV0001_1
  6
PHANTOM2
370
    25
100
AcDbLine
 10
1099.0
 20
-854.7499999999999
 30
0.0
 11
1231.0
 21
-854.7499999999999
 31
0.0
  0
LINE
  5
759
330
18
100
AcDbEntity
  8
PV0001_1
  6
PHANTOM2
370
    25
100
AcDbLine
 10
1099.0
 20
-833.2499999999999
 30
0.0
 11
1231.0
 21
-833.2499999999999
 31
0.0
  0
LINE
  5
75A
330
18
100
AcDbEntity
  8
PV0001_1
  6
PHANTOM2
370
    25
100
AcDbLine
 10
1099.0
 20
-831.4999847412099
 30
0.0
 11
1231.0
 21
-831.4999847412099
 31
0.0
  0
LINE
  5
75B
330
18
100
AcDbEntity
  8
PV0001_1
  6
PHANTOM2
 48
0.5
370
    25
100
AcDbLine
 10
1249.0
 20
-834.0
 30
0.0
 11
1249.0
 21
-854.0
 31
0.0
  0
LINE
  5
75C
330
18
100
AcDbEntity
  8
PV0001_1
  6
CENTER2
370
    25
100
AcDbLine
 10
1072.8243408203
 20
-844.0
 30
0.0
 11
1277.7836914062
 21
-844.0
 31
0.0
  0
LINE
  5
75D
330
18
100
AcDbEntity
  8
PV0001_1
  6
PHANTOM2
 48
0.5
370
    25
100
AcDbLine
 10
349.0
 20
-951.5000610351499
 30
0.0
 11
349.0
 21
-976.5
 31
0.0
  0
LINE
  5
75E
330
18
100
AcDbEntity
  8
PV0001_1
  6
PHANTOM2
 48
0.5
370
    25
100
AcDbLine
 10
249.0
 20
-956.4999999999999
 30
0.0
 11
249.0
 21
-971.4999999999999
 31
0.0
  0
LINE
  5
75F
330
18
100
AcDbEntity
  8
PV0001_1
  6
PHANTOM2
 48
0.5
370
    25
100
AcDbLine
 10
329.0
 20
-976.5
 30
0.0
 11
349.0
 21
-976.5
 31
0.0
  0
LINE
  5
760
330
18
100
AcDbEntity
  8
PV0001_1
  6
PHANTOM2
 48
0.5
370
    25
100
AcDbLine
 10
329.0
 20
-951.5000610351499
 30
0.0
 11
349.0
 21
-951.5000610351499
 31
0.0
  0
LINE
  5
761
330
18
100
AcDbEntity
  8
PV0001_1
  6
PHANTOM2
370
    25
100
AcDbLine
 10
349.0
 20
-953.25
 30
0.0
 11
399.0
 21
-953.25
 31
0.0
  0
LINE
  5
762
330
18
100
AcDbEntity
  8
PV0001_1
  6
PHANTOM2
370
    25
100
AcDbLine
 10
349.0
 20
-974.75
 30
0.0
 11
399.0
 21
-974.75
 31
0.0
  0
LINE
  5
763
330
18
100
AcDbEntity
  8
PV0001_1
  6
CENTER2
370
    25
100
AcDbLine
 10
244.36364746093
 20
-1064.0
 30
0.0
 11
428.5651855468699
 21
-1064.0
 31
0.0
  0
LINE
  5
764
330
18
100
AcDbEntity
  8
PV0001_1
  6
PHANTOM2
 48
0.5
370
    25
100
AcDbLine
 10
292.0
 20
-954.0
 30
0.0
 11
292.0
 21
-974.0
 31
0.0
  0
LINE
  5
765
330
18
100
AcDbEntity
  8
PV0001_1
  6
PHANTOM2
 48
0.5
370
    25
100
AcDbLine
 10
329.0
 20
-951.5000610351499
 30
0.0
 11
329.0
 21
-976.5
 31
0.0
  0
LINE
  5
766
330
18
100
AcDbEntity
  8
PV0001_1
  6
PHANTOM2
 48
0.5
370
    25
100
AcDbLine
 10
249.0
 20
-956.4999999999999
 30
0.0
 11
276.0
 21
-956.4999999999999
 31
0.0
  0
LINE
  5
767
330
18
100
AcDbEntity
  8
PV0001_1
  6
PHANTOM2
370
    25
100
AcDbLine
 10
349.0
 20
-976.5
 30
0.0
 11
399.0
 21
-976.5
 31
0.0
  0
LINE
  5
768
330
18
100
AcDbEntity
  8
PV0001_1
  6
PHANTOM2
370
    25
100
AcDbLine
 10
276.0
 20
-974.0
 30
0.0
 11
348.7000122070299
 21
-974.0
 31
0.0
  0
LINE
  5
769
330
18
100
AcDbEntity
  8
PV0001_1
  6
PHANTOM2
370
    25
100
AcDbLine
 10
349.0
 20
-951.5000610351499
 30
0.0
 11
399.0
 21
-951.5000610351499
 31
0.0
  0
LINE
  5
76A
330
18
100
AcDbEntity
  8
PV0001_1
  6
PHANTOM2
370
    25
100
AcDbLine
 10
276.0
 20
-954.0
 30
0.0
 11
348.7000122070299
 21
-954.0
 31
0.0
  0
LINE
  5
76B
330
18
100
AcDbEntity
  8
PV0001_1
  6
PHANTOM2
 48
0.5
370
    25
100
AcDbLine
 10
276.0
 20
-954.0
 30
0.0
 11
276.0
 21
-974.0
 31
0.0
  0
LINE
  5
76C
330
18
100
AcDbEntity
  8
PV0001_1
  6
PHANTOM2
 48
0.5
370
    25
100
AcDbLine
 10
249.0
 20
-971.4999999999999
 30
0.0
 11
276.0
 21
-971.4999999999999
 31
0.0
  0
LINE
  5
76D
330
18
100
AcDbEntity
  8
PV0001_1
  6
PHANTOM2
 48
0.5
370
    25
100
AcDbLine
 10
276.0
 20
-973.45849609375
 30
0.0
 11
292.0
 21
-973.45849609375
 31
0.0
  0
LINE
  5
76E
330
18
100
AcDbEntity
  8
PV0001_1
  6
PHANTOM2
 48
0.5
370
    25
100
AcDbLine
 10
276.0
 20
-954.54150390625
 30
0.0
 11
292.0
 21
-954.54150390625
 31
0.0
  0
LINE
  5
76F
330
18
100
AcDbEntity
  8
PV0001_1
  6
PHANTOM2
 48
0.5
370
    25
100
AcDbLine
 10
292.0
 20
-973.45849609375
 30
0.0
 11
292.9378967285099
 21
-974.0
 31
0.0
  0
LINE
  5
770
330
18
100
AcDbEntity
  8
PV0001_1
  6
PHANTOM2
 48
0.5
370
    25
100
AcDbLine
 10
292.0
 20
-954.54150390625
 30
0.0
 11
292.9379272460901
 21
-954.0
 31
0.0
  0
LINE
  5
77B
330
18
100
AcDbEntity
  8
PV0001_1
  6
PHANTOM2
 48
0.5
370
    25
100
AcDbLine
 10
292.0
 20
-834.5415039062499
 30
0.0
 11
292.9378967285099
 21
-834.0
 31
0.0
  0
LINE
  5
77D
330
18
100
AcDbEntity
  8
PV0001_1
  6
PHANTOM2
 48
0.5
370
    25
100
AcDbLine
 10
292.0
 20
-853.45849609375
 30
0.0
 11
292.9378967285099
 21
-854.0
 31
0.0
  0
LINE
  5
77E
330
18
100
AcDbEntity
  8
PV0001_1
  6
PHANTOM2
 48
0.5
370
    25
100
AcDbLine
 10
276.0
 20
-834.5415039062499
 30
0.0
 11
292.0
 21
-834.5415039062499
 31
0.0
  0
LINE
  5
77F
330
18
100
AcDbEntity
  8
PV0001_1
  6
PHANTOM2
 48
0.5
370
    25
100
AcDbLine
 10
276.0
 20
-853.45849609375
 30
0.0
 11
292.0
 21
-853.45849609375
 31
0.0
  0
LINE
  5
780
330
18
100
AcDbEntity
  8
PV0001_1
  6
PHANTOM2
 48
0.5
370
    25
100
AcDbLine
 10
249.0
 20
-851.5
 30
0.0
 11
276.0
 21
-851.5
 31
0.0
  0
LINE
  5
781
330
18
100
AcDbEntity
  8
PV0001_1
  6
PHANTOM2
 48
0.5
370
    25
100
AcDbLine
 10
276.0
 20
-834.0
 30
0.0
 11
276.0
 21
-854.0
 31
0.0
  0
LINE
  5
782
330
18
100
AcDbEntity
  8
PV0001_1
  6
PHANTOM2
370
    25
100
AcDbLine
 10
276.0
 20
-834.0
 30
0.0
 11
348.7000122070299
 21
-834.0
 31
0.0
  0
LINE
  5
783
330
18
100
AcDbEntity
  8
PV0001_1
  6
PHANTOM2
370
    25
100
AcDbLine
 10
349.0
 20
-831.50006103515
 30
0.0
 11
399.0
 21
-831.50006103515
 31
0.0
  0
LINE
  5
784
330
18
100
AcDbEntity
  8
PV0001_1
  6
PHANTOM2
370
    25
100
AcDbLine
 10
276.0
 20
-854.0
 30
0.0
 11
348.7000122070299
 21
-854.0
 31
0.0
  0
LINE
  5
785
330
18
100
AcDbEntity
  8
PV0001_1
  6
PHANTOM2
370
    25
100
AcDbLine
 10
349.0
 20
-856.4999999999999
 30
0.0
 11
399.0
 21
-856.4999999999999
 31
0.0
  0
LINE
  5
786
330
18
100
AcDbEntity
  8
PV0001_1
  6
PHANTOM2
 48
0.5
370
    25
100
AcDbLine
 10
249.0
 20
-836.5
 30
0.0
 11
276.0
 21
-836.5
 31
0.0
  0
LINE
  5
787
330
18
100
AcDbEntity
  8
PV0001_1
  6
PHANTOM2
 48
0.5
370
    25
100
AcDbLine
 10
329.0
 20
-831.50006103515
 30
0.0
 11
329.0
 21
-856.4999999999999
 31
0.0
  0
LINE
  5
788
330
18
100
AcDbEntity
  8
PV0001_1
  6
PHANTOM2
 48
0.5
370
    25
100
AcDbLine
 10
292.0
 20
-834.0
 30
0.0
 11
292.0
 21
-854.0
 31
0.0
  0
LINE
  5
78C
330
18
100
AcDbEntity
  8
PV0001_1
  6
PHANTOM2
370
    25
100
AcDbLine
 10
349.0
 20
-854.7499999999999
 30
0.0
 11
399.0
 21
-854.7499999999999
 31
0.0
  0
LINE
  5
78D
330
18
100
AcDbEntity
  8
PV0001_1
  6
PHANTOM2
370
    25
100
AcDbLine
 10
349.0
 20
-833.2499999999999
 30
0.0
 11
399.0
 21
-833.2499999999999
 31
0.0
  0
LINE
  5
78E
330
18
100
AcDbEntity
  8
PV0001_1
  6
PHANTOM2
 48
0.5
370
    25
100
AcDbLine
 10
329.0
 20
-831.50006103515
 30
0.0
 11
349.0
 21
-831.50006103515
 31
0.0
  0
LINE
  5
78F
330
18
100
AcDbEntity
  8
PV0001_1
  6
PHANTOM2
 48
0.5
370
    25
100
AcDbLine
 10
329.0
 20
-856.4999999999999
 30
0.0
 11
349.0
 21
-856.4999999999999
 31
0.0
  0
LINE
  5
790
330
18
100
AcDbEntity
  8
PV0001_1
  6
PHANTOM2
 48
0.5
370
    25
100
AcDbLine
 10
249.0
 20
-836.5
 30
0.0
 11
249.0
 21
-851.5
 31
0.0
  0
LINE
  5
791
330
18
100
AcDbEntity
  8
PV0001_1
  6
PHANTOM2
 48
0.5
370
    25
100
AcDbLine
 10
349.0
 20
-831.50006103515
 30
0.0
 11
349.0
 21
-856.4999999999999
 31
0.0
  0
LINE
  5
793
330
18
100
AcDbEntity
  8
PV0001_1
  6
CENTER2
370
    25
100
AcDbLine
 10
244.36364746093
 20
-844.0
 30
0.0
 11
428.5651855468699
 21
-844.0
 31
0.0
  0
LINE
  5
794
330
18
100
AcDbEntity
  8
PV0001_1
  6
Continuous
 48
0.5
370
    50
100
AcDbLine
 10
1245.0
 20
-634.4999999999999
 30
0.0
 11
1246.3499755859
 21
-634.4999999999999
 31
0.0
  0
LINE
  5
795
330
18
100
AcDbEntity
  8
PV0001_1
  6
Continuous
 48
0.5
370
    50
100
AcDbLine
 10
1231.2999267578
 20
-634.0
 30
0.0
 11
1245.0
 21
-634.0
 31
0.0
  0
LINE
  5
796
330
18
100
AcDbEntity
  8
PV0001_1
  6
Continuous
 48
0.5
370
    50
100
AcDbLine
 10
1231.2999267578
 20
-654.0
 30
0.0
 11
1245.0
 21
-654.0
 31
0.0
  0
LINE
  5
797
330
18
100
AcDbEntity
  8
PV0001_1
  6
Continuous
 48
0.5
370
    50
100
AcDbLine
 10
1245.0
 20
-653.5
 30
0.0
 11
1246.3499755859
 21
-653.5
 31
0.0
  0
LINE
  5
798
330
18
100
AcDbEntity
  8
PV0001_1
  6
Continuous
 48
0.5
370
    50
100
AcDbLine
 10
1246.3499755859
 20
-654.0
 30
0.0
 11
1249.0
 21
-654.0
 31
0.0
  0
LINE
  5
799
330
18
100
AcDbEntity
  8
PV0001_1
  6
Continuous
 48
0.5
370
    50
100
AcDbLine
 10
1246.3499755859
 20
-634.0
 30
0.0
 11
1249.0
 21
-634.0
 31
0.0
  0
LINE
  5
79A
330
18
100
AcDbEntity
  8
PV0001_1
  6
Continuous
 48
0.5
370
    50
100
AcDbLine
 10
1245.0
 20
-634.0
 30
0.0
 11
1245.0
 21
-654.0
 31
0.0
  0
LINE
  5
79B
330
18
100
AcDbEntity
  8
PV0001_1
  6
Continuous
 48
0.5
370
    50
100
AcDbLine
 10
1246.3499755859
 20
-634.0
 30
0.0
 11
1246.3499755859
 21
-654.0
 31
0.0
  0
LINE
  5
79C
330
18
100
AcDbEntity
  8
PV0001_1
  6
Continuous
 48
0.5
370
    25
100
AcDbLine
 10
292.0
 20
-634.541496276855
 30
0.0
 11
292.9378967285099
 21
-634.0
 31
0.0
  0
LINE
  5
79D
330
18
100
AcDbEntity
  8
PV0001_1
  6
Continuous
 48
0.5
370
    50
100
AcDbLine
 10
1231.0
 20
-631.49998474121
 30
0.0
 11
1231.0
 21
-656.49998474121
 31
0.0
  0
LINE
  5
79E
330
18
100
AcDbEntity
  8
PV0001_1
  6
Continuous
 48
0.5
370
    25
100
AcDbLine
 10
292.0
 20
-653.458503723144
 30
0.0
 11
292.9378967285099
 21
-653.999992370605
 31
0.0
  0
LINE
  5
79F
330
18
100
AcDbEntity
  8
PV0001_1
  6
Continuous
 48
0.5
370
    25
100
AcDbLine
 10
276.0
 20
-634.5415000915521
 30
0.0
 11
292.0
 21
-634.5415000915521
 31
0.0
  0
LINE
  5
7A0
330
18
100
AcDbEntity
  8
PV0001_1
  6
Continuous
 48
0.5
370
    25
100
AcDbLine
 10
276.0
 20
-653.458503723144
 30
0.0
 11
292.0
 21
-653.458503723144
 31
0.0
  0
LINE
  5
7A1
330
18
100
AcDbEntity
  8
PV0001_1
  6
Continuous
 48
0.5
370
    50
100
AcDbLine
 10
249.0
 20
-651.49998474121
 30
0.0
 11
276.0
 21
-651.49998474121
 31
0.0
  0
LINE
  5
7A2
330
18
100
AcDbEntity
  8
PV0001_1
  6
Continuous
 48
0.5
370
    50
100
AcDbLine
 10
276.0
 20
-634.0
 30
0.0
 11
276.0
 21
-653.99998474121
 31
0.0
  0
LINE
  5
7A3
330
18
100
AcDbEntity
  8
PV0001_1
  6
Continuous
370
    50
100
AcDbLine
 10
276.0
 20
-634.0
 30
0.0
 11
348.7000122070299
 21
-634.0
 31
0.0
  0
LINE
  5
7A4
330
18
100
AcDbEntity
  8
PV0001_1
  6
Continuous
370
    50
100
AcDbLine
 10
349.0
 20
-631.500061035156
 30
0.0
 11
399.0
 21
-631.500061035156
 31
0.0
  0
LINE
  5
7A5
330
18
100
AcDbEntity
  8
PV0001_1
  6
Continuous
370
    50
100
AcDbLine
 10
276.0
 20
-653.99998474121
 30
0.0
 11
348.7000122070299
 21
-653.99998474121
 31
0.0
  0
LINE
  5
7A6
330
18
100
AcDbEntity
  8
PV0001_1
  6
Continuous
370
    50
100
AcDbLine
 10
349.0
 20
-656.49998474121
 30
0.0
 11
399.0
 21
-656.49998474121
 31
0.0
  0
LINE
  5
7A7
330
18
100
AcDbEntity
  8
PV0001_1
  6
Continuous
 48
0.5
370
    50
100
AcDbLine
 10
249.0
 20
-636.5
 30
0.0
 11
276.0
 21
-636.5
 31
0.0
  0
LINE
  5
7A8
330
18
100
AcDbEntity
  8
PV0001_1
  6
DASHED2
 48
0.5
370
    50
100
AcDbLine
 10
329.0
 20
-631.500061035156
 30
0.0
 11
329.0
 21
-656.49998474121
 31
0.0
  0
LINE
  5
7A9
330
18
100
AcDbEntity
  8
PV0001_1
  6
Continuous
 48
0.5
370
    50
100
AcDbLine
 10
292.0
 20
-634.0
 30
0.0
 11
292.0
 21
-653.99998474121
 31
0.0
  0
LINE
  5
7AA
330
18
100
AcDbEntity
  8
PV0001_1
  6
Continuous
370
    50
100
AcDbLine
 10
1099.0
 20
-656.49998474121
 30
0.0
 11
1231.0
 21
-656.49998474121
 31
0.0
  0
LINE
  5
7AB
330
18
100
AcDbEntity
  8
PV0001_1
  6
Continuous
370
    25
100
AcDbLine
 10
1099.0
 20
-654.74998474121
 30
0.0
 11
1231.0
 21
-654.74998474121
 31
0.0
  0
LINE
  5
7AC
330
18
100
AcDbEntity
  8
PV0001_1
  6
Continuous
370
    25
100
AcDbLine
 10
1099.0
 20
-633.25
 30
0.0
 11
1231.0
 21
-633.25
 31
0.0
  0
LINE
  5
7AD
330
18
100
AcDbEntity
  8
PV0001_1
  6
Continuous
370
    50
100
AcDbLine
 10
1099.0
 20
-631.49998474121
 30
0.0
 11
1231.0
 21
-631.49998474121
 31
0.0
  0
LINE
  5
7AE
330
18
100
AcDbEntity
  8
PV0001_1
  6
Continuous
370
    25
100
AcDbLine
 10
349.0
 20
-654.74998474121
 30
0.0
 11
399.0
 21
-654.74998474121
 31
0.0
  0
LINE
  5
7AF
330
18
100
AcDbEntity
  8
PV0001_1
  6
Continuous
370
    25
100
AcDbLine
 10
349.0
 20
-633.25
 30
0.0
 11
399.0
 21
-633.25
 31
0.0
  0
LINE
  5
7B0
330
18
100
AcDbEntity
  8
PV0001_1
  6
DASHED2
 48
0.5
370
    50
100
AcDbLine
 10
329.0
 20
-631.500061035156
 30
0.0
 11
349.0
 21
-631.500061035156
 31
0.0
  0
LINE
  5
7B1
330
18
100
AcDbEntity
  8
PV0001_1
  6
DASHED2
 48
0.5
370
    50
100
AcDbLine
 10
329.0
 20
-656.49998474121
 30
0.0
 11
349.0
 21
-656.49998474121
 31
0.0
  0
LINE
  5
7B2
330
18
100
AcDbEntity
  8
PV0001_1
  6
Continuous
 48
0.5
370
    50
100
AcDbLine
 10
1249.0
 20
-634.0
 30
0.0
 11
1249.0
 21
-654.0
 31
0.0
  0
LINE
  5
7B3
330
18
100
AcDbEntity
  8
PV0001_1
  6
Continuous
 48
0.5
370
    50
100
AcDbLine
 10
249.0
 20
-636.5
 30
0.0
 11
249.0
 21
-651.49998474121
 31
0.0
  0
LINE
  5
7B4
330
18
100
AcDbEntity
  8
PV0001_1
  6
Continuous
 48
0.5
370
    50
100
AcDbLine
 10
349.0
 20
-631.500061035156
 30
0.0
 11
349.0
 21
-656.49998474121
 31
0.0
  0
LINE
  5
7B5
330
18
100
AcDbEntity
  8
PV0001_1
  6
CENTER2
370
    25
100
AcDbLine
 10
1072.8243408203
 20
-644.0
 30
0.0
 11
1277.7836914062
 21
-644.0
 31
0.0
  0
LINE
  5
7B6
330
18
100
AcDbEntity
  8
PV0001_1
  6
CENTER2
370
    25
100
AcDbLine
 10
244.36364746093
 20
-964.0
 30
0.0
 11
428.5651855468699
 21
-964.0
 31
0.0
  0
LINE
  5
7B7
330
18
100
AcDbEntity
  8
PV0001_1
  6
CENTER2
370
    25
100
AcDbLine
 10
244.36364746093
 20
-644.0
 30
0.0
 11
428.5651855468699
 21
-644.0
 31
0.0
  0
LINE
  5
7B8
330
18
100
AcDbEntity
  8
PV0001_1
  6
DASHED2
 48
0.5
370
    50
100
AcDbLine
 10
1245.0
 20
-854.0
 30
0.0
 11
1231.0
 21
-854.0
 31
0.0
  0
LINE
  5
7B9
330
18
100
AcDbEntity
  8
PV0001_1
  6
DASHED2
 48
0.5
370
    50
100
AcDbLine
 10
1245.0
 20
-867.5
 30
0.0
 11
1231.0
 21
-867.5
 31
0.0
  0
LINE
  5
7BA
330
18
100
AcDbEntity
  8
PV0001_1
  6
DASHED2
370
    50
100
AcDbLine
 10
1245.0
 20
-820.49998474121
 30
0.0
 11
1245.0
 21
-867.5
 31
0.0
  0
LINE
  5
7BB
330
18
100
AcDbEntity
  8
PV0001_1
  6
DASHED2
 48
0.5
370
    50
100
AcDbLine
 10
1245.0
 20
-820.49998474121
 30
0.0
 11
1231.0
 21
-820.49998474121
 31
0.0
  0
LINE
  5
7BC
330
18
100
AcDbEntity
  8
PV0001_1
  6
DASHED2
370
    50
100
AcDbLine
 10
1231.0
 20
-820.49998474121
 30
0.0
 11
1231.0
 21
-867.5
 31
0.0
  0
LINE
  5
7BD
330
18
100
AcDbEntity
  8
PV0001_1
  6
DASHED2
 48
0.5
370
    50
100
AcDbLine
 10
1245.0
 20
-834.0
 30
0.0
 11
1231.0
 21
-834.0
 31
0.0
  0
LINE
  5
7BE
330
18
100
AcDbEntity
  8
PV0001_1
  6
DASHED2
 48
0.5
370
    50
100
AcDbLine
 10
1246.1999511718
 20
-857.99996948242
 30
0.0
 11
1245.0
 21
-857.99996948242
 31
0.0
  0
LINE
  5
7BF
330
18
100
AcDbEntity
  8
PV0001_1
  6
DASHED2
 48
0.5
370
    50
100
AcDbLine
 10
1246.1999511718
 20
-830.0000152587799
 30
0.0
 11
1245.0
 21
-830.0000152587799
 31
0.0
  0
LINE
  5
7C0
330
18
100
AcDbEntity
  8
PV0001_1
  6
DASHED2
 48
0.5
370
    50
100
AcDbLine
 10
1246.1999511718
 20
-853.5
 30
0.0
 11
1245.0
 21
-853.5
 31
0.0
  0
LINE
  5
7C1
330
18
100
AcDbEntity
  8
PV0001_1
  6
DASHED2
 48
0.5
370
    50
100
AcDbLine
 10
1246.1999511718
 20
-834.5
 30
0.0
 11
1245.0
 21
-834.5
 31
0.0
  0
LINE
  5
7C2
330
18
100
AcDbEntity
  8
PV0001_1
  6
DASHED2
 48
0.5
370
    50
100
AcDbLine
 10
1246.1999511718
 20
-857.99996948242
 30
0.0
 11
1246.1999511718
 21
-830.0
 31
0.0
  0
LINE
  5
7C3
330
18
100
AcDbEntity
  8
PV0001_1
  6
Continuous
370
    50
100
AcDbLine
 10
1225.0
 20
-796.49998474121
 30
0.0
 11
1225.0
 21
-891.4999694824201
 31
0.0
  0
LINE
  5
7C4
330
18
100
AcDbEntity
  8
PV0001_1
  6
Continuous
370
    50
100
AcDbLine
 10
1251.0
 20
-796.49998474121
 30
0.0
 11
1251.0
 21
-891.4999694824201
 31
0.0
  0
LINE
  5
7C5
330
18
100
AcDbEntity
  8
PV0001_1
  6
Continuous
 48
0.5
370
    50
100
AcDbLine
 10
1225.0
 20
-796.4999999999999
 30
0.0
 11
1251.0
 21
-796.4999999999999
 31
0.0
  0
LINE
  5
7C6
330
18
100
AcDbEntity
  8
PV0001_1
  6
Continuous
 48
0.5
370
    50
100
AcDbLine
 10
1225.0
 20
-891.5
 30
0.0
 11
1251.0
 21
-891.5
 31
0.0
  0
LINE
  5
7C7
330
18
100
AcDbEntity
  8
PV0001_1
  6
Continuous
 48
0.5
370
    50
100
AcDbLine
 10
1225.0
 20
-872.0
 30
0.0
 11
1251.0
 21
-872.0
 31
0.0
  0
LINE
  5
7C8
330
18
100
AcDbEntity
  8
PV0001_1
  6
Continuous
 48
0.5
370
    50
100
AcDbLine
 10
1225.0
 20
-816.0
 30
0.0
 11
1251.0
 21
-816.0
 31
0.0
  0
LINE
  5
7C9
330
18
100
AcDbEntity
  8
PV0001_1
  6
CENTER2
 48
0.5
370
    25
100
AcDbLine
 10
1248.5
 20
-806.4999999999999
 30
0.0
 11
1227.4998779296
 21
-806.4999999999999
 31
0.0
  0
LINE
  5
7CA
330
18
100
AcDbEntity
  8
PV0001_1
  6
CENTER2
 48
0.5
370
    25
100
AcDbLine
 10
1238.0
 20
-795.99996948242
 30
0.0
 11
1238.0
 21
-817.0
 31
0.0
  0
LINE
  5
7CB
330
18
100
AcDbEntity
  8
PV0001_1
  6
CENTER2
 48
0.5
370
    25
100
AcDbLine
 10
1248.5
 20
-881.4999999999999
 30
0.0
 11
1227.4998779296
 21
-881.4999999999999
 31
0.0
  0
LINE
  5
7CC
330
18
100
AcDbEntity
  8
PV0001_1
  6
CENTER2
 48
0.5
370
    25
100
AcDbLine
 10
1238.0
 20
-870.9999694824201
 30
0.0
 11
1238.0
 21
-892.0
 31
0.0
  0
LINE
  5
7CD
330
18
100
AcDbEntity
  8
PV0001_1
  6
Continuous
 48
0.5
370
    50
100
AcDbLine
 10
291.0
 20
-1076.5
 30
0.0
 11
290.0
 21
-1076.5
 31
0.0
  0
LINE
  5
7CE
330
18
100
AcDbEntity
  8
PV0001_1
  6
Continuous
 48
0.5
370
    50
100
AcDbLine
 10
291.0
 20
-1051.5
 30
0.0
 11
290.0
 21
-1051.5
 31
0.0
  0
LINE
  5
7CF
330
18
100
AcDbEntity
  8
PV0001_1
  6
Continuous
 48
0.5
370
    50
100
AcDbLine
 10
290.0
 20
-1077.0
 30
0.0
 11
289.0
 21
-1077.0
 31
0.0
  0
LINE
  5
7D0
330
18
100
AcDbEntity
  8
PV0001_1
  6
Continuous
 48
0.5
370
    50
100
AcDbLine
 10
290.0
 20
-1051.0
 30
0.0
 11
289.0
 21
-1051.0
 31
0.0
  0
LINE
  5
7D1
330
18
100
AcDbEntity
  8
PV0001_1
  6
Continuous
 48
0.5
370
    50
100
AcDbLine
 10
290.0
 20
-1051.0
 30
0.0
 11
290.0
 21
-1077.0
 31
0.0
  0
LINE
  5
7D2
330
18
100
AcDbEntity
  8
PV0001_1
  6
Continuous
370
    50
100
AcDbLine
 10
289.0
 20
-1049.0
 30
0.0
 11
289.0
 21
-1079.0
 31
0.0
  0
LINE
  5
7D3
330
18
100
AcDbEntity
  8
PV0001_1
  6
Continuous
 48
0.5
370
    50
100
AcDbLine
 10
289.0
 20
-1049.0
 30
0.0
 11
277.0
 21
-1049.0
 31
0.0
  0
LINE
  5
7D4
330
18
100
AcDbEntity
  8
PV0001_1
  6
Continuous
 48
0.5
370
    50
100
AcDbLine
 10
289.0
 20
-1079.0
 30
0.0
 11
277.0
 21
-1079.0
 31
0.0
  0
LINE
  5
7D5
330
18
100
AcDbEntity
  8
PV0001_1
  6
Continuous
370
    50
100
AcDbLine
 10
277.0
 20
-1049.0
 30
0.0
 11
277.0
 21
-1079.0
 31
0.0
  0
LINE
  5
7D6
330
18
100
AcDbEntity
  8
PV0001_1
  6
DASHED2
 48
0.5
370
    50
100
AcDbLine
 10
333.0
 20
-1033.75128173828
 30
0.0
 11
343.0
 21
-1033.75128173828
 31
0.0
  0
LINE
  5
7D7
330
18
100
AcDbEntity
  8
PV0001_1
  6
DASHED2
 48
0.5
370
    50
100
AcDbLine
 10
333.0
 20
-1044.75128173828
 30
0.0
 11
343.0
 21
-1044.75128173828
 31
0.0
  0
LINE
  5
7D8
330
18
100
AcDbEntity
  8
PV0001_1
  6
DASHED2
 48
0.5
370
    50
100
AcDbLine
 10
321.0
 20
-1035.95126342773
 30
0.0
 11
333.0
 21
-1035.95126342773
 31
0.0
  0
LINE
  5
7D9
330
18
100
AcDbEntity
  8
PV0001_1
  6
DASHED2
 48
0.5
370
    50
100
AcDbLine
 10
321.0
 20
-1042.55126953125
 30
0.0
 11
333.0
 21
-1042.55126953125
 31
0.0
  0
LINE
  5
7DA
330
18
100
AcDbEntity
  8
PV0001_1
  6
CENTER2
 48
0.5
370
    25
100
AcDbLine
 10
318.64135742187
 20
-1039.25128173828
 30
0.0
 11
344.7399597167901
 21
-1039.25128173828
 31
0.0
  0
LINE
  5
7DB
330
18
100
AcDbEntity
  8
PV0001_1
  6
Continuous
370
    50
100
AcDbLine
 10
291.0
 20
-1092.5
 30
0.0
 11
321.0
 21
-1092.5
 31
0.0
  0
LINE
  5
7DC
330
18
100
AcDbEntity
  8
PV0001_1
  6
Continuous
370
    50
100
AcDbLine
 10
291.0
 20
-1035.5
 30
0.0
 11
321.0
 21
-1035.5
 31
0.0
  0
LINE
  5
7DD
330
18
100
AcDbEntity
  8
PV0001_1
  6
Continuous
 48
0.5
370
    50
100
AcDbLine
 10
321.0
 20
-1098.0
 30
0.0
 11
343.0
 21
-1098.0
 31
0.0
  0
LINE
  5
7DE
330
18
100
AcDbEntity
  8
PV0001_1
  6
Continuous
 48
0.5
370
    50
100
AcDbLine
 10
321.0
 20
-1030.0
 30
0.0
 11
343.0
 21
-1030.0
 31
0.0
  0
LINE
  5
7DF
330
18
100
AcDbEntity
  8
PV0001_1
  6
Continuous
370
    50
100
AcDbLine
 10
321.0
 20
-1098.0
 30
0.0
 11
321.0
 21
-1030.0
 31
0.0
  0
LINE
  5
7E0
330
18
100
AcDbEntity
  8
PV0001_1
  6
Continuous
370
    50
100
AcDbLine
 10
333.0
 20
-1098.0
 30
0.0
 11
333.0
 21
-1030.0
 31
0.0
  0
LINE
  5
7E1
330
18
100
AcDbEntity
  8
PV0001_1
  6
Continuous
370
    50
100
AcDbLine
 10
343.0
 20
-1098.0
 30
0.0
 11
343.0
 21
-1030.0
 31
0.0
  0
LINE
  5
7E2
330
18
100
AcDbEntity
  8
PV0001_1
  6
Continuous
370
    50
100
AcDbLine
 10
291.0
 20
-1092.5
 30
0.0
 11
291.0
 21
-1035.5
 31
0.0
  0
LINE
  5
7EC
330
18
100
AcDbEntity
  8
PV0001_1
  6
Continuous
 48
0.5
370
    50
100
AcDbLine
 10
287.0
 20
-949.0
 30
0.0
 11
277.0
 21
-949.0
 31
0.0
  0
LINE
  5
7ED
330
18
100
AcDbEntity
  8
PV0001_1
  6
Continuous
 48
0.5
370
    50
100
AcDbLine
 10
287.0
 20
-979.0
 30
0.0
 11
277.0
 21
-979.0
 31
0.0
  0
LINE
  5
7EE
330
18
100
AcDbEntity
  8
PV0001_1
  6
Continuous
370
    50
100
AcDbLine
 10
277.0
 20
-949.0
 30
0.0
 11
277.0
 21
-979.0
 31
0.0
  0
LINE
  5
7EF
330
18
100
AcDbEntity
  8
PV0001_1
  6
DASHED2
 48
0.5
370
    50
100
AcDbLine
 10
297.0
 20
-994.2487182617099
 30
0.0
 11
287.0
 21
-994.2487182617099
 31
0.0
  0
LINE
  5
7F0
330
18
100
AcDbEntity
  8
PV0001_1
  6
DASHED2
 48
0.5
370
    50
100
AcDbLine
 10
297.0
 20
-983.24871826171
 30
0.0
 11
287.0
 21
-983.24871826171
 31
0.0
  0
LINE
  5
7F1
330
18
100
AcDbEntity
  8
PV0001_1
  6
DASHED2
 48
0.5
370
    50
100
AcDbLine
 10
309.0
 20
-992.04873657226
 30
0.0
 11
297.0
 21
-992.04873657226
 31
0.0
  0
LINE
  5
7F2
330
18
100
AcDbEntity
  8
PV0001_1
  6
DASHED2
 48
0.5
370
    50
100
AcDbLine
 10
309.0
 20
-985.44873046875
 30
0.0
 11
297.0
 21
-985.44873046875
 31
0.0
  0
LINE
  5
7F3
330
18
100
AcDbEntity
  8
PV0001_1
  6
CENTER2
 48
0.5
370
    25
100
AcDbLine
 10
311.35864257812
 20
-988.74871826171
 30
0.0
 11
285.2600402831999
 21
-988.74871826171
 31
0.0
  0
LINE
  5
7F4
330
18
100
AcDbEntity
  8
PV0001_1
  6
Continuous
370
    50
100
AcDbLine
 10
339.0
 20
-935.5
 30
0.0
 11
309.0
 21
-935.5
 31
0.0
  0
LINE
  5
7F5
330
18
100
AcDbEntity
  8
PV0001_1
  6
Continuous
370
    50
100
AcDbLine
 10
339.0
 20
-992.5
 30
0.0
 11
309.0
 21
-992.5
 31
0.0
  0
LINE
  5
7F6
330
18
100
AcDbEntity
  8
PV0001_1
  6
Continuous
 48
0.5
370
    50
100
AcDbLine
 10
309.0
 20
-930.0
 30
0.0
 11
287.0
 21
-930.0
 31
0.0
  0
LINE
  5
7F7
330
18
100
AcDbEntity
  8
PV0001_1
  6
Continuous
 48
0.5
370
    50
100
AcDbLine
 10
309.0
 20
-998.0
 30
0.0
 11
287.0
 21
-998.0
 31
0.0
  0
LINE
  5
7F8
330
18
100
AcDbEntity
  8
PV0001_1
  6
Continuous
370
    50
100
AcDbLine
 10
309.0
 20
-930.0
 30
0.0
 11
309.0
 21
-998.0
 31
0.0
  0
LINE
  5
7F9
330
18
100
AcDbEntity
  8
PV0001_1
  6
Continuous
370
    50
100
AcDbLine
 10
297.0
 20
-930.0
 30
0.0
 11
297.0
 21
-998.0
 31
0.0
  0
LINE
  5
7FA
330
18
100
AcDbEntity
  8
PV0001_1
  6
Continuous
370
    50
100
AcDbLine
 10
287.0
 20
-930.0
 30
0.0
 11
287.0
 21
-998.0
 31
0.0
  0
LINE
  5
7FB
330
18
100
AcDbEntity
  8
PV0001_1
  6
Continuous
370
    50
100
AcDbLine
 10
339.0
 20
-935.5
 30
0.0
 11
339.0
 21
-992.5
 31
0.0
  0
LINE
  5
7FE
330
18
100
AcDbEntity
  8
PV0001_1
  6
Continuous
 48
0.5
370
    50
100
AcDbLine
 10
297.0
 20
-817.00001525878
 30
0.0
 11
287.0
 21
-817.00001525878
 31
0.0
  0
LINE
  5
7FF
330
18
100
AcDbEntity
  8
PV0001_1
  6
Continuous
 48
0.5
370
    50
100
AcDbLine
 10
297.0
 20
-871.0
 30
0.0
 11
287.0
 21
-871.0
 31
0.0
  0
LINE
  5
800
330
18
100
AcDbEntity
  8
PV0001_1
  6
Continuous
 48
0.5
370
    50
100
AcDbLine
 10
287.0
 20
-829.0
 30
0.0
 11
277.0
 21
-829.0
 31
0.0
  0
LINE
  5
801
330
18
100
AcDbEntity
  8
PV0001_1
  6
Continuous
 48
0.5
370
    50
100
AcDbLine
 10
287.0
 20
-859.0
 30
0.0
 11
277.0
 21
-859.0
 31
0.0
  0
LINE
  5
802
330
18
100
AcDbEntity
  8
PV0001_1
  6
Continuous
 48
0.5
370
    50
100
AcDbLine
 10
277.0
 20
-858.99996948242
 30
0.0
 11
277.0
 21
-828.9999847412101
 31
0.0
  0
LINE
  5
803
330
18
100
AcDbEntity
  8
PV0001_1
  6
Continuous
370
    50
100
AcDbLine
 10
287.0
 20
-870.9999694824201
 30
0.0
 11
287.0
 21
-817.0
 31
0.0
  0
LINE
  5
804
330
18
100
AcDbEntity
  8
PV0001_1
  6
CENTER2
 48
0.5
370
    25
100
AcDbLine
 10
329.0
 20
-795.99996948242
 30
0.0
 11
329.0
 21
-817.0
 31
0.0
  0
LINE
  5
805
330
18
100
AcDbEntity
  8
PV0001_1
  6
CENTER2
 48
0.5
370
    25
100
AcDbLine
 10
318.5
 20
-806.4999999999999
 30
0.0
 11
339.5
 21
-806.4999999999999
 31
0.0
  0
LINE
  5
806
330
18
100
AcDbEntity
  8
PV0001_1
  6
CENTER2
 48
0.5
370
    25
100
AcDbLine
 10
329.0
 20
-892.0
 30
0.0
 11
329.0
 21
-870.9999694824201
 31
0.0
  0
LINE
  5
807
330
18
100
AcDbEntity
  8
PV0001_1
  6
CENTER2
 48
0.5
370
    25
100
AcDbLine
 10
318.5
 20
-881.4999999999999
 30
0.0
 11
339.5
 21
-881.4999999999999
 31
0.0
  0
LINE
  5
808
330
18
100
AcDbEntity
  8
PV0001_1
  6
CENTER2
 48
0.5
370
    25
100
AcDbLine
 10
307.0
 20
-795.99996948242
 30
0.0
 11
307.0
 21
-817.0
 31
0.0
  0
LINE
  5
809
330
18
100
AcDbEntity
  8
PV0001_1
  6
CENTER2
 48
0.5
370
    25
100
AcDbLine
 10
317.50003051757
 20
-806.4999999999999
 30
0.0
 11
296.5
 21
-806.4999999999999
 31
0.0
  0
LINE
  5
80A
330
18
100
AcDbEntity
  8
PV0001_1
  6
CENTER2
 48
0.5
370
    25
100
AcDbLine
 10
317.50003051757
 20
-881.4999999999999
 30
0.0
 11
296.5
 21
-881.4999999999999
 31
0.0
  0
LINE
  5
80B
330
18
100
AcDbEntity
  8
PV0001_1
  6
CENTER2
 48
0.5
370
    25
100
AcDbLine
 10
307.0
 20
-892.0
 30
0.0
 11
307.0
 21
-870.9999694824201
 31
0.0
  0
LINE
  5
80C
330
18
100
AcDbEntity
  8
PV0001_1
  6
Continuous
370
    50
100
AcDbLine
 10
297.0
 20
-891.4999694824201
 30
0.0
 11
297.0
 21
-796.49998474121
 31
0.0
  0
LINE
  5
80D
330
18
100
AcDbEntity
  8
PV0001_1
  6
Continuous
370
    50
100
AcDbLine
 10
339.0000305175699
 20
-872.0
 30
0.0
 11
297.0
 21
-872.0
 31
0.0
  0
LINE
  5
80E
330
18
100
AcDbEntity
  8
PV0001_1
  6
Continuous
370
    50
100
AcDbLine
 10
339.0000305175699
 20
-816.0
 30
0.0
 11
297.0
 21
-816.0
 31
0.0
  0
LINE
  5
80F
330
18
100
AcDbEntity
  8
PV0001_1
  6
Continuous
370
    50
100
AcDbLine
 10
339.0000305175699
 20
-891.5
 30
0.0
 11
297.0
 21
-891.5
 31
0.0
  0
LINE
  5
810
330
18
100
AcDbEntity
  8
PV0001_1
  6
Continuous
370
    50
100
AcDbLine
 10
339.0000305175699
 20
-796.4999999999999
 30
0.0
 11
297.0
 21
-796.4999999999999
 31
0.0
  0
LINE
  5
811
330
18
100
AcDbEntity
  8
PV0001_1
  6
Continuous
370
    50
100
AcDbLine
 10
339.0
 20
-891.4999694824201
 30
0.0
 11
339.0
 21
-796.49998474121
 31
0.0
  0
LINE
  5
820
330
18
100
AcDbEntity
  8
PV0001_1
  6
Continuous
370
    50
100
AcDbLine
 10
410.9999694824201
 20
-701.0
 30
0.0
 11
410.9999694824201
 21
-747.0
 31
0.0
  0
LINE
  5
82B
330
18
100
AcDbEntity
  8
PV0001_1
  6
CENTER2
370
    25
100
AcDbLine
 10
127.4090881347599
 20
-724.0
 30
0.0
 11
215.28787231445
 21
-724.0
 31
0.0
  0
LINE
  5
82C
330
18
100
AcDbEntity
  8
PV0001_1
  6
Continuous
370
    50
100
AcDbLine
 10
504.99996948242
 20
-736.49998474121
 30
0.0
 11
1249.0
 21
-736.49998474121
 31
0.0
  0
LINE
  5
82D
330
18
100
AcDbEntity
  8
PV0001_1
  6
Continuous
370
    25
100
AcDbLine
 10
504.99996948242
 20
-734.74998474121
 30
0.0
 11
1249.0
 21
-734.74998474121
 31
0.0
  0
LINE
  5
82E
330
18
100
AcDbEntity
  8
PV0001_1
  6
Continuous
370
    25
100
AcDbLine
 10
504.99996948242
 20
-713.25
 30
0.0
 11
1249.0
 21
-713.25
 31
0.0
  0
LINE
  5
82F
330
18
100
AcDbEntity
  8
PV0001_1
  6
Continuous
370
    50
100
AcDbLine
 10
504.99996948242
 20
-711.4999847412099
 30
0.0
 11
1249.0
 21
-711.49998474121
 31
0.0
  0
LINE
  5
830
330
18
100
AcDbEntity
  8
PV0001_1
  6
Continuous
370
    25
100
AcDbLine
 10
249.0
 20
-734.74998474121
 30
0.0
 11
410.9999694824201
 21
-734.74998474121
 31
0.0
  0
LINE
  5
831
330
18
100
AcDbEntity
  8
PV0001_1
  6
Continuous
370
    25
100
AcDbLine
 10
249.0
 20
-713.25
 30
0.0
 11
410.9999694824201
 21
-713.25
 31
0.0
  0
LINE
  5
832
330
18
100
AcDbEntity
  8
PV0001_1
  6
Continuous
370
    50
100
AcDbLine
 10
249.0
 20
-711.50006103515
 30
0.0
 11
410.9999694824201
 21
-711.50006103515
 31
0.0
  0
LINE
  5
833
330
18
100
AcDbEntity
  8
PV0001_1
  6
Continuous
370
    50
100
AcDbLine
 10
249.0
 20
-736.49998474121
 30
0.0
 11
410.9999694824201
 21
-736.49998474121
 31
0.0
  0
LINE
  5
834
330
18
100
AcDbEntity
  8
PV0001_1
  6
Continuous
 48
0.5
370
    50
100
AcDbLine
 10
1249.0
 20
-711.49998474121
 30
0.0
 11
1249.0
 21
-736.49998474121
 31
0.0
  0
LINE
  5
835
330
18
100
AcDbEntity
  8
PV0001_1
  6
Continuous
 48
0.5
370
    50
100
AcDbLine
 10
249.0
 20
-711.50006103515
 30
0.0
 11
249.0
 21
-736.49998474121
 31
0.0
  0
LINE
  5
836
330
18
100
AcDbEntity
  8
PV0001_1
  6
Continuous
370
    50
100
AcDbLine
 10
0.0
 20
-567.4999999999999
 30
0.0
 11
289.30798339843
 21
-567.4999999999999
 31
0.0
  0
LINE
  5
837
330
18
100
AcDbEntity
  8
PV0001_1
  6
CENTER2
370
    25
100
AcDbLine
 10
244.36364746093
 20
-724.0
 30
0.0
 11
1273.2663574218
 21
-724.0
 31
0.0
  0
LINE
  5
838
330
18
100
AcDbEntity
  8
PV0001_1
  6
DASHED2
 48
0.5
370
    50
100
AcDbLine
 10
1365.0
 20
-872.9999694824201
 30
0.0
 11
1365.0
 21
-890.0
 31
0.0
  0
LINE
  5
839
330
18
100
AcDbEntity
  8
PV0001_1
  6
DASHED2
 48
0.5
370
    50
100
AcDbLine
 10
1365.0
 20
-797.9999694824201
 30
0.0
 11
1365.0
 21
-815.0
 31
0.0
  0
LINE
  5
83A
330
18
100
AcDbEntity
  8
PV0001_1
  6
DASHED2
 48
0.5
370
    50
100
AcDbLine
 10
1350.0
 20
-815.00001525878
 30
0.0
 11
1365.0
 21
-815.00001525878
 31
0.0
  0
LINE
  5
83B
330
18
100
AcDbEntity
  8
PV0001_1
  6
DASHED2
 48
0.5
370
    50
100
AcDbLine
 10
1350.0
 20
-797.99998474121
 30
0.0
 11
1365.0
 21
-797.99998474121
 31
0.0
  0
LINE
  5
83C
330
18
100
AcDbEntity
  8
PV0001_1
  6
DASHED2
 48
0.5
370
    50
100
AcDbLine
 10
1350.0
 20
-872.9999694824201
 30
0.0
 11
1365.0
 21
-872.9999694824201
 31
0.0
  0
LINE
  5
83D
330
18
100
AcDbEntity
  8
PV0001_1
  6
DASHED2
 48
0.5
370
    50
100
AcDbLine
 10
1350.0
 20
-890.0
 30
0.0
 11
1365.0
 21
-890.0
 31
0.0
  0
LINE
  5
83E
330
18
100
AcDbEntity
  8
PV0001_1
  6
DASHED2
370
    50
100
AcDbLine
 10
1365.0
 20
-876.0
 30
0.0
 11
1395.0
 21
-876.0
 31
0.0
  0
LINE
  5
83F
330
18
100
AcDbEntity
  8
PV0001_1
  6
DASHED2
370
    50
100
AcDbLine
 10
1365.0
 20
-887.0
 30
0.0
 11
1395.0
 21
-887.0
 31
0.0
  0
LINE
  5
840
330
18
100
AcDbEntity
  8
PV0001_1
  6
DASHED2
370
    50
100
AcDbLine
 10
1365.0
 20
-812.0000152587799
 30
0.0
 11
1395.0
 21
-812.0000152587799
 31
0.0
  0
LINE
  5
841
330
18
100
AcDbEntity
  8
PV0001_1
  6
DASHED2
370
    50
100
AcDbLine
 10
1365.0
 20
-801.0
 30
0.0
 11
1395.0
 21
-801.0
 31
0.0
  0
LINE
  5
842
330
18
100
AcDbEntity
  8
PV0001_1
  6
CENTER2
370
    25
100
AcDbLine
 10
1346.6407470703
 20
-881.4999999999999
 30
0.0
 11
1397.9989013671
 21
-881.4999999999999
 31
0.0
  0
LINE
  5
843
330
18
100
AcDbEntity
  8
PV0001_1
  6
CENTER2
370
    25
100
AcDbLine
 10
1345.5120849609
 20
-806.4999999999999
 30
0.0
 11
1397.9989013671
 21
-806.4999999999999
 31
0.0
  0
LINE
  5
844
330
18
100
AcDbEntity
  8
PV0001_1
  6
Continuous
 48
0.5
370
    50
100
AcDbLine
 10
1350.0
 20
-872.0
 30
0.0
 11
1350.0
 21
-891.5
 31
0.0
  0
LINE
  5
845
330
18
100
AcDbEntity
  8
PV0001_1
  6
Continuous
 48
0.5
370
    50
100
AcDbLine
 10
1337.0
 20
-872.0
 30
0.0
 11
1350.0
 21
-872.0
 31
0.0
  0
LINE
  5
846
330
18
100
AcDbEntity
  8
PV0001_1
  6
Continuous
 48
0.5
370
    50
100
AcDbLine
 10
1337.0
 20
-816.0
 30
0.0
 11
1350.0
 21
-816.0
 31
0.0
  0
LINE
  5
847
330
18
100
AcDbEntity
  8
PV0001_1
  6
Continuous
 48
0.5
370
    50
100
AcDbLine
 10
1350.0
 20
-796.4999999999999
 30
0.0
 11
1350.0
 21
-816.0
 31
0.0
  0
LINE
  5
848
330
18
100
AcDbEntity
  8
PV0001_1
  6
Continuous
370
    50
100
AcDbLine
 10
1337.0
 20
-816.0
 30
0.0
 11
1337.0
 21
-872.0
 31
0.0
  0
LINE
  5
849
330
18
100
AcDbEntity
  8
PV0001_1
  6
CENTER2
370
    25
100
AcDbLine
 10
1330.5037841796
 20
-844.0
 30
0.0
 11
1401.4340820312
 21
-844.0
 31
0.0
  0
LINE
  5
84A
330
18
100
AcDbEntity
  8
PV0001_1
  6
CENTER2
370
    25
100
AcDbLine
 10
1365.0
 20
-791.67440795898
 30
0.0
 11
1365.0
 21
-897.1007690429599
 31
0.0
  0
LINE
  5
84B
330
18
100
AcDbEntity
  8
PV0001_1
  6
Continuous
370
    50
100
AcDbLine
 10
1350.0
 20
-891.5
 30
0.0
 11
1395.0
 21
-891.5
 31
0.0
  0
LINE
  5
84C
330
18
100
AcDbEntity
  8
PV0001_1
  6
Continuous
370
    50
100
AcDbLine
 10
1350.0
 20
-796.4999999999999
 30
0.0
 11
1395.0
 21
-796.4999999999999
 31
0.0
  0
LINE
  5
84D
330
18
100
AcDbEntity
  8
PV0001_1
  6
Continuous
370
    50
100
AcDbLine
 10
1395.0
 20
-796.4999999999999
 30
0.0
 11
1395.0
 21
-891.5
 31
0.0
  0
LINE
  5
84E
330
18
100
AcDbEntity
  8
PV0001_1
  6
Continuous
 48
0.5
370
    50
100
AcDbLine
 10
162.4861297607399
 20
-979.0
 30
0.0
 11
180.51388549804
 21
-979.0
 31
0.0
  0
LINE
  5
84F
330
18
100
AcDbEntity
  8
PV0001_1
  6
Continuous
 48
0.5
370
    50
100
AcDbLine
 10
162.4861297607399
 20
-949.0
 30
0.0
 11
180.51388549804
 21
-949.0
 31
0.0
  0
LINE
  5
850
330
18
100
AcDbEntity
  8
PV0001_1
  6
Continuous
 48
0.5
370
    50
100
AcDbLine
 10
156.5
 20
-954.98611450195
 30
0.0
 11
156.5
 21
-973.0138854980401
 31
0.0
  0
LINE
  5
851
330
18
100
AcDbEntity
  8
PV0001_1
  6
Continuous
 48
0.5
370
    50
100
AcDbLine
 10
186.5
 20
-954.98611450195
 30
0.0
 11
186.5
 21
-973.0138854980401
 31
0.0
  0
LINE
  5
852
330
18
100
AcDbEntity
  8
PV0001_1
  6
CENTER2
 48
0.5
370
    25
100
AcDbLine
 10
153.3946685791
 20
-956.50051879882
 30
0.0
 11
136.53576660156
 21
-949.5173339843701
 31
0.0
  0
LINE
  5
853
330
18
100
AcDbEntity
  8
PV0001_1
  6
CENTER2
 48
0.5
370
    25
100
AcDbLine
 10
178.9994506835901
 20
-945.8946228027301
 30
0.0
 11
185.98263549804
 21
-929.03573608398
 31
0.0
  0
LINE
  5
854
330
18
100
AcDbEntity
  8
PV0001_1
  6
CENTER2
 48
0.5
370
    25
100
AcDbLine
 10
189.60536193847
 20
-971.49945068359
 30
0.0
 11
206.4642944335901
 21
-978.48266601562
 31
0.0
  0
LINE
  5
855
330
18
100
AcDbEntity
  8
PV0001_1
  6
CENTER2
 48
0.5
370
    25
100
AcDbLine
 10
164.0005493163999
 20
-982.1053466796799
 30
0.0
 11
157.0173492431599
 21
-998.9642333984299
 31
0.0
  0
LINE
  5
856
330
18
100
AcDbEntity
  8
PV0001_1
  6
CENTER2
370
    25
100
AcDbLine
 10
203.89344787597
 20
-996.3934020996001
 30
0.0
 11
138.4670715331999
 21
-930.9670410156199
 31
0.0
  0
LINE
  5
857
330
18
100
AcDbEntity
  8
PV0001_1
  6
CENTER2
370
    25
100
AcDbLine
 10
139.1065979003899
 20
-996.3933715820299
 30
0.0
 11
204.53297424316
 21
-930.96701049804
 31
0.0
  0
LINE
  5
858
330
18
100
AcDbEntity
  8
PV0001_1
  6
Continuous
370
    50
100
AcDbLine
 10
146.0
 20
-930.0
 30
0.0
 11
197.0
 21
-930.0
 31
0.0
  0
LINE
  5
859
330
18
100
AcDbEntity
  8
PV0001_1
  6
Continuous
370
    50
100
AcDbLine
 10
146.0
 20
-998.0
 30
0.0
 11
197.0
 21
-998.0
 31
0.0
  0
LINE
  5
85A
330
18
100
AcDbEntity
  8
PV0001_1
  6
Continuous
370
    50
100
AcDbLine
 10
205.5
 20
-938.4999999999999
 30
0.0
 11
205.5
 21
-989.4999999999999
 31
0.0
  0
LINE
  5
85B
330
18
100
AcDbEntity
  8
PV0001_1
  6
Continuous
370
    50
100
AcDbLine
 10
137.5
 20
-938.4999999999999
 30
0.0
 11
137.5
 21
-989.4999999999999
 31
0.0
  0
LINE
  5
85C
330
18
100
AcDbEntity
  8
PV0001_1
  6
CENTER2
370
    25
100
AcDbLine
 10
134.0
 20
-964.0
 30
0.0
 11
209.0
 21
-964.0
 31
0.0
  0
LINE
  5
85D
330
18
100
AcDbEntity
  8
PV0001_1
  6
CENTER2
370
    25
100
AcDbLine
 10
171.5
 20
-926.5
 30
0.0
 11
171.5
 21
-1001.5
 31
0.0
  0
LINE
  5
85E
330
18
100
AcDbEntity
  8
PV0001_1
  6
Continuous
 48
0.5
370
    50
100
AcDbLine
 10
180.51390075683
 20
-859.0
 30
0.0
 11
162.4861145019499
 21
-859.0
 31
0.0
  0
LINE
  5
85F
330
18
100
AcDbEntity
  8
PV0001_1
  6
Continuous
 48
0.5
370
    50
100
AcDbLine
 10
180.51390075683
 20
-829.0
 30
0.0
 11
162.4861145019499
 21
-829.0
 31
0.0
  0
LINE
  5
860
330
18
100
AcDbEntity
  8
PV0001_1
  6
Continuous
 48
0.5
370
    50
100
AcDbLine
 10
186.5
 20
-853.01388549804
 30
0.0
 11
186.5
 21
-834.9860839843699
 31
0.0
  0
LINE
  5
861
330
18
100
AcDbEntity
  8
PV0001_1
  6
Continuous
 48
0.5
370
    50
100
AcDbLine
 10
156.5
 20
-853.01388549804
 30
0.0
 11
156.5
 21
-834.9860839843699
 31
0.0
  0
LINE
  5
862
330
18
100
AcDbEntity
  8
PV0001_1
  6
DASHED2
 48
0.5
370
    50
100
AcDbLine
 10
186.50001525878
 20
-797.99998474121
 30
0.0
 11
171.50001525878
 21
-797.99998474121
 31
0.0
  0
LINE
  5
863
330
18
100
AcDbEntity
  8
PV0001_1
  6
DASHED2
370
    50
100
AcDbLine
 10
171.50001525878
 20
-801.0
 30
0.0
 11
141.50001525878
 21
-801.0
 31
0.0
  0
LINE
  5
864
330
18
100
AcDbEntity
  8
PV0001_1
  6
CENTER2
370
    25
100
AcDbLine
 10
189.5836791992101
 20
-806.4999999999999
 30
0.0
 11
139.6009826660099
 21
-806.4999999999999
 31
0.0
  0
LINE
  5
865
330
18
100
AcDbEntity
  8
PV0001_1
  6
DASHED2
370
    50
100
AcDbLine
 10
171.50001525878
 20
-812.0000152587799
 30
0.0
 11
141.50001525878
 21
-812.0000152587799
 31
0.0
  0
LINE
  5
866
330
18
100
AcDbEntity
  8
PV0001_1
  6
DASHED2
 48
0.5
370
    50
100
AcDbLine
 10
171.5
 20
-797.9999694824201
 30
0.0
 11
171.5
 21
-815.0
 31
0.0
  0
LINE
  5
867
330
18
100
AcDbEntity
  8
PV0001_1
  6
DASHED2
 48
0.5
370
    50
100
AcDbLine
 10
186.50001525878
 20
-815.00001525878
 30
0.0
 11
171.50001525878
 21
-815.00001525878
 31
0.0
  0
LINE
  5
868
330
18
100
AcDbEntity
  8
PV0001_1
  6
DASHED2
 48
0.5
370
    50
100
AcDbLine
 10
171.5
 20
-889.9999694824201
 30
0.0
 11
171.5
 21
-872.9999694824201
 31
0.0
  0
LINE
  5
869
330
18
100
AcDbEntity
  8
PV0001_1
  6
DASHED2
 48
0.5
370
    50
100
AcDbLine
 10
186.50001525878
 20
-872.9999694824201
 30
0.0
 11
171.50001525878
 21
-872.9999694824201
 31
0.0
  0
LINE
  5
86A
330
18
100
AcDbEntity
  8
PV0001_1
  6
DASHED2
 48
0.5
370
    50
100
AcDbLine
 10
186.50001525878
 20
-890.0
 30
0.0
 11
171.50001525878
 21
-890.0
 31
0.0
  0
LINE
  5
86B
330
18
100
AcDbEntity
  8
PV0001_1
  6
DASHED2
370
    50
100
AcDbLine
 10
171.50001525878
 20
-876.0
 30
0.0
 11
141.50001525878
 21
-876.0
 31
0.0
  0
LINE
  5
86C
330
18
100
AcDbEntity
  8
PV0001_1
  6
DASHED2
370
    50
100
AcDbLine
 10
171.50001525878
 20
-887.0
 30
0.0
 11
141.50001525878
 21
-887.0
 31
0.0
  0
LINE
  5
86D
330
18
100
AcDbEntity
  8
PV0001_1
  6
CENTER2
370
    25
100
AcDbLine
 10
189.5836791992101
 20
-881.4999999999999
 30
0.0
 11
139.6009826660099
 21
-881.4999999999999
 31
0.0
  0
LINE
  5
86E
330
18
100
AcDbEntity
  8
PV0001_1
  6
Continuous
 48
0.5
370
    50
100
AcDbLine
 10
186.5
 20
-815.99996948242
 30
0.0
 11
186.5
 21
-796.49998474121
 31
0.0
  0
LINE
  5
86F
330
18
100
AcDbEntity
  8
PV0001_1
  6
Continuous
 48
0.5
370
    50
100
AcDbLine
 10
186.5
 20
-891.4999694824201
 30
0.0
 11
186.5
 21
-872.0
 31
0.0
  0
LINE
  5
870
330
18
100
AcDbEntity
  8
PV0001_1
  6
Continuous
 48
0.5
370
    50
100
AcDbLine
 10
199.5000152587799
 20
-816.0
 30
0.0
 11
186.50001525878
 21
-816.0
 31
0.0
  0
LINE
  5
871
330
18
100
AcDbEntity
  8
PV0001_1
  6
Continuous
 48
0.5
370
    50
100
AcDbLine
 10
199.5000152587799
 20
-872.0
 30
0.0
 11
186.50001525878
 21
-872.0
 31
0.0
  0
LINE
  5
872
330
18
100
AcDbEntity
  8
PV0001_1
  6
Continuous
370
    50
100
AcDbLine
 10
186.50001525878
 20
-891.5
 30
0.0
 11
141.50001525878
 21
-891.5
 31
0.0
  0
LINE
  5
873
330
18
100
AcDbEntity
  8
PV0001_1
  6
Continuous
370
    50
100
AcDbLine
 10
186.50001525878
 20
-796.4999999999999
 30
0.0
 11
141.50001525878
 21
-796.4999999999999
 31
0.0
  0
LINE
  5
874
330
18
100
AcDbEntity
  8
PV0001_1
  6
Continuous
370
    50
100
AcDbLine
 10
199.5000152587799
 20
-872.0
 30
0.0
 11
199.5000152587799
 21
-815.99996948242
 31
0.0
  0
LINE
  5
875
330
18
100
AcDbEntity
  8
PV0001_1
  6
Continuous
370
    50
100
AcDbLine
 10
141.5
 20
-891.4999694824201
 30
0.0
 11
141.5
 21
-796.49998474121
 31
0.0
  0
LINE
  5
876
330
18
100
AcDbEntity
  8
PV0001_1
  6
CENTER2
 48
0.5
370
    25
100
AcDbLine
 10
186.34899902343
 20
-829.1509704589801
 30
0.0
 11
197.0033569335901
 21
-818.4965972900299
 31
0.0
  0
LINE
  5
877
330
18
100
AcDbEntity
  8
PV0001_1
  6
CENTER2
 48
0.5
370
    25
100
AcDbLine
 10
156.65098571777
 20
-829.15098571777
 30
0.0
 11
145.9966430663999
 21
-818.4966583251899
 31
0.0
  0
LINE
  5
878
330
18
100
AcDbEntity
  8
PV0001_1
  6
CENTER2
 48
0.5
370
    25
100
AcDbLine
 10
186.3490142822199
 20
-858.84899902343
 30
0.0
 11
197.0033569335901
 21
-869.5033569335899
 31
0.0
  0
LINE
  5
879
330
18
100
AcDbEntity
  8
PV0001_1
  6
CENTER2
 48
0.5
370
    25
100
AcDbLine
 10
156.65100097656
 20
-858.8489685058501
 30
0.0
 11
145.9966430663999
 21
-869.50332641601
 31
0.0
  0
LINE
  5
87A
330
18
100
AcDbEntity
  8
PV0001_1
  6
Continuous
370
    50
100
AcDbLine
 10
198.5
 20
-866.2710571289
 30
0.0
 11
198.5
 21
-821.7289123535099
 31
0.0
  0
LINE
  5
87B
330
18
100
AcDbEntity
  8
PV0001_1
  6
Continuous
370
    50
100
AcDbLine
 10
144.50001525878
 20
-866.2710571289
 30
0.0
 11
144.50001525878
 21
-821.7289123535099
 31
0.0
  0
LINE
  5
87C
330
18
100
AcDbEntity
  8
PV0001_1
  6
Continuous
370
    50
100
AcDbLine
 10
193.77108764648
 20
-817.00001525878
 30
0.0
 11
149.2289428710901
 21
-817.00001525878
 31
0.0
  0
LINE
  5
87D
330
18
100
AcDbEntity
  8
PV0001_1
  6
Continuous
370
    50
100
AcDbLine
 10
193.77108764648
 20
-871.0
 30
0.0
 11
149.2289428710901
 21
-871.0
 31
0.0
  0
LINE
  5
87E
330
18
100
AcDbEntity
  8
PV0001_1
  6
CENTER2
370
    25
100
AcDbLine
 10
204.3611602783201
 20
-844.0
 30
0.0
 11
134.00001525878
 21
-844.0
 31
0.0
  0
LINE
  5
87F
330
18
100
AcDbEntity
  8
PV0001_1
  6
CENTER2
370
    25
100
AcDbLine
 10
171.5
 20
-895.36364746093
 30
0.0
 11
171.5
 21
-793.54545593261
 31
0.0
  0
LINE
  5
880
330
18
100
AcDbEntity
  8
PV0001_1
  6
Continuous
 48
0.5
370
    50
100
AcDbLine
 10
259.30798339843
 20
-579.4999999999999
 30
0.0
 11
259.30798339843
 21
-591.5
 31
0.0
  0
LINE
  5
881
330
18
100
AcDbEntity
  8
PV0001_1
  6
Continuous
 48
0.5
370
    50
100
AcDbLine
 10
108.39999389648
 20
-579.4999999999999
 30
0.0
 11
108.39999389648
 21
-591.5
 31
0.0
  0
LINE
  5
882
330
18
100
AcDbEntity
  8
PV0001_1
  6
Continuous
 48
0.5
370
    50
100
AcDbLine
 10
232.3999938964801
 20
-579.4999999999999
 30
0.0
 11
232.3999938964801
 21
-591.5
 31
0.0
  0
LINE
  5
883
330
18
100
AcDbEntity
  8
PV0001_1
  6
Continuous
370
    50
100
AcDbLine
 10
108.39999389648
 20
-591.5
 30
0.0
 11
259.30798339843
 21
-591.5
 31
0.0
  0
LINE
  5
884
330
18
100
AcDbEntity
  8
PV0001_1
  6
Continuous
370
    50
100
AcDbLine
 10
0.0
 20
-1131.0
 30
0.0
 11
1481.0
 21
-1131.0
 31
0.0
  0
LINE
  5
885
330
18
100
AcDbEntity
  8
PV0001_1
  6
Continuous
 48
0.5
370
    50
100
AcDbLine
 10
259.30798339843
 20
-567.4999999999999
 30
0.0
 11
259.30798339843
 21
-579.4999999999999
 31
0.0
  0
LINE
  5
886
330
18
100
AcDbEntity
  8
PV0001_1
  6
Continuous
 48
0.5
370
    50
100
AcDbLine
 10
108.39999389648
 20
-567.4999999999999
 30
0.0
 11
108.39999389648
 21
-579.4999999999999
 31
0.0
  0
LINE
  5
887
330
18
100
AcDbEntity
  8
PV0001_1
  6
Continuous
 48
0.5
370
    50
100
AcDbLine
 10
232.3999938964801
 20
-567.4999999999999
 30
0.0
 11
232.3999938964801
 21
-579.4999999999999
 31
0.0
  0
LINE
  5
888
330
18
100
AcDbEntity
  8
PV0001_1
  6
Continuous
370
    50
100
AcDbLine
 10
108.39999389648
 20
-579.4999999999999
 30
0.0
 11
259.30798339843
 21
-579.4999999999999
 31
0.0
  0
LINE
  5
889
330
18
100
AcDbEntity
  8
PV0001_1
  6
Continuous
 48
0.5
370
    50
100
AcDbLine
 10
232.3999938964801
 20
-555.4999999999999
 30
0.0
 11
232.3999938964801
 21
-567.4999999999999
 31
0.0
  0
LINE
  5
88A
330
18
100
AcDbEntity
  8
PV0001_1
  6
Continuous
 48
0.5
370
    50
100
AcDbLine
 10
259.30798339843
 20
-555.4999999999999
 30
0.0
 11
259.30798339843
 21
-567.4999999999999
 31
0.0
  0
LINE
  5
88B
330
18
100
AcDbEntity
  8
PV0001_1
  6
Continuous
 48
0.5
370
    50
100
AcDbLine
 10
289.30798339843
 20
-555.4999999999999
 30
0.0
 11
289.30798339843
 21
-567.4999999999999
 31
0.0
  0
LINE
  5
88C
330
18
100
AcDbEntity
  8
PV0001_1
  6
CENTER2
 48
0.5
370
    25
100
AcDbLine
 10
262.46533203125
 20
-561.5
 30
0.0
 11
270.05261230468
 21
-561.5
 31
0.0
  0
LINE
  5
88D
330
18
100
AcDbEntity
  8
PV0001_1
  6
CENTER2
 48
0.5
370
    25
100
AcDbLine
 10
266.30798339843
 20
-557.5551757812499
 30
0.0
 11
266.30798339843
 21
-565.2328796386719
 31
0.0
  0
LINE
  5
88E
330
18
100
AcDbEntity
  8
PV0001_1
  6
CENTER2
 48
0.5
370
    25
100
AcDbLine
 10
274.3935546875
 20
-561.5
 30
0.0
 11
282.8294372558501
 21
-561.5
 31
0.0
  0
LINE
  5
88F
330
18
100
AcDbEntity
  8
PV0001_1
  6
Continuous
 48
0.5
370
   100
100
AcDbLine
 10
275.23605346679
 20
-559.8803434371951
 30
0.0
 11
281.71606445312
 21
-558.800340652466
 31
0.0
  0
LINE
  5
890
330
18
100
AcDbEntity
  8
PV0001_1
  6
Continuous
 48
0.5
370
   100
100
AcDbLine
 10
275.23596191406
 20
-559.8800048828129
 30
0.0
 11
275.23596191406
 21
-563.1200561523439
 31
0.0
  0
LINE
  5
891
330
18
100
AcDbEntity
  8
PV0001_1
  6
Continuous
 48
0.5
370
   100
100
AcDbLine
 10
275.23599243164
 20
-563.120368003846
 30
0.0
 11
281.71597290039
 21
-564.2003660202029
 31
0.0
  0
LINE
  5
892
330
18
100
AcDbEntity
  8
PV0001_1
  6
Continuous
 48
0.5
370
   100
100
AcDbLine
 10
281.71597290039
 20
-558.7999877929689
 30
0.0
 11
281.71597290039
 21
-564.200012207032
 31
0.0
  0
LINE
  5
893
330
18
100
AcDbEntity
  8
PV0001_1
  6
Continuous
 48
0.5
370
    50
100
AcDbLine
 10
46.39999389648392
 20
-555.4999999999999
 30
0.0
 11
46.39999389648392
 21
-567.4999999999999
 31
0.0
  0
LINE
  5
894
330
18
100
AcDbEntity
  8
PV0001_1
  6
Continuous
 48
0.5
370
    50
100
AcDbLine
 10
108.39999389648
 20
-555.4999999999999
 30
0.0
 11
108.39999389648
 21
-567.4999999999999
 31
0.0
  0
LINE
  5
895
330
18
100
AcDbEntity
  8
PV0001_1
  6
Continuous
 48
0.5
370
    50
100
AcDbLine
 10
3.0
 20
-563.899993896485
 30
0.0
 11
4.600006103515625
 21
-563.899993896485
 31
0.0
  0
LINE
  5
896
330
18
100
AcDbEntity
  8
PV0001_1
  6
Continuous
 48
0.5
370
    50
100
AcDbLine
 10
3.0
 20
-559.1000061035159
 30
0.0
 11
3.0
 21
-563.899993896485
 31
0.0
  0
LINE
  5
897
330
18
100
AcDbEntity
  8
PV0001_1
  6
Continuous
 48
0.5
370
    50
100
AcDbLine
 10
3.0
 20
-559.1000061035159
 30
0.0
 11
4.600006103515625
 21
-559.1000061035159
 31
0.0
  0
LINE
  5
898
330
18
100
AcDbEntity
  8
PV0001_1
  6
Continuous
 48
0.5
370
    50
100
AcDbLine
 10
4.600006103515625
 20
-559.1000061035159
 30
0.0
 11
4.600006103515625
 21
-560.700012207032
 31
0.0
  0
LINE
  5
899
330
18
100
AcDbEntity
  8
PV0001_1
  6
Continuous
 48
0.5
370
    50
100
AcDbLine
 10
9.600006103515625
 20
-559.1000061035159
 30
0.0
 11
9.600006103515625
 21
-562.700012207032
 31
0.0
  0
LINE
  5
89A
330
18
100
AcDbEntity
  8
PV0001_1
  6
Continuous
 48
0.5
370
    50
100
AcDbLine
 10
10.8000030517569
 20
-563.899993896485
 30
0.0
 11
14.60000610351494
 21
-563.899993896485
 31
0.0
  0
LINE
  5
89B
330
18
100
AcDbEntity
  8
PV0001_1
  6
Continuous
 48
0.5
370
    50
100
AcDbLine
 10
9.600006103515625
 20
-559.1000061035159
 30
0.0
 11
11.0
 21
-559.1000061035159
 31
0.0
  0
LINE
  5
89C
330
18
100
AcDbEntity
  8
PV0001_1
  6
Continuous
 48
0.5
370
    50
100
AcDbLine
 10
4.800003051757812
 20
-561.5
 30
0.0
 11
5.699996948242187
 21
-561.5
 31
0.0
  0
LINE
  5
89D
330
18
100
AcDbEntity
  8
PV0001_1
  6
Continuous
 48
0.5
370
    50
100
AcDbLine
 10
4.800003051757812
 20
-560.899993896485
 30
0.0
 11
5.702178955078125
 21
-560.899993896485
 31
0.0
  0
LINE
  5
89E
330
18
100
AcDbEntity
  8
PV0001_1
  6
Continuous
 48
0.5
370
    50
100
AcDbLine
 10
5.859954833984375
 20
-561.5800247192389
 30
0.0
 11
7.599960327148437
 21
-563.900032043457
 31
0.0
  0
LINE
  5
89F
330
18
100
AcDbEntity
  8
PV0001_1
  6
Continuous
 48
0.5
370
    50
100
AcDbLine
 10
7.320542335510253
 20
-561.240584373475
 30
0.0
 11
9.600020408630371
 21
-563.899975776673
 31
0.0
  0
LINE
  5
8A0
330
18
100
AcDbEntity
  8
PV0001_1
  6
Continuous
 48
0.5
370
    50
100
AcDbLine
 10
5.860056400299072
 20
-560.8227815628059
 30
0.0
 11
7.199997425079345
 21
-559.1000003814699
 31
0.0
  0
LINE
  5
8A1
330
18
100
AcDbEntity
  8
PV0001_1
  6
Continuous
 48
0.5
370
    50
100
AcDbLine
 10
7.330967426300048
 20
-560.969069480896
 30
0.0
 11
9.200027465820312
 21
-559.100009918213
 31
0.0
  0
LINE
  5
8A2
330
18
100
AcDbEntity
  8
PV0001_1
  6
Continuous
 48
0.5
370
    50
100
AcDbLine
 10
7.600006103515625
 20
-563.899993896485
 30
0.0
 11
9.600006103515625
 21
-563.899993896485
 31
0.0
  0
LINE
  5
8A3
330
18
100
AcDbEntity
  8
PV0001_1
  6
Continuous
 48
0.5
370
    50
100
AcDbLine
 10
7.199996948242187
 20
-559.1000061035159
 30
0.0
 11
9.199996948242187
 21
-559.1000061035159
 31
0.0
  0
LINE
  5
8A4
330
18
100
AcDbEntity
  8
PV0001_1
  6
Continuous
 48
0.5
370
    50
100
AcDbLine
 10
4.600006103515625
 20
-561.700012207032
 30
0.0
 11
4.600006103515625
 21
-563.899993896485
 31
0.0
  0
LINE
  5
8A5
330
18
100
AcDbEntity
  8
PV0001_1
  6
Continuous
 48
0.5
370
    50
100
AcDbLine
 10
15.8000030517569
 20
-559.0999755859379
 30
0.0
 11
15.8000030517569
 21
-562.700012207032
 31
0.0
  0
LINE
  5
8A6
330
18
100
AcDbEntity
  8
PV0001_1
  6
Continuous
 48
0.5
370
    50
100
AcDbLine
 10
11.0
 20
-559.1000061035159
 30
0.0
 11
11.0
 21
-562.5
 31
0.0
  0
LINE
  5
8A7
330
18
100
AcDbEntity
  8
PV0001_1
  6
Continuous
 48
0.5
370
    50
100
AcDbLine
 10
14.39999389648392
 20
-559.0999755859379
 30
0.0
 11
14.39999389648392
 21
-562.5
 31
0.0
  0
LINE
  5
8A8
330
18
100
AcDbEntity
  8
PV0001_1
  6
Continuous
 48
0.5
370
    50
100
AcDbLine
 10
11.60000610351494
 20
-563.1000061035159
 30
0.0
 11
13.8000030517569
 21
-563.1000061035159
 31
0.0
  0
LINE
  5
8A9
330
18
100
AcDbEntity
  8
PV0001_1
  6
Continuous
 48
0.5
370
    50
100
AcDbLine
 10
14.39999389648392
 20
-559.1000061035159
 30
0.0
 11
15.8000030517569
 21
-559.1000061035159
 31
0.0
  0
LINE
  5
8AA
330
18
100
AcDbEntity
  8
PV0001_1
  6
Continuous
 48
0.5
370
    50
100
AcDbLine
 10
16.3000030517569
 20
-559.1000061035159
 30
0.0
 11
21.0
 21
-559.1000061035159
 31
0.0
  0
LINE
  5
8AB
330
18
100
AcDbEntity
  8
PV0001_1
  6
Continuous
 48
0.5
370
    50
100
AcDbLine
 10
16.3000030517569
 20
-563.899993896485
 30
0.0
 11
17.89999389648392
 21
-563.899993896485
 31
0.0
  0
LINE
  5
8AC
330
18
100
AcDbEntity
  8
PV0001_1
  6
Continuous
 48
0.5
370
    50
100
AcDbLine
 10
16.3000030517569
 20
-559.0999755859379
 30
0.0
 11
16.3000030517569
 21
-563.899993896485
 31
0.0
  0
LINE
  5
8AD
330
18
100
AcDbEntity
  8
PV0001_1
  6
Continuous
 48
0.5
370
    50
100
AcDbLine
 10
20.80000305175691
 20
-560.2999877929689
 30
0.0
 11
20.80000305175691
 21
-561.0
 31
0.0
  0
LINE
  5
8AE
330
18
100
AcDbEntity
  8
PV0001_1
  6
Continuous
 48
0.5
370
    50
100
AcDbLine
 10
17.89999389648392
 20
-559.899993896485
 30
0.0
 11
17.89999389648392
 21
-561.399993896485
 31
0.0
  0
LINE
  5
8AF
330
18
100
AcDbEntity
  8
PV0001_1
  6
Continuous
 48
0.5
370
    50
100
AcDbLine
 10
18.3000030517569
 20
-562.2999877929689
 30
0.0
 11
20.19999694824196
 21
-562.2999877929689
 31
0.0
  0
LINE
  5
8B0
330
18
100
AcDbEntity
  8
PV0001_1
  6
Continuous
 48
0.5
370
    50
100
AcDbLine
 10
18.10000610351494
 20
-559.700012207032
 30
0.0
 11
20.19999694824196
 21
-559.700012207032
 31
0.0
  0
LINE
  5
8B1
330
18
100
AcDbEntity
  8
PV0001_1
  6
Continuous
 48
0.5
370
    50
100
AcDbLine
 10
18.10000610351494
 20
-561.6000061035159
 30
0.0
 11
20.19999694824196
 21
-561.6000061035159
 31
0.0
  0
LINE
  5
8B2
330
18
100
AcDbEntity
  8
PV0001_1
  6
Continuous
 48
0.5
370
    50
100
AcDbLine
 10
20.80000305175691
 20
-563.899993896485
 30
0.0
 11
22.5
 21
-563.899993896485
 31
0.0
  0
LINE
  5
8B3
330
18
100
AcDbEntity
  8
PV0001_1
  6
Continuous
 48
0.5
370
    50
100
AcDbLine
 10
17.89999389648392
 20
-562.700012207032
 30
0.0
 11
17.89999389648392
 21
-563.899993896485
 31
0.0
  0
LINE
  5
8B4
330
18
100
AcDbEntity
  8
PV0001_1
  6
Continuous
 48
0.5
370
    50
100
AcDbLine
 10
24.19999694824196
 20
-563.899993896485
 30
0.0
 11
28.0
 21
-563.899993896485
 31
0.0
  0
LINE
  5
8B5
330
18
100
AcDbEntity
  8
PV0001_1
  6
Continuous
 48
0.5
370
    50
100
AcDbLine
 10
25.19999694824196
 20
-559.700012207032
 30
0.0
 11
27.0
 21
-559.700012207032
 31
0.0
  0
LINE
  5
8B6
330
18
100
AcDbEntity
  8
PV0001_1
  6
Continuous
 48
0.5
370
    50
100
AcDbLine
 10
24.19999694824196
 20
-559.1000061035159
 30
0.0
 11
28.0
 21
-559.1000061035159
 31
0.0
  0
LINE
  5
8B7
330
18
100
AcDbEntity
  8
PV0001_1
  6
Continuous
 48
0.5
370
    50
100
AcDbLine
 10
20.80000305175691
 20
-562.8999938964851
 30
0.0
 11
20.80000305175691
 21
-563.899993896485
 31
0.0
  0
LINE
  5
8B8
330
18
100
AcDbEntity
  8
PV0001_1
  6
Continuous
 48
0.5
370
    50
100
AcDbLine
 10
22.8000030517569
 20
-560.5
 30
0.0
 11
22.8000030517569
 21
-562.5
 31
0.0
  0
LINE
  5
8B9
330
18
100
AcDbEntity
  8
PV0001_1
  6
Continuous
 48
0.5
370
    50
100
AcDbLine
 10
29.39999389648392
 20
-560.5
 30
0.0
 11
29.39999389648392
 21
-562.5
 31
0.0
  0
LINE
  5
8BA
330
18
100
AcDbEntity
  8
PV0001_1
  6
Continuous
 48
0.5
370
    50
100
AcDbLine
 10
29.7936553955069
 20
-563.899993896485
 30
0.0
 11
34.8000030517569
 21
-563.899993896485
 31
0.0
  0
LINE
  5
8BB
330
18
100
AcDbEntity
  8
PV0001_1
  6
Continuous
 48
0.5
370
    50
100
AcDbLine
 10
31.60000610351494
 20
-559.700012207032
 30
0.0
 11
33.8000030517569
 21
-559.700012207032
 31
0.0
  0
LINE
  5
8BC
330
18
100
AcDbEntity
  8
PV0001_1
  6
Continuous
 48
0.5
370
    50
100
AcDbLine
 10
29.80000305175691
 20
-559.1000061035159
 30
0.0
 11
34.8000030517569
 21
-559.1000061035159
 31
0.0
  0
LINE
  5
8BD
330
18
100
AcDbEntity
  8
PV0001_1
  6
Continuous
 48
0.5
370
    50
100
AcDbLine
 10
25.19999694824196
 20
-563.1000061035159
 30
0.0
 11
27.0
 21
-563.1000061035159
 31
0.0
  0
LINE
  5
8BE
330
18
100
AcDbEntity
  8
PV0001_1
  6
Continuous
 48
0.5
370
    50
100
AcDbLine
 10
24.39999389648392
 20
-560.5
 30
0.0
 11
24.39999389648392
 21
-562.2999877929689
 31
0.0
  0
LINE
  5
8BF
330
18
100
AcDbEntity
  8
PV0001_1
  6
Continuous
 48
0.5
370
    50
100
AcDbLine
 10
27.8000030517569
 20
-560.5
 30
0.0
 11
27.8000030517569
 21
-562.2999877929689
 31
0.0
  0
LINE
  5
8C0
330
18
100
AcDbEntity
  8
PV0001_1
  6
Continuous
 48
0.5
370
    50
100
AcDbLine
 10
36.19999694824196
 20
-560.5
 30
0.0
 11
36.19999694824196
 21
-562.5
 31
0.0
  0
LINE
  5
8C1
330
18
100
AcDbEntity
  8
PV0001_1
  6
Continuous
 48
0.5
370
    50
100
AcDbLine
 10
29.80000305175691
 20
-559.0999755859379
 30
0.0
 11
29.80000305175691
 21
-563.899993896485
 31
0.0
  0
LINE
  5
8C2
330
18
100
AcDbEntity
  8
PV0001_1
  6
Continuous
 48
0.5
370
    50
100
AcDbLine
 10
31.39999389648392
 20
-559.899993896485
 30
0.0
 11
31.39999389648392
 21
-562.8999938964851
 31
0.0
  0
LINE
  5
8C3
330
18
100
AcDbEntity
  8
PV0001_1
  6
Continuous
 48
0.5
370
    50
100
AcDbLine
 10
34.60000610351495
 20
-560.5
 30
0.0
 11
34.60000610351495
 21
-562.2999877929689
 31
0.0
  0
LINE
  5
8C4
330
18
100
AcDbEntity
  8
PV0001_1
  6
Continuous
 48
0.5
370
    50
100
AcDbLine
 10
31.60000610351494
 20
-563.1000061035159
 30
0.0
 11
33.8000030517569
 21
-563.1000061035159
 31
0.0
  0
LINE
  5
8C5
330
18
100
AcDbEntity
  8
PV0001_1
  6
Continuous
 48
0.5
370
    50
100
AcDbLine
 10
36.19999694824196
 20
-563.899993896485
 30
0.0
 11
37.8000030517569
 21
-563.899993896485
 31
0.0
  0
LINE
  5
8C6
330
18
100
AcDbEntity
  8
PV0001_1
  6
Continuous
 48
0.5
370
    50
100
AcDbLine
 10
39.34414672851494
 20
-559.700012207032
 30
0.0
 11
40.25585937499999
 21
-559.700012207032
 31
0.0
  0
LINE
  5
8C7
330
18
100
AcDbEntity
  8
PV0001_1
  6
Continuous
 48
0.5
370
    50
100
AcDbLine
 10
38.19999694824196
 20
-559.1000061035159
 30
0.0
 11
41.39999389648392
 21
-559.1000061035159
 31
0.0
  0
LINE
  5
8C8
330
18
100
AcDbEntity
  8
PV0001_1
  6
Continuous
 48
0.5
370
    50
100
AcDbLine
 10
38.27749633788994
 20
-562.8999938964851
 30
0.0
 11
41.322509765625
 21
-562.8999938964851
 31
0.0
  0
LINE
  5
8C9
330
18
100
AcDbEntity
  8
PV0001_1
  6
Continuous
 48
0.5
370
    50
100
AcDbLine
 10
38.677490234375
 20
-562.1000061035159
 30
0.0
 11
39.67160034179597
 21
-562.1000061035159
 31
0.0
  0
LINE
  5
8CA
330
18
100
AcDbEntity
  8
PV0001_1
  6
Continuous
 48
0.5
370
    50
100
AcDbLine
 10
37.8000793457029
 20
-563.900003433228
 30
0.0
 11
38.08782577514603
 21
-563.036756515503
 31
0.0
  0
LINE
  5
8CB
330
18
100
AcDbEntity
  8
PV0001_1
  6
Continuous
 48
0.5
370
    50
100
AcDbLine
 10
40.44564437866211
 20
-559.836730003357
 30
0.0
 11
41.11231231689408
 21
-561.8367290496829
 31
0.0
  0
LINE
  5
8CC
330
18
100
AcDbEntity
  8
PV0001_1
  6
Continuous
 48
0.5
370
    50
100
AcDbLine
 10
38.1999816894529
 20
-559.099996566773
 30
0.0
 11
36.19998931884698
 21
-563.899978637696
 31
0.0
  0
LINE
  5
8CD
330
18
100
AcDbEntity
  8
PV0001_1
  6
Continuous
 48
0.5
370
    50
100
AcDbLine
 10
41.39999389648392
 20
-559.100002288819
 30
0.0
 11
43.400001525878
 21
-563.900013923645
 31
0.0
  0
LINE
  5
8CE
330
18
100
AcDbEntity
  8
PV0001_1
  6
Continuous
 48
0.5
370
    50
100
AcDbLine
 10
38.4878234863279
 20
-561.8367738723759
 30
0.0
 11
39.15448760986306
 21
-559.8367738723759
 31
0.0
  0
LINE
  5
8CF
330
18
100
AcDbEntity
  8
PV0001_1
  6
Continuous
 48
0.5
370
    50
100
AcDbLine
 10
41.51231384277298
 20
-563.036741256714
 30
0.0
 11
41.80005645751907
 21
-563.8999595642089
 31
0.0
  0
LINE
  5
8D0
330
18
100
AcDbEntity
  8
PV0001_1
  6
Continuous
 48
0.5
370
    50
100
AcDbLine
 10
41.8000030517569
 20
-563.899993896485
 30
0.0
 11
43.39999389648392
 21
-563.899993896485
 31
0.0
  0
LINE
  5
8D1
330
18
100
AcDbEntity
  8
PV0001_1
  6
Continuous
 48
0.5
370
    50
100
AcDbLine
 10
39.67160034179597
 20
-562.1000061035159
 30
0.0
 11
40.92251586913994
 21
-562.1000061035159
 31
0.0
  0
LINE
  5
8D2
330
18
100
AcDbEntity
  8
PV0001_1
  6
Continuous
370
    50
100
AcDbLine
 10
0.0
 20
-555.4999999999999
 30
0.0
 11
0.0
 21
-1131.0
 31
0.0
  0
LINE
  5
8D4
330
18
100
AcDbEntity
  8
PV0001_1
  6
Continuous
370
    50
100
AcDbLine
 10
1481.0
 20
-555.4999999999999
 30
0.0
 11
1481.0
 21
-1131.0
 31
0.0
  0
DIMENSION
  5
8D5
330
18
100
AcDbEntity
  8
PV0001_1
100
AcDbDimension
  2
*D4
 10
1249.0
 20
-781.42613220214
 30
0.0
 11
749.0
 21
-781.42613220214
 31
0.0
 70
   160
  1
L
 71
     5
 42
1000.0
  3
STANDARD
100
AcDbAlignedDimension
 13
249.0
 23
-736.49998474121
 33
0.0
 14
1249.0
 24
-736.49998474121
 34
0.0
100
AcDbRotatedDimension
1001
ACAD
1000
DSTYLE
1002
{
1070
   284
1070
     8
1070
   140
1040
3.2
1070
   271
1070
     0
1070
    45
1040
0.1
1070
   173
1070
     1
1070
     6
1000
OPEN
1070
     7
1000
OPEN
1002
}
  0
LINE
  5
924
330
18
100
AcDbEntity
  8
0
100
AcDbLine
 10
410.9999694824201
 20
-701.0
 30
0.0
 11
504.99996948242
 21
-701.0
 31
0.0
  0
LINE
  5
925
330
18
100
AcDbEntity
  8
0
100
AcDbLine
 10
504.99996948242
 20
-701.0
 30
0.0
 11
504.99996948242
 21
-747.0
 31
0.0
  0
LINE
  5
926
330
18
100
AcDbEntity
  8
0
100
AcDbLine
 10
504.99996948242
 20
-747.0
 30
0.0
 11
410.9999694824201
 21
-747.0
 31
0.0
  0
LINE
  5
96D
330
18
100
AcDbEntity
  8
0
100
AcDbLine
 10
438.4999694824199
 20
-747.0
 30
0.0
 11
438.4999694824199
 21
-754.0
 31
0.0
  0
LINE
  5
96E
330
18
100
AcDbEntity
  8
0
100
AcDbLine
 10
438.4999694824199
 20
-754.0
 30
0.0
 11
451.4999694824199
 21
-754.0
 31
0.0
  0
LINE
  5
96F
330
18
100
AcDbEntity
  8
0
100
AcDbLine
 10
451.4999694824199
 20
-754.0
 30
0.0
 11
451.4999694824199
 21
-747.0
 31
0.0
  0
ARC
  5
98F
330
18
100
AcDbEntity
  8
0
100
AcDbCircle
 10
437.2426019559504
 20
-738.6409629740172
 30
0.0
 40
14.41398339842816
100
AcDbArc
 50
215.4453053003049
 51
275.0044135620314
  0
ARC
  5
990
330
18
100
AcDbEntity
  8
0
100
AcDbCircle
 10
452.7573370088894
 20
-738.6409629740172
 30
0.0
 40
14.41398339842816
100
AcDbArc
 50
264.9955864379687
 51
324.5546946996952
  0
ARC
  5
99D
330
18
100
AcDbEntity
  8
0
100
AcDbCircle
 10
478.7573370088894
 20
-738.6409629740172
 30
0.0
 40
14.41398339842816
100
AcDbArc
 50
264.9955864379671
 51
324.5546946996969
  0
LINE
  5
99F
330
18
100
AcDbEntity
  8
0
100
AcDbLine
 10
477.4999694824199
 20
-754.0
 30
0.0
 11
477.4999694824199
 21
-747.0
 31
0.0
  0
LINE
  5
9A0
330
18
100
AcDbEntity
  8
0
100
AcDbLine
 10
464.4999694824199
 20
-754.0
 30
0.0
 11
477.4999694824199
 21
-754.0
 31
0.0
  0
LINE
  5
9A1
330
18
100
AcDbEntity
  8
0
100
AcDbLine
 10
464.4999694824199
 20
-747.0
 30
0.0
 11
464.4999694824199
 21
-754.0
 31
0.0
  0
ARC
  5
9A2
330
18
100
AcDbEntity
  8
0
100
AcDbCircle
 10
463.2426019559503
 20
-738.6409629740172
 30
0.0
 40
14.41398339842816
100
AcDbArc
 50
248.671261507893
 51
275.0044135620329
  0
LINE
  5
9D8
330
18
100
AcDbEntity
  8
0
100
AcDbLine
 10
410.9999694824201
 20
-711.0
 30
0.0
 11
504.99996948242
 21
-711.0
 31
0.0
  0
CIRCLE
  5
9E5
330
18
100
AcDbEntity
  8
0
100
AcDbCircle
 10
420.99996948242
 20
-724.0
 30
0.0
 40
3.0
  0
CIRCLE
  5
9E6
330
18
100
AcDbEntity
  8
0
100
AcDbCircle
 10
420.99996948242
 20
-724.0
 30
0.0
 40
2.6
  0
LINE
  5
9F4
330
18
100
AcDbEntity
  8
Defpoints
  6
AM_ISO08W050x2
100
AcDbLine
 10
420.99996948242
 20
-718.606
 30
0.0
 11
420.99996948242
 21
-729.394
 31
0.0
1001
GENIUS_GENODEF_13
1002
{
1000
HIER
1070
     0
1002
}
1002
{
1000
MANEDIT
1070
     0
1002
}
1002
{
1000
NOSEL
1070
     0
1002
}
1002
{
1000
BEHIND
1070
     0
1002
}
1002
{
1000
OTHER
1070
     0
1002
}
1002
{
1000
REACTOR
1002
}
1001
GENIUS_GENOBJ-N-CEN_13
1002
{
1000
OWNER
1000
GEN
1002
}
  0
LINE
  5
A17
330
18
100
AcDbEntity
  8
dimension
  6
AM_ISO08W050
100
AcDbLine
 10
171.5
 20
-691.9794473434285
 30
0.0
 11
171.5
 21
-758.6572204358185
 31
0.0
1001
GENIUS_GENOBJ-N-CEN_13
1002
{
1000
OWNER
1000
GEN
1002
}
1001
GENIUS_GENODEF_13
1002
{
1000
HIER
1070
     0
1002
}
1002
{
1000
MANEDIT
1070
     0
1002
}
1002
{
1000
NOSEL
1070
     0
1002
}
1002
{
1000
BEHIND
1070
     0
1002
}
1002
{
1000
OTHER
1070
     0
1002
}
1002
{
1000
REACTOR
1002
}
  0
LINE
  5
A52
330
18
100
AcDbEntity
  8
0
100
AcDbLine
 10
141.5
 20
-701.0
 30
0.0
 11
161.5
 21
-701.0
 31
0.0
  0
LINE
  5
A53
330
18
100
AcDbEntity
  8
0
100
AcDbLine
 10
201.5
 20
-701.0
 30
0.0
 11
201.5
 21
-711.0
 31
0.0
  0
LINE
  5
A54
330
18
100
AcDbEntity
  8
0
100
AcDbLine
 10
200.5
 20
-747.0
 30
0.0
 11
142.5
 21
-747.0
 31
0.0
  0
LINE
  5
A55
330
18
100
AcDbEntity
  8
0
100
AcDbLine
 10
141.5
 20
-711.0
 30
0.0
 11
141.5
 21
-701.0
 31
0.0
  0
ARC
  5
A67
330
18
100
AcDbEntity
  8
0
100
AcDbCircle
 10
179.2573675264695
 20
-738.6409629740172
 30
0.0
 40
14.41398339842816
100
AcDbArc
 50
264.9955864379671
 51
324.5546946996978
  0
ARC
  5
A68
330
18
100
AcDbEntity
  8
0
100
AcDbCircle
 10
163.7426324735305
 20
-738.6409629740172
 30
0.0
 40
14.41398339842816
100
AcDbArc
 50
215.4453053003022
 51
275.0044135620329
  0
LINE
  5
A69
330
18
100
AcDbEntity
  8
0
100
AcDbLine
 10
178.0
 20
-754.0
 30
0.0
 11
178.0
 21
-747.0
 31
0.0
  0
LINE
  5
A6A
330
18
100
AcDbEntity
  8
0
100
AcDbLine
 10
165.0
 20
-754.0
 30
0.0
 11
178.0
 21
-754.0
 31
0.0
  0
LINE
  5
A6B
330
18
100
AcDbEntity
  8
0
100
AcDbLine
 10
165.0
 20
-747.0
 30
0.0
 11
165.0
 21
-754.0
 31
0.0
  0
LINE
  5
AB2
330
18
100
AcDbEntity
  8
0
100
AcDbLine
 10
141.5
 20
-711.0
 30
0.0
 11
142.5
 21
-711.0
 31
0.0
  0
LINE
  5
AB3
330
18
100
AcDbEntity
  8
0
100
AcDbLine
 10
142.5
 20
-711.0
 30
0.0
 11
142.5
 21
-747.0
 31
0.0
  0
LINE
  5
ABE
330
18
100
AcDbEntity
  8
0
100
AcDbLine
 10
201.5
 20
-711.0
 30
0.0
 11
200.5
 21
-711.0
 31
0.0
  0
LINE
  5
ABF
330
18
100
AcDbEntity
  8
0
100
AcDbLine
 10
200.5
 20
-711.0
 30
0.0
 11
200.5
 21
-747.0
 31
0.0
  0
LINE
  5
AC0
330
18
100
AcDbEntity
  8
0
100
AcDbLine
 10
181.5
 20
-701.0
 30
0.0
 11
181.5
 21
-702.0
 31
0.0
  0
LINE
  5
AC1
330
18
100
AcDbEntity
  8
0
100
AcDbLine
 10
181.5
 20
-702.0
 30
0.0
 11
161.5
 21
-702.0
 31
0.0
  0
LINE
  5
AC2
330
18
100
AcDbEntity
  8
0
100
AcDbLine
 10
161.5
 20
-702.0
 30
0.0
 11
161.5
 21
-701.0
 31
0.0
  0
LINE
  5
AC9
330
18
100
AcDbEntity
  8
0
100
AcDbLine
 10
181.5
 20
-701.0
 30
0.0
 11
201.5
 21
-701.0
 31
0.0
  0
LINE
  5
B53
330
18
100
AcDbEntity
  8
PV0001_1
  6
CENTER2
370
    25
100
AcDbLine
 10
1072.8243408203
 20
-388.5
 30
0.0
 11
1277.7836914062
 21
-388.5
 31
0.0
  0
MTEXT
  5
B84
330
18
100
AcDbEntity
  8
PV0001_1
 62
     7
370
    25
100
AcDbMText
 10
1233.675440715462
 20
-438.7818751395414
 30
0.0
 40
3.2
 41
0.0
 71
     4
 72
     5
  1
\T1.4;\W0.61;BUM-20S
 73
     1
 44
1.0
1001
ACAD
1000
MTEXTBEGIN
1070
    73
1070
     1
1070
    44
1040
1.0
1070
    74
1070
     0
1000
MTEXTEND
  0
LINE
  5
B85
330
18
100
AcDbEntity
  8
0
370
    -2
100
AcDbLine
 10
1250.5
 20
-365.0
 30
0.0
 11
1231.5
 21
-365.0
 31
0.0
  0
LINE
  5
B86
330
18
100
AcDbEntity
  8
0
100
AcDbLine
 10
1231.5
 20
-412.0
 30
0.0
 11
1231.5
 21
-365.0
 31
0.0
  0
LINE
  5
B87
330
18
100
AcDbEntity
  8
0
100
AcDbLine
 10
1231.5
 20
-365.0
 30
0.0
 11
1231.0
 21
-364.5
 31
0.0
  0
LINE
  5
B88
330
18
100
AcDbEntity
  8
0
100
AcDbLine
 10
1231.5
 20
-412.0
 30
0.0
 11
1231.0
 21
-412.5
 31
0.0
  0
LINE
  5
B89
330
18
100
AcDbEntity
  8
0
370
    -2
100
AcDbLine
 10
1240.0
 20
-417.0
 30
0.0
 11
1231.0
 21
-417.0
 31
0.0
  0
LINE
  5
B8A
330
18
100
AcDbEntity
  8
0
370
    -2
100
AcDbLine
 10
1250.5
 20
-412.0
 30
0.0
 11
1231.5
 21
-412.0
 31
0.0
  0
LINE
  5
B8B
330
18
100
AcDbEntity
  8
0
370
    -2
100
AcDbLine
 10
1240.0
 20
-360.0
 30
0.0
 11
1231.0
 21
-360.0
 31
0.0
  0
LINE
  5
B8D
330
18
100
AcDbEntity
  8
0
370
    -2
100
AcDbLine
 10
1231.0
 20
-360.0
 30
0.0
 11
1231.0
 21
-417.0
 31
0.0
  0
LINE
  5
B8E
330
18
100
AcDbEntity
  8
0
100
AcDbLine
 10
1250.5
 20
-412.0
 30
0.0
 11
1251.0
 21
-412.5
 31
0.0
  0
CIRCLE
  5
B8F
330
18
100
AcDbEntity
  8
0
370
    -2
100
AcDbCircle
 10
1381.387299787494
 20
-388.5
 30
0.0
 40
24.0
  0
LINE
  5
B90
330
18
100
AcDbEntity
  8
0
100
AcDbLine
 10
1250.5
 20
-412.0
 30
0.0
 11
1250.5
 21
-365.0
 31
0.0
  0
LINE
  5
B91
330
18
100
AcDbEntity
  8
0
100
AcDbLine
 10
1251.0
 20
-364.5
 30
0.0
 11
1250.5
 21
-365.0
 31
0.0
  0
LINE
  5
B92
330
18
100
AcDbEntity
  8
0
370
    -2
100
AcDbLine
 10
1240.0
 20
-430.9999999999998
 30
0.0
 11
1251.0
 21
-430.9999999999998
 31
0.0
  0
LINE
  5
B93
330
18
100
AcDbEntity
  8
0
370
    -2
100
AcDbLine
 10
1240.0
 20
-430.9999999999998
 30
0.0
 11
1240.0
 21
-417.0
 31
0.0
  0
ARC
  5
B94
330
18
100
AcDbEntity
  8
0
370
    -2
100
AcDbCircle
 10
1381.387299787494
 20
-388.5
 30
0.0
 40
42.5
100
AcDbArc
 50
216.8698976458466
 51
233.1301023541625
  0
ARC
  5
B95
330
18
100
AcDbEntity
  8
0
370
    -2
100
AcDbCircle
 10
1381.387299787494
 20
-388.5
 30
0.0
 40
42.5
100
AcDbArc
 50
306.8698976458375
 51
323.1301023541508
  0
LINE
  5
B96
330
18
100
AcDbEntity
  8
0
370
    -2
100
AcDbLine
 10
1355.887299787494
 20
-422.4999999999998
 30
0.0
 11
1406.887299787494
 21
-422.4999999999998
 31
0.0
  0
LINE
  5
B97
330
18
100
AcDbEntity
  8
0
370
    -2
100
AcDbLine
 10
1240.0
 20
-360.0
 30
0.0
 11
1240.0
 21
-354.4999999999998
 31
0.0
  0
LINE
  5
B98
330
18
100
AcDbEntity
  8
0
370
    -2
100
AcDbLine
 10
1251.0
 20
-354.4999999999998
 30
0.0
 11
1240.0
 21
-354.4999999999998
 31
0.0
  0
ARC
  5
B99
330
18
100
AcDbEntity
  8
0
370
    -2
100
AcDbCircle
 10
1381.387299787494
 20
-388.5
 30
0.0
 40
42.5
100
AcDbArc
 50
126.8698976458375
 51
143.1301023541533
  0
CIRCLE
  5
B9A
330
18
100
AcDbEntity
  8
0
370
    -2
100
AcDbCircle
 10
1356.638562445965
 20
-363.7512626584709
 30
0.0
 40
5.5
  0
CIRCLE
  5
B9B
330
18
100
AcDbEntity
  8
0
370
    -2
100
AcDbCircle
 10
1356.638562445965
 20
-363.7512626584709
 30
0.0
 40
3.299999999999999
  0
CIRCLE
  5
B9C
330
18
100
AcDbEntity
  8
0
370
    -2
100
AcDbCircle
 10
1406.136037129023
 20
-363.7512626584708
 30
0.0
 40
5.5
  0
CIRCLE
  5
B9D
330
18
100
AcDbEntity
  8
0
370
    -2
100
AcDbCircle
 10
1406.136037129023
 20
-363.7512626584708
 30
0.0
 40
3.299999999999999
  0
ARC
  5
B9E
330
18
100
AcDbEntity
  8
0
370
    -2
100
AcDbCircle
 10
1381.387299787494
 20
-388.5
 30
0.0
 40
42.5
100
AcDbArc
 50
36.86989764584663
 51
53.1301023541625
  0
LINE
  5
B9F
330
18
100
AcDbEntity
  8
0
  6
AM_ISO08W050
370
    -2
100
AcDbLine
 10
1426.887299787494
 20
-388.5
 30
0.0
 11
1335.887299787494
 21
-388.5
 31
0.0
  0
CIRCLE
  5
BA0
330
18
100
AcDbEntity
  8
0
370
    -2
100
AcDbCircle
 10
1381.387299787494
 20
-388.5
 30
0.0
 40
23.5
  0
LINE
  5
BA1
330
18
100
AcDbEntity
  8
0
370
    -2
100
AcDbLine
 10
1406.887299787494
 20
-354.4999999999998
 30
0.0
 11
1355.887299787494
 21
-354.4999999999998
 31
0.0
  0
LINE
  5
BA2
330
18
100
AcDbEntity
  8
0
370
    -2
100
AcDbLine
 10
1251.0
 20
-430.9999999999998
 30
0.0
 11
1251.0
 21
-354.4999999999998
 31
0.0
  0
LINE
  5
BA3
330
18
100
AcDbEntity
  8
0
370
    -2
100
AcDbLine
 10
1347.387299787494
 20
-413.9999999999997
 30
0.0
 11
1347.387299787494
 21
-363.0000000000003
 31
0.0
  0
LINE
  5
BA4
330
18
100
AcDbEntity
  8
0
370
    -2
100
AcDbLine
 10
1415.387299787494
 20
-414.0000000000003
 30
0.0
 11
1415.387299787494
 21
-362.9999999999997
 31
0.0
  0
LINE
  5
BA5
330
18
100
AcDbEntity
  8
0
  6
AM_ISO08W050
370
    -2
100
AcDbLine
 10
1413.560658331482
 20
-420.6733585439879
 30
0.0
 11
1349.213941243506
 21
-356.326641456012
 31
0.0
  0
LINE
  5
BA6
330
18
100
AcDbEntity
  8
0
  6
AM_ISO08W050
370
    -2
100
AcDbLine
 10
1413.560658331482
 20
-356.326641456012
 30
0.0
 11
1347.799727681133
 21
-422.087572106361
 31
0.0
  0
CIRCLE
  5
BA7
330
18
100
AcDbEntity
  8
0
  6
DASHED2
370
    -2
100
AcDbCircle
 10
1381.387299787494
 20
-388.5
 30
0.0
 40
28.5
  0
CIRCLE
  5
BA8
330
18
100
AcDbEntity
  8
0
  6
AM_ISO08W050
370
    -2
100
AcDbCircle
 10
1381.387299787494
 20
-388.5
 30
0.0
 40
35.0
  0
LINE
  5
BA9
330
18
100
AcDbEntity
  8
0
  6
AM_ISO08W050
370
    -2
100
AcDbLine
 10
1381.387299787494
 20
-343.0
 30
0.0
 11
1381.387299787494
 21
-434.0
 31
0.0
  0
CIRCLE
  5
BAA
330
18
100
AcDbEntity
  8
0
370
    -2
100
AcDbCircle
 10
1406.136037129023
 20
-413.2487373415292
 30
0.0
 40
3.299999999999999
  0
CIRCLE
  5
BAB
330
18
100
AcDbEntity
  8
0
370
    -2
100
AcDbCircle
 10
1406.136037129023
 20
-413.2487373415292
 30
0.0
 40
5.5
  0
CIRCLE
  5
BAC
330
18
100
AcDbEntity
  8
0
370
    -2
100
AcDbCircle
 10
1356.58394653214
 20
-413.1940006335569
 30
0.0
 40
5.5
  0
CIRCLE
  5
BAD
330
18
100
AcDbEntity
  8
0
370
    -2
100
AcDbCircle
 10
1356.58394653214
 20
-413.1940006335569
 30
0.0
 40
3.299999999999999
  0
CIRCLE
  5
C0D
330
18
100
AcDbEntity
  8
0
370
    -2
100
AcDbCircle
 10
1356.58394653214
 20
-988.6940006335569
 30
0.0
 40
3.299999999999999
  0
CIRCLE
  5
C0E
330
18
100
AcDbEntity
  8
0
370
    -2
100
AcDbCircle
 10
1356.58394653214
 20
-988.6940006335569
 30
0.0
 40
5.5
  0
CIRCLE
  5
C0F
330
18
100
AcDbEntity
  8
0
370
    -2
100
AcDbCircle
 10
1406.136037129023
 20
-988.7487373415293
 30
0.0
 40
5.5
  0
CIRCLE
  5
C10
330
18
100
AcDbEntity
  8
0
370
    -2
100
AcDbCircle
 10
1406.136037129023
 20
-988.7487373415293
 30
0.0
 40
3.299999999999999
  0
LINE
  5
C11
330
18
100
AcDbEntity
  8
0
  6
AM_ISO08W050
370
    -2
100
AcDbLine
 10
1381.387299787494
 20
-918.5
 30
0.0
 11
1381.387299787494
 21
-1009.5
 31
0.0
  0
CIRCLE
  5
C12
330
18
100
AcDbEntity
  8
0
  6
AM_ISO08W050
370
    -2
100
AcDbCircle
 10
1381.387299787494
 20
-964.0
 30
0.0
 40
35.0
  0
CIRCLE
  5
C13
330
18
100
AcDbEntity
  8
0
  6
DASHED2
370
    -2
100
AcDbCircle
 10
1381.387299787494
 20
-964.0
 30
0.0
 40
28.5
  0
LINE
  5
C14
330
18
100
AcDbEntity
  8
0
  6
AM_ISO08W050
370
    -2
100
AcDbLine
 10
1413.560658331482
 20
-931.826641456012
 30
0.0
 11
1347.799727681133
 21
-997.587572106361
 31
0.0
  0
LINE
  5
C15
330
18
100
AcDbEntity
  8
0
  6
AM_ISO08W050
370
    -2
100
AcDbLine
 10
1413.560658331482
 20
-996.1733585439878
 30
0.0
 11
1349.213941243506
 21
-931.8266414560119
 31
0.0
  0
LINE
  5
C16
330
18
100
AcDbEntity
  8
0
370
    -2
100
AcDbLine
 10
1415.387299787494
 20
-989.5000000000003
 30
0.0
 11
1415.387299787494
 21
-938.4999999999998
 31
0.0
  0
LINE
  5
C17
330
18
100
AcDbEntity
  8
0
370
    -2
100
AcDbLine
 10
1347.387299787494
 20
-989.4999999999997
 30
0.0
 11
1347.387299787494
 21
-938.5000000000003
 31
0.0
  0
LINE
  5
C18
330
18
100
AcDbEntity
  8
0
370
    -2
100
AcDbLine
 10
1251.0
 20
-1006.499999999999
 30
0.0
 11
1251.0
 21
-929.9999999999997
 31
0.0
  0
LINE
  5
C19
330
18
100
AcDbEntity
  8
0
370
    -2
100
AcDbLine
 10
1406.887299787494
 20
-929.9999999999997
 30
0.0
 11
1355.887299787494
 21
-929.9999999999997
 31
0.0
  0
CIRCLE
  5
C1A
330
18
100
AcDbEntity
  8
0
370
    -2
100
AcDbCircle
 10
1381.387299787494
 20
-964.0
 30
0.0
 40
23.5
  0
LINE
  5
C1B
330
18
100
AcDbEntity
  8
0
  6
AM_ISO08W050
370
    -2
100
AcDbLine
 10
1426.887299787494
 20
-964.0
 30
0.0
 11
1335.887299787494
 21
-964.0
 31
0.0
  0
ARC
  5
C1C
330
18
100
AcDbEntity
  8
0
370
    -2
100
AcDbCircle
 10
1381.387299787494
 20
-964.0
 30
0.0
 40
42.5
100
AcDbArc
 50
36.86989764585184
 51
53.13010235416641
  0
CIRCLE
  5
C1D
330
18
100
AcDbEntity
  8
0
370
    -2
100
AcDbCircle
 10
1406.136037129023
 20
-939.2512626584707
 30
0.0
 40
3.299999999999999
  0
CIRCLE
  5
C1E
330
18
100
AcDbEntity
  8
0
370
    -2
100
AcDbCircle
 10
1406.136037129023
 20
-939.2512626584707
 30
0.0
 40
5.5
  0
CIRCLE
  5
C1F
330
18
100
AcDbEntity
  8
0
370
    -2
100
AcDbCircle
 10
1356.638562445965
 20
-939.2512626584709
 30
0.0
 40
3.299999999999999
  0
CIRCLE
  5
C20
330
18
100
AcDbEntity
  8
0
370
    -2
100
AcDbCircle
 10
1356.638562445965
 20
-939.2512626584709
 30
0.0
 40
5.5
  0
ARC
  5
C21
330
18
100
AcDbEntity
  8
0
370
    -2
100
AcDbCircle
 10
1381.387299787494
 20
-964.0
 30
0.0
 40
42.5
100
AcDbArc
 50
126.8698976458336
 51
143.1301023541481
  0
LINE
  5
C22
330
18
100
AcDbEntity
  8
0
370
    -2
100
AcDbLine
 10
1251.0
 20
-929.9999999999997
 30
0.0
 11
1240.0
 21
-929.9999999999997
 31
0.0
  0
LINE
  5
C23
330
18
100
AcDbEntity
  8
0
370
    -2
100
AcDbLine
 10
1240.0
 20
-935.5
 30
0.0
 11
1240.0
 21
-929.9999999999997
 31
0.0
  0
LINE
  5
C24
330
18
100
AcDbEntity
  8
0
370
    -2
100
AcDbLine
 10
1355.887299787494
 20
-997.9999999999998
 30
0.0
 11
1406.887299787494
 21
-997.9999999999998
 31
0.0
  0
ARC
  5
C25
330
18
100
AcDbEntity
  8
0
370
    -2
100
AcDbCircle
 10
1381.387299787494
 20
-964.0
 30
0.0
 40
42.5
100
AcDbArc
 50
306.8698976458336
 51
323.1301023541482
  0
ARC
  5
C26
330
18
100
AcDbEntity
  8
0
370
    -2
100
AcDbCircle
 10
1381.387299787494
 20
-964.0
 30
0.0
 40
42.5
100
AcDbArc
 50
216.8698976458518
 51
233.1301023541664
  0
LINE
  5
C27
330
18
100
AcDbEntity
  8
0
370
    -2
100
AcDbLine
 10
1240.0
 20
-1006.499999999999
 30
0.0
 11
1240.0
 21
-992.5
 31
0.0
  0
LINE
  5
C28
330
18
100
AcDbEntity
  8
0
370
    -2
100
AcDbLine
 10
1240.0
 20
-1006.499999999999
 30
0.0
 11
1251.0
 21
-1006.499999999999
 31
0.0
  0
LINE
  5
C29
330
18
100
AcDbEntity
  8
0
100
AcDbLine
 10
1251.0
 20
-940.0
 30
0.0
 11
1250.5
 21
-940.4999999999999
 31
0.0
  0
LINE
  5
C2A
330
18
100
AcDbEntity
  8
0
100
AcDbLine
 10
1250.5
 20
-987.5
 30
0.0
 11
1250.5
 21
-940.4999999999999
 31
0.0
  0
CIRCLE
  5
C2B
330
18
100
AcDbEntity
  8
0
370
    -2
100
AcDbCircle
 10
1381.387299787494
 20
-964.0
 30
0.0
 40
24.0
  0
LINE
  5
C2C
330
18
100
AcDbEntity
  8
0
100
AcDbLine
 10
1250.5
 20
-987.5
 30
0.0
 11
1251.0
 21
-988.0
 31
0.0
  0
LINE
  5
C2D
330
18
100
AcDbEntity
  8
0
370
    -2
100
AcDbLine
 10
1231.0
 20
-935.5
 30
0.0
 11
1231.0
 21
-992.5
 31
0.0
  0
LINE
  5
C2F
330
18
100
AcDbEntity
  8
0
370
    -2
100
AcDbLine
 10
1240.0
 20
-935.5
 30
0.0
 11
1231.0
 21
-935.5
 31
0.0
  0
LINE
  5
C30
330
18
100
AcDbEntity
  8
0
370
    -2
100
AcDbLine
 10
1250.5
 20
-987.5
 30
0.0
 11
1231.5
 21
-987.5
 31
0.0
  0
LINE
  5
C31
330
18
100
AcDbEntity
  8
0
370
    -2
100
AcDbLine
 10
1240.0
 20
-992.5
 30
0.0
 11
1231.0
 21
-992.5
 31
0.0
  0
LINE
  5
C32
330
18
100
AcDbEntity
  8
0
100
AcDbLine
 10
1231.5
 20
-987.5
 30
0.0
 11
1231.0
 21
-988.0
 31
0.0
  0
LINE
  5
C33
330
18
100
AcDbEntity
  8
0
100
AcDbLine
 10
1231.5
 20
-940.4999999999999
 30
0.0
 11
1231.0
 21
-940.0
 31
0.0
  0
LINE
  5
C34
330
18
100
AcDbEntity
  8
0
100
AcDbLine
 10
1231.5
 20
-987.5
 30
0.0
 11
1231.5
 21
-940.4999999999999
 31
0.0
  0
LINE
  5
C35
330
18
100
AcDbEntity
  8
0
370
    -2
100
AcDbLine
 10
1250.5
 20
-940.4999999999999
 30
0.0
 11
1231.5
 21
-940.4999999999999
 31
0.0
  0
MTEXT
  5
C36
330
18
100
AcDbEntity
  8
PV0001_1
 62
     7
370
    25
100
AcDbMText
 10
1233.675440715462
 20
-1014.281875139541
 30
0.0
 40
3.2
 41
0.0
 71
     4
 72
     5
  1
\T1.4;\W0.61;BUM-20S
 73
     1
 44
1.0
1001
ACAD
1000
MTEXTBEGIN
1070
    73
1070
     1
1070
    44
1040
1.0
1070
    74
1070
     0
1000
MTEXTEND
  0
LINE
  5
C37
330
18
100
AcDbEntity
  8
PV0001_1
  6
CENTER2
370
    25
100
AcDbLine
 10
1072.8243408203
 20
-964.0
 30
0.0
 11
1277.7836914062
 21
-964.0
 31
0.0
  0
MTEXT
  5
C48
330
18
100
AcDbEntity
  8
PV0001_1
 62
     7
370
    25
100
AcDbMText
 10
1230.816805660662
 20
-1093.3924255371
 30
0.0
 40
3.2
 41
0.0
 71
     4
 72
     5
  1
\T1.40;\W0.61;6204ZZ
 73
     1
 44
1.0
1001
ACAD
1000
MTEXTBEGIN
1070
    73
1070
     1
1070
    44
1040
1.0
1070
    74
1070
     0
1000
MTEXTEND
  0
ARC
  5
C49
330
18
100
AcDbEntity
  8
PV0001_1
  6
PHANTOM2
 48
0.5
370
    25
100
AcDbCircle
 10
1231.2999267578
 20
-1074.29998779296
 30
0.0
 40
0.3000000119209
100
AcDbArc
 50
90.00000250447845
 51
180.0000050089504
  0
ARC
  5
C4A
330
18
100
AcDbEntity
  8
PV0001_1
  6
PHANTOM2
 48
0.5
370
    25
100
AcDbCircle
 10
1231.2999267578
 20
-1053.70001220703
 30
0.0
 40
0.3000000119209
100
AcDbArc
 50
179.999991348572
 51
270.0000006832462
  0
LINE
  5
C4B
330
18
100
AcDbEntity
  8
PV0001_1
  6
PHANTOM2
 48
0.5
370
    25
100
AcDbLine
 10
1249.0
 20
-1054.0
 30
0.0
 11
1249.0
 21
-1074.0
 31
0.0
  0
LINE
  5
C4C
330
18
100
AcDbEntity
  8
PV0001_1
  6
PHANTOM2
370
    25
100
AcDbLine
 10
1099.0
 20
-1051.5
 30
0.0
 11
1231.0
 21
-1051.5
 31
0.0
  0
LINE
  5
C4D
330
18
100
AcDbEntity
  8
PV0001_1
  6
PHANTOM2
370
    25
100
AcDbLine
 10
1099.0
 20
-1053.25
 30
0.0
 11
1231.0
 21
-1053.25
 31
0.0
  0
LINE
  5
C4E
330
18
100
AcDbEntity
  8
PV0001_1
  6
PHANTOM2
370
    25
100
AcDbLine
 10
1099.0
 20
-1074.75
 30
0.0
 11
1231.0
 21
-1074.75
 31
0.0
  0
LINE
  5
C4F
330
18
100
AcDbEntity
  8
PV0001_1
  6
PHANTOM2
370
    25
100
AcDbLine
 10
1099.0
 20
-1076.5
 30
0.0
 11
1231.0
 21
-1076.5
 31
0.0
  0
LINE
  5
C50
330
18
100
AcDbEntity
  8
PV0001_1
  6
PHANTOM2
 48
0.5
370
    25
100
AcDbLine
 10
1231.0
 20
-1051.5
 30
0.0
 11
1231.0
 21
-1076.5
 31
0.0
  0
LINE
  5
C51
330
18
100
AcDbEntity
  8
PV0001_1
  6
PHANTOM2
 48
0.5
370
    25
100
AcDbLine
 10
1246.3499755859
 20
-1054.0
 30
0.0
 11
1246.3499755859
 21
-1074.0
 31
0.0
  0
LINE
  5
C52
330
18
100
AcDbEntity
  8
PV0001_1
  6
PHANTOM2
 48
0.5
370
    25
100
AcDbLine
 10
1245.0
 20
-1054.0
 30
0.0
 11
1245.0
 21
-1074.0
 31
0.0
  0
LINE
  5
C53
330
18
100
AcDbEntity
  8
PV0001_1
  6
PHANTOM2
 48
0.5
370
    25
100
AcDbLine
 10
1246.3499755859
 20
-1054.0
 30
0.0
 11
1249.0
 21
-1054.0
 31
0.0
  0
LINE
  5
C54
330
18
100
AcDbEntity
  8
PV0001_1
  6
PHANTOM2
 48
0.5
370
    25
100
AcDbLine
 10
1246.3499755859
 20
-1074.0
 30
0.0
 11
1249.0
 21
-1074.0
 31
0.0
  0
LINE
  5
C55
330
18
100
AcDbEntity
  8
PV0001_1
  6
PHANTOM2
 48
0.5
370
    25
100
AcDbLine
 10
1245.0
 20
-1073.5
 30
0.0
 11
1246.3499755859
 21
-1073.5
 31
0.0
  0
LINE
  5
C56
330
18
100
AcDbEntity
  8
PV0001_1
  6
PHANTOM2
 48
0.5
370
    25
100
AcDbLine
 10
1231.2999267578
 20
-1074.0
 30
0.0
 11
1245.0
 21
-1074.0
 31
0.0
  0
LINE
  5
C57
330
18
100
AcDbEntity
  8
PV0001_1
  6
PHANTOM2
 48
0.5
370
    25
100
AcDbLine
 10
1231.2999267578
 20
-1054.0
 30
0.0
 11
1245.0
 21
-1054.0
 31
0.0
  0
LINE
  5
C58
330
18
100
AcDbEntity
  8
PV0001_1
  6
PHANTOM2
 48
0.5
370
    25
100
AcDbLine
 10
1245.0
 20
-1054.5
 30
0.0
 11
1246.3499755859
 21
-1054.5
 31
0.0
  0
LINE
  5
C59
330
18
100
AcDbEntity
  8
PV0001_1
  6
CENTER2
370
    25
100
AcDbLine
 10
1072.8243408203
 20
-1064.0
 30
0.0
 11
1277.7836914062
 21
-1064.0
 31
0.0
  0
LINE
  5
C5A
330
18
100
AcDbEntity
  8
PV0001_1
  6
Continuous
 48
0.5
370
    50
100
AcDbLine
 10
1246.1999511718
 20
-1073.5
 30
0.0
 11
1245.0
 21
-1073.5
 31
0.0
  0
LINE
  5
C5B
330
18
100
AcDbEntity
  8
PV0001_1
  6
Continuous
 48
0.5
370
    50
100
AcDbLine
 10
1246.1999511718
 20
-1054.5
 30
0.0
 11
1245.0
 21
-1054.5
 31
0.0
  0
LINE
  5
C5C
330
18
100
AcDbEntity
  8
PV0001_1
  6
Continuous
 48
0.5
370
    50
100
AcDbLine
 10
1246.1999511718
 20
-1078.0
 30
0.0
 11
1245.0
 21
-1078.0
 31
0.0
  0
LINE
  5
C5D
330
18
100
AcDbEntity
  8
PV0001_1
  6
Continuous
 48
0.5
370
    50
100
AcDbLine
 10
1246.1999511718
 20
-1050.0
 30
0.0
 11
1245.0
 21
-1050.0
 31
0.0
  0
LINE
  5
C5E
330
18
100
AcDbEntity
  8
PV0001_1
  6
Continuous
 48
0.5
370
    50
100
AcDbLine
 10
1246.1999511718
 20
-1050.0
 30
0.0
 11
1246.1999511718
 21
-1078.0
 31
0.0
  0
LINE
  5
C5F
330
18
100
AcDbEntity
  8
PV0001_1
  6
Continuous
 48
0.5
370
    50
100
AcDbLine
 10
1245.0
 20
-1087.5
 30
0.0
 11
1231.0
 21
-1087.5
 31
0.0
  0
LINE
  5
C60
330
18
100
AcDbEntity
  8
PV0001_1
  6
Continuous
 48
0.5
370
    50
100
AcDbLine
 10
1245.0
 20
-1040.5
 30
0.0
 11
1231.0
 21
-1040.5
 31
0.0
  0
LINE
  5
C61
330
18
100
AcDbEntity
  8
PV0001_1
  6
Continuous
370
    50
100
AcDbLine
 10
1245.0
 20
-1040.5
 30
0.0
 11
1245.0
 21
-1087.5
 31
0.0
  0
LINE
  5
C62
330
18
100
AcDbEntity
  8
PV0001_1
  6
Continuous
370
    50
100
AcDbLine
 10
1231.0
 20
-1040.5
 30
0.0
 11
1231.0
 21
-1087.5
 31
0.0
  0
LINE
  5
C63
330
18
100
AcDbEntity
  8
PV0001_1
  6
DASHED2
 48
0.5
370
    50
100
AcDbLine
 10
1245.0
 20
-1074.0
 30
0.0
 11
1231.0
 21
-1074.0
 31
0.0
  0
LINE
  5
C64
330
18
100
AcDbEntity
  8
PV0001_1
  6
DASHED2
 48
0.5
370
    50
100
AcDbLine
 10
1245.0
 20
-1054.0
 30
0.0
 11
1231.0
 21
-1054.0
 31
0.0
  0
ARC
  5
CBA
330
18
100
AcDbEntity
  8
PV0001_1
  6
PHANTOM2
 48
0.5
370
    25
100
AcDbCircle
 10
1231.2999267578
 20
-378.20001220703
 30
0.0
 40
0.3000000119209
100
AcDbArc
 50
179.9999913485786
 51
270.000000683243
  0
ARC
  5
CBB
330
18
100
AcDbEntity
  8
PV0001_1
  6
PHANTOM2
 48
0.5
370
    25
100
AcDbCircle
 10
1231.2999267578
 20
-398.79998779296
 30
0.0
 40
0.3000000119209
100
AcDbArc
 50
90.00000250448172
 51
180.0000050089569
  0
LINE
  5
CBC
330
18
100
AcDbEntity
  8
PV0001_1
  6
PHANTOM2
 48
0.5
370
    25
100
AcDbLine
 10
1245.0
 20
-379.0
 30
0.0
 11
1246.3499755859
 21
-379.0
 31
0.0
  0
LINE
  5
CBD
330
18
100
AcDbEntity
  8
PV0001_1
  6
PHANTOM2
 48
0.5
370
    25
100
AcDbLine
 10
1231.2999267578
 20
-378.5
 30
0.0
 11
1245.0
 21
-378.5
 31
0.0
  0
LINE
  5
CBE
330
18
100
AcDbEntity
  8
PV0001_1
  6
PHANTOM2
 48
0.5
370
    25
100
AcDbLine
 10
1231.2999267578
 20
-398.5
 30
0.0
 11
1245.0
 21
-398.5
 31
0.0
  0
LINE
  5
CBF
330
18
100
AcDbEntity
  8
PV0001_1
  6
PHANTOM2
 48
0.5
370
    25
100
AcDbLine
 10
1245.0
 20
-398.0
 30
0.0
 11
1246.3499755859
 21
-398.0
 31
0.0
  0
LINE
  5
CC0
330
18
100
AcDbEntity
  8
PV0001_1
  6
PHANTOM2
 48
0.5
370
    25
100
AcDbLine
 10
1246.3499755859
 20
-398.5
 30
0.0
 11
1249.0
 21
-398.5
 31
0.0
  0
LINE
  5
CC1
330
18
100
AcDbEntity
  8
PV0001_1
  6
PHANTOM2
 48
0.5
370
    25
100
AcDbLine
 10
1246.3499755859
 20
-378.5
 30
0.0
 11
1249.0
 21
-378.5
 31
0.0
  0
LINE
  5
CC2
330
18
100
AcDbEntity
  8
PV0001_1
  6
PHANTOM2
 48
0.5
370
    25
100
AcDbLine
 10
1245.0
 20
-378.5
 30
0.0
 11
1245.0
 21
-398.5
 31
0.0
  0
LINE
  5
CC3
330
18
100
AcDbEntity
  8
PV0001_1
  6
PHANTOM2
 48
0.5
370
    25
100
AcDbLine
 10
1246.3499755859
 20
-378.5
 30
0.0
 11
1246.3499755859
 21
-398.5
 31
0.0
  0
LINE
  5
CC4
330
18
100
AcDbEntity
  8
PV0001_1
  6
PHANTOM2
 48
0.5
370
    25
100
AcDbLine
 10
1231.0
 20
-375.99998474121
 30
0.0
 11
1231.0
 21
-401.0
 31
0.0
  0
LINE
  5
CC5
330
18
100
AcDbEntity
  8
PV0001_1
  6
PHANTOM2
370
    25
100
AcDbLine
 10
1099.0
 20
-401.0
 30
0.0
 11
1231.0
 21
-401.0
 31
0.0
  0
LINE
  5
CC6
330
18
100
AcDbEntity
  8
PV0001_1
  6
PHANTOM2
370
    25
100
AcDbLine
 10
1099.0
 20
-399.25
 30
0.0
 11
1231.0
 21
-399.25
 31
0.0
  0
LINE
  5
CC7
330
18
100
AcDbEntity
  8
PV0001_1
  6
PHANTOM2
370
    25
100
AcDbLine
 10
1099.0
 20
-377.75
 30
0.0
 11
1231.0
 21
-377.75
 31
0.0
  0
LINE
  5
CC8
330
18
100
AcDbEntity
  8
PV0001_1
  6
PHANTOM2
370
    25
100
AcDbLine
 10
1099.0
 20
-375.99998474121
 30
0.0
 11
1231.0
 21
-375.99998474121
 31
0.0
  0
LINE
  5
CC9
330
18
100
AcDbEntity
  8
PV0001_1
  6
PHANTOM2
 48
0.5
370
    25
100
AcDbLine
 10
1249.0
 20
-378.5
 30
0.0
 11
1249.0
 21
-398.5
 31
0.0
  0
LINE
  5
CCA
330
18
100
AcDbEntity
  8
PV0001_1
  6
DASHED2
 48
0.5
370
    50
100
AcDbLine
 10
1245.0
 20
-398.5
 30
0.0
 11
1231.0
 21
-398.5
 31
0.0
  0
LINE
  5
CCB
330
18
100
AcDbEntity
  8
PV0001_1
  6
DASHED2
 48
0.5
370
    50
100
AcDbLine
 10
1245.0
 20
-364.99998474121
 30
0.0
 11
1231.0
 21
-364.99998474121
 31
0.0
  0
LINE
  5
CCC
330
18
100
AcDbEntity
  8
PV0001_1
  6
DASHED2
 48
0.5
370
    50
100
AcDbLine
 10
1245.0
 20
-378.5
 30
0.0
 11
1231.0
 21
-378.5
 31
0.0
  0
LINE
  5
CCD
330
18
100
AcDbEntity
  8
PV0001_1
  6
DASHED2
 48
0.5
370
    50
100
AcDbLine
 10
1246.1999511718
 20
-402.49996948242
 30
0.0
 11
1245.0
 21
-402.49996948242
 31
0.0
  0
LINE
  5
CCE
330
18
100
AcDbEntity
  8
PV0001_1
  6
DASHED2
 48
0.5
370
    50
100
AcDbLine
 10
1246.1999511718
 20
-374.50001525878
 30
0.0
 11
1245.0
 21
-374.50001525878
 31
0.0
  0
LINE
  5
CCF
330
18
100
AcDbEntity
  8
PV0001_1
  6
DASHED2
 48
0.5
370
    50
100
AcDbLine
 10
1246.1999511718
 20
-398.0
 30
0.0
 11
1245.0
 21
-398.0
 31
0.0
  0
LINE
  5
CD0
330
18
100
AcDbEntity
  8
PV0001_1
  6
DASHED2
 48
0.5
370
    50
100
AcDbLine
 10
1246.1999511718
 20
-379.0
 30
0.0
 11
1245.0
 21
-379.0
 31
0.0
  0
LINE
  5
CD1
330
18
100
AcDbEntity
  8
PV0001_1
  6
DASHED2
 48
0.5
370
    50
100
AcDbLine
 10
1246.1999511718
 20
-402.49996948242
 30
0.0
 11
1246.1999511718
 21
-374.5
 31
0.0
  0
LINE
  5
CD2
330
18
100
AcDbEntity
  8
PV0001_1
  6
DASHED2
 48
0.5
370
    50
100
AcDbLine
 10
1245.0
 20
-412.0
 30
0.0
 11
1231.0
 21
-412.0
 31
0.0
  0
LINE
  5
CD3
330
18
100
AcDbEntity
  8
PV0001_1
  6
DASHED2
370
    50
100
AcDbLine
 10
1245.0
 20
-364.99998474121
 30
0.0
 11
1245.0
 21
-412.0
 31
0.0
  0
LINE
  5
CD4
330
18
100
AcDbEntity
  8
PV0001_1
  6
DASHED2
370
    50
100
AcDbLine
 10
1231.0
 20
-364.99998474121
 30
0.0
 11
1231.0
 21
-412.0
 31
0.0
  0
ARC
  5
CF6
330
18
100
AcDbEntity
  8
PV0001_1
  6
PHANTOM2
 48
0.5
370
    25
100
AcDbCircle
 10
1231.2999267578
 20
-953.7000122070299
 30
0.0
 40
0.3000000119209
100
AcDbArc
 50
179.9999913485786
 51
270.000000683243
  0
ARC
  5
CF7
330
18
100
AcDbEntity
  8
PV0001_1
  6
PHANTOM2
 48
0.5
370
    25
100
AcDbCircle
 10
1231.2999267578
 20
-974.29998779296
 30
0.0
 40
0.3000000119209
100
AcDbArc
 50
90.00000250448172
 51
180.0000050089569
  0
LINE
  5
CF8
330
18
100
AcDbEntity
  8
PV0001_1
  6
PHANTOM2
 48
0.5
370
    25
100
AcDbLine
 10
1245.0
 20
-954.4999999999999
 30
0.0
 11
1246.3499755859
 21
-954.4999999999999
 31
0.0
  0
LINE
  5
CF9
330
18
100
AcDbEntity
  8
PV0001_1
  6
PHANTOM2
 48
0.5
370
    25
100
AcDbLine
 10
1231.2999267578
 20
-954.0
 30
0.0
 11
1245.0
 21
-954.0
 31
0.0
  0
LINE
  5
CFA
330
18
100
AcDbEntity
  8
PV0001_1
  6
PHANTOM2
 48
0.5
370
    25
100
AcDbLine
 10
1231.2999267578
 20
-974.0
 30
0.0
 11
1245.0
 21
-974.0
 31
0.0
  0
LINE
  5
CFB
330
18
100
AcDbEntity
  8
PV0001_1
  6
PHANTOM2
 48
0.5
370
    25
100
AcDbLine
 10
1245.0
 20
-973.4999999999999
 30
0.0
 11
1246.3499755859
 21
-973.4999999999999
 31
0.0
  0
LINE
  5
CFC
330
18
100
AcDbEntity
  8
PV0001_1
  6
PHANTOM2
 48
0.5
370
    25
100
AcDbLine
 10
1246.3499755859
 20
-974.0
 30
0.0
 11
1249.0
 21
-974.0
 31
0.0
  0
LINE
  5
CFD
330
18
100
AcDbEntity
  8
PV0001_1
  6
PHANTOM2
 48
0.5
370
    25
100
AcDbLine
 10
1246.3499755859
 20
-954.0
 30
0.0
 11
1249.0
 21
-954.0
 31
0.0
  0
LINE
  5
CFE
330
18
100
AcDbEntity
  8
PV0001_1
  6
PHANTOM2
 48
0.5
370
    25
100
AcDbLine
 10
1245.0
 20
-954.0
 30
0.0
 11
1245.0
 21
-974.0
 31
0.0
  0
LINE
  5
CFF
330
18
100
AcDbEntity
  8
PV0001_1
  6
PHANTOM2
 48
0.5
370
    25
100
AcDbLine
 10
1246.3499755859
 20
-954.0
 30
0.0
 11
1246.3499755859
 21
-974.0
 31
0.0
  0
LINE
  5
D00
330
18
100
AcDbEntity
  8
PV0001_1
  6
PHANTOM2
 48
0.5
370
    25
100
AcDbLine
 10
1231.0
 20
-951.49998474121
 30
0.0
 11
1231.0
 21
-976.5
 31
0.0
  0
LINE
  5
D01
330
18
100
AcDbEntity
  8
PV0001_1
  6
PHANTOM2
370
    25
100
AcDbLine
 10
1099.0
 20
-976.5
 30
0.0
 11
1231.0
 21
-976.5
 31
0.0
  0
LINE
  5
D02
330
18
100
AcDbEntity
  8
PV0001_1
  6
PHANTOM2
370
    25
100
AcDbLine
 10
1099.0
 20
-974.75
 30
0.0
 11
1231.0
 21
-974.75
 31
0.0
  0
LINE
  5
D03
330
18
100
AcDbEntity
  8
PV0001_1
  6
PHANTOM2
370
    25
100
AcDbLine
 10
1099.0
 20
-953.25
 30
0.0
 11
1231.0
 21
-953.25
 31
0.0
  0
LINE
  5
D04
330
18
100
AcDbEntity
  8
PV0001_1
  6
PHANTOM2
370
    25
100
AcDbLine
 10
1099.0
 20
-951.49998474121
 30
0.0
 11
1231.0
 21
-951.49998474121
 31
0.0
  0
LINE
  5
D05
330
18
100
AcDbEntity
  8
PV0001_1
  6
PHANTOM2
 48
0.5
370
    25
100
AcDbLine
 10
1249.0
 20
-954.0
 30
0.0
 11
1249.0
 21
-974.0
 31
0.0
  0
LINE
  5
D06
330
18
100
AcDbEntity
  8
PV0001_1
  6
DASHED2
 48
0.5
370
    50
100
AcDbLine
 10
1245.0
 20
-974.0
 30
0.0
 11
1231.0
 21
-974.0
 31
0.0
  0
LINE
  5
D07
330
18
100
AcDbEntity
  8
PV0001_1
  6
DASHED2
 48
0.5
370
    50
100
AcDbLine
 10
1245.0
 20
-940.4999847412099
 30
0.0
 11
1231.0
 21
-940.4999847412099
 31
0.0
  0
LINE
  5
D08
330
18
100
AcDbEntity
  8
PV0001_1
  6
DASHED2
 48
0.5
370
    50
100
AcDbLine
 10
1245.0
 20
-954.0
 30
0.0
 11
1231.0
 21
-954.0
 31
0.0
  0
LINE
  5
D09
330
18
100
AcDbEntity
  8
PV0001_1
  6
DASHED2
 48
0.5
370
    50
100
AcDbLine
 10
1246.1999511718
 20
-977.99996948242
 30
0.0
 11
1245.0
 21
-977.99996948242
 31
0.0
  0
LINE
  5
D0A
330
18
100
AcDbEntity
  8
PV0001_1
  6
DASHED2
 48
0.5
370
    50
100
AcDbLine
 10
1246.1999511718
 20
-950.00001525878
 30
0.0
 11
1245.0
 21
-950.00001525878
 31
0.0
  0
LINE
  5
D0B
330
18
100
AcDbEntity
  8
PV0001_1
  6
DASHED2
 48
0.5
370
    50
100
AcDbLine
 10
1246.1999511718
 20
-973.4999999999999
 30
0.0
 11
1245.0
 21
-973.4999999999999
 31
0.0
  0
LINE
  5
D0C
330
18
100
AcDbEntity
  8
PV0001_1
  6
DASHED2
 48
0.5
370
    50
100
AcDbLine
 10
1246.1999511718
 20
-954.4999999999999
 30
0.0
 11
1245.0
 21
-954.4999999999999
 31
0.0
  0
LINE
  5
D0D
330
18
100
AcDbEntity
  8
PV0001_1
  6
DASHED2
 48
0.5
370
    50
100
AcDbLine
 10
1246.1999511718
 20
-977.99996948242
 30
0.0
 11
1246.1999511718
 21
-950.0
 31
0.0
  0
LINE
  5
D0E
330
18
100
AcDbEntity
  8
PV0001_1
  6
DASHED2
 48
0.5
370
    50
100
AcDbLine
 10
1245.0
 20
-987.5
 30
0.0
 11
1231.0
 21
-987.5
 31
0.0
  0
LINE
  5
D0F
330
18
100
AcDbEntity
  8
PV0001_1
  6
DASHED2
370
    50
100
AcDbLine
 10
1245.0
 20
-940.4999847412099
 30
0.0
 11
1245.0
 21
-987.5
 31
0.0
  0
LINE
  5
D10
330
18
100
AcDbEntity
  8
PV0001_1
  6
DASHED2
370
    50
100
AcDbLine
 10
1231.0
 20
-940.4999847412099
 30
0.0
 11
1231.0
 21
-987.5
 31
0.0
  0
ENDSEC
  0
SECTION
  2
OBJECTS
  0
DICTIONARY
  5
C
330
0
100
AcDbDictionary
281
     1
  3
ACAD_COLOR
350
35F
  3
ACAD_GROUP
350
D
  3
ACAD_LAYOUT
350
5E
  3
ACAD_MATERIAL
350
35E
  3
ACAD_MLINESTYLE
350
1B
  3
ACAD_PLOTSETTINGS
350
5F
  3
ACAD_PLOTSTYLENAME
350
5C
  3
ACAD_TABLESTYLE
350
E39
  3
ACDBHEADERROUNDTRIPXREC
350
FA1
  3
AcDbVariableDictionary
350
EB4
  3
AcmDictionary
350
3D8
  3
AMG
350
365
  3
AMGSNAPSETTINGS
350
466
  3
SAKAE_DICT
350
314
  0
DICTIONARY
  5
34E
330
18
100
AcDbDictionary
280
     1
281
     1
  3
ACAD_LAYOUTSELFREF
360
34F
  0
DICTIONARY
  5
34C
330
15
100
AcDbDictionary
280
     1
281
     1
  3
ACAD_LAYOUTSELFREF
360
34D
  0
DICTIONARY
  5
35F
102
{ACAD_REACTORS
330
C
102
}
330
C
100
AcDbDictionary
281
     1
  0
DICTIONARY
  5
D
102
{ACAD_REACTORS
330
C
102
}
330
C
100
AcDbDictionary
281
     1
  0
DICTIONARY
  5
5E
102
{ACAD_REACTORS
330
C
102
}
330
C
100
AcDbDictionary
281
     1
  3
Model
350
60
  3
ﾚｲｱｳﾄ1
350
61
  0
DICTIONARY
  5
35E
102
{ACAD_REACTORS
330
C
102
}
330
C
100
AcDbDictionary
281
     1
  0
DICTIONARY
  5
1B
102
{ACAD_REACTORS
330
C
102
}
330
C
100
AcDbDictionary
281
     1
  3
STANDARD
350
1C
  0
DICTIONARY
  5
5F
102
{ACAD_REACTORS
330
C
102
}
330
C
100
AcDbDictionary
281
     1
  0
ACDBDICTIONARYWDFLT
  5
5C
102
{ACAD_REACTORS
330
C
102
}
330
C
100
AcDbDictionary
281
     1
  3
Normal
350
5D
100
AcDbDictionaryWithDefault
340
5D
1001
ACAD
1000
TREAT_AS_HARD
1070
     0
  0
DICTIONARY
  5
E39
102
{ACAD_REACTORS
330
C
102
}
330
C
100
AcDbDictionary
281
     1
  3
Standard
350
E3A
  0
DICTIONARY
  5
FA1
102
{ACAD_REACTORS
330
C
102
}
330
C
100
AcDbDictionary
281
     1
  0
DICTIONARY
  5
EB4
102
{ACAD_REACTORS
330
C
102
}
330
C
100
AcDbDictionary
281
     1
  3
CTABLESTYLE
350
EB5
  3
DIMASSOC
350
EB6
  3
PROJECTNAME
350
EB7
  0
DICTIONARY
  5
3D8
102
{ACAD_REACTORS
330
C
102
}
330
C
100
AcDbDictionary
281
     1
  3
AcmStdDictionary
350
3E2
  3
AMDTSECTSYM_ARROWCOLOR
350
E7B
  0
DICTIONARY
  5
365
102
{ACAD_REACTORS
330
C
102
}
330
C
100
AcDbDictionary
281
     1
  0
DICTIONARY
  5
466
102
{ACAD_REACTORS
330
C
102
}
330
C
100
AcDbDictionary
281
     1
  0
DICTIONARY
  5
314
102
{ACAD_REACTORS
330
C
102
}
330
C
100
AcDbDictionary
281
     1
  3
XREC1
350
315
  0
XRECORD
  5
34F
102
{ACAD_REACTORS
330
34E
102
}
330
34E
100
AcDbXrecord
280
     1
340
18
  0
XRECORD
  5
34D
102
{ACAD_REACTORS
330
34C
102
}
330
34C
100
AcDbXrecord
280
     1
340
15
  0
LAYOUT
  5
60
102
{ACAD_XDICTIONARY
360
FA2
102
}
102
{ACAD_REACTORS
330
5E
102
}
330
5E
100
AcDbPlotSettings
  1

  2
BT8050.pc3
  4
A3_(420.00_x_297.00_MM)
  6

 40
0.7937499880790711
 41
0.7937499880790711
 42
0.79376220703125
 43
0.79376220703125
 44
420.0
 45
297.0
 46
94.41
 47
0.0
 48
0.0
 49
0.0
140
0.0
141
0.0
142
1.0
143
5.013481984135424
 70
 11956
 72
     1
 73
     1
 74
     1
  7
kuroda-monochrome.ctb
 75
     0
147
0.1994621708354358
148
0.0225824039239342
149
1131.079030619946
100
AcDbLayout
  1
Model
 70
     1
 71
     0
 10
0.0
 20
0.0
 11
12.0
 21
9.0
 12
0.0
 22
0.0
 32
0.0
 14
0.0
 24
0.0
 34
0.0
 15
0.0
 25
0.0
 35
0.0
146
0.0
 13
0.0
 23
0.0
 33
0.0
 16
1.0
 26
0.0
 36
0.0
 17
0.0
 27
1.0
 37
0.0
 76
     0
330
18
  0
LAYOUT
  5
61
102
{ACAD_XDICTIONARY
360
FA4
102
}
102
{ACAD_REACTORS
330
5E
102
}
330
5E
100
AcDbPlotSettings
  1

  2
\\BLUEWAVE2\EPSON LP-9200SX
  4

  6

 40
0.0
 41
0.0
 42
0.0
 43
0.0
 44
0.0
 45
0.0
 46
0.0
 47
0.0
 48
0.0
 49
0.0
140
0.0
141
0.0
142
1.0
143
1.0
 70
   688
 72
     0
 73
     0
 74
     5
  7
kuroda-monochrome.ctb
 75
    16
147
1.0
148
0.0
149
0.0
100
AcDbLayout
  1
ﾚｲｱｳﾄ1
 70
     1
 71
     1
 10
0.0
 20
0.0
 11
420.0
 21
297.0
 12
0.0
 22
0.0
 32
0.0
 14
1.000000000000000E+20
 24
1.000000000000000E+20
 34
1.000000000000000E+20
 15
-1.000000000000000E+20
 25
-1.000000000000000E+20
 35
-1.000000000000000E+20
146
0.0
 13
0.0
 23
0.0
 33
0.0
 16
1.0
 26
0.0
 36
0.0
 17
0.0
 27
1.0
 37
0.0
 76
     0
330
15
  0
MLINESTYLE
  5
1C
102
{ACAD_REACTORS
330
1B
102
}
330
1B
100
AcDbMlineStyle
  2
STANDARD
 70
     0
  3

 62
   256
 51
90.0
 52
90.0
 71
     2
 49
0.5
 62
   256
  6
BYLAYER
 49
-0.5
 62
   256
  6
BYLAYER
  0
ACDBPLACEHOLDER
  5
5D
102
{ACAD_REACTORS
330
5C
102
}
330
5C
  0
TABLESTYLE
  5
E3A
102
{ACAD_REACTORS
330
E39
102
}
330
E39
100
AcDbTableStyle
  3
Standard
 70
     0
 71
     0
 40
1.5
 41
1.5
280
     0
281
     0
  7
STANDARD
140
4.5
170
     2
 62
     0
 63
     7
283
     0
274
    -2
284
     1
 64
     0
275
    -2
285
     1
 65
     0
276
    -2
286
     1
 66
     0
277
    -2
287
     1
 67
     0
278
    -2
288
     1
 68
     0
279
    -2
289
     1
 69
     0
  7
STANDARD
140
6.0
170
     5
 62
     0
 63
     7
283
     0
274
    -2
284
     1
 64
     0
275
    -2
285
     1
 65
     0
276
    -2
286
     1
 66
     0
277
    -2
287
     1
 67
     0
278
    -2
288
     1
 68
     0
279
    -2
289
     1
 69
     0
  7
STANDARD
140
4.5
170
     5
 62
     0
 63
     7
283
     0
274
    -2
284
     1
 64
     0
275
    -2
285
     1
 65
     0
276
    -2
286
     1
 66
     0
277
    -2
287
     1
 67
     0
278
    -2
288
     1
 68
     0
279
    -2
289
     1
 69
     0
  0
DICTIONARYVAR
  5
EB5
102
{ACAD_REACTORS
330
EB4
102
}
330
EB4
100
DictionaryVariables
280
     0
  1
STANDARD
  0
DICTIONARYVAR
  5
EB6
102
{ACAD_REACTORS
330
EB4
102
}
330
EB4
100
DictionaryVariables
280
     0
  1
1
  0
DICTIONARYVAR
  5
EB7
102
{ACAD_REACTORS
330
EB4
102
}
330
EB4
100
DictionaryVariables
280
     0
  1

  0
DICTIONARY
  5
3E2
102
{ACAD_REACTORS
330
3D8
102
}
330
3D8
100
AcDbDictionary
281
     1
  0
XRECORD
  5
E7B
102
{ACAD_REACTORS
330
3D8
102
}
330
3D8
100
AcDbXrecord
280
     1
 90
-1023410169
  0
XRECORD
  5
315
102
{ACAD_REACTORS
330
314
102
}
330
314
100
AcDbXrecord
280
     1
  1
PV
 40
1.0
 50
0.0
 51
0.0
 52
0.0
 53
0.0
  0
DICTIONARY
  5
FA2
330
60
100
AcDbDictionary
280
     1
281
     1
  3
ACAD_XREC_ROUNDTRIP
360
FA3
  0
DICTIONARY
  5
FA4
330
61
100
AcDbDictionary
280
     1
281
     1
  3
ACAD_XREC_ROUNDTRIP
360
FA5
  0
XRECORD
  5
FA3
102
{ACAD_REACTORS
330
FA2
102
}
330
FA2
100
AcDbXrecord
280
     1
102
SHADEPLOT
 70
     0
102
SHADEPLOTRESLEVEL
 70
     2
102
SHADEPLOTCUSTOMDPI
 70
   200
  0
XRECORD
  5
FA5
102
{ACAD_REACTORS
330
FA4
102
}
330
FA4
100
AcDbXrecord
280
     1
102
SHADEPLOT
 70
     0
102
SHADEPLOTRESLEVEL
 70
     2
102
SHADEPLOTCUSTOMDPI
 70
   300
  0
ENDSEC
  0
EOF
